<?xml version="1.0" standalone="no"?>
<!DOCTYPE svg PUBLIC "-//W3C//DTD SVG 1.1//EN" "http://www.w3.org/Graphics/SVG/1.1/DTD/svg11.dtd" >
<svg>
<metadata>
Created by FontForge 20090914 at Fri Jul 10 05:34:14 2015
 By www-data
Copyright 1993 JS Technology Co.,Ltd. , 315 Co.,Ltd.. All Rights Reserved
</metadata>
<defs>
<font id="JSEkachaias" horiz-adv-x="0" >
  <font-face 
    font-family="JS Ekachaias"
    font-weight="400"
    font-stretch="normal"
    units-per-em="2048"
    panose-1="0 0 0 0 0 0 0 0 0 0"
    ascent="1638"
    descent="-410"
    bbox="-1004 -735.001 1524 1841"
    underline-thickness="35"
    underline-position="-13"
    unicode-range="U+F020-U+F2DF"
  />
<missing-glyph horiz-adv-x="1024" 
d="M128 0v1841h768v-1841h-768zM256 128h512v1585h-512v-1585z" />
    <glyph glyph-name=".notdef" horiz-adv-x="1024" 
d="M128 0v1841h768v-1841h-768zM256 128h512v1585h-512v-1585z" />
    <glyph glyph-name="space" unicode="&#xf020;" horiz-adv-x="600" 
 />
    <glyph glyph-name="pencil" unicode="&#xf021;" horiz-adv-x="524" 
d="M281 281l-25 168.001c-34 228.667 -51 389.667 -51 483c0 88.667 27.333 133 82 133c57.333 0 86 -43 86 -129c0 -6.66699 -0.666992 -16.334 -2 -29.001s-2 -22 -2 -28l-72 -598h-16zM205 68.001c0 24 8 44 24 60s36 24 60 24c23.333 0 43.5 -8.16699 60.5 -24.5
s25.5 -36.166 25.5 -59.499c0 -24.667 -8.16699 -44.834 -24.5 -60.501s-36.833 -23.5 -61.5 -23.5c-56 0 -84 28 -84 84z" />
    <glyph glyph-name="scissors" unicode="&#xf022;" horiz-adv-x="641" 
d="M436 680c-0.666992 2 -10.333 60.333 -29 175c-13.333 81.333 -20 129.333 -20 144c0 44 22.667 66 68 66c44.667 0 67 -22 67 -66c0 -20.667 -6.66699 -68.667 -20 -144l-31 -175h-35zM174.001 680c-34 167.333 -51 273.667 -51 319c0 44 21 66 63 66
c46.667 0 70 -22 70 -66c0 -22 -9.33301 -85.667 -28 -191l-23 -128h-31z" />
    <glyph glyph-name="scissorscutting" unicode="&#xf023;" horiz-adv-x="788" 
d="M741 340h-172l-47 -340h-92l49 340h-211l-53 -340h-88l51 340h-170v88h180l35 211h-172v84h185l49 319h92l-49 -319h209l49 319h88l-45 -319h151v-84h-166l-28 -211h155v-88zM315 639l-32 -211h211l30 211h-209z" />
    <glyph glyph-name="readingglasses" unicode="&#xf024;" horiz-adv-x="788" 
d="M645 788c-24.667 129.333 -101 200.334 -229 213.001v-387c84 -48 140 -81.667 168 -101c90 -62.667 135 -142.334 135 -239.001c0 -152.667 -101 -244 -303 -274v-135h-54v135c-112.667 0 -209.334 26.667 -290.001 80v205h18c40.667 -160 131.334 -240 272.001 -240
v442c-58.667 32.667 -104 60.334 -136 83.001c-97.333 69.333 -146 147 -146 233c0 76 28.667 136 86 180c52.667 40.667 118 61 196 61v101h54v-101c52.667 -4.66699 95 -11.334 127 -20.001c52 -14 93.667 -35 125 -63v-173h-23zM360 1001
c-108.667 -16 -163 -69.668 -163 -161.001c0 -39.333 15.333 -75.666 46 -108.999c21.333 -23.333 60.333 -54 117 -92v362zM416 45c118.667 17.333 177.999 81.667 177.999 193c0 50 -19 94.333 -57 133c-21.333 22 -61.666 52 -120.999 90v-416z" />
    <glyph glyph-name="bell" unicode="&#xf025;" horiz-adv-x="1309" 
d="M1214 410c0 -96 -28.333 -186.001 -85 -270.001c-63.333 -93.333 -140 -140 -230 -140c-126.667 0 -190 71.667 -190 215c0 86.667 34 169.334 102 248.001c70 82 147.667 123 233 123c113.333 0 170 -58.667 170 -176zM393 -23.001h-76.001l549 981l-4 3
c-47.333 -27.333 -102.666 -41 -165.999 -41c-40 0 -74.667 4.66699 -104 14c9.33301 -26.667 14 -50.667 14 -72c0 -92.667 -28.667 -181 -86 -265c-64.667 -94.667 -143.667 -142 -237 -142c-46 0 -86.333 15.333 -121 46c-44 38.667 -66 94.334 -66 167.001
c0 84 33 166 99 246c70.667 85.333 150.334 128 239.001 128c31.333 0 57.333 -4.33301 78 -13c14 -6 28.333 -16 43 -30c19.333 -14 34.666 -23.333 45.999 -28c24 -10 53.667 -15 89 -15c58.667 0 110 12 154 36c28 15.333 58.667 39.666 92 72.999h59zM824.999 167.999
c0 -80.667 35.001 -120.999 105.001 -120.999c63.333 0 121 42 173 126c47.333 76.667 71 152 71 226c0 35.333 -9 66 -27 92c-20.667 29.333 -48 44 -82 44c-86.667 0 -157.334 -80.667 -212.001 -242c-18.667 -54.667 -28 -96.334 -28 -125.001zM563 872
c0 16 -4.00098 40.668 -12.001 74.001c-39.333 9.33301 -68 22.666 -86 39.999c-6 6 -13.667 9 -23 9c-55.333 0 -108.333 -48.667 -159 -146c-45.333 -86 -68 -160 -68 -222c0 -79.333 32.667 -119 98 -119c72.667 0 134.334 44 185.001 132c43.333 76 65 153.333 65 232z
" />
    <glyph glyph-name="book" unicode="&#xf026;" horiz-adv-x="1225" 
d="M1118 639c-35.333 -5.33301 -61 -12.332 -77 -20.999c-23.333 -12.667 -46 -37.667 -68 -75l-41 -70c-44 -75.333 -97.333 -154.333 -160 -237c73.333 -97.333 151.333 -146 234 -146c38 0 68.667 8.33301 92 25c13.333 9.33301 32.333 29.666 57 60.999l25 -18
c0 -34 -29.333 -75.667 -88 -125c-44.667 -37.333 -94.667 -56 -150 -56c-54 0 -108.333 18.667 -163 56c-27.333 18.667 -62.333 49.334 -105 92.001c-48.667 -43.333 -91 -74.666 -127 -93.999c-66.667 -36 -140.334 -54 -221.001 -54c-64 0 -118.667 16 -164 48
c-62.667 44 -94 112 -94 204c0 72 27.667 139.667 83 203c42.667 48.667 96.667 91 162 127l60 33l-31 94c-15.333 48.667 -23 93 -23 133c0 69.333 22.833 127.666 68.5 174.999s102.834 71 171.501 71c60 0 109.667 -16 149 -48c42.667 -34.667 64 -81.334 64 -140.001
c0 -85.333 -44.667 -156.666 -134 -213.999c-25.333 -16.667 -61.333 -35.667 -108 -57c56 -116.667 125 -224.334 207 -323.001c94.667 118.667 142 212 142 280c0 50.667 -33.667 76 -101 76v31h340v-31zM506 655.001c122.667 59.333 184 134.667 184 226
c0 38 -11.667 69.667 -35 95s-54 38 -92 38c-80.667 0 -121 -45 -121 -135c0 -61.333 21.333 -136 64 -224zM416 61.002c64 0 137.669 34.333 221.002 103c-77.333 90.667 -157.333 215.667 -240 375c-52.667 -32 -92.334 -62.333 -119.001 -91
c-44.667 -48.667 -67 -103 -67 -163c0 -60.667 19 -112.667 57 -156c39.333 -45.333 88.666 -68 147.999 -68z" />
    <glyph glyph-name="candle" unicode="&#xf027;" horiz-adv-x="285" 
d="M129 680c-34 167.333 -51 273.667 -51 319c0 44 21 66 63 66c45.333 0 68 -22 68 -66c0 -22 -6 -70 -18 -144c-6 -36.667 -16.333 -95 -31 -175h-31z" />
    <glyph glyph-name="telephonesolid" unicode="&#xf028;" horiz-adv-x="524" 
d="M479 1038c-56 -44 -96.334 -80.667 -121.001 -110c-98 -114.667 -147 -282.667 -147 -504c0 -90 3 -159.333 9 -208c26.667 -218 113 -374.667 259 -470l-20 -27c-43.333 24 -88.666 59.667 -135.999 107c-42.667 42.667 -82 91 -118 145
c-44.667 66.667 -75.334 126.334 -92.001 179.001c-23.333 72.667 -35 160.667 -35 264c0 137.333 34.667 263 104 377c66.667 111.333 160.334 202.666 281.001 273.999z" />
    <glyph glyph-name="telhandsetcirc" unicode="&#xf029;" horiz-adv-x="524" 
d="M45 -254c52.667 41.333 93 78.6641 121 111.997c98 116.667 147 284.667 147 504c0 90.667 -3 160.334 -9 209.001c-26.667 218.667 -113 374.334 -259 467.001l23 27c90.667 -51.333 174.334 -133.333 251.001 -246c43.333 -63.333 74.666 -125 93.999 -185
c24 -74 36 -161 36 -261c0 -137.333 -35.333 -263.666 -106 -378.999c-68 -110 -162.667 -201.667 -284 -275z" />
    <glyph glyph-name="envelopeback" unicode="&#xf02a;" horiz-adv-x="788" 
d="M369 741l-18.999 11c-28 16 -81.667 34 -161 54c-53.333 13.333 -80 37.666 -80 72.999s17.667 53 53 53c18 0 51.667 -26 101 -78c33.333 -35.333 72.666 -64.666 117.999 -87.999v20c0 41.333 -4 76.666 -12 105.999c-18.667 68 -28.334 104.333 -29.001 109
c0 42.667 19.667 64 59 64c36 0 54 -21.333 54 -64c0 -3.33301 -10 -40 -30 -110c-10 -34.667 -15 -64 -15 -88v-39l14 6c30.667 16.667 61.334 41.667 92.001 75c54.667 59.333 90.334 89 107.001 89c39.333 0 59 -18.333 59 -55c0 -37.333 -22.333 -60.333 -67 -69
c-78.667 -16 -142.334 -39 -191.001 -69l12 -8c31.333 -20.667 88.666 -40 171.999 -58c50.667 -10.667 76 -33 76 -67c0 -38 -19.667 -57 -59 -57c-21.333 0 -59.333 31 -114 93c-30.667 34.667 -59.667 58.334 -87 71.001l-14 4v-10c0 -35.333 7.5 -79.333 22.5 -132
s22.5 -84 22.5 -94c0 -43.333 -20 -65 -60 -65c-36.667 0 -55 20.333 -55 61c0 4.66699 10 41.667 30 111c10 34.667 15 64.667 15 90v14c-1.33301 6.66699 -2 11.667 -2 15l-2 10c-34 -22 -56 -37 -66 -45c-15.333 -12 -33.666 -30.667 -54.999 -56
c-36.667 -43.333 -68.667 -65 -96 -65c-35.333 0 -53 17 -53 51c0 34.667 26.667 58 80 70c82 18.667 142 41 180 67z" />
    <glyph glyph-name="envelopefront" unicode="&#xf02b;" horiz-adv-x="819" 
d="M362 834h97v-320h317v-96h-317v-320h-97v320h-319v96h319v320z" />
    <glyph glyph-name="mailboxflagdwn" unicode="&#xf02c;" horiz-adv-x="393" 
d="M117 -190c44.667 26.667 78.668 58 102.001 94c16.667 26 25 49 25 69c0 15.333 -7 23 -21 23l-14 -2c-5.33301 -2.66699 -13 -4 -23 -4c-66.667 0 -100 27.333 -100 82c0 26 9 47.5 27 64.5s40.333 25.5 67 25.5c28 0 53.333 -9 76 -27c34 -27.333 51 -69 51 -125
c0 -50 -23 -100.667 -69 -152c-38.667 -43.333 -74.334 -70.333 -107.001 -81z" />
    <glyph glyph-name="mailboxflagup" unicode="&#xf02d;" horiz-adv-x="819" 
d="M43 418v96h733v-96h-733z" />
    <glyph glyph-name="mailbxopnflgup" unicode="&#xf02e;" horiz-adv-x="393" 
d="M111 70c0 24 8 44.667 24 62s36 26 60 26s45 -8.66699 63 -26s27 -38 27 -62c0 -24.667 -8.83301 -45.5 -26.5 -62.5s-38.834 -25.5 -63.501 -25.5c-23.333 0 -43.166 8.66699 -59.499 26s-24.5 38 -24.5 62z" />
    <glyph glyph-name="mailbxopnflgdwn" unicode="&#xf02f;" horiz-adv-x="436" 
d="M90 -25h-106l362 1090h107z" />
    <glyph glyph-name="folder" unicode="&#xf030;" horiz-adv-x="788" 
d="M750 522c0 -196 -44.668 -344.667 -134.001 -446c-59.333 -67.333 -133.666 -101 -222.999 -101c-164 0 -273.667 107 -329 321c-19.333 74.667 -29 150 -29 226c0 76.667 9.33301 151 28 223c55.333 213.333 165.333 320 330 320c165.333 0 275 -106 329 -318
c18.667 -73.333 28 -148.333 28 -225zM185.999 522c0 -76 2.66895 -138.333 8.00195 -187c23.333 -210 89.666 -315 198.999 -315c108.667 0 174.667 105.333 198 316c6 54 9 116 9 186c0 176.667 -21.333 308 -64 394c-34.667 70.667 -82.334 106 -143.001 106
c-138 0 -207 -166.667 -207 -500z" />
    <glyph glyph-name="folderopen" unicode="&#xf031;" horiz-adv-x="788" 
d="M186 27c57.333 0 94.333 5 111 15c26 15.333 39 50.333 39 105v711c0 26 -2 43.333 -6 52c-7.33301 16 -23 24 -47 24c-12 0 -47.667 -11.667 -107 -35v23l281 143l14 -4v-944c0 -42 15 -68.667 45 -80c16.667 -6.66699 50.667 -10 102 -10v-27h-432v27z" />
    <glyph glyph-name="filetalltext1" unicode="&#xf032;" horiz-adv-x="788" 
d="M662 0h-614.999v20l281 297c136 144 204 278.667 204 404c0 56.667 -14 104.667 -42 144c-39.333 55.333 -100.333 83 -183 83c-62.667 0 -113.667 -23.667 -153 -71c-21.333 -26 -46 -71.333 -74 -136l-31 9c41.333 210 152.666 315 333.999 315
c80.667 0 148 -27.333 202 -82s81 -122.334 81 -203.001c0 -92 -38.667 -188 -116 -288c-23.333 -30 -51 -61.667 -83 -95l-264 -274h377c32 0 56 4.66699 72 14c22 12.667 47 41.334 75 86.001l21 -8z" />
    <glyph glyph-name="filetalltext" unicode="&#xf033;" horiz-adv-x="788" 
d="M240 539c174.667 58 262.002 146.662 262.002 265.995c0 50 -16.333 89.833 -49 119.5s-74.334 44.5 -125.001 44.5c-61.333 0 -115 -22.333 -161 -67c-18.667 -18 -43 -51 -73 -99l-20 6c48.667 170.667 151 256 307 256c88.667 0 155 -27.667 199 -83
c31.333 -39.333 47 -82.666 47 -129.999c0 -85.333 -49.333 -158.333 -148 -219c56 -25.333 97.333 -51.666 124 -78.999c51.333 -53.333 77 -124.666 77 -213.999c0 -115.333 -45.333 -206.666 -136 -273.999c-82 -60.667 -182.667 -91 -302 -91c-36.667 0 -70 5 -100 15
c-48 16 -72 42.667 -72 80c0 36.667 19.667 55 59 55c20 0 55 -15.333 105 -46s89.333 -46 118 -46c68.667 0 122 25 160 75c34 44.667 51 102.334 51 173.001c0 32 -6.66699 64 -20 96c-20.667 49.333 -53.334 85.5 -98.001 108.5s-113 34.5 -205 34.5v19z" />
    <glyph glyph-name="filetalltext3" unicode="&#xf034;" horiz-adv-x="788" 
d="M741 264h-157v-264h-123v264h-441v101l492 700h72v-700h157v-101zM459 899h-4l-375 -534h379v534z" />
    <glyph glyph-name="filecabinet" unicode="&#xf035;" horiz-adv-x="788" 
d="M219 782c85.333 -12 150.666 -26.333 195.999 -43c71.333 -26 128.333 -65.333 171 -118c37.333 -45.333 61 -86.666 71 -123.999c8.66699 -30 13 -78.333 13 -145c0 -113.333 -42.667 -205.666 -128 -276.999c-80 -66.667 -178 -100 -294 -100
c-45.333 0 -85.666 6 -120.999 18c-50.667 17.333 -76 44.333 -76 81c0 39.333 20.667 59 62 59c32 0 63.667 -10 95 -30c70.667 -45.333 115.334 -68 134.001 -68c70 0 125 30.667 165 92c34.667 53.333 52 116.666 52 189.999c0 112 -53 198.333 -159 259
c-82.667 47.333 -178.334 71 -287.001 71c-6 0 -9.66699 2.66699 -11 8s-1.33301 9.66602 0 12.999l172 374h330c30.667 0 54 14.333 70 43l16 -14l-59 -139c-2 -8 -15 -12 -39 -12h-307z" />
    <glyph glyph-name="hourglass" unicode="&#xf036;" horiz-adv-x="788" 
d="M707 1049c-132 -19.333 -241.333 -74.667 -328 -166c-76 -80 -122.333 -173 -139 -279c48.667 28.667 83 46.667 103 54c28 10.667 63.333 16 106 16c92 0 164 -32.667 216 -98c48 -60.667 72 -138 72 -232c0 -128.667 -41.333 -228 -124 -298
c-56 -47.333 -127.333 -71 -214 -71c-118.667 0 -208.667 53.333 -270 160c-50.667 86.667 -76 194 -76 322c0 175.333 64.333 323.333 193 444c126 118.667 277.333 178 454 178zM231 550.999c-20 -18 -30 -68.001 -30 -150.001c0 -95.333 14 -175.666 42 -240.999
c38 -90 98.333 -135 181 -135c113.333 0 170 86 170 258c0 212.667 -71 319 -213 319c-62.667 0 -112.667 -17 -150 -51z" />
    <glyph glyph-name="keyboard" unicode="&#xf037;" horiz-adv-x="788" 
d="M709 1016l-335.999 -1030h-103l314 942h-344c-46.667 0 -83.334 -11.333 -110.001 -34c-14 -12 -38.333 -44.333 -73 -97l-28 16l71 162l27 67h582v-26z" />
    <glyph glyph-name="mouse2button" unicode="&#xf038;" horiz-adv-x="788" 
d="M293 524c-61.333 54 -101.001 90.667 -119.001 110c-50.667 54.667 -76 117 -76 187c0 74 31.667 134.333 95 181c56.667 42 123.334 63 200.001 63c74 0 136.333 -18.333 187 -55c57.333 -41.333 86 -97.333 86 -168c0 -64.667 -24.333 -120 -73 -166
c-28 -26.667 -74 -56.667 -138 -90c98 -70.667 165 -134.667 201 -192c29.333 -46.667 44 -99.334 44 -158.001c0 -91.333 -38.667 -161.666 -116 -210.999c-52 -33.333 -117.667 -50 -197 -50c-80.667 0 -149.667 22 -207 66c-62.667 48 -94 111.333 -94 190
c0 76.667 30.333 143 91 199c18 16 56.667 47.333 116 94zM208.999 244c0 -61.333 17.333 -112.333 52 -153c36.667 -44 85 -66 145 -66c52.667 0 95.167 15.5 127.5 46.5s48.5 72.833 48.5 125.5c0 64.667 -30 123 -90 175c-24 21.333 -76.667 60.333 -158 117
c-37.333 -28.667 -64.333 -56 -81 -82c-29.333 -44.667 -44 -99 -44 -163zM409.999 612c44.667 30 76.999 57.334 96.999 82.001c34.667 42.667 52 94 52 154c0 52 -16.167 93.667 -48.5 125s-74.833 47 -127.5 47c-49.333 0 -89.666 -14.5 -120.999 -43.5
s-47 -67.833 -47 -116.5c0 -86.667 65 -169.334 195 -248.001z" />
    <glyph glyph-name="ballpoint" unicode="&#xf039;" horiz-adv-x="788" 
d="M86 -4c202 32.667 347.334 145.002 436.001 337.002c22 47.333 35.667 88 41 122l-2 4c-64 -57.333 -139.667 -86 -227 -86c-95.333 0 -169.333 36 -222 108c-43.333 59.333 -65 127.666 -65 204.999c0 104.667 28.667 192.667 86 264c61.333 76.667 143.333 115 246 115
c110 0 196.667 -48 260 -144c54.667 -82.667 82 -182 82 -298c0 -176.667 -54.667 -327.334 -164 -452.001c-118.667 -136 -274.334 -204 -467.001 -204zM569.001 618.002c0 62 -2.33203 111 -6.99902 147c-22 170 -89.333 255 -202 255c-62 0 -107.667 -32.667 -137 -98
c-22 -48 -33 -107.667 -33 -179c0 -76 13.333 -140.667 40 -194c35.333 -71.333 89.666 -107 162.999 -107c58 0 108 18.667 150 56c17.333 10.667 26 31 26 61v59z" />
    <glyph glyph-name="pc" unicode="&#xf03a;" horiz-adv-x="436" 
d="M129 635c0 24 8.33301 44.333 25 61s37 25 61 25s44.333 -8.33301 61 -25s25 -37 25 -61c0 -23.333 -8.5 -43.5 -25.5 -60.5s-37.167 -25.5 -60.5 -25.5c-24.667 0 -45.167 8.16699 -61.5 24.5s-24.5 36.833 -24.5 61.5zM129 70c0 24.667 8.16699 45.5 24.5 62.5
s36.833 25.5 61.5 25.5c24 0 44.333 -8.66699 61 -26s25 -38 25 -62c0 -23.333 -8.5 -43.833 -25.5 -61.5s-37.167 -26.5 -60.5 -26.5c-24.667 0 -45.167 8.5 -61.5 25.5s-24.5 37.833 -24.5 62.5z" />
    <glyph glyph-name="harddisk" unicode="&#xf03b;" horiz-adv-x="436" 
d="M154 -190c87.333 51.333 131 105.667 131 163c0 15.333 -7.66699 23 -23 23l-16 -2c-5.33301 -2.66699 -13 -4 -23 -4c-62.667 0 -94 27.333 -94 82c0 60 30 90 90 90c27.333 0 52.333 -9 75 -27c34.667 -27.333 52 -69 52 -125c0 -48.667 -23 -98.667 -69 -150
c-38 -42 -74.333 -69.667 -109 -83zM129 635.001c0 24 8.33301 44.333 25 61s37 25 61 25s44.333 -8.33301 61 -25s25 -37 25 -61c0 -23.333 -8.5 -43.5 -25.5 -60.5s-37.167 -25.5 -60.5 -25.5c-24.667 0 -45.167 8.16699 -61.5 24.5s-24.5 36.833 -24.5 61.5z" />
    <glyph glyph-name="floppy3" unicode="&#xf03c;" horiz-adv-x="887" 
d="M844 -14l-799 362v101l799 360v-109l-668 -301l668 -305v-108z" />
    <glyph glyph-name="floppy5" unicode="&#xf03d;" horiz-adv-x="819" 
d="M43 504v96h733v-96h-733zM43 295v96h733v-96h-733z" />
    <glyph glyph-name="tapereel" unicode="&#xf03e;" horiz-adv-x="887" 
d="M715 399l-670 301v109l799 -360v-101l-799 -362v108z" />
    <glyph glyph-name="handwrite" unicode="&#xf03f;" horiz-adv-x="698" 
d="M356 258c0 40.667 6.66895 86.668 20.002 138.001c4 14.667 13 43.667 27 87l46 101c38 83.333 57 161.666 57 234.999c0 55.333 -14.333 101.333 -43 138c-31.333 39.333 -74.333 59 -129 59c-31.333 0 -62.333 -7.66699 -93 -23c-36.667 -19.333 -55 -43 -55 -71
c0 -13.333 6 -27.333 18 -42c28 -34.667 42 -60.334 42 -77.001c0 -42.667 -20 -64 -60 -64c-53.333 0 -80 33.667 -80 101c0 71.333 29.333 128 88 170c50.667 36.667 107.667 55 171 55c37.333 0 78.333 -8.33301 123 -25c49.333 -18 84.666 -39.667 105.999 -65
c39.333 -47.333 59 -104.666 59 -171.999c0 -38 -13.667 -82.333 -41 -133c-20 -36.667 -45.667 -73.667 -77 -111c-44.667 -52.667 -77.667 -99 -99 -139c-24.667 -46.667 -42.334 -100.667 -53.001 -162h-27zM291.002 70.001c0 23.333 7.83301 43.1689 23.5 59.502
s35.167 24.5 58.5 24.5c22.667 0 42.667 -8.33301 60 -25s26 -36.334 26 -59.001c0 -24.667 -8.16699 -44.834 -24.5 -60.501s-36.833 -23.5 -61.5 -23.5c-54.667 0 -82 28 -82 84z" />
    <glyph glyph-name="handwriteleft" unicode="&#xf040;" horiz-adv-x="1452" 
d="M1100 70c-66.667 -30.667 -118.332 -52 -154.999 -64c-61.333 -20.667 -119 -31 -173 -31c-247.333 0 -423.333 97.333 -528 292c-41.333 76.667 -62 153.667 -62 231c0 163.333 54.833 298.666 164.5 405.999s246.167 161 409.5 161
c141.333 0 261.666 -41.667 360.999 -125c104.667 -88 157 -201.333 157 -340c0 -89.333 -25.333 -171.333 -76 -246c-57.333 -84.667 -129 -127 -215 -127c-44.667 0 -81.334 15.667 -110.001 47c-22.667 25.333 -33 46.666 -31 63.999
c-16.667 -23.333 -38.667 -45 -66 -65c-40 -29.333 -79.667 -44 -119 -44c-100.667 0 -151 64.333 -151 193c0 42.667 11 91.334 33 146.001c62 154 154.667 231 278 231c30.667 0 55.334 -8.66699 74.001 -26c8.66699 -8 21.667 -26 39 -54l12 57h107l-101 -397
c-0.666992 -12 -1 -21.667 -1 -29c0 -46 19.667 -69 59 -69c60 0 109.667 35.667 149 107c35.333 64 53 134.667 53 212c0 98.667 -39.333 190 -118 274c-88.667 94.667 -200 142 -334 142c-142 0 -253.333 -55.333 -334 -166c-71.333 -98 -107 -221 -107 -369
c0 -125.333 44.667 -230.666 134 -315.999s197 -128 323 -128c62.667 0 120.667 8 174 24c24 7.33301 70.333 25.333 139 54zM831.002 729c-44 0 -89 -26.667 -135 -80c-53.333 -62 -80 -135.667 -80 -221c0 -90 33.667 -135 101 -135c37.333 0 73.333 28 108 84
c40 64.667 64.667 148.667 74 252c0 66.667 -22.667 100 -68 100z" />
    <glyph glyph-name="handv" unicode="&#xf041;" horiz-adv-x="1139" 
d="M1112 0l-401 0.000976562v29c38.667 0 64.334 2.33301 77.001 7c22 8 33 25.333 33 52c0 14 -3.66699 31.333 -11 52c-4.66699 13.333 -10.334 28.666 -17.001 45.999l-68 154h-412l-73 -184c-6 -15.333 -9 -35.333 -9 -60c0 -44.667 35 -67 105 -67v-29h-309v29
c32 0 57.667 13 77 39c16 16.667 40.333 60 73 130l42 91l328 772h33l389 -893c26 -59.333 47.667 -97.333 65 -114s43.333 -25 78 -25v-29zM702 403.001l-180 437l-182 -437h362z" />
    <glyph glyph-name="handok" unicode="&#xf042;" horiz-adv-x="1049" 
d="M27 1042h442c155.333 0 266.666 -29.333 333.999 -88c50.667 -44 76 -103.333 76 -178c0 -123.333 -69.667 -198.333 -209 -225v-4c176 -39.333 264 -128 264 -266c0 -96 -42.333 -170 -127 -222c-64 -39.333 -148.667 -59 -254 -59h-526v29c62 0 103 9 123 27
s30 57.333 30 118v698c0 59.333 -10.667 98 -32 116c-19.333 16 -59.666 24 -120.999 24v30zM340 125c0 -31.333 12.333 -51.668 37 -61.001c13.333 -4.66699 40 -7 80 -7c196.667 0 295 76 295 228c0 58.667 -16.333 105.334 -49 140.001c-24 25.333 -61 46 -111 62
c-52.667 16.667 -136.667 25 -252 25v-387zM340 574.998l147 3.00195c154.667 3.33301 232 66.666 232 189.999c0 82.667 -31.667 142 -95 178c-49.333 28 -109.333 41 -180 39l-71 -2c-22 -0.666992 -33 -16.334 -33 -47.001v-361z" />
    <glyph glyph-name="thumbup" unicode="&#xf043;" horiz-adv-x="1049" 
d="M940 711c-48 193.333 -164 290 -348 290c-91.333 0 -170 -32 -236 -96c-84.667 -82 -127 -211.667 -127 -389c0 -132.667 30 -241.334 90 -326.001c68.667 -95.333 166.334 -143 293.001 -143c83.333 0 161 20.667 233 62c40.667 23.333 82 56 124 98l26 -27
c0 -6.66699 -15.333 -25 -46 -55c-102.667 -100 -229.334 -150 -380.001 -150c-202 0 -350 76.667 -444 230c-53.333 86.667 -80 192.334 -80 317.001c0 166.667 55.333 301 166 403c101.333 93.333 224.333 140 369 140c50.667 0 97 -5.33301 139 -16l137 -37
c39.333 0 64 17.667 74 53h31l16 -354h-37z" />
    <glyph glyph-name="thumbdown" unicode="&#xf044;" horiz-adv-x="1139" 
d="M27 29c56 0 93.332 10.3359 111.999 31.0029c16.667 18.667 25 56.667 25 114v698c0 57.333 -8 93.666 -24 108.999s-53.667 25.666 -113 30.999v30h424c186.667 0 334.334 -40 443.001 -120c123.333 -90.667 185 -226 185 -406c0 -88.667 -20 -170.334 -60 -245.001
c-41.333 -77.333 -99.333 -138.333 -174 -183c-98.667 -58.667 -222.667 -88 -372 -88h-446v29zM325.999 125.003c0 -30 8.66602 -49.666 25.999 -58.999c11.333 -6 34 -9 68 -9c64.667 0 121.334 5.66699 170.001 17c211.333 49.333 317 196.666 317 441.999
c0 152.667 -48.333 272 -145 358c-82.667 74 -203.667 111 -363 111c-32.667 0 -54 -6.33301 -64 -19c-6 -7.33301 -9 -21.333 -9 -42v-799z" />
    <glyph glyph-name="handptleft" unicode="&#xf045;" horiz-adv-x="961" 
d="M870 0l-850 0.00292969v29c54.667 0 91 10 109 30s27 58.333 27 115v698c0 56 -9 93.333 -27 112s-54.333 28 -109 28v30h834l4 -223h-37c-12.667 71.333 -37.667 117.666 -75 138.999c-28.667 16.667 -83.334 25 -164.001 25h-213c-20 0 -32.667 -2 -38 -6
c-9.33301 -6.66699 -14 -22.334 -14 -47.001v-350h242c66 0 110.333 10.667 133 32c18.667 18 32.334 57 41.001 117h37v-364h-37c-9.33301 62.667 -24.5 102.5 -45.5 119.5s-63.833 26.167 -128.5 27.5l-242 4v-387c0 -30.667 15.333 -52 46 -64
c22 -8.66699 54.333 -12.334 97 -11.001c105.333 3.33301 135.666 5 90.999 5c94.667 0 165.334 13.333 212.001 40c52 29.333 96 85 132 167h45z" />
    <glyph glyph-name="handptright" unicode="&#xf046;" horiz-adv-x="877" 
d="M719 365c-9.33301 62.667 -25.3311 103.001 -47.998 121.001c-20.667 16 -63.334 24.667 -128.001 26l-226 4v-342c0 -58.667 9.16699 -97.5 27.5 -116.5s56.5 -28.5 114.5 -28.5v-29h-439v29c58.667 0 96.667 11.667 114 35c14.667 19.333 22 60 22 122v686
c0 56 -9 93.333 -27 112s-54.333 28 -109 28v30h834l4 -223h-37c-12.667 71.333 -37.667 117.666 -75 138.999c-28.667 16.667 -83.334 25 -164.001 25h-215c-21.333 0 -35 -3.33301 -41 -10s-9 -21 -9 -43v-350h226c62 0 104.333 9.5 127 28.5s39 59.167 49 120.5h35v-364
h-35z" />
    <glyph glyph-name="handptup" unicode="&#xf047;" horiz-adv-x="1139" 
d="M1116 530c-41.333 -3.33301 -68.3301 -10.332 -80.9971 -20.999c-19.333 -16.667 -29 -51 -29 -103v-316c0 -12.667 -42 -34 -126 -64c-94.667 -34 -180.334 -51 -257.001 -51c-187.333 0 -334.333 57.333 -441 172c-87.333 94 -131 224 -131 390
c0 139.333 48 260.333 144 363c102.667 110 233.667 165 393 165c56.667 0 105.667 -5.33301 147 -16l137 -37c40 0 64.667 17.667 74 53h35l10 -332h-37c-40.667 108 -95.334 182.333 -164.001 223c-50.667 30 -110 45 -178 45c-140.667 0 -245.667 -63.667 -315 -191
c-44 -81.333 -66 -183.333 -66 -306c0 -134.667 33.667 -243.667 101 -327c73.333 -90.667 175.666 -136 306.999 -136c42.667 0 84.667 6 126 18c58 17.333 87 42 87 74v256c0 59.333 -8 97.666 -24 114.999s-53 26 -111 26v29h399v-29z" />
    <glyph glyph-name="handptdwn" unicode="&#xf048;" horiz-adv-x="1139" 
d="M29 29c62 0 101.665 12.001 118.998 36.001c13.333 18.667 20 59 20 121v686c0 56.667 -9 93.334 -27 110.001c-16 14.667 -53.333 24.667 -112 30v30h440v-30c-58.667 -5.33301 -96 -15.333 -112 -30c-18 -16.667 -27 -53.334 -27 -110.001v-309h475v309
c0 56 -9 92.667 -27 110c-16.667 14.667 -54 24.667 -112 30v30h440v-30c-58.667 -5.33301 -96 -15.333 -112 -30c-18 -16.667 -27 -53.334 -27 -110.001v-698c0 -55.333 7.66699 -92.333 23 -111c18.667 -22.667 57.334 -34 116.001 -34v-29h-440v29
c62 0 101.667 12 119 36c13.333 18.667 20 59 20 121v312h-475v-324c0 -55.333 7.66699 -92.333 23 -111c18.667 -22.667 57.334 -34 116.001 -34v-29h-440v29z" />
    <glyph glyph-name="handhalt" unicode="&#xf049;" horiz-adv-x="524" 
d="M27 29c62.667 0 104.166 8.83203 124.499 26.499s30.5 57.167 30.5 118.5v698c0 60 -10.667 99 -32 117c-19.333 15.333 -60.333 23 -123 23v30h471v-30c-62 0 -102.667 -7.66699 -122 -23c-22.667 -18 -34 -57 -34 -117v-698c0 -59.333 11.333 -98.666 34 -117.999
c20.667 -18 61.334 -27 122.001 -27v-29h-471v29z" />
    <glyph glyph-name="smileface" unicode="&#xf04a;" horiz-adv-x="612" 
d="M436 289c0 -162.667 -58.334 -262.668 -175.001 -300.001c-28.667 -9.33301 -57 -14 -85 -14c-56.667 0 -98 14.333 -124 43c-22.667 24.667 -34 48.667 -34 72c0 20 6.5 38.333 19.5 55s29.167 25 48.5 25c36 0 63.5 -22.5 82.5 -67.5s34.5 -67.5 46.5 -67.5
c44 0 66 34.667 66 104v733c0 58 -10.667 96.333 -32 115c-19.333 16.667 -58.666 25 -117.999 25v30h453v-30c-60.667 0 -100 -8.33301 -118 -25c-20 -17.333 -30 -55.666 -30 -114.999v-583z" />
    <glyph glyph-name="neutralface" unicode="&#xf04b;" horiz-adv-x="1139" 
d="M649 1042l414.003 0.00195312v-30c-52.667 -4.66699 -90.334 -12.334 -113.001 -23.001c-30 -14 -71.667 -47.333 -125 -100l-301 -297l369 -391c108 -114.667 190.667 -172 248 -172v-29h-482v29c40.667 0 63.667 0.333008 69 1c28 5.33301 42 19.333 42 42
c0 25.333 -39.333 81.666 -118 168.999c-25.333 28 -55 59 -89 93l-166 166l-43 -33v-293c0 -59.333 9.16699 -98.333 27.5 -117s57.166 -28 116.499 -28v-29h-445v29c61.333 0 100.666 11 117.999 33c14.667 18.667 22 60 22 124v686c0 56.667 -9.16699 94.167 -27.5 112.5
s-55.833 27.5 -112.5 27.5v30h449v-30c-60 0 -99.667 -8.66699 -119 -26s-29 -55.333 -29 -114v-323c181.333 161.333 293 263.333 335 306c44.667 45.333 67 81.333 67 108c0 32.667 -35.667 49 -107 49v30z" />
    <glyph glyph-name="frownface" unicode="&#xf04c;" horiz-adv-x="961" 
d="M461 1012c-56.667 0 -94 -7.66797 -112 -23.001c-21.333 -18.667 -32 -57.667 -32 -117v-743c0 -37.333 18.667 -59.666 56 -66.999c4.66699 -0.666992 39.334 -1 104.001 -1c130.667 0 219.667 10 267 30c63.333 26.667 115.666 87.667 156.999 183h39l-74 -274h-846v29
c54.667 0 91 10 109 30s27 58.333 27 115v698c0 56 -9 93.333 -27 112s-54.333 28 -109 28v30h441v-30z" />
    <glyph glyph-name="bomb" unicode="&#xf04d;" horiz-adv-x="1403" 
d="M1358 1012c-53.333 0 -88.332 -7.66602 -104.999 -22.999c-20 -18.667 -30 -57.667 -30 -117v-698c0 -56.667 8.66699 -95 26 -115s53.666 -30 108.999 -30v-29h-438v29c60 0 99 11.333 117 34c16 19.333 24 60.333 24 123v709h-4l-398 -895h-22l-395 858l-2 -627
c0 -70.667 7.33301 -119.334 22 -146.001c21.333 -37.333 63.666 -56 126.999 -56v-29h-369v29c66.667 0 110.334 17.667 131.001 53c15.333 25.333 23 75 23 149v641c0 57.333 -10.167 95 -30.5 113s-59.833 27 -118.5 27v30h309l362 -796l348 796h314v-30z" />
    <glyph glyph-name="skullcrossbones" unicode="&#xf04e;" horiz-adv-x="1139" 
d="M1112 1012c-57.333 -6.66699 -94.333 -18.332 -111 -34.999c-25.333 -26 -38 -80.667 -38 -164v-831h-27l-694 862l-2 -613c0 -70.667 7.33301 -119.334 22 -146.001c21.333 -37.333 63.666 -56 126.999 -56v-29h-369v29c66.667 0 110.334 17.667 131.001 53
c15.333 25.333 23 75 23 149v697c-28 31.333 -50.333 52.333 -67 63c-23.333 14 -52.333 21 -87 21v30h269l604 -757l2 528c0 84 -12 139.333 -36 166c-20 22 -59.333 33 -118 33v30h371v-30z" />
    <glyph glyph-name="flag" unicode="&#xf04f;" horiz-adv-x="1139" 
d="M53 520c0 170.667 53.667 306.667 161 408c96.667 91.333 214.334 137 353.001 137c140 0 258.667 -45.667 356 -137c108 -101.333 162 -237.333 162 -408c0 -156 -47 -285 -141 -387c-96.667 -105.333 -222.334 -158 -377.001 -158s-279.667 52.667 -375 158
c-92.667 102 -139 231 -139 387zM903 522c0 128.667 -23.668 236.334 -71.001 323.001c-58.667 108.667 -147 163 -265 163c-116.667 0 -204.667 -54.667 -264 -164c-46.667 -86.667 -70 -194 -70 -322c0 -130 23 -238 69 -324c58.667 -110 147 -165 265 -165
c118.667 0 207.334 54.667 266.001 164c46.667 87.333 70 195.666 70 324.999z" />
    <glyph glyph-name="pennant" unicode="&#xf050;" horiz-adv-x="877" 
d="M27 1042l415 0.00195312c109.333 0 200.333 -19.333 273 -58c91.333 -49.333 137 -124 137 -224c0 -52.667 -12.667 -100.334 -38 -143.001c-12.667 -21.333 -32 -44.666 -58 -69.999c-64 -62.667 -174.667 -94 -332 -94c-12.667 0 -33 0.666992 -61 2l-44 2v-283
c0 -58.667 9.83301 -97.5 29.5 -116.5s59.167 -28.5 118.5 -28.5v-29h-440v29c60 0 98 12.667 114 38c11.333 18 17 57.667 17 119v686c0 55.333 -8 91.166 -24 107.499s-51.667 27.166 -107 32.499v30zM319 522.002c21.333 -4 52.999 -6 94.999 -6
c178.667 0 268 80 268 240c0 152.667 -99.667 229 -299 229c-25.333 0 -41.666 -2.33301 -48.999 -7c-10 -6.66699 -15 -22 -15 -46v-410z" />
    <glyph glyph-name="airplane" unicode="&#xf051;" horiz-adv-x="1139" 
d="M1102 -281c-18.667 -1.33301 -42.002 -2.00098 -70.002 -2.00098c-250.667 0 -431.667 65.667 -543 197l-71 84c-93.333 23.333 -172.666 72.666 -237.999 147.999c-84.667 97.333 -127 222 -127 374c0 169.333 53.667 305 161 407c97.333 92 215 138 353 138
c140 0 258.667 -45.667 356 -137c108 -101.333 162 -237.333 162 -408c0 -205.333 -76.667 -358.666 -230 -459.999c-59.333 -39.333 -121 -62.666 -185 -69.999c9.33301 -14 29.333 -37 60 -69s52.334 -52 65.001 -60c34.667 -32 77.5 -58.167 128.5 -78.5
s110.5 -30.5 178.5 -30.5v-33zM232.998 519.999c0 -129.333 22.999 -237.001 68.999 -323.001c58.667 -109.333 147 -164 265 -164s206.667 54.667 266 164c46.667 86.667 70 194.334 70 323.001s-23.667 236.667 -71 324c-59.333 109.333 -147.666 164 -264.999 164
c-91.333 0 -167 -36.333 -227 -109c-71.333 -86.667 -107 -213 -107 -379z" />
    <glyph glyph-name="sunshine" unicode="&#xf052;" horiz-adv-x="1049" 
d="M1038 0l-256 0.000976562l-374 485l-86 -2v-309c0 -56.667 7.66699 -94 23 -112c18.667 -22 57.334 -33 116.001 -33v-29h-434v29c59.333 0 97.666 12 114.999 36c13.333 18.667 20 59 20 121v686c0 55.333 -9 91.666 -27 108.999c-15.333 14.667 -51.333 25 -108 31v30
h434c150 0 258.667 -31.333 326 -94c48.667 -45.333 73 -105.333 73 -180c0 -147.333 -94 -235.333 -282 -264l321 -400c40 -50 86.333 -75 139 -75v-29zM322 539.001c66 0 116.999 3.00098 152.999 9.00098c143.333 24 215 98.667 215 224c0 142 -90 213 -270 213
c-35.333 0 -57.666 -1.66699 -66.999 -5c-20.667 -6.66699 -31 -23.334 -31 -50.001v-391z" />
    <glyph glyph-name="droplet" unicode="&#xf053;" horiz-adv-x="877" 
d="M739 729h-41c-15.333 76 -48 139 -98 189c-54.667 54 -119.334 81 -194.001 81c-45.333 0 -83.333 -13.333 -114 -40s-46 -62.334 -46 -107.001c0 -65.333 45.333 -127.333 136 -186l253 -159c91.333 -71.333 137 -152.333 137 -243c0 -88 -33.667 -159 -101 -213
c-62 -50.667 -138.333 -76 -229 -76c-35.333 0 -81.666 9 -138.999 27s-93.333 27 -108 27c-32 0 -48 -17.333 -48 -52h-34l-45 336h34c19.333 -47.333 36 -82.333 50 -105c70 -116.667 161.333 -175 274 -175c52.667 0 96.834 16.333 132.501 49s53.5 75 53.5 127
c0 48 -13.667 88 -41 120c-34.667 40.667 -106.334 93.334 -215.001 158.001c-57.333 34 -99.333 61.667 -126 83c-78 62 -117 137.667 -117 227c0 80.667 27.333 146 82 196c53.333 48 120.666 72 201.999 72c29.333 0 63 -6 101 -18l116 -37
c20.667 0 35.334 6.66699 44.001 20c4 6 8 17.667 12 35h32z" />
    <glyph glyph-name="snowflake" unicode="&#xf054;" horiz-adv-x="961" 
d="M713 0l-463.001 0.000976562v29c68 0 111 12 129 36c13.333 17.333 20 57.666 20 120.999v791h-84c-86.667 0 -145.5 -12.667 -176.5 -38s-54.5 -80.333 -70.5 -165h-41l8 268h891l8 -268h-39c-16.667 85.333 -40.667 140.5 -72 165.5s-90.666 37.5 -177.999 37.5h-86
v-803c0 -58 10.667 -96.667 32 -116s62 -29 122 -29v-29z" />
    <glyph glyph-name="crossoutline" unicode="&#xf055;" horiz-adv-x="1139" 
d="M1110 1012c-62.667 -6.66699 -102.667 -20.667 -120 -42c-19.333 -24 -29 -76.333 -29 -157v-414c0 -68 -5 -123 -15 -165c-40.667 -172.667 -171 -259 -391 -259c-208.667 0 -334 86 -376 258c-10 41.333 -15 90.666 -15 147.999v491c0 57.333 -9 95 -27 113
s-55.333 27 -112 27v30h444v-30c-60 -5.33301 -98 -15 -114 -29c-19.333 -17.333 -29 -54.333 -29 -111v-505c0 -53.333 3.33301 -95.666 10 -126.999c27.333 -128.667 115.333 -193 264 -193c122.667 0 208 42.333 256 127c26 36.667 39 107.667 39 213v426
c0 71.333 -7.66699 120 -23 146c-21.333 35.333 -64.333 53 -129 53v30h367v-30z" />
    <glyph glyph-name="crossshadow" unicode="&#xf056;" horiz-adv-x="1139" 
d="M1098 1012c-42 0 -74.335 -14.666 -97.002 -43.999c-11.333 -14.667 -27.666 -48.667 -48.999 -102l-348 -884h-24l-390 864c-32.667 72.667 -57.667 117.667 -75 135c-21.333 20.667 -50.666 31 -87.999 31v30h417v-30c-40.667 0 -66.334 -1.33301 -77.001 -4
c-27.333 -7.33301 -41 -25.333 -41 -54c0 -10.667 6 -31.334 18 -62.001c0.666992 -2.66699 16.334 -38 47.001 -106l238 -532l229 577c20.667 52 31 88.333 31 109c0 48 -38.333 72 -115 72v30h324v-30z" />
    <glyph glyph-name="crossceltic" unicode="&#xf057;" horiz-adv-x="1487" 
d="M1466 1012c-36.667 -6.66699 -62.666 -15.667 -77.999 -27c-19.333 -14 -33.333 -37.333 -42 -70l-114 -303c-94 -254 -166 -464 -216 -630h-25c-20 60 -44.667 129.333 -74 208l-94 246l-82 211l-243 -665h-23l-160 454l-145 391c-27.333 72 -49 118 -65 138
c-22 27.333 -54.333 43 -97 47v30h385v-30c-68 0 -102 -18 -102 -54c0 -23.333 6 -46.333 18 -69l228 -592l165 444l-49 131c-22 59.333 -44 98.333 -66 117c-18.667 15.333 -49.667 23 -93 23v30h419v-30c-34.667 0 -60.334 -2.66699 -77.001 -8
c-28.667 -9.33301 -43 -26.666 -43 -51.999c0 -10.667 6 -31 18 -61c5.33301 -15.333 13 -36 23 -62l208 -536l199 532c14 37.333 21 75.666 21 114.999c0 48 -36.333 72 -109 72v30h313v-30z" />
    <glyph glyph-name="crossmaltese" unicode="&#xf058;" horiz-adv-x="1139" 
d="M1096 1012c-45.333 0 -81 -7.33203 -107 -21.999c-36.667 -20.667 -79.667 -62 -129 -124l-227 -286l301 -433c29.333 -42.667 53 -71 71 -85c28 -22 62.333 -33 103 -33v-29h-469v29c45.333 0 76 2.66699 92 8c22 7.33301 33 22.333 33 45c0 16.667 -14.667 48 -44 94
c-7.33301 12 -20 31 -38 57l-150 220l-186 -232c-54.667 -68 -82 -113 -82 -135c0 -38 39.667 -57 119 -57v-29h-365v29c40 0 73 11 99 33c11.333 9.33301 53 58.333 125 147l247 303l-170 254c-74 110.667 -129.333 181 -166 211c-28.667 23.333 -68.667 35 -120 35v30h475
v-30c-40 0 -64.667 -1 -74 -3c-28.667 -6.66699 -43 -22.667 -43 -48c0 -14.667 9.33301 -38.334 28 -71.001c27.333 -48 62.333 -101.667 105 -161l66 -92l180 215c40.667 48.667 61 85 61 109c0 34 -36.667 51 -110 51v30h375v-30z" />
    <glyph glyph-name="starofdavid" unicode="&#xf059;" horiz-adv-x="1139" 
d="M1106 1012c-38 -4 -68.001 -13.6689 -90.001 -29.002c-33.333 -23.333 -75.666 -74 -126.999 -152l-232 -354v-303c0 -62.667 11.333 -103 34 -121c20 -16 62.667 -24 128 -24v-29h-481v29c70.667 0 116 11.667 136 35c16 18.667 24 59.334 24 122.001v275l-207 305
c-74.667 110.667 -128.667 181 -162 211c-25.333 23.333 -57.333 35 -96 35v30h444v-30c-37.333 0 -61 -1 -71 -3c-27.333 -6 -41 -21.333 -41 -46c0 -19.333 8.66699 -42 26 -68l232 -348l225 354c5.33301 8 9.33301 15.333 12 22c8 14.667 12 27.334 12 38.001
c0 34 -36 51 -108 51v30h342v-30z" />
    <glyph glyph-name="crescentstar" unicode="&#xf05a;" horiz-adv-x="961" 
d="M940 281l-38.999 -281h-885v27l684 956h-348c-98.667 0 -167.667 -21.667 -207 -65c-22.667 -25.333 -41.667 -74 -57 -146h-39l31 270h827v-24l-676 -959h404c92 0 158 22 198 66c25.333 27.333 48.666 79.333 69.999 156h37z" />
    <glyph glyph-name="yinyang" unicode="&#xf05b;" horiz-adv-x="524" 
d="M330 1001c-48 0 -72 -22.333 -72 -67v-1061c0 -53.333 26 -80 78 -80h135v-37h-334v1286h334v-41h-141z" />
    <glyph glyph-name="om" unicode="&#xf05c;" horiz-adv-x="436" 
d="M90 1065l363 -1090h-107l-362 1090h106z" />
    <glyph glyph-name="wheel" unicode="&#xf05d;" horiz-adv-x="524" 
d="M193 -207c48.667 0 73 24 73 72v1057c0 52.667 -26.667 79 -80 79h-133v41h334v-1286h-334v37h140z" />
    <glyph glyph-name="aries" unicode="&#xf05e;" horiz-adv-x="739" 
d="M35 469l289 573h94l282 -573h-106l-223 455l-228 -455h-108z" />
    <glyph glyph-name="taurus" unicode="&#xf05f;" horiz-adv-x="660" 
d="M0 -195v74h659v-74h-659z" />
    <glyph glyph-name="gemini" unicode="&#xf060;" horiz-adv-x="524" 
d="M319 797l-241 152.998c-32.667 20.667 -49 43.334 -49 68.001c0 32.667 17 49 51 49c14 0 24.333 -1.33301 31 -4c10.667 -5.33301 23.667 -15.666 39 -30.999l231 -235h-62z" />
    <glyph glyph-name="cancer" unicode="&#xf061;" horiz-adv-x="698" 
d="M694 63c-43.333 -54 -89.001 -81.002 -137.001 -81.002c-69.333 0 -104 39.333 -104 118c-85.333 -78.667 -160.666 -118 -225.999 -118c-48.667 0 -89.167 15.333 -121.5 46s-48.5 70.334 -48.5 119.001c0 90 59 164 177 222c40 19.333 113 49.333 219 90v98
c0 87.333 -39.667 131 -119 131c-27.333 0 -52 -6 -74 -18c-27.333 -14.667 -41 -34.667 -41 -60c0 -7.33301 1.66699 -17.833 5 -31.5s5 -23.5 5 -29.5c0 -18.667 -7.5 -34.667 -22.5 -48s-31.833 -20 -50.5 -20c-46.667 0 -70 23.333 -70 70c0 38.667 20.333 75 61 109
c50 42 116.333 63 199 63c102 0 170.333 -30 205 -90c19.333 -33.333 29 -86.666 29 -159.999v-307c0 -30.667 1.66699 -51 5 -61c6.66699 -19.333 20.667 -29 42 -29c28.667 0 51 9.33301 67 28v-41zM452.999 421.998c-172 -56 -257.999 -129 -257.999 -219v-6
c0 -32.667 9.33301 -60.667 28 -84s44 -35 76 -35c32.667 0 66 8.66699 100 26c23.333 12 38.166 23.333 44.499 34s9.5 29 9.5 55v229z" />
    <glyph glyph-name="leo" unicode="&#xf062;" horiz-adv-x="788" 
d="M109 901c0 29.333 -3 48.999 -9 58.999c-9.33301 15.333 -30.333 23 -63 23h-33v23l115 32c44 12.667 82 25 114 37l7 -4v-475c9.33301 25.333 32.333 51.333 69 78c45.333 32.667 94 49 146 49c89.333 0 160 -37 212 -111c46.667 -65.333 70 -144.333 70 -237
c0 -137.333 -52 -244.666 -156 -321.999c-64 -47.333 -141 -71 -231 -71c-46 0 -95.667 9.66699 -149 29c-61.333 22 -92 46.333 -92 73v817zM240 110.999c0 -24.667 20 -44.666 60 -59.999c31.333 -12 62.333 -18 93 -18c138 0 207 94.667 207 284
c0 77.333 -14.333 144.333 -43 201c-36 72.667 -88.667 109 -158 109c-36 0 -69 -8.66699 -99 -26c-40 -22.667 -60 -54.334 -60 -95.001v-395z" />
    <glyph glyph-name="virgo" unicode="&#xf063;" horiz-adv-x="698" 
d="M647 231c-76.667 -166 -181 -249 -313 -249c-74 0 -139 27.333 -195 82c-68 66 -102 156.667 -102 272c0 120 38 216.333 114 289c68 65.333 148.667 98 242 98c61.333 0 116.666 -16.333 165.999 -49c45.333 -30.667 68 -67.667 68 -111s-24 -65 -72 -65
c-41.333 -4 -67.333 19 -78 69l-8 37c-7.33301 32.667 -19.666 54 -36.999 64c-14 8 -36.333 12 -67 12c-46 0 -87.333 -17.667 -124 -53c-52.667 -50.667 -79 -126.667 -79 -228c0 -78.667 19.333 -146.667 58 -204c44 -64.667 103.667 -97 179 -97
c52.667 0 98.334 14.333 137.001 43c27.333 20 57.666 54.333 90.999 103z" />
    <glyph glyph-name="libra" unicode="&#xf064;" horiz-adv-x="788" 
d="M772 68c-4.66699 -1.33301 -51.333 -18.333 -140 -51l-91 -35l-4 8v94h-5c-46 -68 -113.333 -102 -202 -102c-33.333 0 -67.333 7 -102 21c-123.333 49.333 -185 161 -185 335c0 97.333 29.333 184.333 88 261c64 82.667 143.333 124 238 124c56 0 112 -22 168 -66v244
c0 30.667 -2.66699 50.334 -8 59.001c-9.33301 15.333 -30 23 -62 23h-39v23l117 32c46 13.333 85 25.666 117 36.999l4 -4v-891c0 -36.667 4.33301 -59.667 13 -69c12.667 -14 43.667 -21 93 -21v-22zM537.001 524c-5.33301 46 -22.668 83.833 -52.001 113.5
s-66.666 44.5 -111.999 44.5c-67.333 0 -118.333 -34 -153 -102c-26.667 -52.667 -40 -116.334 -40 -191.001c0 -83.333 14.667 -153.666 44 -210.999c38 -73.333 95 -110 171 -110c80 0 127.333 31.333 142 94v362z" />
    <glyph glyph-name="scorpio" unicode="&#xf065;" horiz-adv-x="698" 
d="M666 246c-19.333 -74 -63.001 -138.332 -131.001 -192.999c-58.667 -47.333 -125.667 -71 -201 -71c-98 0 -173.333 36 -226 108c-47.333 64 -71 146.667 -71 248c0 130 38.333 230.333 115 301c60.667 56 130 84 208 84c166.667 0 259.667 -96.333 279 -289h-492
c0 -94.667 18 -172.334 54 -233.001c44 -74 110 -111 198 -111c60 0 113 20.667 159 62c26.667 24 54.334 59.333 83.001 106zM476.999 485.001c-7.33301 55.333 -18.001 95 -32.001 119c-24 41.333 -63.667 62 -119 62c-93.333 0 -150.666 -60.333 -171.999 -181h323z" />
    <glyph glyph-name="saggitarius" unicode="&#xf066;" horiz-adv-x="524" 
d="M485 659l-192 -0.000976562v-495c0 -54 6.33301 -88.667 19 -104c18.667 -22 62 -33 130 -33v-27h-413v27c55.333 0 91.333 8.83301 108 26.5s25 54.5 25 110.5v495h-131v50h131c0 54.667 3.33301 99.334 10 134.001c30 154.667 121.333 232 274 232
c36 0 69 -6.66699 99 -20c39.333 -18 59 -42.667 59 -74c0 -18.667 -6.5 -34.667 -19.5 -48s-28.833 -20 -47.5 -20c-20 0 -44.5 19.833 -73.5 59.5s-54.5 59.5 -76.5 59.5c-62.667 0 -94 -46.333 -94 -139v-184h192v-50z" />
    <glyph glyph-name="capricorn" unicode="&#xf067;" horiz-adv-x="788" 
d="M610 612c19.333 -41.333 29.001 -89.6641 29.001 -144.997c0 -76.667 -30.667 -136.667 -92 -180c-48 -34 -100.667 -51 -158 -51c-21.333 0 -50 2 -86 6c-16.667 0 -36.5 -12.667 -59.5 -38s-34.5 -46.333 -34.5 -63c0 -15.333 13.333 -26 40 -32
c17.333 -4 45.666 -7 84.999 -9l203 -10c74.667 -4 126.667 -26 156 -66c21.333 -29.333 32 -63.333 32 -102c0 -80.667 -49.333 -147.334 -148 -200.001c-82 -44 -166.333 -66 -253 -66c-62.667 0 -120.667 10.667 -174 32c-70 28.667 -105 70 -105 124
c0 51.333 50.667 114.666 152 189.999c-31.333 17.333 -50 28.333 -56 33c-17.333 13.333 -26 29.666 -26 48.999c0 18 5.66699 35 17 51c18 25.333 59.333 66.333 124 123c-98 41.333 -147 109 -147 203c0 78.667 25.667 142 77 190s116.333 72 195 72
c44.667 0 95 -11.667 151 -35c25.333 -10.667 54 -16 86 -16h123v-60h-131zM401.001 274.002c76.667 0 115 50.666 115 151.999c0 47.333 -9.33301 95.333 -28 144c-28.667 74.667 -72.667 112 -132 112c-77.333 0 -116 -48.333 -116 -145
c0 -65.333 10.667 -121.666 32 -168.999c28 -62.667 71 -94 129 -94zM391.001 -253.999c66.667 0 126.667 9.66699 180 29c74 27.333 111 69 111 125c0 38 -27 60.667 -81 68c-24.667 3.33301 -62.667 5 -114 5c-104 0 -189.333 7.66699 -256 23
c-24.667 -28.667 -40 -47 -46 -55c-20.667 -28 -31 -54.667 -31 -80c0 -43.333 31 -75 93 -95c42 -13.333 90 -20 144 -20z" />
    <glyph glyph-name="aquarius" unicode="&#xf068;" horiz-adv-x="788" 
d="M768 0h-334.001v27c40.667 0 67.334 6.66699 80.001 20c16.667 17.333 25 55.666 25 114.999v311c0 110.667 -39.667 166 -119 166c-58 0 -116 -33.333 -174 -100v-377c0 -58 8.66699 -96 26 -114c13.333 -14 40 -21 80 -21v-27h-336v27c46 0 75 11.333 87 34
c8 14.667 12 48.334 12 101.001v739c0 30.667 -2.66699 50.334 -8 59.001c-9.33301 15.333 -30 23 -62 23h-27v23l222 69l6 -4v-477c60.667 86 137.667 129 231 129c130 0 195 -82.667 195 -248v-313c0 -50.667 4 -83.334 12 -98.001c11.333 -20.667 39.333 -33 84 -37v-27z
" />
    <glyph glyph-name="pisces" unicode="&#xf069;" horiz-adv-x="436" 
d="M27 27c52 0 84.667 6.33301 98 19c16.667 16 25 54.667 25 116v364c0 61.333 -18.667 92 -56 92c-21.333 0 -43 -2 -65 -6v27l124 41l123 43l7 -4v-557c0 -56 5.66699 -91.667 17 -107c14 -18.667 47 -28 99 -28v-27h-372v27zM203 1075c22 0 41.167 -7.83301 57.5 -23.5
s24.5 -34.5 24.5 -56.5c0 -23.333 -7.83301 -42.833 -23.5 -58.5s-35.167 -23.5 -58.5 -23.5c-52 0 -78 27.333 -78 82c0 22 7.5 40.833 22.5 56.5s33.5 23.5 55.5 23.5z" />
    <glyph glyph-name="ampersanditlc" unicode="&#xf06a;" horiz-adv-x="436" 
d="M174 526c0 61.333 -18.999 92.001 -56.999 92.001c-18.667 0 -40.667 -2 -66 -6v27l120 39c38.667 12.667 80 27.667 124 45l8 -4v-719c0 -229.333 -89.333 -344 -268 -344c-34 0 -65 6.33301 -93 19c-35.333 16 -53 39 -53 69c0 17.333 6.33301 32.166 19 44.499
s27.667 18.5 45 18.5c22.667 0 47.5 -16.333 74.5 -49s47.833 -49 62.5 -49c37.333 0 61.666 20.333 72.999 61c7.33301 26.667 11 78.667 11 156v600zM223.001 1075c53.333 0 80 -26.667 80 -80c0 -54.667 -26.667 -82 -80 -82c-22 0 -40.833 8.16699 -56.5 24.5
s-23.5 35.5 -23.5 57.5s7.83301 40.833 23.5 56.5s34.5 23.5 56.5 23.5z" />
    <glyph glyph-name="ampersandit" unicode="&#xf06b;" horiz-adv-x="788" 
d="M10 27c55.333 7.33301 88.333 15.333 99 24c13.333 10.667 20 36.667 20 78v758c0 38 -3.66699 63 -11 75c-10 16.667 -30.333 24.334 -61 23.001l-47 -2v23l246 69l6 -4l2 -655c17.333 13.333 42.666 35 75.999 65l137 123c23.333 21.333 35 39 35 53
c0 20.667 -26 31 -78 31v21h322v-23c-48.667 0 -89 -8.33301 -121 -25c-40 -20.667 -113 -79.334 -219 -176.001l-45 -41l241 -307c57.333 -73.333 118.333 -110 183 -110v-27h-342v27h30c10 0 16.667 0.666992 20 2c7.33301 3.33301 11 10 11 20c0 6 -4 14.667 -12 26
c-3.33301 4.66699 -9.66602 13 -18.999 25l-219 291l-2 -285c-0.666992 -52.667 27.333 -79 84 -79h35v-27h-371v27z" />
    <glyph glyph-name="circle6" unicode="&#xf06c;" horiz-adv-x="436" 
d="M31 27c46 0 77.333 6.33301 94 19c19.333 15.333 29 45 29 89v752c0 67.333 -24 100 -72 98l-53 -2v23l94 24c66 17.333 119.333 32.333 160 45l4 -4v-938c0 -44.667 8.33301 -74 25 -88c14.667 -12 45 -18 91 -18v-27h-372v27z" />
    <glyph glyph-name="circleshadowdwn" unicode="&#xf06d;" horiz-adv-x="1225" 
d="M133 532c0 68.667 -17.666 102.998 -52.999 102.998c-14 0 -31 -2.66699 -51 -8v28c95.333 24.667 168.333 47.334 219 68.001l14 -2v-117c54.667 42.667 95.667 71.334 123 86.001c40.667 22 80.334 33 119.001 33c89.333 0 145.333 -43.667 168 -131
c78 87.333 163.333 131 256 131c122.667 0 184 -93 184 -279v-321c0 -28.667 2.33301 -48.334 7 -59.001c9.33301 -21.333 29.666 -33.666 60.999 -36.999h41v-27h-344v27c32.667 0 54.667 2.33301 66 7c25.333 10.667 38 44.334 38 101.001v334c0 55.333 -5 94.333 -15 117
c-16 36.667 -49.333 55 -100 55c-78.667 0 -137.334 -31.333 -176.001 -94v-397c0 -54.667 10.667 -90.334 32 -107.001c14 -10.667 41 -16 81 -16v-27h-352v27c41.333 0 68.333 4.66699 81 14c18 13.333 27 44 27 92v344c0 109.333 -36.667 164 -110 164
c-46 0 -89.667 -14 -131 -42c-33.333 -22.667 -50 -38.667 -50 -48v-445c0 -35.333 10.667 -58.333 32 -69c13.333 -6.66699 38.333 -10 75 -10v-27h-348v27c37.333 0 62.333 4.33301 75 13c20.667 14 31 45 31 93v399z" />
    <glyph glyph-name="square6" unicode="&#xf06e;" horiz-adv-x="788" 
d="M129 532c0 68.667 -18.333 103 -55 103c-28.667 0 -44.334 -2.66699 -47.001 -8v28c78 21.333 149.667 44 215 68l12 -2v-125c51.333 46 88 76 110 90c38.667 24.667 78.334 37 119.001 37c122 0 183 -78.667 183 -236v-358c0 -38 7 -64.5 21 -79.5
s39.667 -22.5 77 -22.5v-27h-330v27c36.667 0 61.667 6.33301 75 19c18.667 17.333 28 54 28 110v329c0 102.667 -40.333 154 -121 154c-41.333 0 -94 -30 -158 -90v-443c0 -52.667 34.667 -79 104 -79v-27h-335v27c40 0 67 8.33301 81 25s21 45.667 21 87v393z" />
    <glyph glyph-name="box3" unicode="&#xf06f;" horiz-adv-x="788" 
d="M741 360c0 -91.333 -28.334 -173.999 -85.001 -247.999c-66.667 -86.667 -155 -130 -265 -130c-104 0 -188.667 37.333 -254 112c-61.333 71.333 -92 160 -92 266c0 102 31 187.333 93 256c64.667 71.333 147.667 107 249 107c108.667 0 194.834 -33.333 258.501 -100
s95.5 -154.334 95.5 -263.001zM599.999 313.001c0 88 -16.002 166.333 -48.002 235c-41.333 89.333 -101 134 -179 134c-63.333 0 -111.666 -26.667 -144.999 -80c-28 -44.667 -42 -100.667 -42 -168c0 -52.667 5.33301 -104.667 16 -156
c34.667 -167.333 105.334 -251 212.001 -251c67.333 0 117 32.667 149 98c24.667 50 37 112.667 37 188z" />
    <glyph glyph-name="box4" unicode="&#xf070;" horiz-adv-x="788" 
d="M121 530c0 31.333 -3.00195 52.666 -9.00195 63.999c-8.66699 16 -27 24 -55 24h-41v25c71.333 22.667 146 49.334 224 80.001l8 -2v-115l6 -2c62.667 79.333 138.334 119 227.001 119c82 0 147.333 -36.667 196 -110c42.667 -64 64 -139.333 64 -226
c0 -102.667 -27.667 -193 -83 -271c-63.333 -89.333 -146.666 -134 -249.999 -134c-56.667 0 -110 23 -160 69v-244c0 -51.333 11 -85 33 -101c17.333 -12.667 53.333 -19 108 -19v-29h-381v27c48 0 80 9.66699 96 29c11.333 14 17 40.333 17 79v737zM247.998 137
c0 -26.667 20.999 -51.333 62.999 -74c36.667 -20 69.667 -30 99 -30c44 0 83 17 117 51c52.667 52.667 79 138 79 256c0 76 -14.667 140.333 -44 193c-36 65.333 -89 98 -159 98c-31.333 0 -62.666 -10 -93.999 -30c-34.667 -21.333 -55 -46.333 -61 -75v-389z" />
    <glyph glyph-name="boxshadowdwn" unicode="&#xf071;" horiz-adv-x="788" 
d="M653 719l11.001 4.00195l4 -4v-942c0 -34.667 7.66699 -58 23 -70c10 -8 36.333 -16.667 79 -26v-23h-373v27c50.667 0 86 7.66699 106 23c22.667 18 34 51 34 99v291h-7c-17.333 -30.667 -52 -58.334 -104 -83.001c-48.667 -22 -92.334 -33 -131.001 -33
c-88.667 0 -156 38.333 -202 115c-38.667 63.333 -58 142.333 -58 237c0 105.333 32.333 195.666 97 270.999c67.333 78.667 153 118 257 118c38 0 70 -4.66699 96 -14c16 -5.33301 42.667 -19 80 -41zM537.001 524.002c0 41.333 -6 73.001 -18 95.001
c-22.667 42 -66.667 63 -132 63c-74 0 -129.667 -34.667 -167 -104c-29.333 -54.667 -44 -122.334 -44 -203.001c0 -75.333 14.333 -140 43 -194c35.333 -67.333 87.333 -101 156 -101c28.667 0 54.667 4.66699 78 14c38.667 15.333 63 31 73 47
c7.33301 11.333 11 31.333 11 60v323z" />
    <glyph glyph-name="boxshadowup" unicode="&#xf072;" horiz-adv-x="524" 
d="M123 526c0 61.333 -18.335 92.001 -55.002 92.001c-21.333 0 -40.666 -2 -57.999 -6v27l116 40c40.667 14 79.334 28.667 116.001 44l8 -2v-139h6c63.333 94 125.333 141 186 141c57.333 0 86 -28 86 -84c0 -46.667 -19.667 -70 -59 -70c-17.333 0 -33.666 6 -48.999 18
c-34 26.667 -54 40 -60 40c-21.333 0 -45 -15.833 -71 -47.5s-39 -58.834 -39 -81.501v-359c0 -48.667 12.333 -80.667 37 -96c17.333 -10.667 50.666 -16 99.999 -16v-27h-379v27c47.333 5.33301 77.333 13 90 23c16.667 13.333 25 41 25 83v393z" />
    <glyph glyph-name="lozenge4" unicode="&#xf073;" horiz-adv-x="612" 
d="M473 496c-29.333 128 -88.001 192.002 -176.001 192.002c-32.667 0 -60.334 -9 -83.001 -27s-34 -43 -34 -75c0 -48.667 21.333 -85.667 64 -111l172 -102c46 -27.333 78 -52 96 -74c24.667 -30 37 -67.667 37 -113c0 -60.667 -23.667 -110.334 -71 -149.001
c-44 -36.667 -97 -55 -159 -55c-22 0 -47.667 3.33301 -77 10c-64 14.667 -99.667 22 -107 22c-11.333 0 -22.333 -6.66699 -33 -20h-22v246h26c18.667 -68 36.334 -115 53.001 -141c34 -52.667 84.667 -79 152 -79c83.333 0 125 37.667 125 113
c0 50.667 -27.333 89 -82 115l-90 53c-60.667 35.333 -103 65.666 -127 90.999c-38 40 -57 86.667 -57 140c0 58.667 22.333 106 67 142c40.667 32.667 91.334 49 152.001 49c21.333 0 49.5 -5.16699 84.5 -15.5s55.833 -15.5 62.5 -15.5c12 0 21 6.33301 27 19h14l11 -215
h-25z" />
    <glyph glyph-name="lozenge6" unicode="&#xf074;" horiz-adv-x="436" 
d="M399 659l-157.001 0.000976562v-450c0 -40 3.33301 -69.667 10 -89c12 -34.667 36 -52 72 -52c20.667 0 40 6.33301 58 19c9.33301 6.66699 22 18.667 38 36l20 -19c-48 -81.333 -109.333 -122 -184 -122c-96.667 0 -145 67.333 -145 202v475h-84l-4 9
c0 -0.666992 21.667 21 65 65c52.667 53.333 100.334 112.666 143.001 177.999c7.33301 0 11 -6 11 -18v-184h157v-50z" />
    <glyph glyph-name="rhombus6" unicode="&#xf075;" horiz-adv-x="788" 
d="M754 57c-82.667 -22.667 -155 -47.001 -217 -73.001l-5 6v133l-69 -72c-44 -46 -99.333 -69 -166 -69c-42.667 0 -81 13.667 -115 41c-46 37.333 -69 91.666 -69 162.999v400c0 42 -10.333 70.333 -31 85c-12 8.66699 -34 14.334 -66 17.001v21h226v-516
c0 -33.333 11.667 -60.833 35 -82.5s51.666 -32.5 84.999 -32.5c45.333 0 91.333 18.333 138 55c16 12.667 24 39.334 24 80.001v371c0 36 -5.66699 60 -17 72c-16 17.333 -49.667 26 -101 26v27h251v-541c0 -32.667 4.66699 -54.667 14 -66
c12.667 -16 40.334 -24 83.001 -24v-21z" />
    <glyph glyph-name="xrhombus" unicode="&#xf076;" horiz-adv-x="788" 
d="M750 686c-28.667 0 -50.668 -14.335 -66.001 -43.002c-11.333 -20.667 -23.666 -48 -36.999 -82l-198 -504c-21.333 -54.667 -36.666 -82 -45.999 -82c-8.66699 0 -22.334 25.333 -41.001 76c-33.333 90 -87.333 222.333 -162 397
c-38.667 88.667 -66.334 148.334 -83.001 179.001c-21.333 39.333 -50.666 59 -87.999 59v23h311v-23c-49.333 -5.33301 -74 -21 -74 -47c0 -19.333 5.66699 -37.666 17 -54.999l159 -404l133 346c20.667 56.667 31 93 31 109c0 34 -24.667 51 -74 51v23h218v-23z" />
    <glyph glyph-name="rhombus4" unicode="&#xf077;" horiz-adv-x="1139" 
d="M1092 709v-22.998c-16 -6 -27.667 -14.333 -35 -25c-3.33301 -4.66699 -12.333 -25 -27 -61l-217 -545c-21.333 -53.333 -36.333 -80 -45 -80c-8 0 -15 7.66699 -21 23l-18 47l-143 373l-178 -381l-22 -46c-5.33301 -10.667 -10.333 -16 -15 -16
c-8.66699 0 -22.334 24 -41.001 72l-213 539c-14.667 37.333 -27.5 62.833 -38.5 76.5s-26.833 21.5 -47.5 23.5v23h286v-23c-50 -5.33301 -75 -23 -75 -53c0 -16.667 9 -49.334 27 -98.001l65 -163c29.333 -72.667 54 -138 74 -196l145 311
c-27.333 85.333 -49.666 139.666 -66.999 162.999c-14 18.667 -38 30.667 -72 36v23h319v-23l-52 -11c-28 -8.66699 -42 -24.667 -42 -48c0 -8 11.667 -43.667 35 -107l125 -338l141 350c19.333 48 29 82.333 29 103c0 18.667 -10.333 32 -31 40
c-2.66699 1.33301 -15.667 5 -39 11v23h193z" />
    <glyph glyph-name="clear" unicode="&#xf078;" horiz-adv-x="788" 
d="M346 311l-122.995 -194c-22 -34.667 -33 -56.667 -33 -66c1.33301 -12.667 12.666 -20.334 33.999 -23.001c5.33301 -0.666992 16 -1 32 -1v-27h-229v27c24.667 0 43 3.5 55 10.5s31 29.167 57 66.5l183 261l-146 225c-28.667 44 -54 72.333 -76 85
c-12.667 7.33301 -34.334 11 -65.001 11v23h330v-23c-46.667 0 -70 -13 -70 -39c0 -13.333 12 -39.333 36 -78c12.667 -20.667 32.667 -50.667 60 -90l75 109c21.333 31.333 32 51 32 59c0 26 -21.333 39 -64 39v23h248v-23c-24.667 0 -49.334 -6.33301 -74.001 -19
c-26.667 -14 -44.334 -31.667 -53.001 -53l-131 -186l203 -307c41.333 -62.667 83.666 -94 126.999 -94v-27h-318v27c22.667 0 36.667 0.666992 42 2c16 4 24 17 24 39c0 6.66699 -8.33301 22.334 -25 47.001z" />
    <glyph glyph-name="escape" unicode="&#xf079;" horiz-adv-x="788" 
d="M748 686c-22 -4 -38.332 -11.333 -48.999 -22c-8 -8.66699 -17 -26 -27 -52l-242 -639c-42 -112 -81.667 -191.333 -119 -238c-41.333 -52.667 -91 -79 -149 -79c-30.667 0 -56.667 8 -78 24c-24.667 17.333 -37 40.666 -37 69.999c0 45.333 26 68 78 68
c14 0 34.167 -4.83301 60.5 -14.5s43.166 -14.5 50.499 -14.5c34.667 0 69 37 103 111c28 61.333 42 104.333 42 129c0 11.333 -13.667 45 -41 101l-57 118l-181 389c-12 25.333 -37.667 42.333 -77 51v21h321v-23c-60 0 -90 -15.667 -90 -47c0 -16 4.66699 -34.333 14 -55
l183 -400l122 351c24.667 70.667 37 105.334 37 104.001c0 31.333 -25 47 -75 47v23h211v-23z" />
    <glyph glyph-name="command" unicode="&#xf07a;" horiz-adv-x="698" 
d="M637 0l-593.999 0.000976562v27l418 635h-219c-50.667 0 -84.667 -12.333 -102 -37c-10.667 -15.333 -19.667 -49 -27 -101h-31l4 185h549v-23l-424 -639h217c77.333 0 128.666 13 153.999 39c18.667 19.333 35 63.666 49 132.999l28 -6z" />
    <glyph glyph-name="rosette" unicode="&#xf07b;" horiz-adv-x="756" 
d="M291 215c0 52.667 -9.49902 92.3301 -28.499 118.997s-53.833 46.334 -104.5 59.001c51.333 14 86.333 33.833 105 59.5s28 65.834 28 120.501v279c0 86 23 145.333 69 178c38 27.333 101.667 41 191 41v-18c-96.667 -20 -145 -85 -145 -195v-264
c0 -61.333 -8 -105 -24 -131c-20 -32.667 -59.333 -56 -118 -70c57.333 -13.333 96 -36.666 116 -69.999c17.333 -28 26 -73 26 -135v-264c0 -56.667 10.667 -99.667 32 -129s59 -50.333 113 -63v-17c-90.667 0 -154.334 12.667 -191.001 38c-46 32 -69 91.667 -69 179v283z
" />
    <glyph glyph-name="rosettesolid" unicode="&#xf07c;" horiz-adv-x="315" 
d="M106 1065h103v-1090h-103v1090z" />
    <glyph glyph-name="quotedbllftbld" unicode="&#xf07d;" horiz-adv-x="756" 
d="M463 573c0 -54.667 9.66602 -95 28.999 -121s55.333 -45.667 108 -59c-52.667 -12.667 -88.667 -32 -108 -58s-29 -66 -29 -120v-283c0 -86.667 -22.667 -146 -68 -178c-37.333 -26 -100.666 -39 -189.999 -39v17c52.667 12.667 89.667 34.334 111 65.001
c20 28.667 30 71 30 127v264c0 61.333 9 106.333 27 135c20.667 33.333 59.334 56.666 116.001 69.999c-56 14 -94.333 37 -115 69c-18.667 28 -28 72 -28 132v264c0 58 -9.33301 101 -28 129c-21.333 32.667 -59 54.667 -113 66v18c89.333 0 152.666 -13.333 189.999 -40
c45.333 -32.667 68 -93 68 -181v-277z" />
    <glyph glyph-name="quotedblrtbld" unicode="&#xf07e;" horiz-adv-x="852" 
d="M793 430c-37.333 -47.333 -65.002 -78.334 -83.002 -93.001c-35.333 -29.333 -74.666 -44 -117.999 -44c-24 0 -50.667 5.33301 -80 16c-34.667 18.667 -88 43.334 -160 74.001c-32.667 10.667 -66.667 16 -102 16c-58.667 0 -101 -36.667 -127 -110l-60 78
c48.667 91.333 114.334 137 197.001 137c24.667 0 52.667 -5 84 -15l197 -82c19.333 -8 37 -12 53 -12c34 0 66 17.667 96 53c8 9.33301 23 29.333 45 60z" />
    <glyph glyph-name="zerosans" unicode="&#xf080;" horiz-adv-x="770" 
d="M528 469c0 14 -0.333008 24.332 -1 30.999c-6.66699 68 -53 109 -139 123c-32 5.33301 -76 8 -132 8c-34.667 0 -70.334 -2.33301 -107.001 -7c-11.333 -2 -42 -6.66699 -92 -14c0 75.333 24.667 143 74 203c47.333 57.333 116 86 206 86h18c8 -1.33301 14 -2 18 -2
l234 -57c38.667 0 65.334 12.333 80.001 37c4.66699 7.33301 8.33398 15.333 11.001 24l27 -20c-5.33301 -28 -22.333 -61.667 -51 -101c-8.66699 -12 -21.5 -21 -38.5 -27s-36.5 -9 -58.5 -9c-30 0 -68.667 5.66699 -116 17c-10 2 -33.333 8.33301 -70 19
c-52 15.333 -91 23 -117 23c-30 0 -54.333 -7.66699 -73 -23c-30.667 -25.333 -48.667 -57.333 -54 -96c21.333 0 53.5 0.666992 96.5 2s75.167 2 96.5 2c34.667 0 75 -6 121 -18c96.667 -25.333 155.667 -65.333 177 -120c7.33301 -19.333 11 -41 11 -65v-335
c0 -106.667 -62 -160 -186 -160c-121.333 0 -182 53.333 -182 160v131c-14.667 -8.66699 -35.334 -13 -62.001 -13c-38 0 -70 13.5 -96 40.5s-39 59.5 -39 97.5c0 36.667 11.5 68.667 34.5 96s52.5 43 88.5 47c78.667 0 132.667 -20 162 -60
c15.333 -21.333 25 -44.666 29 -69.999c2 -13.333 3 -41 3 -83v-215c0 -41.333 22 -62 66 -62c40.667 0 61 20.667 61 62v348zM150 407.999c0 -20 6.5 -37.333 19.5 -52s29.5 -22 49.5 -22c48 0 72 24.667 72 74c0 50 -24 75 -72 75c-46 0 -69 -25 -69 -75z" />
    <glyph glyph-name="onesans" unicode="&#xf081;" 
d="M-655 1323c101.333 0 185.667 -35 253 -105c57.333 -59.333 91.666 -129.333 102.999 -210c-135.333 46 -260.333 69 -375 69c-116.667 0 -223.667 -7.33301 -321 -22c8.66699 86.667 46.334 154 113.001 202c61.333 44 137 66 227 66zM-919.999 1116
c78 14 159.333 21 244 21c91.333 0 191 -18.667 299 -56c-72.667 101.333 -175 152 -307 152c-123.333 0 -202 -39 -236 -117z" />
    <glyph glyph-name="twosans" unicode="&#xf082;" 
d="M-444 1249l-0.000976562 166h122v-330c7.33301 -16.667 15 -41.667 23 -75c-135.333 46 -260.333 69 -375 69c-116.667 0 -223.667 -7.33301 -321 -22c8.66699 86.667 46.334 154 113.001 202c61.333 44 137 66 227 66c80.667 0 151 -25.333 211 -76zM-920.001 1118
c78 14 159.333 21 244 21c91.333 0 191 -18.667 299 -56c-72.667 101.333 -175 152 -307 152c-123.333 0 -202 -39 -236 -117z" />
    <glyph glyph-name="threesans" unicode="&#xf083;" 
d="M-551 1300c0 32 12.834 59.834 38.501 83.501s55.5 35.5 89.5 35.5c35.333 0 65 -11.833 89 -35.5s36 -53.167 36 -88.5c0 -36 -12.667 -66.333 -38 -91c-16.667 -16 -30.334 -24 -41.001 -24c38 -50.667 61.333 -107.334 70 -170.001c-136.667 46 -261.667 69 -375 69
c-114 0 -221.333 -7.33301 -322 -22c10 86 48.333 153 115 201c61.333 44.667 137 67 227 67c36.667 0 73.667 -8.33301 111 -25zM-426.999 1226c18.667 0 34.834 7.16895 48.501 21.502s20.5 30.166 20.5 47.499c0 16 -6.33301 30.667 -19 44s-28.334 20 -47.001 20
c-18 0 -33.667 -6.66699 -47 -20s-20 -29 -20 -47c0 -18.667 6.66699 -34.334 20 -47.001s28 -19 44 -19zM-925.999 1118c78 14 158.668 21 242.001 21c91.333 0 191.666 -18.667 300.999 -56c-72.667 101.333 -175 152 -307 152c-123.333 0 -202 -39 -236 -117z" />
    <glyph glyph-name="foursans" unicode="&#xf084;" 
d="M-322 1090c9.33301 -22 14.6689 -35.333 16.002 -40c4.66699 -14.667 7 -28 7 -40c-135.333 46 -260.333 69 -375 69c-116.667 0 -223.667 -7.33301 -321 -22c8 81.333 43.167 146.5 105.5 195.5s131.166 73.5 206.499 73.5c9.33301 0 18.666 -0.333008 27.999 -1l24 -2
v92h111v-121c32.667 -11.333 62 -28.333 88 -51v172h110v-325zM-919.997 1118c78 14 159.333 21 244 21c91.333 0 191 -18.667 299 -56c-72.667 101.333 -175 152 -307 152c-123.333 0 -202 -39 -236 -117z" />
    <glyph glyph-name="fivesans" unicode="&#xf085;" 
d="M-197 1378c42 0 77.167 -14.333 105.5 -43s42.5 -64 42.5 -106c0 -41.333 -14.333 -76.333 -43 -105s-63.667 -43 -105 -43c-42 0 -77.333 14.167 -106 42.5s-43 63.5 -43 105.5c0 41.333 14.5 76.5 43.5 105.5s64.167 43.5 105.5 43.5zM-274 1227
c0 -21.333 7.5 -39.001 22.5 -53.001s33.167 -21 54.5 -21c20.667 0 38.5 7.83301 53.5 23.5s22.5 33.834 22.5 54.501c0 21.333 -8 39.333 -24 54s-34.667 22 -56 22c-20.667 0 -38 -8 -52 -24s-21 -34.667 -21 -56z" />
    <glyph glyph-name="sixsans" unicode="&#xf086;" 
d="M-322 1380l-26 -288h-96l-31 288h153z" />
    <glyph glyph-name="sevensans" unicode="&#xf087;" 
d="M-248 1352c0 -82 -25.334 -148.333 -76.001 -199c-65.333 -65.333 -142.333 -105.333 -231 -120c-68 -11.333 -127.333 -17 -178 -17c-28 0 -48 1.33301 -60 4v47c6.66699 2 12.334 4 17.001 6c29.333 13.333 52 30.333 68 51l10 15c-17.333 4 -39.333 10.667 -66 20
c-35.333 20 -51.666 55.667 -48.999 107c1.33301 31.333 15 57.5 41 78.5s54.667 31.5 86 31.5c86 0 129 -47 129 -141c0 -42.667 -18.333 -81 -55 -115c-12.667 -11.333 -31.334 -24.333 -56.001 -39c14.667 0 29 0.333008 43 1c68.667 10 126.667 32.333 174 67
c54.667 40 82 107.667 82 203h121zM-686.001 1319c-40.667 0 -61 -20.333 -61 -61c0 -44 21 -66 63 -66c40.667 0 61 21 61 63c0 42.667 -21 64 -63 64z" />
    <glyph glyph-name="eightsans" unicode="&#xf088;" 
d="M-733 1071c-9.33301 12.667 -14 23.667 -14 33c0 12.667 6.66699 25.667 20 39c11.333 12 25.333 18 42 18c46 0 69 -22.667 69 -68c0 -25.333 -8.33301 -44.333 -25 -57c-20.667 -15.333 -44.334 -23 -71.001 -23c-73.333 0 -122.666 33.667 -147.999 101
c-8 22 -12 44.667 -12 68c0 73.333 32.333 128 97 164c24.667 14 38.667 19.333 42 16l86 -78l84 76c2 2 10.667 0.333008 26 -5c50 -18 79.667 -55.333 89 -112c2 -12.667 3 -23.667 3 -33c0 -32 -8.33301 -63.333 -25 -94c-8.66699 -16 -16.667 -27.667 -24 -35
c12.667 3.33301 22.667 6.66602 30 9.99902c67.333 31.333 107.333 89.333 120 174c4 23.333 6 44.333 6 63c0 17.333 -0.666992 30 -2 38h109c0 -20.667 -0.333008 -34.667 -1 -42c-11.333 -121.333 -70.666 -210 -177.999 -266c-33.333 -17.333 -68.333 -29 -105 -35
c-12 -2 -26.667 -3 -44 -3v45c22 22 33 59.667 33 113c0 28.667 -6.66699 54.334 -20 77.001c-4.66699 8 -11.667 16.333 -21 25l-80 -68l-82 68c-7.33301 -3.33301 -13 -6.66602 -17 -9.99902c-13.333 -10.667 -23.333 -24.334 -30 -41.001
c-10 -18.667 -15 -38.667 -15 -60c0 -18 3.66699 -35 11 -51s16.666 -28 27.999 -36c2.66699 -2 9 -5.66699 19 -11z" />
    <glyph glyph-name="ninesans" unicode="&#xf089;" 
d="M-410 1155v-137h-122v137h-150v76h150v133h122v-133h148v-76h-148z" />
    <glyph glyph-name="tensans" unicode="&#xf08a;" 
d="M-401 1270c9.33301 -8 16.333 -15.332 21 -21.999c14.667 -20.667 23.334 -45.334 26.001 -74.001c0 -39.333 -13 -72.5 -39 -99.5s-58.333 -40.5 -97 -40.5h-12c-6.66699 1.33301 -11.334 2 -14.001 2c-80 12.667 -120 61.334 -120 146.001c0 84 57.667 136 173 156
c98.667 17.333 156 43.333 172 78c6.66699 14 10 29.667 10 47c0 14 -1.66699 26.333 -5 37c-0.666992 3.33301 -2.33398 8.66602 -5.00098 15.999h129c1.33301 -3.33301 2 -6 2 -8c3.33301 -14 5 -28 5 -42c0 -64 -26 -111.667 -78 -143
c-17.333 -10.667 -40.666 -20.667 -69.999 -30c-12 -4 -23 -7 -33 -9zM-494 1098c45.333 0 68 23 68 69c0 48 -23.333 72 -70 72c-45.333 0 -68 -23 -68 -69c0 -48 23.333 -72 70 -72z" />
    <glyph glyph-name="zerosansinv" unicode="&#xf08b;" 
d="M-113 1382l-26 -288h-97l-30 288h153z" />
    <glyph glyph-name="onesansinv" unicode="&#xf08c;" 
d="M16 1352c0 -82.667 -25.001 -149 -75.001 -199c-65.333 -65.333 -142.666 -105.333 -231.999 -120c-68 -11.333 -127.333 -17 -178 -17c-27.333 0 -47 1.33301 -59 4v47c4.66699 1.33301 10 3.33301 16 6c28.667 12.667 51.334 29.667 68.001 51l10 15
c0 8.66699 -8.66699 13.667 -26 15c-22.667 1.33301 -36.334 3.33301 -41.001 6c-31.333 18 -47 48.667 -47 92c0.666992 6 1 10.667 1 14c0 32 12.667 58.333 38 79s54.333 31 87 31c86 0 129 -47 129 -141c0 -42 -18.333 -80.333 -55 -115
c-12 -11.333 -30.333 -24.333 -55 -39c14.667 0 29 0.333008 43 1c68.667 10 126.667 32.333 174 67c54.667 40 82 107.667 82 203h120zM-422.001 1319c-40.667 0 -61 -20.333 -61 -61c0 -44 21 -66 63 -66c40.667 0 61 21 61 63c0 42.667 -21 64 -63 64z" />
    <glyph glyph-name="twosansinv" unicode="&#xf08d;" 
d="M-500 1071c-10 10 -14.998 20.999 -14.998 32.999c0 8 2.33301 16 7 24c12.667 22 31 33 55 33c45.333 0 68 -22.667 68 -68c0 -25.333 -8.33301 -44.333 -25 -57c-20.667 -15.333 -44.334 -23 -71.001 -23c-44.667 0 -81.667 14.667 -111 44c-32 32 -48 73.333 -48 124
c0 64 26.333 115.333 79 154c31.333 22.667 51.666 31.667 60.999 27l84 -78l84 76c2 2 10.667 0.333008 26 -5c62.667 -22.667 94 -71.334 94 -146.001c0 -26 -5 -50.667 -15 -74c-12.667 -30 -23.667 -48 -33 -54c20 6.66699 36 13.667 48 21
c35.333 22.667 62.333 55.334 81 98.001c16 37.333 24 79.666 24 126.999c0 16.667 -0.666992 29.667 -2 39h109c0 -20 -0.333008 -34 -1 -42c-10 -119.333 -69.333 -208 -178 -266c-34 -18 -68.667 -29.667 -104 -35c-13.333 -2 -28.333 -3 -45 -3v45
c22 22 33 59.667 33 113c0 28.667 -6.66699 54.334 -20 77.001c-4.66699 8 -11.667 16.333 -21 25l-80 -68l-82 68c-6.66699 -3.33301 -12 -6.66602 -16 -9.99902c-30 -25.333 -45 -59 -45 -101c0 -40 13 -69 39 -87z" />
    <glyph glyph-name="threesansinv" unicode="&#xf08e;" 
d="M-113 1155v-137h-123v137h-147v76h147v133h123v-133h148v-76h-148z" />
    <glyph glyph-name="foursansinv" unicode="&#xf08f;" 
d="M-242 1270c10 -7.33301 17.668 -14.667 23.001 -22c16 -22 24 -46.667 24 -74c0 -40 -12.5 -73.333 -37.5 -100s-57.167 -40 -96.5 -40h-13c-6.66699 1.33301 -11.334 2 -14.001 2c-80 12.667 -120 60.667 -120 144c0 85.333 58 138 174 158
c97.333 16.667 154.333 42.334 171 77.001c6.66699 14 10 29.667 10 47c0 10.667 -1.66699 23.334 -5 38.001c-1.33301 5.33301 -3 10.666 -5 15.999h129c1.33301 -3.33301 2 -6 2 -8c3.33301 -14.667 5 -29.334 5 -44.001c0 -62.667 -25.667 -109.667 -77 -141
c-29.333 -18 -63.333 -31 -102 -39zM-331.999 1098c46.667 0 70 23 70 69c0 48 -24 72 -72 72c-46.667 0 -70 -23 -70 -69c0 -48 24 -72 72 -72z" />
    <glyph glyph-name="fivesansinv" unicode="&#xf090;" horiz-adv-x="1196" 
d="M965 801l73 85.998h49v-721c0 -58 -8.66699 -97 -26 -117c-28.667 -32.667 -65 -49 -109 -49h-196c-44 0 -75.667 10 -95 30c-21.333 20.667 -32 57.667 -32 111v463c0 51.333 -3.66699 88.666 -11 111.999c-26 83.333 -92 125 -198 125
c-58.667 0 -109.667 -14.667 -153 -44c-52.667 -36 -83.667 -82 -93 -138l193 -26l-5 -47c-33.333 0 -60.333 -16.333 -81 -49c-11.333 -12.667 -17 -39.334 -17 -80.001v-195c15.333 6.66699 35.333 10 60 10c38 0 70 -13.333 96 -40s39 -59 39 -97
c0 -36 -11.333 -67.667 -34 -95s-51.667 -42.666 -87 -45.999c-13.333 -1.33301 -24 -2 -32 -2c-57.333 0 -100.666 19.667 -129.999 59c-23.333 31.333 -35 75.666 -35 132.999v262c0 40.667 6.66699 71.334 20 92.001c8 12.667 17.333 23.334 28 32.001
c21.333 14 32 22.333 32 25s-0.666992 5 -2 7l-143 16c0 42.667 15.667 86.334 47 131.001c27.333 40 60.666 73 99.999 99c52 34 117.333 51 196 51c71.333 0 130.333 -13 177 -39c102.667 -57.333 154 -142.666 154 -255.999v-501c4.66699 -28 19.667 -42 45 -42h104
c20.667 0 39 9.66699 55 29c7.33301 8.66699 11 22.667 11 42v669zM395 132.998c0 50.667 -23.667 76 -71 76c-46.667 0 -70 -25.333 -70 -76s23.333 -76 70 -76c47.333 0 71 25.333 71 76z" />
    <glyph glyph-name="sixsansinv" unicode="&#xf091;" horiz-adv-x="516" 
d="M315 772c0 -58.667 -29.999 -88 -89.999 -88c-40.667 0 -72.334 14.667 -95.001 44c-21.333 26.667 -32 61 -32 103c0 49.333 23.333 99.333 70 150c38 41.333 73.333 68 106 80l13 -29c-83.333 -54 -125 -110 -125 -168c0 -12 6.66699 -18 20 -18l15 2
c2.66699 1.33301 10 2 22 2c64 0 96 -26 96 -78z" />
    <glyph glyph-name="sevensansinv" unicode="&#xf092;" horiz-adv-x="516" 
d="M152 700c82.667 54.667 124.001 110.666 124.001 167.999c0 12.667 -6.66699 19 -20 19l-14 -2c-2.66699 -1.33301 -10.334 -2 -23.001 -2c-64 0 -96 26 -96 78c0 58.667 30 88 90 88c28.667 0 54 -8.33301 76 -25c34 -26 51 -67 51 -123
c0 -49.333 -23.333 -99.333 -70 -150c-38 -41.333 -73.333 -67.666 -106 -78.999z" />
    <glyph glyph-name="eightsansinv" unicode="&#xf093;" horiz-adv-x="690" 
d="M256 1020c-86 -55.333 -129 -110 -129 -164c0 -14.667 7.66699 -22 23 -22l12 2c6 4 14 6 24 6c64.667 0 97 -26 97 -78c0 -61.333 -30 -92 -90 -92c-28 0 -53 8.66699 -75 26c-33.333 26 -50 67 -50 123c0 49.333 22.667 99.333 68 150c38 42 72.667 68 104 78z
M614 1020c-84.667 -54.667 -126.999 -109.333 -126.999 -164c0 -14.667 7.66699 -22 23 -22l14 2c4 4 11.667 6 23 6c64 0 96 -26 96 -78c0 -61.333 -30 -92 -90 -92c-28.667 0 -54.334 8.66699 -77.001 26c-33.333 26 -50 67 -50 123c0 49.333 23.333 99.333 70 150
c38.667 42 74 68 106 78z" />
    <glyph glyph-name="ninesansinv" unicode="&#xf094;" horiz-adv-x="690" 
d="M76 700c84.667 56.667 127 112.667 127 168c0 12.667 -7.66699 19 -23 19l-14 -2c-2.66699 -1.33301 -11 -2 -25 -2c-62.667 0 -94 26 -94 78c0 58.667 30 88 90 88c83.333 0 125 -49.333 125 -148c0 -49.333 -23 -99.333 -69 -150c-38 -42 -73 -68.333 -105 -79z
M434 700c84.667 56.667 127 112.667 127 168c0 12.667 -6.66699 19 -20 19l-15 -2c-2.66699 -1.33301 -10 -2 -22 -2c-65.333 0 -98 26 -98 78c0 58.667 30.667 88 92 88c40.667 0 71.667 -14.167 93 -42.5s32 -63.5 32 -105.5c0 -49.333 -23 -99.333 -69 -150
c-38 -42 -73 -68.333 -105 -79z" />
    <glyph glyph-name="tensansinv" unicode="&#xf095;" horiz-adv-x="782" 
d="M377 180c-78.667 0 -142.834 24.835 -192.501 74.502s-74.5 113.5 -74.5 191.5c0 79.333 24.667 143.666 74 192.999s113.666 74 192.999 74c78.667 0 142.834 -24.833 192.501 -74.5s74.5 -113.834 74.5 -192.501s-24.667 -142.667 -74 -192s-113.666 -74 -192.999 -74z
" />
    <glyph glyph-name="budleafne" unicode="&#xf096;" 
d="M-127 1380l-27 -288h-96l-31 288h154z" />
    <glyph glyph-name="budleafnw" unicode="&#xf097;" 
d="M-127 1765l-27 -286h-94l-31 286h152z" />
    <glyph glyph-name="budleafsw" unicode="&#xf098;" 
d="M-514 1171c20.667 -17.333 56.667 -25.999 108 -25.999c47.333 0 90.666 9.66699 129.999 29c51.333 25.333 89 66 113 122c16 37.333 24 74.333 24 111h116c0 -38.667 -7 -76.667 -21 -114c-22 -58 -59.333 -106 -112 -144c-62.667 -44.667 -144 -67 -244 -67
c-55.333 0 -100.333 6 -135 18c-58.667 20 -101 53.333 -127 100c-12 26.667 -18 51.667 -18 75c0 31.333 9 59.666 27 84.999c28.667 40 69 60 121 60c54 0 92.667 -21.333 116 -64c11.333 -20.667 17 -42.667 17 -66c0 -32 -11 -60 -33 -84
c-27.333 -23.333 -54.666 -35 -81.999 -35zM-537 1358c-45.333 0 -68 -22.667 -68 -68c0 -44.667 22.667 -67 68 -67s68 22.333 68 67c0 45.333 -22.667 68 -68 68z" />
    <glyph glyph-name="budleafse" unicode="&#xf099;" 
d="M-453 1378c42 0 77.499 -14.333 106.499 -43s43.5 -64 43.5 -106c0 -41.333 -14.667 -76.333 -44 -105s-64.666 -43 -105.999 -43s-76.5 14.333 -105.5 43s-43.5 63.667 -43.5 105s14.5 76.5 43.5 105.5s64.167 43.5 105.5 43.5zM-530.001 1227
c0 -21.333 7.50098 -38.999 22.501 -52.999s33.167 -21 54.5 -21s39.666 7.66699 54.999 23s23 33.666 23 54.999s-8 39.333 -24 54s-34.667 22 -56 22c-22 0 -40 -7.83301 -54 -23.5s-21 -34.5 -21 -56.5z" />
    <glyph glyph-name="vineleafboldne" unicode="&#xf09a;" 
d="M-389 1108c-38 0 -63.999 13.668 -77.999 41.001c-4 10 -6 20.333 -6 31c0 46.667 18.667 73 56 79c15.333 2 25.333 3 30 3c26 0 47.5 -9.5 64.5 -28.5s25.5 -41.833 25.5 -68.5c0 -40.667 -12 -75.334 -36 -104.001c-25.333 -31.333 -57.666 -47 -96.999 -47
c-30.667 0 -64.667 10 -102 30c-82 44 -129.667 66 -143 66c-24 0 -44.333 -10.333 -61 -31c-3.33301 -4 -15.333 -24.333 -36 -61c-2.66699 -4.66699 -20.667 2 -54 20c-66 36 -99 91.333 -99 166c0 65.333 22.667 115 68 149c41.333 30.667 90 46 146 46
c17.333 0 55 -4 113 -12c29.333 -4 52.333 -6 69 -6c34 0 66.667 6.33301 98 19c28 10.667 42 36 42 76c0 10 -0.666992 17.667 -2 23h115c0.666992 -7.33301 1 -13.333 1 -18c0 -68.667 -25 -116.667 -75 -144c-32.667 -18 -75.334 -27 -128.001 -27
c-18.667 0 -42 1.33301 -70 4c-63.333 6 -102 9 -116 9c-92.667 0 -144 -32 -154 -96c-1.33301 -6 -2 -12.333 -2 -19c0 -23.333 7 -44.333 21 -63c4 -6 11 -13 21 -21c4 12.667 7 21 9 25c18 36.667 45.667 55 83 55c32.667 0 77 -20.333 133 -61s93.667 -61 113 -61
c11.333 0 22 2.66699 32 8c5.33301 2.66699 11.666 8.66699 18.999 18z" />
    <glyph glyph-name="vineleafboldnw" unicode="&#xf09b;" 
d="M-319 1765l-27 -286h-94l-31 286h152z" />
    <glyph glyph-name="vineleafboldsw" unicode="&#xf09c;" 
d="M-248 1577c28 25.333 46.3311 64.9971 54.998 118.997c2.66699 16.667 4.33398 40.334 5.00098 71.001h108c0 -21.333 -0.666992 -36.666 -2 -45.999c-10 -72 -41.667 -130.167 -95 -174.5s-116.666 -73.166 -189.999 -86.499c-32.667 -6 -69 -9 -109 -9
c-37.333 0 -61.666 1.66699 -72.999 5v41c2.66699 0.666992 5.66699 1.66699 9 3c32.667 12 55.667 28 69 48c1.33301 2 4 7 8 15c-12.667 0.666992 -33 6 -61 16c-27.333 16.667 -41 48.667 -41 96c0 28 11.5 51.833 34.5 71.5s48.833 29.5 77.5 29.5
c32.667 0 60.167 -9.5 82.5 -28.5s33.5 -44.833 33.5 -77.5c0 -6 -0.333008 -12.333 -1 -19c-4 -40.667 -21.333 -76 -52 -106c-10.667 -10 -26 -21.333 -46 -34l64 6c51.333 12 92.666 32 123.999 60zM-453.002 1724c-36.667 0 -55 -18 -55 -54c0 -38.667 19 -58 57 -58
c36.667 0 55 18.667 55 56s-19 56 -57 56z" />
    <glyph glyph-name="vineleafboldse" unicode="&#xf09d;" 
d="M-485 1499c-6.66699 10 -10 19.335 -10 28.002c0 6 2 13.667 6 23c5.33301 19.333 21.666 29 48.999 29c40 0 60 -20.333 60 -61c0 -46.667 -27.333 -70 -82 -70c-64 0 -107.333 31 -130 93c-8 21.333 -12 43 -12 65c0 67.333 26 114.666 78 141.999
c24 12 37.667 16.333 41 13l77 -69l74 67c2.66699 1.33301 10.667 0 24 -4c60.667 -18.667 91 -62.667 91 -132c0 -29.333 -8.33301 -57.333 -25 -84c-5.33301 -8.66699 -14 -19.334 -26 -32.001c19.333 8 33.666 15 42.999 21c52 34 84.333 81.667 97 143
c4 18.667 6 36.667 6 54c0 19.333 -1 32 -3 38h102c-0.666992 -15.333 -1.66699 -28.333 -3 -39c-8 -63.333 -27.333 -112.333 -58 -147c-47.333 -54 -102.333 -90.667 -165 -110c-19.333 -6 -45.666 -10.333 -78.999 -13v39l1 1c8 8.66699 14 17 18 25
c13.333 25.333 20 53.666 20 84.999c0 25.333 -7.66699 48.333 -23 69c-5.33301 7.33301 -13.333 15 -24 23l-70 -64l-75 64c-6 -3.33301 -11 -6.33301 -15 -9c-12 -10 -21.667 -23.667 -29 -41s-11 -34.666 -11 -51.999c0 -36 12 -63.667 36 -83
c4.66699 -4 10.334 -8 17.001 -12z" />
    <glyph glyph-name="circle2" unicode="&#xf09e;" 
d="M-322 1579v-121h-116v121h-148v74h148v121h116v-121h146v-74h-146z" />
    <glyph glyph-name="circle4" unicode="&#xf09f;" 
d="M-309 1559c10 -7.33301 17.333 -13.998 22 -19.998c15.333 -19.333 23 -41.333 23 -66c0 -35.333 -11.5 -65 -34.5 -89s-52.167 -36 -87.5 -36h-12c-5.33301 1.33301 -9.33301 2 -12 2c-70.667 10 -106 51 -106 123c0 69.333 48.667 115.333 146 138
c66 15.333 109.333 28.666 130 39.999c48.667 27.333 73 64.666 73 111.999v9c0 2 -0.333008 3.33301 -1 4l84 -50c-1.33301 -28.667 -5.66602 -50 -12.999 -64c-12.667 -24 -33.667 -44 -63 -60c-26.667 -14.667 -59.334 -25.667 -98.001 -33zM-389 1407
c40.667 0 61 20.333 61 61c0 42.667 -21 64 -63 64c-40.667 0 -61 -20.333 -61 -61c0 -42.667 21 -64 63 -64z" />
    <glyph glyph-name="square2" unicode="&#xf0a0;" horiz-adv-x="1145" 
 />
    <glyph glyph-name="ring2" unicode="&#xf0a1;" horiz-adv-x="885" 
d="M649 0v603.997c0 52.667 -3.66699 90.334 -11 113.001c-26.667 83.333 -96.667 125 -210 125c-62 0 -115 -15.667 -159 -47c-54.667 -39.333 -86.334 -84.666 -95.001 -135.999l193 -26l-5 -47c-33.333 0 -60.333 -16.333 -81 -49
c-11.333 -12.667 -17 -39.334 -17 -80.001v-457h-123v446c0 40.667 6.66699 71.334 20 92.001c8 12.667 17.333 23.334 28 32.001c21.333 14 32 22.333 32 25s-0.666992 5 -2 7l-143 16c0 43.333 16.333 87.333 49 132c28.667 40 63.334 72.667 104.001 98
c55.333 34.667 123.333 52 204 52c69.333 0 129 -11.333 179 -34c106.667 -48 160 -135.333 160 -262v-604h-123z" />
    <glyph glyph-name="ring4" unicode="&#xf0a2;" horiz-adv-x="815" 
d="M584 801l72.9971 86h50v-697c0 -61.333 -13.667 -107.666 -41 -138.999c-19.333 -22 -44 -36.667 -74 -44c-19.333 -4.66699 -48.666 -7 -87.999 -7h-350l6 53h24c34.667 0 56 3.33301 64 10c12 10 18 33.333 18 70v277c22.667 23.333 39.334 43 50.001 59
c34 50.667 51 101.334 51 152.001c0 89.333 -20 151.333 -60 186c-20 17.333 -44.667 26 -74 26c-32 0 -58.333 -10.667 -79 -32c-24 -24.667 -39.333 -49.667 -46 -75c-2 -7.33301 -3.33301 -18.666 -4 -33.999c6.66699 8.66699 12 14.667 16 18c16 12.667 36.667 19 62 19
c34 3.33301 61.667 -6.33398 83 -29.001s32 -51.334 32 -86.001c0 -33.333 -11.167 -60.333 -33.5 -81s-50.166 -31 -83.499 -31c-72.667 0 -117 36.667 -133 110c-4 18.667 -6 37.334 -6 56.001c0 48 11.667 91 35 129c25.333 41.333 59.666 69.333 102.999 84
c24.667 8.66699 51.667 13 81 13c87.333 0 150 -37 188 -111c20.667 -40 31 -90.667 31 -152c0 -48 -10.667 -96.333 -32 -145c-9.33301 -20.667 -26 -50.334 -50 -89.001c-5.33301 -10.667 -8 -22.334 -8 -35.001v-274c0 -18 9 -27 27 -27h90
c28.667 0 48.834 9.33301 60.501 28s17.5 49.667 17.5 93v619zM122.997 616c0 -38 19 -57 57 -57c38.667 0 58 19 58 57c0 38.667 -19.333 58 -58 58c-38 0 -57 -19.333 -57 -58z" />
    <glyph glyph-name="ring6" unicode="&#xf0a3;" horiz-adv-x="831" 
d="M477 748c8 -28.667 12 -67.665 12 -116.998c0 -45.333 -10.667 -92.666 -32 -141.999c-8 -18 -24.333 -48.667 -49 -92c-6 -10.667 -9 -22.334 -9 -35.001v-274c0 -18 9 -27 27 -27h90c26 0 47.333 9.66699 64 29c9.33301 17.333 14 42.666 14 75.999v635l74 86h49v-697
c0 -61.333 -13.667 -107.666 -41 -138.999c-20 -22.667 -44 -37.334 -72 -44.001c-18.667 -4.66699 -48.667 -7 -90 -7h-350l6 53h25c34 0 55.667 3.33301 65 10c12 10.667 17.667 25 17 43c0 4 -0.333008 9 -1 15v12v277c22.667 23.333 39.334 43 50.001 59
c34 50.667 51 101.334 51 152.001c0 106 -17.667 171.333 -53 196l-74 -57l-70 59c-21.333 -6 -40.333 -23.667 -57 -53c-11.333 -20 -18.333 -39.333 -21 -58c-0.666992 -2.66699 -1.33398 -12 -2.00098 -28c11.333 24.667 37.333 37 78 37
c33.333 0 60.833 -10.833 82.5 -32.5s32.5 -49.167 32.5 -82.5c0 -34 -11 -61.667 -33 -83s-50 -32 -84 -32c-94.667 0 -142 62.667 -142 188c0 61.333 18 112.666 54 153.999c32 36.667 62.667 58.667 92 66l70 -70l80 70c26.667 -6.66699 48 -15.334 64 -26.001
c39.333 -26.667 67 -67 83 -121zM121 604.002c0 -38 19 -57 57 -57c38.667 0 58 19 58 57c0 38.667 -19.333 58 -58 58c-38 0 -57 -19.333 -57 -58z" />
    <glyph glyph-name="ringbutton2" unicode="&#xf0a4;" horiz-adv-x="926" 
d="M319 289c-6 -46.667 -10.002 -100.669 -12.002 -162.002c0 -7.33301 -0.5 -18.833 -1.5 -34.5s-1.5 -27.167 -1.5 -34.5c0 -36.667 -0.333008 -56 -1 -58h-127l2 80v54c0 77.333 -5.33301 131 -16 161c-25.333 70 -42 117.667 -50 143c-18 56 -27 104 -27 144
c0 19.333 1.66699 37 5 53c14.667 70.667 49 129 103 175c50.667 44.667 112.667 73 186 85c12 2 27 3.33301 45 4l29 1c102.667 0 183.667 -25 243 -75c41.333 -35.333 69 -67.333 83 -96c20 -42 30 -102 30 -180v-549h-121v573c0 44 -0.333008 70 -1 78
c-2.66699 33.333 -13.334 63.333 -32.001 90c-46.667 66.667 -114.667 100 -204 100c-92.667 0 -164.667 -27.667 -216 -83c-44.667 -48 -67 -104.333 -67 -169c0 -46 14.333 -99.667 43 -161c8.66699 -19.333 20.334 -43.333 35.001 -72c4 30.667 14 79.334 30 146.001
c18 51.333 29.667 82.333 35 93c32.667 68 79.334 102 140.001 102c40.667 0 75.334 -16 104.001 -48c26 -29.333 39 -62.333 39 -99c0 -27.333 -8.33301 -53.666 -25 -78.999c-27.333 -41.333 -67.333 -62 -120 -62c-6 0.666992 -10.333 1 -13 1c-32 4 -58.667 16 -80 36
c-10 -34.667 -22.333 -87 -37 -157zM450.998 626.998c-21.333 0 -39.335 -7.33301 -54.002 -22s-22 -32.667 -22 -54c0 -20.667 7.5 -38.167 22.5 -52.5s32.833 -21.5 53.5 -21.5s38.334 7.16699 53.001 21.5s22 31.833 22 52.5c0 21.333 -7.16699 39.333 -21.5 54
s-32.166 22 -53.499 22z" />
    <glyph glyph-name="target" unicode="&#xf0a5;" horiz-adv-x="926" 
d="M248 348l26.002 122.998c13.333 38.667 22 63 26 73c34.667 81.333 84.334 122 149.001 122c40 0 73.667 -14.667 101 -44s41 -64 41 -104c0 -28 -8 -54 -24 -78c-27.333 -41.333 -67.333 -62 -120 -62c-6 0.666992 -10.333 1 -13 1c-28.667 0 -55.334 12.333 -80.001 37
c-10 -35.333 -22.333 -88 -37 -158c-6.66699 -56 -10 -110 -10 -162v-75c0 -13.333 -1.33301 -20.333 -4 -21h-127l2 80v54c0 75.333 -5.33301 129 -16 161c-37.333 112.667 -57.333 174.334 -60 185.001c-9.33301 38 -14 76 -14 114v19c0 4.66699 0.666992 12 2 22
c8 62 35.333 118.333 82 169s100.667 81.667 162 93l117 -88l112 88c56 -8.66699 104.667 -29 146 -61c34 -26.667 58.333 -58 73 -94c18 -44 27 -105.667 27 -185v-557h-121v582c0 83.333 -13 144 -39 182c-22.667 32.667 -49.334 52.334 -80.001 59.001l-118 -90l-127 92
c-38.667 -12 -71.834 -35.5 -99.501 -70.5s-44.5 -72.833 -50.5 -113.5c-3.33301 -22 -5 -40 -5 -54c0 -47.333 10.667 -94.333 32 -141zM449.002 593.998c-50.667 0 -76 -24.667 -76 -74c0 -20.667 7.5 -38.167 22.5 -52.5s32.833 -21.5 53.5 -21.5
s38.334 7.16699 53.001 21.5s22 31.833 22 52.5s-7.33301 38.167 -22 52.5s-32.334 21.5 -53.001 21.5z" />
    <glyph glyph-name="circleshadowup" unicode="&#xf0a6;" horiz-adv-x="930" 
d="M655 86c15.333 0 26.333 11.002 33 33.002c4 14.667 6 34 6 58v624l74 86h49v-701c0 -64 -14.5 -112 -43.5 -144s-68.5 -48 -118.5 -48c-22.667 0 -52 32 -88 96l-69 127c-22 32 -38.333 52.333 -49 61c-6.66699 5.33301 -19.667 9.66602 -39 12.999v-187
c0 -74 -42 -111 -126 -111c-10 0 -17.333 0.333008 -22 1c-88.667 0 -133 64.667 -133 194c0 62 18 109 54 141c28 24.667 59.667 37 95 37c5.33301 -0.666992 9 -1 11 -1v65c22.667 18.667 39.334 35 50.001 49c33.333 43.333 50 90.666 50 141.999
c0 106 -17.667 171.333 -53 196l-74 -57l-72 59c-19.333 -5.33301 -38.333 -23.666 -57 -54.999c-10.667 -16.667 -17.334 -35.334 -20.001 -56.001c-0.666992 -2.66699 -1.33398 -12 -2.00098 -28c11.333 24.667 37 37 77 37c33.333 0 60.833 -10.833 82.5 -32.5
s32.5 -49.167 32.5 -82.5c0 -34 -11 -61.667 -33 -83s-50 -32 -84 -32c-70 0 -113.667 35.333 -131 106c-7.33301 28 -11 54.333 -11 79c0 60.667 18.667 113 56 157c28.667 34 58.667 56 90 66l72 -70l80 70c45.333 -11.333 81.666 -35.666 108.999 -72.999
c34 -46.667 51 -110.334 51 -191.001c0 -48 -10.667 -91.333 -32 -130l-50 -83c-7.33301 -12.667 -11 -28 -11 -46v-9c0 -2.66699 0.333008 -5 1 -7c36.667 0 71.334 -17.667 104.001 -53c22.667 -24.667 45.334 -58 68.001 -100c42 -78 66.333 -117 73 -117zM289 301.002
c-48 0 -77.333 -27.333 -88 -82c-2.66699 -14 -4 -27.333 -4 -40c0 -62 12.667 -95.333 38 -100c10 -2 16.667 -3 20 -3c22.667 0 34 19 34 57v168zM131 604.002c0 -38 19 -57 57 -57c38.667 0 58 19 58 57c0 38.667 -19.333 58 -58 58c-38 0 -57 -19.333 -57 -58z" />
    <glyph glyph-name="square4" unicode="&#xf0a7;" horiz-adv-x="635" 
d="M377 0l-331.999 433.999l4 88l346 -379v484c-13.333 -8.66699 -33 -13 -59 -13c-38.667 0 -70.834 13.333 -96.501 40s-38.5 59.334 -38.5 98.001c0 36.667 11.167 68.667 33.5 96s51.5 43 87.5 47c77.333 0 131 -19.667 161 -59c22 -28.667 33 -70.667 33 -126v-710
h-139zM264.001 753.999c0 -49.333 24 -74 72 -74c46.667 0 70 24.667 70 74c0 50 -23.333 75 -70 75c-48 0 -72 -25 -72 -75z" />
    <glyph glyph-name="box2" unicode="&#xf0a8;" horiz-adv-x="778" 
d="M539 604c0 51.333 -4.00098 89 -12.001 113c-27.333 82.667 -95.666 124 -204.999 124c-65.333 0 -118.666 -16.667 -159.999 -50c-43.333 -34.667 -71.333 -76.334 -84 -125.001l-62 28c5.33301 16.667 10.666 30 15.999 40c21.333 42.667 55.5 81.167 102.5 115.5
s110.833 51.5 191.5 51.5c67.333 0 126 -11.667 176 -35c106.667 -49.333 160 -136.666 160 -261.999v-454c0 -106.667 -62.333 -160 -187 -160c-122.667 0 -184 53.333 -184 160v245c-19.333 -8 -39.333 -12 -60 -12c-38 0 -70 13.5 -96 40.5s-39 59.833 -39 98.5
c0 36.667 11.167 68.667 33.5 96s51.5 42.666 87.5 45.999c78 0 132 -19 162 -57c16 -21.333 26.333 -45.666 31 -72.999c2.66699 -16 4 -43.667 4 -83v-330c0 -41.333 21 -62 63 -62c41.333 0 62 20.667 62 62v483zM159.999 524c0 -50 23.667 -75 71 -75
c46.667 0 70 25 70 75c0 20 -6.66699 37.667 -20 53s-30 23 -50 23c-47.333 0 -71 -25.333 -71 -76z" />
    <glyph glyph-name="tristar2" unicode="&#xf0a9;" horiz-adv-x="895" 
d="M72 715c17.333 51.333 55.9971 95.667 115.997 133s133.667 56 221 56c78.667 0 144.334 -12.667 197.001 -38c106.667 -51.333 160 -138.666 160 -261.999v-291c0 -18 -9 -33 -27 -45c-6 -4 -15.333 -8.66699 -28 -14c6.66699 0 15.334 -2.33301 26.001 -7
c48.667 -20.667 73 -61 73 -121c0 -49.333 -15.333 -85.333 -46 -108c-26 -19.333 -56 -29 -90 -29c-50.667 0 -89 20 -115 60c-15.333 23.333 -23 49.333 -23 78c0 22 5 44 15 66c-38.667 -10.667 -63.667 -19 -75 -25c-18.667 -9.33301 -36.667 -23 -54 -41
c-30 -30.667 -49 -61 -57 -91c-2.66699 -10 -3.66699 -22 -3 -36h-108v336c-14.667 -8 -35 -12 -61 -12c-37.333 0 -68.333 13.5 -93 40.5s-37 59.167 -37 96.5c0 78 39 125.667 117 143c24 2.66699 36.667 4 38 4c51.333 0 93 -20.667 125 -62
c21.333 -28.667 32 -80.334 32 -155.001v-225c12 14.667 25.333 27 40 37c9.33301 6.66699 25.333 16 48 28c29.333 16 70.333 28.333 123 37c47.333 8 71 24.333 71 49v287c0 92 -31.667 159 -95 201c-37.333 24 -90.333 36 -159 36c-79.333 0 -142 -18 -188 -54
c-25.333 -19.333 -45.333 -40.333 -60 -63c-7.33301 -11.333 -14.666 -26 -21.999 -44zM128.997 463.001c0 -49.333 24.001 -74 72.001 -74c46 0 69 24.667 69 74c0 50.667 -23 76 -69 76c-20.667 0 -37.834 -7.5 -51.501 -22.5s-20.5 -32.833 -20.5 -53.5zM673.998 195.001
c-48 0 -72 -23.667 -72 -71s24 -71 72 -71s72 23.667 72 71s-24 71 -72 71z" />
    <glyph glyph-name="crosstar2" unicode="&#xf0aa;" horiz-adv-x="807" 
d="M700 627l-0.00488281 -436.998c0 -63.333 -12.333 -109.333 -37 -138c-30 -34.667 -84.333 -52 -163 -52h-350l6 53h24c34.667 0 56 3.33301 64 10c12 10 18 33.333 18 70v277c22.667 23.333 39.334 43 50.001 59c33.333 50 50 100.667 50 152c0 88 -20.333 150 -61 186
c-19.333 17.333 -43.666 26 -72.999 26c-31.333 0 -57.333 -10.667 -78 -32c-24 -25.333 -39.333 -50.333 -46 -75c-2 -7.33301 -3.33301 -18.666 -4 -33.999c6 8.66699 11 14.667 15 18c16 12.667 37 19 63 19c34 3.33301 61.667 -6.33398 83 -29.001
s32 -51.334 32 -86.001c0 -33.333 -11.167 -60.333 -33.5 -81s-50.166 -31 -83.499 -31c-30 0 -58 9.5 -84 28.5s-41.667 43.167 -47 72.5c-5.33301 24 -8 45.667 -8 65c0 110 47 181.333 141 214c26.667 9.33301 54.667 14 84 14c46 0 83 -10 111 -30
c68 -48 102 -126.333 102 -235c0 -44.667 -10.667 -92 -32 -142c-11.333 -26.667 -28 -57.334 -50 -92.001c-6.66699 -10.667 -10 -22.334 -10 -35.001v-274c0 -8 2 -14 6 -18c3.33301 -6 10.333 -9 21 -9h92c28.667 0 48.834 9.33301 60.501 28s17.5 49.667 17.5 93v455
c0 46.667 -8 81 -24 103c-23.333 32 -48.333 44.667 -75 38l-20 39c47.333 0 94.333 21.333 141 64c16.667 15.333 29.667 35 39 59c4.66699 12 8.66699 28.333 12 49l127 -24c-8 -44.667 -31.167 -83.167 -69.5 -115.5s-75.166 -48.5 -110.499 -48.5
c30.667 -8 56 -26.667 76 -56c16 -23.333 24 -62.666 24 -117.999zM116.995 616.002c0 -38 19.667 -57 59 -57c38 0 57 19 57 57c0 38.667 -19 58 -57 58c-39.333 0 -59 -19.333 -59 -58z" />
    <glyph glyph-name="pentastar2" unicode="&#xf0ab;" horiz-adv-x="831" 
d="M168 0l8.00098 52.999h25c32.667 0 54.5 4.33301 65.5 13s16.5 31 16.5 67v277c22.667 24 39 43.667 49 59c32.667 50 49 100.667 49 152c0 108 -17.667 173.333 -53 196l-72 -57l-72 59c-21.333 -6 -40.333 -23.667 -57 -53c-11.333 -20 -18.333 -39.333 -21 -58
c-0.666992 -2.66699 -1.33398 -12 -2.00098 -28c11.333 24.667 37.333 37 78 37c33.333 0 60.833 -10.833 82.5 -32.5s32.5 -49.167 32.5 -82.5c0 -34 -11 -61.667 -33 -83s-50 -32 -84 -32c-72 0 -116.333 37.667 -133 113c-6 26.667 -9 51.334 -9 74.001
c0 60 18.667 111.667 56 155c29.333 34 59.333 56 90 66l72 -70l80 70c21.333 -5.33301 37 -10.666 47 -15.999c20.667 -11.333 41 -30.666 61 -57.999c34.667 -47.333 52 -110.666 52 -189.999c0 -44.667 -11 -92 -33 -142c-2 -5.33301 -18.333 -36 -49 -92
c-4.66699 -6.66699 -8.33398 -18.334 -11.001 -35.001v-274c0 -18 9 -27 27 -27h92c29.333 0 50 10 62 30c10.667 16.667 16 41.667 16 75v471c0 44.667 -7.33301 78.667 -22 102c-22.667 29.333 -47.334 41.666 -74.001 36.999l-21 45c12.667 0 24.334 1 35.001 3
c38.667 7.33301 73 25.666 103 54.999c34 33.333 51 70 51 110l129 -24c-6.66699 -40 -30.667 -78.333 -72 -115c-37.333 -32.667 -74.333 -49 -111 -49c29.333 -6.66699 55.333 -25.334 78 -56.001c16.667 -22 25 -61.333 25 -118v-437
c0 -63.333 -13 -109.666 -39 -138.999c-19.333 -22 -44 -36.667 -74 -44c-19.333 -4.66699 -48.666 -7 -87.999 -7h-352zM125.001 603.999c0 -38 19 -57 57 -57c38.667 0 58 19 58 57c0 38.667 -19.333 58 -58 58c-38 0 -57 -19.333 -57 -58z" />
    <glyph glyph-name="hexstar2" unicode="&#xf0ac;" horiz-adv-x="1196" 
d="M899 197c19.333 -14 33.668 -27.001 43.001 -39.001c6 -4.66699 9.66699 -7 11 -7c3.33301 0 5 11 5 33v617l74 86h49v-791c0 -31.333 -6 -55 -18 -71c-16 -20 -38.333 -30 -67 -30c-17.333 0 -29.166 5.5 -35.499 16.5l-27.5 45.5
c-35.333 53.333 -74.333 90.666 -117 111.999c-8 4 -22.667 9 -44 15c6.66699 -17.333 10 -37 10 -59c0 -29.333 -7.33301 -56 -22 -80c-24 -39.333 -59.667 -59 -107 -59c-56.667 0 -96.334 27 -119.001 81c-9.33301 20.667 -14 41.334 -14 62.001
c0 16 2.66699 31.667 8 47c12 34 31.333 58.667 58 74c16.667 9.33301 32.334 14 47.001 14c-3.33301 3.33301 -5.66602 6 -6.99902 8c-4.66699 7.33301 -6.33398 16.333 -5.00098 27v305c0 51.333 -3.66699 88.666 -11 111.999c-26.667 83.333 -92.334 125 -197.001 125
c-57.333 0 -108 -14.667 -152 -44c-51.333 -34.667 -83 -80.667 -95 -138l194 -26l-6 -47c-32 0 -59.333 -16.333 -82 -49c-9.33301 -13.333 -14 -40 -14 -80v-195c15.333 6.66699 35 10 59 10c38.667 0 71 -13.167 97 -39.5s39 -58.833 39 -97.5
c0 -36.667 -11.5 -68.5 -34.5 -95.5s-52.5 -42.167 -88.5 -45.5c-3.33301 0 -8.5 -0.333008 -15.5 -1s-12.167 -1 -15.5 -1c-56.667 0 -100.334 19.667 -131.001 59c-22 28 -33 72.333 -33 133v262c0 40 6.33301 70.167 19 90.5s30.334 36.833 53.001 49.5
c7.33301 4 9.33301 9.33301 6 16l-143 16c0 42.667 15.667 86.334 47 131.001c27.333 40 60.666 73 99.999 99c51.333 34 116.333 51 195 51c72 0 131.333 -13 178 -39c102 -56.667 153 -142 153 -256v-313c0 -11.333 6.33301 -20.333 19 -27
c4.66699 -2.66699 21.167 -9.16699 49.5 -19.5s57.5 -26.166 87.5 -47.499zM715.002 124.999c0 19.333 -5.66699 36.833 -17 52.5s-26.333 23.5 -45 23.5c-42 0 -63 -25.333 -63 -76s21 -76 63 -76c41.333 0 62 25.333 62 76zM389.002 132.999
c0 20.667 -6.83301 38.5 -20.5 53.5s-30.834 22.5 -51.501 22.5c-47.333 0 -71 -25.333 -71 -76s23.667 -76 71 -76c20.667 0 37.834 7.5 51.501 22.5s20.5 32.833 20.5 53.5z" />
    <glyph glyph-name="octastar2" unicode="&#xf0ad;" horiz-adv-x="1196" 
d="M958 156l0.00195312 645.001l74 86h49v-721c0 -58 -8.66699 -97 -26 -117c-28.667 -32.667 -65 -49 -109 -49h-196c-44 0 -76 10 -96 30c-22 21.333 -33 58.333 -33 111v463c0 51.333 -3.66699 88.666 -11 111.999c-26.667 83.333 -92.334 125 -197.001 125
c-57.333 0 -108 -14.667 -152 -44c-51.333 -34.667 -83 -80.667 -95 -138l194 -26l-6 -47c-32 0 -59.333 -16.333 -82 -49c-9.33301 -13.333 -14 -40 -14 -80v-195c15.333 6.66699 35 10 59 10c38.667 0 71 -13.167 97 -39.5s39 -58.833 39 -97.5
c0 -36.667 -11.5 -68.5 -34.5 -95.5s-52.5 -42.167 -88.5 -45.5c-3.33301 0 -8.5 -0.333008 -15.5 -1s-12.167 -1 -15.5 -1c-56.667 0 -100.334 19.667 -131.001 59c-22 28 -33 72.333 -33 133v262c0 40 6.33301 70.167 19 90.5s30.334 36.833 53.001 49.5
c7.33301 4 9.33301 9.33301 6 16l-143 16c0 42.667 15.667 86.334 47 131.001c27.333 40 60.666 73 99.999 99c51.333 34 116.333 51 195 51c72 0 131.333 -13 178 -39c102 -56.667 153 -142 153 -256v-475c0 -24 3 -41 9 -51c9.33301 -11.333 21.333 -17 36 -17h105
c20 0 38.333 9.66699 55 29c8 11.333 11.667 23.666 11 36.999c-0.666992 20 -1 29.667 -1 29zM940.002 -210.999c16 28.667 23.999 58.999 23.999 90.999c0 14.667 -1 24.667 -3 30h118c0.666992 -7.33301 1 -13.333 1 -18c0 -60.667 -20 -112.667 -60 -156
c-46.667 -50.667 -124 -76 -232 -76c-43.333 0 -82.333 11.333 -117 34c-39.333 26 -59 59.667 -59 101c0 35.333 11.5 64.333 34.5 87s52.5 34 88.5 34c33.333 0 60.833 -10.667 82.5 -32s32.5 -48.666 32.5 -81.999v-11c-1.33301 -14 -6 -27 -14 -39
c-11.333 -17.333 -19 -26 -23 -26c4.66699 -0.666992 8.33398 -1 11.001 -1c53.333 0 92 21.333 116 64zM389.001 133c0 20.667 -6.83301 38.5 -20.5 53.5s-30.834 22.5 -51.501 22.5c-47.333 0 -71 -25.333 -71 -76s23.667 -76 71 -76c20.667 0 37.834 7.5 51.501 22.5
s20.5 32.833 20.5 53.5zM674.001 -190c0 -40 18.333 -60 55 -60c38 0 57 18.333 57 55c0 38.667 -17.667 58 -53 58c-39.333 0 -59 -17.667 -59 -53z" />
    <glyph glyph-name="dodecastar3" unicode="&#xf0ae;" horiz-adv-x="938" 
d="M449 2l73.0039 -31.0049c-4 -4 -7.33301 -7.66699 -10 -11c-8.66699 -10.667 -14.334 -20.5 -17.001 -29.5s-4 -17.833 -4 -26.5c0 -10.667 1 -16.334 3 -17.001c24.667 -7.33301 60 -21.666 106 -42.999c44 -27.333 78 -57.333 102 -90v850
c0 52 -3.66699 89.667 -11 113c-26.667 83.333 -95.334 125 -206.001 125c-58 0 -108.333 -15 -151 -45c-57.333 -40.667 -91 -86.667 -101 -138l209 -26l-6 -47c-31.333 0 -58.666 -16.333 -81.999 -49c-18.667 -26.667 -28 -48.667 -28 -66v-252
c0 -10 0.666992 -26.333 2 -49l2 -35c0 -36 -7.66699 -64 -23 -84c-30.667 -40 -72.334 -60 -125.001 -60c-8.66699 0 -19.334 1 -32.001 3c-78 12.667 -117 60.334 -117 143.001c3.33301 36.667 15.666 67.334 36.999 92.001c23.333 27.333 52.666 41 87.999 41
c7.33301 0.666992 13 1 17 1c16 0 30 -2.33301 42 -7v182c0 40.667 6.5 71.334 19.5 92.001s29.833 36.334 50.5 47.001c6 3.33301 9 7.33301 9 12c0 2 -0.333008 3.66699 -1 5l-160 16c0 42.667 16.667 86.667 50 132c28.667 40 63.334 72.667 104.001 98
c55.333 34.667 122.333 52 201 52c67.333 0 126 -11.333 176 -34c106 -48 159 -135.333 159 -262v-960h-123c-6.66699 11.333 -11.667 19.333 -15 24c-43.333 62.667 -95.666 106 -156.999 130c-13.333 5.33301 -28.333 10 -45 14c0 -41.333 -9.66699 -77.666 -29 -108.999
c-28.667 -46.667 -74.334 -70 -137.001 -70c-39.333 0 -72.333 11.333 -99 34c-28.667 23.333 -43 54.333 -43 93c0 36.667 12 67.334 36 92.001c32.667 34 83 51 151 51c17.333 0 34 -1 50 -3c-0.666992 6 -1 11 -1 15c0 15.333 2.66699 31.666 8 48.999
c4.66699 15.333 14 28 28 38zM166.004 56.9951c46.667 0 70 25.333 70 76s-23.333 76 -70 76c-20 0 -36.333 -7.66699 -49 -23s-19 -33 -19 -53s6.33301 -37.667 19 -53s29 -23 49 -23zM258.004 -238.005c0 -34.667 20.334 -52 61.001 -52c9.33301 0 17.666 1 24.999 3
c44 12 66 48.333 66 109c-12.667 5.33301 -30 8 -52 8c-37.333 0 -65.333 -9.33301 -84 -28c-10.667 -10.667 -16 -24 -16 -40z" />
    <glyph glyph-name="octastar4" unicode="&#xf0af;" horiz-adv-x="938" 
d="M702 -256l0.00683594 859.994c0 52 -3.66699 89.667 -11 113c-26.667 83.333 -95.334 125 -206.001 125c-58 0 -108.333 -15 -151 -45c-57.333 -40.667 -91 -86.667 -101 -138l209 -26l-6 -47c-32 0 -59.333 -16.333 -82 -49c-18.667 -26.667 -28 -53.334 -28 -80.001
v-250c0 -10 0.666992 -23.333 2 -40c1.33301 -19.333 2 -32.666 2 -39.999c0.666992 -29.333 -7 -54.666 -23 -75.999c-30.667 -40 -72.334 -60 -125.001 -60c-8.66699 0 -19.334 1 -32.001 3c-78 12.667 -117 60.334 -117 143.001
c3.33301 36.667 15.666 67.334 36.999 92.001c23.333 27.333 52.666 41 87.999 41c7.33301 0.666992 13 1 17 1c16 0 30 -2.33301 42 -7v182c0 40.667 6.5 71.334 19.5 92.001s29.833 36.334 50.5 47.001c6 3.33301 9 7.33301 9 12c0 2 -0.333008 3.66699 -1 5l-160 16
c0 42.667 16.667 86.667 50 132c28.667 40 63.334 72.667 104.001 98c55.333 34.667 122.333 52 201 52c67.333 0 126 -11.333 176 -34c106 -48 159 -135.333 159 -262v-960h-131l-86 114l-73 -118h-35c-2 24.667 -12.333 54.667 -31 90c-4.66699 9.33301 -12 20 -22 32
c-14 17.333 -24.333 27 -31 29c0 -104 -51.333 -156 -154 -156c-38.667 0 -71.334 11 -98.001 33c-29.333 23.333 -44 54 -44 92c0 37.333 12 68.666 36 93.999c30.667 32.667 71 49 121 49c18 0 40.333 -3 67 -9c1.33301 26 6.66602 47 15.999 63s17.666 26.667 24.999 32
c1.33301 0.666992 9 5 23 13l71 -37c-7.33301 -3.33301 -12 -5.66602 -14 -6.99902c-22.667 -14.667 -35.667 -33.667 -39 -57l-4 -26c54.667 -25.333 90.667 -63.666 108 -114.999l58 90h41zM201.007 -236.006c0 -36.667 21.668 -55 65.001 -55
c3.33301 0 9.66602 0.666992 18.999 2c36.667 10 55 46.333 55 109c-18 5.33301 -36.667 8 -56 8c-29.333 0 -51.333 -7.33301 -66 -22c-11.333 -11.333 -17 -25.333 -17 -42zM166.008 56.9941c46.667 0 70 25.333 70 76s-23.333 76 -70 76c-20 0 -36.333 -7.66699 -49 -23
s-19 -33 -19 -53s6.33301 -37.667 19 -53s29 -23 49 -23z" />
    <glyph glyph-name="registersquare" unicode="&#xf0b0;" horiz-adv-x="770" 
d="M528 469c0 14 -0.333008 24.332 -1 30.999c-6.66699 68 -53 109 -139 123c-32 5.33301 -76 8 -132 8c-34.667 0 -70.334 -2.33301 -107.001 -7c-11.333 -2 -42 -6.66699 -92 -14c0 75.333 24.667 143 74 203c47.333 57.333 116 86 206 86h18c8 -1.33301 14 -2 18 -2
l234 -57c38.667 0 65.334 12.333 80.001 37c4.66699 7.33301 8.33398 15.333 11.001 24l27 -20c-5.33301 -28 -22.333 -61.667 -51 -101c-8.66699 -12 -21.5 -21 -38.5 -27s-36.5 -9 -58.5 -9c-30 0 -68.667 5.66699 -116 17c-10 2 -33.333 8.33301 -70 19
c-52 15.333 -91 23 -117 23c-30 0 -54.333 -7.66699 -73 -23c-30.667 -25.333 -48.667 -57.333 -54 -96c21.333 0 53.5 0.666992 96.5 2s75.167 2 96.5 2c34.667 0 75 -6 121 -18c96.667 -25.333 155.667 -65.333 177 -120c7.33301 -19.333 11 -41 11 -65v-335
c0 -106.667 -62 -160 -186 -160c-121.333 0 -182 53.333 -182 160v131c-14.667 -8.66699 -35.334 -13 -62.001 -13c-38 0 -70 13.5 -96 40.5s-39 59.5 -39 97.5c0 36.667 11.5 68.667 34.5 96s52.5 43 88.5 47c78.667 0 132.667 -20 162 -60
c15.333 -21.333 25 -44.666 29 -69.999c2 -13.333 3 -41 3 -83v-215c0 -41.333 22 -62 66 -62c40.667 0 61 20.667 61 62v348zM643 -379.001l-100.001 -0.000976562c-23.333 0 -63 15 -119 45c-17.333 1.33301 -30.666 -7 -39.999 -25c-2 -4.66699 -5 -14 -9 -28h-62l-4 43
c-5.33301 41.333 -16 71.333 -32 90c-8.66699 10 -15.667 16 -21 18c0 -90.667 -41 -141.667 -123 -153c-4.66699 -0.666992 -9.33398 -1 -14.001 -1c-33.333 0 -61.333 11.333 -84 34s-34 50.667 -34 84c0 12.667 1 23.334 3 32.001c12 54.667 47 89.667 105 105
c7.33301 2 18 3 32 3c16 0 32.333 -1.66699 49 -5c0.666992 16 6.33398 39 17.001 69c4.66699 11.333 11.667 21.333 21 30c4.66699 4 11.334 8.33301 20.001 13l71 -36c-19.333 -8 -34.333 -21 -45 -39c-5.33301 -12 -10 -32 -14 -60
c20.667 -6.66699 41.167 -22.167 61.5 -46.5s36.166 -53.833 47.499 -88.5c6.66699 10 12.334 16.667 17.001 20c10 7.33301 22 11 36 11c11.333 0 25.666 -6.33301 42.999 -19s31.333 -19 42 -19c5.33301 0 13 1.66699 23 5v49c-4.66699 -0.666992 -8.66699 -1 -12 -1
c-20 0 -39 6.66699 -57 20c-20.667 15.333 -31 38 -31 68c0 18.667 4.66699 36 14 52c18.667 31.333 47.667 47 87 47c41.333 0 72.333 -15 93 -45c12.667 -18.667 19 -39.667 19 -63v-209zM149.999 407.998c0 -20 6.5 -37.333 19.5 -52s29.5 -22 49.5 -22
c48 0 72 24.667 72 74c0 50 -24 75 -72 75c-46 0 -69 -25 -69 -75zM71.999 -262.002c0 -39.333 15.666 -59 46.999 -59c3.33301 0 7.33301 0.666992 12 2c36.667 8.66699 55 46 55 112c-20 5.33301 -33.667 8 -41 8c-4 0 -9.33301 -0.666992 -16 -2
c-15.333 0 -28.666 -6.33301 -39.999 -19s-17 -26.667 -17 -42zM482.998 -158.002c0 -31.333 15.667 -47 47 -47c32 0 48 15.667 48 47s-16 47 -48 47c-31.333 0 -47 -15.667 -47 -47z" />
    <glyph glyph-name="registercircle" unicode="&#xf0b1;" horiz-adv-x="991" 
d="M416 317c12 52.667 55.6689 165.333 131.002 338c62.667 143.333 105.667 220 129 230c14 6 31 9 51 9c44 0 78.333 -12.333 103 -37s40.334 -51.334 47.001 -80.001c4 -17.333 6 -49 6 -95v-682h-121v734c0 32 -6.33301 54.333 -19 67
c-8.66699 8.66699 -16.334 13 -23.001 13c-4 0 -8.33301 -1.66699 -13 -5c-24.667 -12 -71.334 -102.667 -140.001 -272c-100.667 -248 -151 -408 -151 -480v-57h-127v436c0 16 3.33301 29.667 10 41c10.667 18.667 20.334 40.334 29.001 65.001c16.667 47.333 25 92 25 134
c0 75.333 -16.667 122.333 -50 141l-72 -57l-71 59c-20 -5.33301 -39.333 -23 -58 -53c-10 -16.667 -16.667 -36 -20 -58c-0.666992 -2.66699 -1.33398 -12 -2.00098 -28c11.333 24.667 37.333 37 78 37c33.333 0 60.666 -10.833 81.999 -32.5s32 -49.167 32 -82.5
c0 -34 -10.833 -61.667 -32.5 -83s-49.5 -32 -83.5 -32c-70 0 -114.333 37.667 -133 113c-6.66699 26.667 -10 52 -10 76c0 58 19 109 57 153c32 36.667 62 58.667 90 66l71 -70l80 70c42 -2.66699 79.667 -24.667 113 -66c26 -32 39 -81.667 39 -149
c0 -34.667 -4.66699 -69 -14 -103l-33 -120v-140zM100.002 603.999c0 -38 19.333 -57 58 -57c38 0 57 19 57 57c0 38.667 -19 58 -57 58c-38.667 0 -58 -19.333 -58 -58z" />
    <glyph glyph-name="cuspopen" unicode="&#xf0b2;" horiz-adv-x="1249" 
d="M903 262c29.333 -19.333 62.667 -53.667 100 -103c4.66699 -6.66699 8 -10 10 -10c3.33301 0 5 11.667 5 35v617l74 86h49v-764c0 -44.667 -8.33301 -76.667 -25 -96s-37.334 -29 -62.001 -29c-12 0 -23.333 2.66699 -34 8
c-7.33301 5.33301 -25.666 31.666 -54.999 78.999l-37 58c-40.667 56 -85.667 89.667 -135 101v-166c0 -26 -7 -44.333 -21 -55c-24 -24 -54 -36 -90 -36c-47.333 0 -84.666 15 -111.999 45s-41 67 -41 111c0 61.333 23.667 109.333 71 144c24 17.333 52 26 84 26v269
c0 82.667 -13 143.334 -39 182.001c-20.667 30.667 -47.334 50.334 -80.001 59.001l-119 -90l-127 92c-38 -12 -71.167 -35.667 -99.5 -71s-45.5 -73 -51.5 -113c-2 -14 -3 -29.333 -3 -46c0 -74.667 23.667 -148.667 71 -222c14.667 -22.667 27.334 -45 38.001 -67
c7.33301 -14 16.333 -36.667 27 -68c7.33301 12 17.333 26.667 30 44c21.333 29.333 47 61.333 77 96l22 25c-18.667 2.66699 -32.667 5.66699 -42 9c-61.333 21.333 -92 65.666 -92 132.999c0 38 13.833 70.5 41.5 97.5s60.5 40.5 98.5 40.5
c39.333 0 73.666 -13.333 102.999 -40c32 -29.333 48 -63.666 48 -102.999c0 -46.667 -24.333 -97.667 -73 -153c-52 -59.333 -101 -125.333 -147 -198c-20 -32 -36 -66.333 -48 -103l-20 -86h-129l4 80v54c0 75.333 -5.33301 129 -16 161
c-37.333 112.667 -57.333 174.334 -60 185.001c-9.33301 38 -14 76 -14 114v19c0 4.66699 0.666992 12 2 22c8 62.667 35 119.167 81 169.5s99.667 81.166 161 92.499l118 -88l113 88c54.667 -8.66699 102 -28.834 142 -60.501s66.667 -74.167 80 -127.5
c8 -34 12 -84.667 12 -152v-250c29.333 -8 45.333 -12.333 48 -13c15.333 -4 36 -14.667 62 -32zM606.001 194.999c-6 -14.667 -9.00098 -29.666 -9.00098 -44.999c0 -34.667 9.33301 -60.334 28 -77.001c10 -10 21.333 -14 34 -12c16.667 5.33301 25 18.333 25 39v148
c-13.333 0 -23.666 -1 -30.999 -3c-21.333 -7.33301 -37 -24 -47 -50zM365 541c0 -20.667 7.33203 -37.833 21.999 -51.5s32.334 -20.5 53.001 -20.5c20 0 37.333 7 52 21s22 31 22 51c0 50 -24.667 75 -74 75c-50 0 -75 -25 -75 -75z" />
    </font>
</defs>
</svg>
