<?xml version="1.0" standalone="no"?>
<!DOCTYPE svg PUBLIC "-//W3C//DTD SVG 1.1//EN" "http://www.w3.org/Graphics/SVG/1.1/DTD/svg11.dtd" >
<svg xmlns="http://www.w3.org/2000/svg">
<metadata></metadata>
<defs>
<font id="dsn_montanaregular" horiz-adv-x="0" >
<font-face units-per-em="2048" ascent="1638" descent="-410" />
<missing-glyph horiz-adv-x="455" />
<glyph unicode="&#xd;" horiz-adv-x="455" />
<glyph unicode=" "  horiz-adv-x="455" />
<glyph unicode="&#x09;" horiz-adv-x="455" />
<glyph unicode="&#xa0;" horiz-adv-x="455" />
<glyph unicode="!" horiz-adv-x="422" d="M6 131l129 102l88 -114l-127 -115zM109 272l143 633l154 76l-209 -659z" />
<glyph unicode="&#x22;" horiz-adv-x="270" d="M29 1120h67l-12 -305l-39 2zM147 1120h68l-12 -305l-39 2z" />
<glyph unicode="#" horiz-adv-x="895" d="M6 285l76 114h182l66 183l-234 -27l90 129h168l76 231l117 41l-90 -272h166l79 231l115 41l-88 -272h166l-39 -53l-141 -10l-64 -222h166l-37 -51l-157 -12l-76 -256l-141 -64l102 306l-166 -13l-78 -241l-143 -64l106 293zM367 399h165l66 207l-168 -12z" />
<glyph unicode="$" horiz-adv-x="672" d="M10 16l76 103q56 -39 166 -39l80 360q-135 92 -135 207q0 20 7 51q2 12 9 37q50 149 233 221l27 140l76 26l-37 -166q119 0 152 -51l-64 -106q-57 64 -115 80l-63 -324q151 -90 151 -209q0 -38 -10 -74q-49 -175 -272 -268l-39 -192l-64 -25l52 203h-64q-80 0 -166 26z M297 723q0 -92 74 -129l63 285q-108 -31 -128 -91q-1 -5 -5 -32.5t-4 -32.5zM303 80q82 34 110 57q41 33 60 96v31q0 80 -90 150z" />
<glyph unicode="%" horiz-adv-x="948" d="M10 553q0 155 75 276q88 141 234 138q56 -1 84 -79q21 -56 21 -124q0 -41 -14 -133q-18 -119 -82 -201q-75 -98 -185 -98q-2 0 -8.5 2t-9.5 2q-62 0 -93 83q-22 60 -22 134zM96 569q-2 -73 22 -130q22 -52 62 -52l2 -4q64 0 108 113q40 102 40 227q0 182 -76 182 q-102 -20 -156 -274zM125 16l594 951l63 -25l-589 -952zM469 223q0 137 71 246q81 124 216 137q129 0 129 -196q0 -66 -13 -113q-19 -118 -77 -202q-73 -105 -179 -105q-77 0 -117 83q-30 63 -30 150zM563 233q0 -178 78 -178q6 -4 10 -4q57 0 101 92q29 64 43 142 q0 14 2 43t2 43q0 172 -68 184h-8q-71 0 -118 -107q-42 -96 -42 -215z" />
<glyph unicode="&#x26;" horiz-adv-x="1249" d="M6 248q0 42 10 100q21 123 126 237q112 124 231 124q92 0 106 -88q51 16 96.5 69.5t45.5 104.5q0 42 -27 69l131 78q18 -38 18 -86q0 -79 -85 -159q-56 -53 -201 -144q-180 -113 -234 -154q-92 -70 -92 -145q0 -82 92 -132q77 -42 166 -42q184 0 324 141q34 34 61 124 q19 63 41 185q-107 0 -151 -30q-71 -48 -134 -215l-38 12q42 169 90 246q40 64 92 85q41 17 127 17h63l92 51l11 -51q5 0 16 -2t16 -2q86 0 117 54q6 11 47 145l37 -29q-25 -153 -44 -188q-52 -97 -200 -97l-26 4q-37 -235 -211 -387.5t-410 -152.5h-20q-283 0 -283 258z M131 414q221 90 221 159v9q0 39 -57 39q-23 0 -47 -15q-104 -66 -117 -192z" />
<glyph unicode="'" horiz-adv-x="281" d="M16 780q68 90 80 114q25 50 25 97q0 43 -12 74l102 61q22 -24 22 -71q0 -110 -161 -301z" />
<glyph unicode="(" horiz-adv-x="537" d="M0 51q0 301 144 621q137 304 313 436l39 -25q-219 -219 -312 -500q-65 -196 -65 -411q0 -182 53 -412l-115 -24q-57 154 -57 315z" />
<glyph unicode=")" horiz-adv-x="553" d="M16 -233q367 370 367 905q0 107 -16 229q-9 66 -31 189l119 26q43 -176 43 -360q0 -291 -115 -554t-328 -460z" />
<glyph unicode="*" horiz-adv-x="553" d="M6 776l195 119l-127 139l51 27l115 -115l51 178h63l-51 -192l166 102l43 -37l-209 -114l127 -144l-49 -26l-102 114l-52 -192h-63l49 209l-168 -105z" />
<glyph unicode="+" horiz-adv-x="733" d="M29 350v88h299v299h88v-299h297v-88h-297v-295h-88v295h-299z" />
<glyph unicode="," horiz-adv-x="354" d="M12 -137q168 150 168 348v35l125 39q0 -135 -48 -233q-38 -78 -105 -135q-34 -27 -101 -81z" />
<glyph unicode="-" horiz-adv-x="733" d="M29 350v88h684v-88h-684z" />
<glyph unicode="." horiz-adv-x="264" d="M20 131l115 90l88 -117l-127 -114q-59 59 -76 141z" />
<glyph unicode="/" horiz-adv-x="944" d="M10 -252l807 1385l82 -11l-813 -1401z" />
<glyph unicode="0" horiz-adv-x="707" d="M0 295q0 232 124 427q140 220 351 220q99 0 149 -96q38 -74 38 -184q0 -40 -6 -86q-10 -73 -25 -136q-45 -185 -160 -320q-121 -143 -264 -143h-14q-103 10 -154 117q-39 83 -39 201zM145 313q0 -233 127 -258l9 -4q84 0 148 159q44 110 60 230q19 144 19 191 q0 100 -22 160q-27 73 -74 73h-13q-98 0 -178 -187q-76 -177 -76 -364z" />
<glyph unicode="1" horiz-adv-x="645" d="M16 4l39 51q174 0 203 88l145 656l-196 -76l-37 37q121 48 251 114l134 68l-178 -799q-4 -8 -4 -12q0 -59 108 -71q45 -5 113 -5l-51 -51h-527z" />
<glyph unicode="2" horiz-adv-x="748" d="M10 41q58 77 200 216q186 182 217 215q106 113 122 173q14 34 14 70q0 62 -44 110.5t-105 48.5t-93 -56q-26 -45 -26 -111q0 -13 4 -38t4 -38l-102 14q-15 26 -15 47q0 84 77 165q94 99 235 99q81 0 137.5 -57t56.5 -139q0 -93 -65 -178q-56 -73 -132 -147 q-96 -82 -282 -253l272 -39q13 -4 21 -4q62 0 107 46q21 24 65 73l24 -25l-139 -217l-37 -4q-91 0 -175 20l-191 46q-74 0 -137 -88z" />
<glyph unicode="3" horiz-adv-x="750" d="M16 55l76 88q99 -65 213 -65q119 0 184.5 69t65.5 189q0 153 -143 153q-50 0 -154 -34v37q324 121 324 243v13q-10 96 -97 96q-64 0 -163 -58v41l157 115q28 4 76 4q158 0 158 -112q0 -47 -27 -98q-25 -47 -65 -79l-78 -63q147 -30 147 -188q0 -80 -45 -148 q-83 -124 -185 -192q-109 -72 -227 -72q-113 0 -217 61z" />
<glyph unicode="4" horiz-adv-x="674" d="M4 258q0 25 27 67q20 31 37 48l450 542l113 66l-125 -645h125l-49 -90h-103l-22 -142q0 -42 22 -88l-141 -63l-25 24l52 269zM131 348l258 -12l90 450z" />
<glyph unicode="5" horiz-adv-x="852" d="M4 16l76 103q70 -45 160 -45q106 0 172 64t80 171v27q0 72 -44 121t-116 49q-56 0 -150 -41l-12 27l168 450q129 -22 188 -22q169 0 289 137v-64l-158 -153q-34 -45 -161 -45q-22 0 -65.5 2t-65.5 2q-27 -48 -49 -98q-36 -82 -44 -95q33 10 88 10q107 0 180 -62 q76 -65 76 -171q0 -52 -10 -86q-38 -130 -177 -221q-133 -86 -273 -86q-70 0 -152 26z" />
<glyph unicode="6" horiz-adv-x="778" d="M16 246q0 277 198 500q191 215 407 215q67 0 118 -19l-82 -102q-52 49 -120 49q-140 0 -253 -173q-97 -148 -114 -302q122 94 254 94q89 0 143 -48.5t54 -137.5v-21q0 -127 -122 -223q-115 -90 -245 -90q-113 0 -177 73q-61 70 -61 185zM154 291q-2 -63 21 -121 q20 -53 58 -78q39 -37 82 -37q61 0 125 64q52 52 52 125q0 69 -48.5 118.5t-117.5 49.5q-79 0 -170 -64z" />
<glyph unicode="7" horiz-adv-x="674" d="M0 68q0 35 17 77q21 55 55 101l409 553l-436 -13l64 222h26q7 -36 15 -71q19 -34 102 -32l375 10l-439 -618q-49 -87 -49 -152q0 -29 11 -64q7 -22 26 -65l-156 -51l-13 55q-7 26 -7 48z" />
<glyph unicode="8" horiz-adv-x="733" d="M0 145q0 161 104 242l185 105q-92 93 -92 190q0 117 112 193q99 67 221 67q166 0 166 -135q0 -50 -30 -100q-35 -59 -84 -86l-142 -78q160 -102 160 -242q0 -138 -141 -236q-128 -88 -271 -88h-32q-74 0 -115 47t-41 121zM129 180q-4 -53 35 -91q35 -34 94 -34l14 -4 q80 0 131.5 51t51.5 131q0 145 -129 222q-84 -40 -137 -111.5t-58 -136.5zM330 729q0 -91 73 -160q136 49 166 191q0 131 -104 131q-61 0 -99 -52q-36 -47 -36 -110z" />
<glyph unicode="9" horiz-adv-x="778" d="M12 41l90 90q86 -59 166 -59q146 0 235 158q63 114 87 288q-140 -119 -254 -119q-88 0 -138 69q-44 62 -44 153q18 145 149 250q119 96 236 96q114 0 158 -75q34 -58 34 -185v-50q0 -432 -310 -604q-117 -65 -239 -65q-110 0 -170 53zM289 672q0 -71 33 -119 q38 -55 106 -55q78 0 176 84q0 30 6 82q0 136 -84 188q-32 20 -75 20q-74 0 -118 -59.5t-44 -140.5z" />
<glyph unicode=":" horiz-adv-x="387" d="M12 119l117 102l88 -117l-115 -114q-68 51 -90 129zM129 594l115 102q60 -44 92 -127l-131 -104z" />
<glyph unicode=";" horiz-adv-x="475" d="M16 -137q179 177 179 395l127 51q-18 -119 -28 -156q-44 -165 -226 -303zM221 594l115 102q68 -41 92 -127l-119 -104z" />
<glyph unicode="&#x3c;" horiz-adv-x="778" d="M12 297v90l723 336v-102l-596 -273l584 -280v-103z" />
<glyph unicode="=" horiz-adv-x="733" d="M43 193v88h682v-88h-682zM43 403v89h682v-89h-682z" />
<glyph unicode="&#x3e;" horiz-adv-x="778" d="M12 -23v91l604 254l-604 272v102l723 -336v-75z" />
<glyph unicode="?" horiz-adv-x="657" d="M10 119l115 88l92 -115l-131 -102q-35 27 -52 60q-12 22 -24 69zM113 272v246l37 37q75 -16 94 -16q179 0 229 209q2 8 2 21v17q0 99 -98 99q-105 0 -176 -125l-37 104q117 88 246 88q85 0 142 -45q62 -48 62 -131v-16q-12 -129 -100 -205t-219 -76q-97 -11 -115 -73 q-8 -28 -16 -121z" />
<glyph unicode="@" horiz-adv-x="1157" d="M0 555q0 208 161 386q173 192 408 192h25q192 0 344 -111q174 -127 174 -326v-18q0 -193 -126 -331q-113 -124 -236 -124q-115 0 -129 113q-81 -109 -193 -109q-95 0 -160 77q-61 72 -61 169q0 27 14 82q26 101 123 191q103 94 203 94q113 0 151 -131l27 102h127 l-113 -451q0 -6 -4 -19t-4 -19q0 -54 35 -54q63 0 153 119q99 131 99 258q0 151 -93 268q-115 144 -319 144q-195 0 -347 -126q-167 -138 -167 -349l-4 -17q0 -231 163 -379q149 -135 349 -135q266 0 393 221h90q-74 -134 -201.5 -208t-281.5 -74q-227 0 -403 140 q-193 153 -193 388q0 6 -2 18.5t-2 18.5zM352 422q0 -130 88 -150q2 0 11 -4t14 -4q54 0 105 67q59 77 75 161q27 58 27 139q0 122 -78 155h-10q-96 0 -169 -138q-63 -120 -63 -226z" />
<glyph unicode="A" horiz-adv-x="1143" d="M12 16l66 103q111 0 155 14q81 26 138 100l440 578q-123 20 -184 20q-215 0 -215 -153q0 -52 39 -148l-132 -75q-18 46 -18 118q0 131 45 175l119 116q78 76 203 76q50 0 114 -10q87 -14 87 -15h-1q40 0 67 16q14 8 42 36l14 -25l-92 -782v-11q0 -41 20 -63 q19 -23 62 -23q21 0 56 6q60 10 69 11l-39 -51l-272 -52q-10 -4 -19 -4q-25 0 -22 47l2 35l26 230h-280q-58 -65 -176 -191q-104 -106 -205 -106q-53 0 -109 28zM553 360h242l55 400z" />
<glyph unicode="B" horiz-adv-x="977" d="M0 508q0 193 153 305q127 93 336 117l127 63v-63q14 0 43 3t43 3q89 0 153 -39q75 -47 75 -131q0 -80 -69 -152q-58 -60 -142 -96q196 -32 196 -192q0 -117 -115 -213q-130 -109 -325 -109h-438l78 76q176 21 207 153l153 646q-143 -16 -234 -80q-112 -77 -112 -209 q0 -48 25 -125l-142 -66q-12 78 -12 109zM281 92q133 -24 192 -24q235 0 287 178q10 34 10 69q0 78 -72 115q-53 27 -120 27h-9l-67 -2q-31 -183 -108 -261q-15 -14 -113 -102zM502 506q231 0 284 178q7 23 7 64q0 143 -177 143h-26z" />
<glyph unicode="C" horiz-adv-x="922" d="M10 156q0 215 96 384q84 148 265 300q64 54 155 93q97 42 181 42q175 0 202 -176l-114 -103q-37 189 -174 189q-133 0 -268 -156q-208 -241 -208 -534q0 -4 2.5 -13t2.5 -12q0 -97 63 -151q59 -50 158 -50q163 0 372 123v-37q-83 -79 -211.5 -131.5t-242.5 -52.5 q-279 0 -279 285z" />
<glyph unicode="D" horiz-adv-x="1171" d="M6 4l103 88q105 0 164 56q50 47 69 124l154 633q-135 -17 -226 -89q-106 -84 -106 -210q0 -51 22 -114l-155 -78q-11 75 -11 100q0 186 151 306q124 98 325 136l139 62v-51q209 0 338 -75q160 -92 160 -286q0 -58 -17 -141q-64 -202 -239.5 -321.5t-458.5 -127.5z M303 104q132 -22 203 -22q194 0 302 101q87 81 150 272q25 75 25 151q0 126 -74 208q-84 93 -223 93h-14l-62 -2l-59 -311q-35 -176 -84 -283q-62 -135 -164 -207z" />
<glyph unicode="E" horiz-adv-x="1014" d="M0 584q0 181 159 278q132 80 326 80l103 39l-13 -39q11 0 31 -3q46 -7 62 -7q25 0 74.5 4t74.5 4q141 0 158 -61l-117 -105q-24 78 -40 88q-48 29 -255 29l-90 -373h283l-49 -63l-246 -15q-45 -258 -221 -360h411q88 0 109 3q80 10 80 52q0 26 -19 60l140 63l4 -35 q0 -46 -56 -104l-75 -78q-32 -33 -79 -44q-32 -7 -79 -7h-12l-629 14l63 64q73 17 93 27q57 28 73 87l68 258h-53l77 78l105 373q-120 0 -207 -41q-125 -59 -125 -188q0 -46 21 -119l-127 -78q-23 69 -23 119z" />
<glyph unicode="F" horiz-adv-x="948" d="M-66 -188l64 114h80q102 0 154 25q57 29 75 90l103 358h-52l64 80l90 400q-307 0 -307 -228q0 -68 35 -159l-152 -64l-7 66q-3 27 -3 43q0 292 250 377q82 28 170 28h243q208 0 285 51l-12 -37l-90 -92l-271 15l-102 -414h258q-25 -37 -86 -54q-51 -14 -104 -14h-13 l-67 2q-20 -77 -66 -228q-51 -152 -158 -245q-131 -114 -340 -114h-41z" />
<glyph unicode="G" horiz-adv-x="934" d="M0 274q0 52 13 111q16 78 34 121q63 154 181 272q189 189 423 189q77 0 142 -24q84 -31 106 -91l-117 -156q-26 203 -182 203q-138 0 -277 -143q-131 -135 -159 -277q-8 -40 -14 -80q-7 -46 -7 -73q0 -109 42 -178q51 -85 153 -85t237 93l56 231l-234 -14l-14 26l102 56 l387 -15l-77 -53h-25q-14 -11 -66 -223q-57 -233 -145 -355q-134 -186 -364 -186q-44 0 -109 10l78 115q75 -10 127 -10q140 0 203 100q42 66 69 230q-182 -91 -305 -91q-126 0 -195 88q-63 80 -63 209z" />
<glyph unicode="H" horiz-adv-x="1118" d="M-102 -10l77 114q14 0 43 -3t43 -3q96 0 150 29q60 33 94 117q23 56 55 194h-63l76 66l92 336h-37q-242 0 -242 -185q0 -28 8 -66l11 -59l-127 -38l-6 47q-4 25 -4 39q0 228 260 302q95 27 209 27q75 0 104 -4l-61 -63l-91 -336h361q14 113 58 229q57 152 141 241 q104 111 225 111h10l55 -2l-51 -102h-61q-61 0 -96 -26q-48 -36 -91 -140l-151 -647q0 -8 -3 -23t-3 -22q0 -60 80 -60h8l96 3l-27 -37l-229 -52q-18 -6 -45 -6q-37 0 -37 41q0 31 6 54l103 387l-363 -15q-25 -171 -158 -305q-148 -149 -342 -149q-13 0 -38.5 3t-38.5 3z " />
<glyph unicode="I" horiz-adv-x="707" d="M6 4l25 37l114 27l222 823l-144 14l39 51h400l-39 -51l-115 -14l-217 -823l139 -27l-37 -37h-387z" />
<glyph unicode="J" horiz-adv-x="631" d="M-205 -215l76 115q77 -15 117 -15q210 0 283 282q11 41 40 206q0 16 -39 55l64 64l78 348q-203 0 -203 -185q0 -21 5 -62.5t5 -62.5l-131 -65q-16 83 -16 108q0 342 516 342l-37 -63l-180 -709q-34 -135 -183.5 -249.5t-314.5 -114.5q-42 0 -80 6z" />
<glyph unicode="K" horiz-adv-x="1264" d="M-23 -10l89 78q9 0 27.5 -2.5t27.5 -2.5q89 0 140 41q77 62 114 218l129 542q-139 0 -203 -29q-96 -43 -96 -163q0 -36 14 -142l-127 -51q-22 78 -22 135q0 177 164 260q126 62 323 62q35 0 54 -1l100 -5q-9 -27 -28 -42q-15 -11 -52 -24l-90 -321q72 46 198.5 157 t195.5 156q107 70 191 70q49 0 74 -11l-76 -116q-24 8 -65 8q-111 0 -278 -141q-14 -11 -136 -123l246 -590q61 -146 172 -146q49 0 91.5 29.5t57.5 75.5l37 -139q-75 -23 -162 -23q-144 0 -250 83q-85 67 -126 181l-170 478q-63 -266 -269 -424h193q-8 -35 -73 -59 q-52 -19 -93 -19h-322z" />
<glyph unicode="L" horiz-adv-x="1034" d="M16 4l39 64q96 0 149 52q57 57 81 177q46 230 71 306q111 337 359 337q45 0 100 -10l-67 -90h-64q-102 0 -144 -58q-32 -43 -48 -125q-29 -148 -45 -214q-76 -313 -201 -363h121l211 -2h15q149 0 216 38q80 45 147 193l37 -24q-16 -47 -49 -139q-27 -72 -73 -111 q-52 -45 -129 -45h-7z" />
<glyph unicode="M" horiz-adv-x="1409" d="M-20 16l90 115q9 -1 62 -10q36 -6 52 -6q102 0 150 66q21 29 57 167l129 492q-15 0 -45 2t-45 2q-250 0 -250 -154q0 -39 19 -90q12 -31 37 -82l-140 -104q-30 86 -30 151q0 159 105 268q120 125 320 125h15l92 -2l49 37l92 -696l402 555q14 21 43 64q129 184 295 184h31 q12 0 28 -4l-55 -103q-48 11 -74 11q-49 0 -73.5 -34t-43.5 -106l-188 -729q0 -41 43 -52q16 -4 77 -4h51q6 0 20 1h22h14l-24 -39l-234 -37q-25 -4 -72 -4q-50 0 -47 45l2 35l168 668l-411 -629l-78 -78l-78 682l-127 -451q-42 -149 -170 -217q-92 -49 -205 -49 q-53 0 -75 10z" />
<glyph unicode="N" horiz-adv-x="1184" d="M6 4l103 139l40 -12q22 -6 39 -6q66 0 126 35q55 33 67 73l166 578q-93 12 -137 12q-203 0 -203 -151q0 -57 41 -166l-113 -66q-47 61 -47 142q0 115 109 229l65 68q48 50 138 56q53 2 159 7l64 25l284 -863l154 656q16 67 47 130q104 210 278 210q8 0 24 -2t24 -2 l-50 -103q-30 6 -59 6q-68 0 -114 -62q-51 -69 -74 -163l-179 -745q42 -76 127 -144q97 -78 177 -78q106 0 147 132l49 -152q-94 -49 -209 -49q-136 0 -255 80q-134 91 -230 274l-180 617q-37 -214 -76 -334q-123 -379 -420 -379q-26 0 -82 8z" />
<glyph unicode="O" horiz-adv-x="961" d="M4 330q0 154 74 299.5t199 232.5q152 105 354 105q141 0 217 -103q67 -91 67 -237q0 -91 -24 -187q-50 -202 -203 -328q-156 -128 -362 -128q-16 0 -46.5 3t-46.5 3q-116 16 -177 123q-52 91 -52 217zM145 360q0 -125 55 -210q65 -99 183 -99l20 4q167 0 276 169 q97 151 97 341q0 123 -42 211q-55 115 -165 115h-20q-154 0 -267 -140q-97 -121 -126 -286q0 -18 -5.5 -53t-5.5 -52z" />
<glyph unicode="P" horiz-adv-x="1065" d="M12 4l76 76h244l194 799q-136 0 -220 -64q-93 -70 -93 -201q0 -61 31 -135l-129 -92q-35 70 -35 143q0 144 105 250q131 133 393 162l90 51v-37h71q289 0 289 -170q0 -53 -24 -114q-107 -273 -478 -273l-61 -319l278 12q-62 -52 -111 -67q-68 -21 -220 -21h-400zM539 465 q50 -10 65 -10q110 0 197.5 79.5t87.5 188.5q0 118 -79 157q-52 25 -114 25h-41z" />
<glyph unicode="Q" horiz-adv-x="987" d="M0 305q0 157 79.5 310t208.5 244q152 108 343 108q142 0 219 -104q70 -94 70 -240q0 -183 -101 -348q-111 -182 -293 -246q326 -258 457 -258q129 0 176 182l76 -78q-171 -194 -344 -194q-80 0 -169 46q-72 37 -161 112l-162 138q-48 -6 -94 -6q-148 0 -229 95 q-76 89 -76 239zM143 377q0 -115 40 -205q52 -117 153 -117q39 0 115 37l24 -24q138 29 221 181q74 136 74 306q0 126 -45 218q-58 118 -172 118h-14q-188 0 -299 -169q-97 -148 -97 -345z" />
<glyph unicode="R" horiz-adv-x="1053" d="M10 4l76 76q144 17 168 28q110 49 143 201l125 582q-254 -28 -254 -240q0 -47 23 -133l-141 -78q-25 68 -25 142q0 163 120 258q104 83 277 102l156 76v-51q321 0 321 -168q0 -24 -12 -76q-50 -149 -285 -205l170 -489q23 -66 75 -133q65 -84 132 -84q88 0 166 127 l90 -89q-130 -96 -266 -96q-119 0 -212 75q-91 71 -128 187l-154 476l-47 -148q-53 -138 -225 -264l234 12l-140 -76zM575 543q13 -4 19 -4q112 0 189 83q75 80 75 193v25q-7 67 -145 67h-34q-17 0 -28 -2z" />
<glyph unicode="S" horiz-adv-x="895" d="M16 4l76 178l27 25q57 -223 241 -223q94 0 179 60q92 66 92 157v20q-10 89 -75 144q-40 32 -119 97q-66 66 -77 169q0 138 129 245q119 99 240 99q150 0 150 -135l-105 -80q-28 129 -127 129q-64 0 -115 -65q-47 -60 -47 -126q0 -98 109 -168q182 -117 182 -251 q0 -95 -80 -198q-43 -55 -156 -116q-144 -78 -268 -78q-151 0 -256 117z" />
<glyph unicode="T" horiz-adv-x="1065" d="M4 600q0 134 100 234q126 127 320 133l438 14q7 0 21.5 -2t21.5 -2q137 0 150 106l24 -26q-19 -138 -37 -163q-22 -30 -116 -30l-219 27q-11 -44 -60 -308q-34 -182 -77 -282q-60 -140 -171 -221l349 12q-36 -20 -109 -60q-79 -42 -142 -42h-8l-323 14l78 76l30 -2h9 q53 0 95 44q46 48 73 175l127 594q-72 10 -140 10q-295 0 -295 -215q0 -51 37 -156l-129 -90q-47 75 -47 160z" />
<glyph unicode="U" horiz-adv-x="1143" d="M6 582q0 104 98 204l117 119q44 25 172 25q92 0 150 -15l39 41l24 -26q-274 -433 -274 -668q0 -199 180 -199q117 0 264 93l166 723h-90l27 36l221 41l-187 -825q-2 -38 18 -54t68 -16q17 0 50.5 3.5t50.5 3.5l-27 -39q-182 -41 -233 -41q-76 0 -76 57q0 11 5 33 q1 5 7 26q-226 -114 -379 -114q-196 0 -196 198q0 99 61 267l193 344q-81 28 -150 28q-76 0 -131 -42q-59 -47 -59 -121q0 -63 55 -134l-102 -102q-62 81 -62 154z" />
<glyph unicode="V" horiz-adv-x="1217" d="M10 616q0 138 126 243q117 97 245 97q139 0 217 -14q-10 -20 -32 -37q-15 -11 -34 -26l-88 -736q168 167 246 251q338 364 338 548q0 74 -45 115q0 23 28 47q25 22 50 29q64 0 92 -25q16 -46 16 -94q0 -136 -138 -326q-100 -138 -308 -348l-317 -324l-115 -26l115 901 q-256 0 -256 -205q0 -37 22 -131l-127 -76q-35 75 -35 137z" />
<glyph unicode="W" horiz-adv-x="1552" d="M0 668q0 201 247 268q74 20 136 20h244q0 -41 -90 -77l-115 -672l487 735l90 25l-38 -785q228 238 336 445q83 159 83 280q0 94 -45 162q17 19 35 38q22 19 55 26q27 0 46 -9q12 -6 47 -41q16 -60 16 -102q0 -105 -78 -246q-65 -118 -214 -310l-318 -409l-103 -26l37 745 l-502 -719l-102 -26l156 889q-30 4 -81 4h-10q-206 0 -206 -144q0 -60 51 -170l-129 -63q-35 90 -35 162z" />
<glyph unicode="X" horiz-adv-x="1157" d="M10 4l88 127q8 0 22.5 -3t22.5 -3q136 0 199 96l233 285l-63 254q-25 102 -113 102q-9 0 -96 -10l12 53q32 0 98.5 20.5t100.5 20.5q100 0 100 -94l50 -221l194 233q77 92 166 92q42 0 92 -26l-65 -131q-51 32 -93 32q-43 0 -100 -57l-180 -219l76 -373q22 -108 166 -108 q20 0 32 1l62 5l-39 -51l-195 -39l-51 -6q-34 0 -52 20q-23 26 -38 115l-51 309l-234 -285q-97 -143 -282 -143q-10 0 -35 2z" />
<glyph unicode="Y" horiz-adv-x="1249" d="M16 -240l64 127q54 -8 121 -8q327 0 405 406q15 78 15 155q0 151 -51 269q-67 155 -199 155h-23q-63 -6 -110 -83q-43 -69 -43 -136q0 -73 51 -139l-127 -107q-37 98 -37 156q0 167 134 289q123 112 263 112h19q215 0 215 -366q0 -25 -2 -75t-2 -75q19 32 127 243 q80 157 139 227q84 100 174 100q36 0 78 -17l-53 -129q-64 19 -89 19q-70 0 -110 -61q-21 -32 -60 -99l-346 -694q-76 -152 -206 -223q-99 -54 -226 -54q-55 0 -121 8z" />
<glyph unicode="Z" horiz-adv-x="1065" d="M12 -23v78l774 772q-71 -6 -129 -6q-78 0 -219 19q-83 0 -138 -90q-5 -8 -71 -129l-24 51q21 43 62 153q29 77 52 104q33 38 95 38h24q78 0 344 -35q101 0 195 61v-51l-784 -799q15 0 46 1t46 1q75 0 223.5 -16t222.5 -16q165 0 182 94q0 61 -25 109q-13 23 -38 71 l127 68q41 -73 41 -152q0 -69 -41 -108l-154 -179q-28 -32 -121 -32q-53 0 -146 11l-194 24q-100 12 -157 12q-139 0 -193 -54z" />
<glyph unicode="[" horiz-adv-x="641" d="M12 -279l348 1375h244l-51 -52l-102 -12l-312 -1245l156 -14l-51 -52h-232z" />
<glyph unicode="\" horiz-adv-x="553" d="M6 956h103l399 -940h-102z" />
<glyph unicode="]" horiz-adv-x="645" d="M16 -264l52 51l102 12l309 1219l-157 26l51 39h221l-336 -1347h-242z" />
<glyph unicode="^" horiz-adv-x="492" d="M16 735l170 387h88l166 -387h-88l-129 283l-114 -283h-93z" />
<glyph unicode="_" horiz-adv-x="729" d="M39 -164h664v-66h-664v66z" />
<glyph unicode="`" horiz-adv-x="369" d="M57 805q0 106 115 216q37 35 102 87l39 -25q-149 -144 -149 -233q0 -37 20 -90l-104 -51q-23 56 -23 96z" />
<glyph unicode="a" horiz-adv-x="733" d="M0 119q0 80 35 206q27 95 63 181q90 107 221 166q23 0 37 1l74 5q99 0 197 -21l-52 -75l-79 -406q0 -41 26 -41q21 0 67 26q11 6 75 46l28 -37q-64 -45 -194 -135q-86 -58 -121 -58q-29 0 -29 46q0 42 23 120q-183 -155 -285 -155q-86 0 -86 131zM135 193q0 -91 45 -91 q14 0 34 12q12 7 26 17l143 102l78 349q-16 0 -48 3t-48 3q-94 0 -134 -41q-30 -31 -55 -119q-12 -43 -26 -114q-15 -77 -15 -121z" />
<glyph unicode="b" horiz-adv-x="674" d="M12 -10l205 889q0 34 115 129q104 86 143 100q43 16 76 16h4l76 -2l-53 -104h-56q-84 0 -121.5 -27t-52.5 -86l-94 -362q165 135 268 135q99 0 99 -135q0 -165 -146 -412q-58 -71 -231 -127q-31 -10 -62 -10q-35 0 -104 22l-41 -51zM166 131q45 -49 96 -49q74 0 134 80 q47 63 69 147l16 96q11 65 11 93q0 80 -58 80q-18 0 -47 -9l-143 -90z" />
<glyph unicode="c" horiz-adv-x="553" d="M4 156q0 193 111 362q35 43 91 85q33 25 103 69q42 14 74 14q92 0 92 -113v-30l-88 -51q-14 98 -74 98q-43 0 -89 -58q-48 -61 -70 -159q-19 -86 -19 -146q0 -145 103 -145q105 0 251 125l25 -37q-240 -193 -377 -193q-133 0 -133 179z" />
<glyph unicode="d" horiz-adv-x="723" d="M0 113q0 100 48 231q45 128 108 211q58 46 98 73q56 38 98 56q37 8 60 8q29 0 53 -8q22 83 37 133q23 79 53 125q45 52 100 92q41 30 121 74q29 16 64 16h4l61 -2l-65 -104h-35q-63 0 -96 -20q-49 -30 -78 -119l-156 -709q0 -61 37 -61q24 0 172 98v-51l-244 -152 q-39 -24 -57 -24q-35 0 -35 98q0 11 2 32.5t2 32.5q-171 -159 -266 -159q-86 0 -86 129zM137 170q0 -74 39 -74q7 0 31 8l170 117l63 348q-34 29 -80 29q-52 0 -103 -47q-46 -43 -62 -96q-18 -60 -36 -137q-22 -95 -22 -148z" />
<glyph unicode="e" horiz-adv-x="553" d="M12 172q0 21 5 53q2 14 10 60q0 125 95 247t217 147q14 3 26 3q45 0 74.5 -32t29.5 -77q0 -83 -82 -145l-258 -195q0 -153 104 -153q103 0 256 153l13 -51q-65 -74 -160 -131q-109 -67 -192 -67q-138 0 -138 188zM139 309q136 66 197 183q12 44 12 57q0 46 -39 57h-14 q-58 0 -107 -124q-31 -78 -49 -173z" />
<glyph unicode="f" horiz-adv-x="645" d="M-229 -406q43 64 63 101h62q93 0 145.5 33.5t73.5 121.5l153 642h-205l91 63h127q18 73 58 219q55 183 265 309q42 25 103 25q36 0 116 -12l-63 -90q-16 0 -49 3t-49 3q-64 0 -100 -30q-50 -42 -73 -130l-77 -297h192l-51 -63h-156q-29 -126 -91 -378q-61 -235 -153 -368 q-115 -166 -282 -166q-42 0 -100 14z" />
<glyph unicode="g" horiz-adv-x="750" d="M-213 -319q0 73 163 210q57 48 146 113q-33 73 -33 152q0 191 109 350q93 85 209 139q33 15 151 20q149 5 166 7q-11 -59 -22 -77q-17 -28 -53 -28l-142 -614q-48 -208 -187 -298q-119 -77 -274 -77q-233 0 -233 103zM-55 -238q0 -51 56 -78q43 -20 101 -20 q88 0 154.5 41t85.5 131l76 359l-387 -293q-86 -82 -86 -140zM201 213q0 -67 37 -94l206 153q24 117 34 157q21 83 93 138l-73 -2h-47q-151 0 -177 -73q-13 -35 -38 -105q-35 -104 -35 -174z" />
<glyph unicode="h" horiz-adv-x="750" d="M4 4l191 901q25 50 89 104q39 33 119 87q58 26 111 26q38 0 92 -14l-76 -100q-74 5 -74 6h1q-99 0 -156 -135l-94 -387l137 82q78 46 121 67q56 27 84 27q33 0 33 -41v-33l-76 -373q0 -8 -2 -16l-6 -19q0 -47 28 -47q20 0 57 20l115 62v-51l-309 -180q-24 33 -24 88 t31.5 174.5t31.5 175.5q0 16 6 47.5t6 46.5q0 17 -16 17q-14 0 -35 -9l-194 -116l-76 -373z" />
<glyph unicode="i" horiz-adv-x="414" d="M4 518q65 53 122 91q97 65 136 65q27 0 27 -33q0 -23 -36 -163q-24 -94 -39 -158q-13 -55 -32 -150l-2 -16q0 -39 27 -39t97 39q39 22 73 41v-52q-38 -38 -141 -95q-35 -19 -105 -58q-23 -13 -45 -13q-39 0 -39 70q0 62 24 159q25 87 66 263q2 15 2 23q0 22 -20 22 t-103 -35zM195 915l118 93l64 -117l-119 -92q-63 70 -63 116z" />
<glyph unicode="j" horiz-adv-x="422" d="M-299 -340l78 88q151 21 156 23q81 32 110 157l127 553q8 35 8 43q0 31 -22 31q-12 0 -101 -37l-12 51q17 9 138 85q84 53 114 53q27 0 27 -35q0 -19 -11 -64l-166 -680q-26 -53 -102 -141q-81 -92 -127 -115q-27 -10 -68 -10q-15 0 -46 2t-46 2q-10 0 -28.5 -3t-28.5 -3 zM238 956l104 91l78 -115l-119 -107q-63 69 -63 131z" />
<glyph unicode="k" horiz-adv-x="737" d="M16 -23l191 863q13 58 105 140q82 73 153 103q59 25 90 25q10 0 66 -12l-78 -103q-20 17 -54 17q-55 0 -106 -47t-70 -136l-92 -440q51 35 132 117q87 88 131 121q81 61 143 61q48 0 86 -29l-92 -139q-31 47 -74 47q-31 0 -113 -63l-108 -88l192 -398q38 -78 99 -135 q73 -69 147 -69q101 0 151 114l41 -127q-80 -43 -182 -43q-128 0 -235 70q-101 66 -174 215l-144 295l-78 -307z" />
<glyph unicode="l" horiz-adv-x="422" d="M0 102q0 28 12 80l168 733q32 67 99 120q49 38 120 73q29 14 86 14q45 0 80 -14l-76 -100q-36 20 -75 20q-87 0 -129 -176l-160 -672q0 -51 39 -51q38 0 121 54l75 50l13 -38l-193 -154q-64 -51 -106 -51q-74 0 -74 112z" />
<glyph unicode="m" horiz-adv-x="1065" d="M10 479v51l166 101q3 1 54 22q26 11 38 11q27 0 27 -37q0 -42 -31 -135l129 70q64 35 119 69q39 24 70 24q24 0 24 -34q0 -43 -31 -115q278 156 330 156q31 0 31 -39q0 -23 -12 -68l-90 -334q0 -7 -3.5 -22.5t-3.5 -22.5q0 -61 35 -61q21 0 54 20t98 60l10 -39l-281 -166 q-47 29 -47 78q0 10 2.5 18.5t8.5 32.5l63 309q10 49 10 64q0 30 -26 30q-25 0 -96 -40l-95 -54l-90 -412l-127 -26l100 438q5 12 5 37q0 33 -33 33q-50 0 -166 -84l-88 -398l-129 -26l102 450q0 5 3 22t3 23q0 29 -24 29q-21 0 -109 -35z" />
<glyph unicode="n" horiz-adv-x="750" d="M4 506v37q55 32 164 97q65 38 90 38q23 0 23 -39q0 -42 -23 -133q46 23 135 75q74 43 121 67q59 30 84 30t25 -33v-25q-2 -10 -2 -14l-103 -385q0 -6 -3 -18t-3 -17q0 -51 35 -51q32 0 101 43q28 17 65 43v-51l-285 -180q-41 26 -41 71q0 42 16 109l62 258q14 41 14 70 q0 34 -33 34q-36 0 -116 -53q-32 -22 -97 -65l-90 -373l-127 -51l115 518q0 24 -27 24q-13 0 -31 -4q-6 -1 -69 -22z" />
<glyph unicode="o" horiz-adv-x="674" d="M12 195q0 153 154 348q83 83 233 129q12 0 37 3t37 3q158 0 158 -182q0 -85 -37 -187t-92 -166q-99 -116 -221 -153q-33 -10 -70 -10q-89 0 -145 64q-54 61 -54 151zM156 244q0 -162 98 -176q10 -5 14 -5q97 0 169 145q61 123 61 232q0 154 -99 166q-93 -8 -158 -95 q-54 -71 -75 -175q0 -15 -5 -46t-5 -46z" />
<glyph unicode="p" horiz-adv-x="776" d="M-88 -397l25 55l100 12l168 758q2 36 6 57q0 39 -35 39q-6 0 -66 -12q-30 -6 -47 -6v49q61 24 135 67q130 76 148 76q25 0 25 -43q0 -45 -23 -125q178 164 283 164q92 0 92 -141q0 -66 -24 -159q-56 -217 -149 -289q-22 -17 -99 -64q-86 -35 -146 -35q-34 0 -76 10 l-75 -346l165 -12l-38 -55h-369zM254 131q53 -37 100 -37q126 0 199 166q57 130 57 225q0 88 -63 88q-76 0 -228 -118z" />
<glyph unicode="q" horiz-adv-x="707" d="M0 125q0 182 109 393q48 93 194 154q49 14 100 14h7l98 -2l115 115l-25 -115l64 -27l-78 -63l-217 -936l155 -25l-26 -43h-414l39 43l127 25l119 498l-232 -152q-31 -20 -61 -20q-74 0 -74 141zM129 176q0 -63 37 -63q17 0 31 6l184 102l76 361h-70q-125 0 -180 -61 q-48 -54 -62 -185q0 -27 -8 -80.5t-8 -79.5z" />
<glyph unicode="r" horiz-adv-x="612" d="M12 543q34 16 167 90q88 49 116 49q20 0 20 -35q0 -29 -20 -92q70 60 89 73q53 36 101 36q39 0 80 -19l-51 -139q-55 41 -100 41q-35 0 -74 -21q-14 -7 -59 -34l-115 -463l-129 -52l129 521q0 39 -31 39q-16 0 -53 -12l-55 -19z" />
<glyph unicode="s" horiz-adv-x="580" d="M12 131l127 76l-2 -19q0 -127 90 -127q44 0 91 36t47 79q0 17 -9 31q-22 34 -115 104q-71 53 -71 111q0 22 23 84q31 43 59 73q41 44 80 66q47 27 114 27q82 0 119 -51l-76 -91q-40 60 -100 60q-40 0 -72 -34.5t-32 -74.5q0 -54 61 -82q127 -58 127 -155q0 -50 -34 -102 q-30 -46 -66 -74t-100 -56q-73 -32 -123 -32q-116 0 -138 151z" />
<glyph unicode="t" horiz-adv-x="506" d="M6 492l66 63h88l37 205l145 67l-63 -272h190l-51 -63h-154l-78 -297q0 -5 -2 -14.5t-2 -14.5q0 -47 39 -47q32 0 104 42q13 8 93 60l12 -39q-94 -76 -117 -94q-142 -108 -198 -108q-54 0 -54 92q0 33 11 84l73 336h-139z" />
<glyph unicode="u" horiz-adv-x="750" d="M4 492v51q35 20 108 66q115 73 146 73q23 0 23 -35q0 -13 -7 -41l-104 -411q0 -5 -2 -14.5t-2 -14.5q0 -47 35 -47q34 0 106 45q56 35 96 69l89 388l129 63l-109 -492q-4 -17 -4 -22q0 -39 29 -39q28 0 99 43l77 47v-51l-248 -154q-26 -26 -55 -26q-39 0 -39 65 q0 29 18 101l-194 -127q-63 -41 -99 -41q-55 0 -55 94q0 114 78 358q12 38 12 74q0 23 -16 23q-12 0 -29 -8q-30 -14 -82 -37z" />
<glyph unicode="v" horiz-adv-x="750" d="M4 373q16 53 51 157q11 30 29 66q29 25 133 25h84q63 0 113 24l14 -39q-85 -78 -147 -190q-70 -127 -70 -228q0 -108 90 -108q106 0 199 189q82 166 82 286q0 73 -27 129l117 39q26 -47 26 -119q0 -173 -168 -397q-64 -85 -145 -145q-101 -74 -188 -74q-109 0 -109 114 q0 4 2 14t2 15q23 216 209 387h-49q-118 0 -159 -49q-10 -12 -52 -121z" />
<glyph unicode="w" horiz-adv-x="1171" d="M16 387q14 42 45 124q22 55 59 81q41 29 113 29h156q32 0 54 13.5t36 22.5l13 -36q-82 -83 -157 -212q-87 -150 -87 -243q0 -64 53 -74l4 -4q106 0 216 204q89 168 110 302l133 37q0 -41 -31 -132l-61 -178q-33 -99 -33 -151q0 -82 63 -82l11 4q60 0 135 97q56 73 91 151 q52 118 52 223q0 73 -24 133l116 39q35 -47 35 -129q0 -121 -79 -262q-73 -128 -175 -213q-165 -137 -264 -137q-92 0 -92 125q0 25 10 63q-196 -186 -311 -186q-94 0 -94 117q0 7 3 21.5t3 21.5q41 201 233 362h-106q-86 0 -119 -27q-38 -31 -72 -143z" />
<glyph unicode="x" horiz-adv-x="764" d="M4 41q0 82 85 164l208 155q-8 86 -21 125q-25 74 -81 74q-51 0 -127 -53v49q74 65 115 92q59 39 98 39q96 0 122 -231l218 217q30 10 53 10q31 0 51 -10l-16 -129q-38 6 -74 6q-45 0 -92 -31l-129 -119l65 -422q13 -84 59 -129t103 -45q96 0 150 99l73 -78 q-91 -72 -209 -72q-73 0 -145 32q-66 29 -96 66q-38 46 -62 147q-16 67 -27 181l-12 119q-96 -83 -140 -146q-53 -76 -81 -186z" />
<glyph unicode="y" horiz-adv-x="811" d="M-49 -354l63 102q12 0 106 -13q51 -7 79 -7q188 0 200 135l66 319l-221 -139q-37 -31 -80 -31q-70 0 -70 94q0 28 10 64l89 322q6 22 6 38q0 19 -21 19q-17 0 -65 -16q-39 -13 -47 -15l-13 51q29 12 99 58q124 80 155 80q27 0 27 -39q0 -20 -12 -72l-78 -336 q-8 -34 -8 -67q0 -58 36 -58q33 0 103 45l102 66l88 401l129 64l-190 -848q-35 -84 -170 -178q-68 -66 -199 -66q-72 0 -184 27z" />
<glyph unicode="z" horiz-adv-x="764" d="M12 80l514 475l-30 -2h-84q-153 0 -195 -139l-24 41q43 142 78 177q25 25 102 25h205q46 0 90 24l51 28v-52l-502 -475q181 -100 289 -100q94 0 94 72q0 41 -22 79l104 76q25 -58 25 -80q0 -9 -5 -22l-10 -25q-34 -72 -139 -153q-41 -39 -125 -39q-73 0 -175 35 q-48 16 -151 55l-75 -51z" />
<glyph unicode="{" horiz-adv-x="520" d="M4 -145q0 54 21 138l42 172q21 87 21 138q0 89 -43 111q91 35 137 216l78 308q63 158 201 158h20q-112 -61 -149 -216q-17 -92 -55 -274q-34 -147 -142 -192q58 -30 58 -117q0 -55 -26 -138l-54 -168q-27 -84 -27 -134q0 -92 74 -121h-35q-121 0 -121 119z" />
<glyph unicode="|" horiz-adv-x="221" d="M96 4v952h76v-952h-76z" />
<glyph unicode="}" horiz-adv-x="537" d="M6 -252q114 29 158 189q22 100 70 299q42 163 143 192q-55 43 -55 119q0 53 22 134l44 164q22 83 22 136q0 106 -72 141q164 0 164 -161q0 -57 -23 -140l-46 -168q-23 -84 -23 -131q0 -76 59 -94q-102 -41 -150 -220l-78 -306q-61 -161 -186 -156z" />
<glyph unicode="~" horiz-adv-x="778" d="M6 285q95 149 211 149q56 0 137 -35q14 -6 58 -27q68 -34 106 -34q80 0 144 90l67 -41q-68 -143 -203 -143q-69 0 -172 53q-88 35 -137 35q-95 0 -145 -99z" />
<glyph unicode="&#xa1;" horiz-adv-x="786" d="M-47 -216q206 38 318 93q138 68 172 165l211 598q-10 3 -131 80q-47 30 -93 30h-25q-80 -15 -138 -66q129 0 144 -129q-73 0 -99 -13q-31 -17 -60 -78l-147 -406l-124 -79l182 495q15 41 57 68.5t87 27.5h9q-8 65 -94 65q-37 0 -68 -12q110 196 310 196h19q88 0 168 -51 q84 -54 110 -52l23 2l-225 -608q-54 -147 -148 -213q-87 -62 -223 -87q-51 -10 -235 -26z" />
<glyph unicode="&#xa2;" horiz-adv-x="660" d="M11 508q0 25 16 66l189 245q73 -16 123 -68q53 -56 53 -128q0 -15 -1 -22q-2 -16 -10 -37l-153 -412q39 -15 98 -96l238 643q74 199 258 199q11 0 32 -2.5t32 -2.5h-20q-162 0 -228 -184l-231 -641q-19 -14 -49 -34q-19 -13 -53 -34q-46 0 -87 46q-45 51 -76 55 q-62 0 -121 -105q24 65 55 97q13 13 56 41l184 459l4 30q0 50 -44 90q-37 33 -64 33l-45 -54q40 -19 72 -63q34 -47 34 -89q0 -4 -2 -13.5t-2 -14.5l-140 -154q-49 8 -83.5 54t-34.5 96zM89 540q0 -31 19 -64q22 -38 51 -38l9 1q48 13 48 67v11q-3 23 -35.5 60t-53.5 37h-6 q-32 -34 -32 -74z" />
<glyph unicode="&#xa3;" horiz-adv-x="674" d="M6 523q0 16 5 38l186 238q19 -7 47 -41q11 -14 34 -42l61 83q91 -31 91 -115q0 -27 -10 -63q-8 -28 -22 -66l-159 -428q66 -19 88 -85l257 657q65 167 224 167h43q-83 0 -126 -40q-39 -36 -79 -146l-223 -613q-66 -48 -121 -71h-7q-27 0 -49 22q-55 55 -87 58h-15 q-78 0 -102 -91q0 55 34 99t87 58l176 470q10 27 10 49q0 49 -38 55l-58 -76q-13 0 -73 76h-6q-15 0 -35 -40q90 -15 90 -127l-100 -173l-8 -3q-42 0 -80 55q-35 51 -35 95zM58 559q0 -31 18 -65q21 -39 49 -39l4 4q36 6 43 64q0 28 -27 59.5t-54 31.5h-10q-23 -15 -23 -55z " />
<glyph unicode="&#xa4;" horiz-adv-x="734" d="M9 4q16 42 16 170q0 11 -2 34t-2 34q0 116 13 190q40 229 230 352q32 22 74 50q51 28 101 28q26 0 51 -5q26 -8 151 -100q46 -34 91 -34l-206 -556q-34 -90 -102 -131q-34 -20 -122 -40q106 39 141 138l184 527q-15 2 -141 85q-53 35 -103 35q-37 0 -76 -16 q-115 -47 -169 -161q-44 -92 -44 -208q0 -20 4 -48q1 -9 7 -43q24 94 115 202q84 101 147 126h12q35 0 65 -54q26 -48 26 -87q0 -18 -2 -24l-152 -155q-28 0 -59 39.5t-31 68.5l2 9q-50 -41 -79 -130q-24 -75 -24 -152q0 -17 4 -59zM273 490q0 -30 18 -66q21 -41 48 -41 q44 20 44 78v13q0 25 -22 59q-25 37 -48 37q-40 -22 -40 -80z" />
<glyph unicode="&#xa5;" horiz-adv-x="718" d="M0 260q0 387 333 557l54 -95l88 85h24q59 0 124.5 -60t92.5 -60l-199 -533q-43 -115 -98 -147q-38 -22 -137 -32q79 22 107 50q21 21 45 91l178 522q-17 4 -82 69q-28 28 -51 28h-11l-119 -95l-33 69q-220 -93 -220 -288q0 -39 16 -119q59 200 271 304h4q33 0 62 -53 q25 -46 25 -83q0 -5 -2 -15.5t-2 -15.5l-144 -159q-32 0 -66 47q-32 44 -32 78l1 6q-100 -96 -100 -216q0 -32 23 -115l-125 -91q-27 270 -27 271zM291 464q0 -28 15 -63q19 -41 43 -41q22 0 38 37q14 30 14 55v9q0 25 -15 50q-18 29 -41 29h-6q-48 -8 -48 -76z" />
<glyph unicode="&#xa6;" horiz-adv-x="771" d="M4 561q0 12 7 41l201 201q17 0 35 -19q42 -43 55 -43q10 0 25 9l60 63q72 -24 72 -95q0 -19 -14 -57l-93 -254q52 -30 89 -113q33 -75 33 -142l225 598q70 186 282 205q-88 -23 -130 -63t-74 -127l-242 -669l-166 -115q21 80 21 148q0 147 -64 209l-97 -257l-110 -90 q-38 0 -78 96q-35 85 -35 133q0 29 9 38l260 172l89 235q15 40 15 58q0 23 -19 23v4l-58 -58q-4 0 -13 -4t-11 -4q-25 0 -87 51v4l-19 -17q37 -21 66 -66q31 -48 31 -88q0 -18 -5 -28l-135 -129l-8 -4q-44 0 -82 56q-35 52 -35 98zM81 597q0 -73 61 -100q5 -5 10 -5 q16 0 30.5 18.5t14.5 35.5q0 27 -28 69q-29 46 -53 46h-4q-31 -10 -31 -64zM91 233q0 -40 23 -96q19 -47 34 -63l100 290l-152 -97q-5 -20 -5 -34z" />
<glyph unicode="&#xa7;" horiz-adv-x="654" d="M9 452q0 45 15 92q17 53 48 91q40 76 129 160q111 104 320 219q-110 -87 -168 -138q-206 -181 -241 -317q-6 -45 -6 -60q0 -94 57 -196q66 -119 159 -193l157 413l-98 -59l-8 -3q-33 0 -60 61q-23 51 -23 90q0 28 12 49l210 178q43 -21 71.5 -74.5t28.5 -103.5 q0 -9 -6 -43l-172 -451l-182 -176q-9 44 -73 127q-90 116 -112 153q-58 97 -58 181zM387 635q0 -100 36 -100l7 3q76 33 76 100v18q0 27 -13 56q-15 35 -38 34l-16 -1q-52 -17 -52 -110z" />
<glyph unicode="&#xa8;" horiz-adv-x="841" d="M0 134q0 70 25 156q68 146 237 315q186 187 322 212h30q57 0 113 -42q73 -55 110 -68l-215 -597q-24 -66 -77 -111q-37 -31 -107 -55q55 29 78 63q29 43 37 147q2 34 2 75q0 107 -20 135l-114 -86l-16 -3q-40 0 -71 60q-27 51 -27 95q0 25 13 45q22 23 88 65q60 38 84 47 q53 0 95 -120q35 -98 35 -165v-22l119 380q-24 5 -73.5 40t-87.5 41h-21q-108 0 -249 -149q-123 -129 -171 -249q-38 -95 -38 -171q0 -105 47 -198q50 -97 119.5 -131t177.5 -34q66 0 154 14q54 9 151 29q-230 -96 -405 -96q-77 0 -123 11q-80 19 -147 118q-75 111 -75 249z M387 449q0 -28 16 -70q19 -50 42 -50q61 22 61 97v8q-5 26 -29 53q-27 30 -51 30h-9q-30 -13 -30 -68z" />
<glyph unicode="&#xa9;" horiz-adv-x="940" d="M6 127q0 64 32 153q54 111 163 238q103 121 207 202q120 93 194 93h6q85 0 155 -39l156 -87l5 5l-130 -372q42 -32 74 -83q34 -57 34 -105v-7q-45 -26 -104 -67q-71 -50 -106 -87q-9 13 -31 41q-34 42 -43 62l76 193l-20 6q-36 0 -109 -70q-48 -48 -143 -140 q-82 -77 -142 -90q80 46 112 96q37 58 83 226q-35 -20 -64 -20q-42 0 -71 36q-27 33 -27 76q0 9 3 19l6 20l86 81q49 45 82 69h12q33 0 62 -48q27 -44 27 -79q-4 -18 -4 -23l-75 -231q106 99 128 118q29 25 78 25l99 289q-25 4 -96 59q-64 49 -145 49q-105 0 -261 -161 q-134 -138 -190 -258q-31 -66 -31 -136q0 -99 51 -197q54 -103 137 -150q64 -28 163 -28q160 0 377 61q-84 -40 -199 -71q-157 -43 -284 -43h-24q-49 0 -80 6q-75 14 -149 123q-80 117 -80 246zM392 423q0 -30 20 -55t49 -25q2 0 29 9q16 21 16 53q0 29 -12 61 q-15 42 -39 42h-10q-16 -13 -44 -44q-9 -22 -9 -41zM707 85q0 -10 32 -34l85 68q0 29 -19 66q-20 42 -44 50q-15 -48 -40 -107q-14 -34 -14 -43z" />
<glyph unicode="&#xaa;" horiz-adv-x="687" d="M9 502q0 20 12 53l259 262q68 -8 120 -65t52 -125q0 -27 -9 -53l-153 -440q12 -11 40 -32q55 -41 60 -51l190 557q7 35 7 57q0 119 -100 148q139 144 269 165q19 3 46 3h15q36 0 186 -23q72 -11 123 -11q165 0 342 114q-195 -177 -426 -177q-52 0 -153.5 16.5 t-149.5 16.5q-106 0 -155 -80q100 -38 100 -140q0 -47 -15 -89l-195 -550l-131 -79q-15 25 -57 54q-51 35 -95 35h-19q-19 -5 -66 -50t-59 -45h-4q61 89 103 126q22 18 66 55l148 420q4 11 4 28q0 41 -36 87t-76 46l-46 -43q44 -9 77 -54.5t33 -91.5l-3 -25 q-21 -47 -89 -108q-73 -64 -119 -64l-4 3q-40 10 -68 60q-24 45 -24 90zM91 526q0 -30 17 -62q19 -38 46 -38l5 4q61 19 61 76v6q0 31 -29 63.5t-59 32.5l-11 -2q-30 -32 -30 -80z" />
<glyph unicode="&#xab;" horiz-adv-x="716" d="M0 544q0 21 11 47l222 222q19 -2 50 -50q14 -22 33 -22l10 4l87 74q79 -38 79 -120q0 -29 -17 -77l-173 -488q30 -5 60.5 -30t38.5 -53l190 557q27 79 27 114q0 69 -116 129q121 140 269 167q12 0 37 2.5t37 2.5q36 0 175 -19q73 -10 119 -10q164 0 345 105 q-173 -175 -398 -175q-55 0 -163 15.5t-162 15.5q-115 0 -164 -78q106 -56 106 -154q0 -22 -6 -49q-4 -21 -17 -66l-197 -550l-129 -79q-11 25 -53 54q-50 35 -97 35h-22q-18 -5 -66.5 -46t-59.5 -41q58 92 121 138q16 11 49 35l170 484q17 36 17 59q0 35 -32 53l-86 -66h-9 q-17 0 -40 27.5t-30 27.5h-6l-28 -27q46 -49 57 -63q36 -46 36 -79v-11q-69 -108 -169 -146l-10 -2q-42 0 -71 47q-25 41 -25 86zM72 576q0 -33 24 -61.5t56 -31.5q34 0 49 72q0 27 -29.5 58t-55.5 31h-6q-38 -20 -38 -68z" />
<glyph unicode="&#xac;" horiz-adv-x="1095" d="M11 121q0 67 18 118l90 253q52 85 125 95q-53 69 -143 69h-20q139 151 295 151h45q64 -6 132 -42q149 -78 188 -81l-97 -305q120 -120 148 -252l227 618q32 87 125 140t239 53h23q-139 -23 -209.5 -72.5t-104.5 -143.5l-235 -648l-135 -93q0 149 -108 294l-82 -228 l-142 -72q-29 11 -58 82q-25 64 -25 102q0 34 20 63l234 154l79 236q-39 8 -105 44l-115 62q-68 32 -113 32q-58 0 -97 -43q46 -8 82.5 -43t36.5 -80v-14h-13q-71 0 -107 -78q-11 -23 -46 -123q11 0 39 10.5t40 10.5h10q24 -13 39 -74q11 -48 11 -87q0 -51 -22 -85 q-106 -133 -204 -178q-65 13 -65 155zM112 152q0 -85 47 -85l8 1q50 12 61 106q0 131 -54 131q-11 0 -20 -7q-19 -11 -32 -68q-10 -45 -10 -78zM392 204q0 -29 19 -74q21 -51 44 -58l91 244l-150 -94q-4 -8 -4 -18z" />
<glyph unicode="&#xad;" horiz-adv-x="733" d="M29 350v88h684v-88h-684z" />
<glyph unicode="&#xae;" horiz-adv-x="898" d="M-51 -197q0 21 22 43q80 65 122 89q54 31 102 31q46 0 131 -33q91 86 173 86q-46 -13 -79 -41q-20 -17 -56 -63l142 -82l280 779q-30 4 -170 110q-62 47 -108 47q-58 0 -127 -77q44 0 85.5 -43.5t41.5 -87.5v-6q-102 -25 -132 -110l-112 -316q-39 -35 -69 -65 q-9 -9 -85 -89h-5q-48 0 -75 43q-24 37 -24 87q0 31 13 62q102 153 153 153q15 0 72 -18l63 173q29 57 131 84q-35 41 -51 54q-47 36 -109 36h-34q139 170 320 170h30q17 0 29 -2q57 -9 172 -98q51 -39 99 -45l-310 -846l-114 -86l-148 95q-80 -78 -201 -123q-11 -4 -41 -4 q-44 0 -84 24q-47 28 -47 69zM32 -167q39 -45 97 -45q77 0 149 68q-64 53 -144 53q-19 0 -29 -10q-43 -20 -48 -24q-25 -17 -25 -42zM72 172q0 -28 17 -70q20 -49 43 -49l2 3q57 11 57 98v13q-21 91 -64 91q-12 0 -26 -14q-29 -23 -29 -72z" />
<glyph unicode="&#xaf;" horiz-adv-x="898" d="M-159 -201q0 16 5 29q80 55 101 67q66 37 120 37q51 0 101 -38q83 68 184 68q-112 -46 -148 -101q25 -32 54 -87l140 145q54 -15 108 -73l280 766q-30 4 -170 110q-62 47 -108 47q-58 0 -127 -77q44 0 85.5 -43.5t41.5 -87.5v-6q-102 -25 -132 -110l-112 -316 q-39 -35 -69 -65q-9 -9 -85 -89h-5q-48 0 -75 43q-24 37 -24 87q0 31 13 62q102 153 153 153q15 0 72 -18l63 173q29 57 131 84q-35 41 -51 54q-47 36 -109 36h-34q133 168 340 168h39q58 -10 172 -98q51 -39 99 -45l-318 -869l-89 -87q-36 86 -106 123l-161 -163 q-58 110 -86 121q-17 -12 -58 -48q-52 -46 -82 -56q-8 -1 -37 -6q-43 0 -79.5 34t-36.5 76zM-96 -174v-12q0 -53 69 -53q63 0 128 65q-10 53 -101 53q-43 -10 -56 -16q-32 -13 -40 -37zM72 172q0 -28 17 -70q20 -49 43 -49l2 3q57 11 57 98v13q-21 91 -64 91q-12 0 -26 -14 q-29 -23 -29 -72z" />
<glyph unicode="&#xb0;" horiz-adv-x="644" d="M-387 -186q25 22 77 65q59 45 120 45q40 0 84 -25q10 17 43 32q44 20 78 18l32 -2l-5 2q-33 0 -67 -22q-37 -24 -42 -56q2 -18 25 -47q28 -34 33 -44l103 104q6 4 11 4q29 0 74 -48q37 -40 54 -75q3 16 6 41q5 38 5 52q0 35 -40 61l118 54q17 -23 17 -64q0 -8 -17 -137 l-140 -94q-25 83 -110 140l-135 -131l-53 85q-25 -10 -64 -43q-74 -62 -106 -62q-35 0 -70 57q-31 51 -31 86v4zM-322 -159v-9q0 -29 33 -56.5t63 -27.5q61 7 72 55q-29 68 -94 68q-32 0 -74 -30zM6 305q0 15 9 40q32 51 97 109q54 48 79 58q51 -22 91 -153q34 -112 34 -196 l110 324v15q0 72 -97 107q-68 24 -157 24q-85 0 -161 -19q191 193 305 193h10q36 -3 126 -27q81 -21 122 -21q109 0 248 111q-157 -173 -320 -173q-17 0 -39 4l-33 6q-29 0 -66 12q-83 27 -104 27q-57 0 -108 -49l54 2q114 4 215 -52q95 -53 92 -121l-1 -27l-160 -443 l-123 -83q13 84 13 118q0 51 -30 200q-11 -45 -51 -79q-20 -17 -70 -45q-35 0 -62 53q-23 46 -23 85zM74 333q0 -28 13 -60q16 -40 40 -40l7 2q45 19 45 94q0 53 -22 101h-15q-13 0 -33 -20q-13 -12 -31 -44q-4 -17 -4 -33z" />
<glyph unicode="&#xb1;" horiz-adv-x="857" d="M9 576q0 7 5 28q2 8 5 18l201 197q15 -1 44 -32t43 -31q10 0 26 9l59 63q72 -15 72 -93q0 -26 -12 -59l-69 -189l112 130q64 74 95 106q61 65 104 94q29 -6 90 -63.5t61 -82.5l-223 -595q-80 -82 -158 -95q34 13 54 35q32 34 50 85l191 543q-33 59 -98 91 q-182 -156 -326 -416q-37 -66 -125 -245q-29 -30 -75 -52q-42 -19 -84 -37q35 26 57 47q43 41 55 93l206 559q18 34 18 61q0 24 -14 24l-66 -62l-21 -4q-25 0 -89 53l-18 -21q36 -19 66 -65t30 -86q0 -20 -6 -29l-142 -129q-43 0 -82 54q-36 51 -36 96zM89 614 q0 -74 59 -102q3 -1 9 -4q17 0 32 19t15 37q0 27 -28 68q-31 44 -55 44q-32 -7 -32 -62z" />
<glyph unicode="&#xb2;" horiz-adv-x="1123" d="M6 373q0 54 21 110q23 61 138 184q103 110 162 150q17 0 40 -31q18 -26 54 -79l119 100l34 1q45 1 102 -49q41 -42 83 -85l-94 -291q118 -118 148 -251l227 618q31 86 125.5 139t238.5 53h22q-140 -21 -211 -70.5t-105 -144.5l-233 -647l-136 -91q0 150 -106 291 l-82 -227l-142 -72q-30 11 -59 83q-25 64 -25 103q0 31 22 61l235 153l65 225q-6 33 -47 84q-43 56 -72 56h-4l-147 -115l-88 103q-197 -156 -197 -327q0 -107 97 -295q66 60 129 170l-9 -2q-53 0 -98 39.5t-45 91.5q0 4 5.5 31t92.5 93.5t110 66.5q36 -13 59.5 -56.5 t23.5 -84.5q0 -25 -14 -48q-62 -102 -152 -220q-98 -128 -177 -202q-4 46 -34 123q-25 60 -50 121q-26 70 -26 138zM252 445q0 -29 17 -56q20 -31 47 -31l17 2q46 20 46 51q0 6 -2 20l-4 28q-38 71 -66 71q-11 0 -21 -9q-34 -31 -34 -76zM413 210q0 -31 18 -75 q20 -51 44 -59l93 246l-151 -94q-4 -8 -4 -18z" />
<glyph unicode="&#xb3;" horiz-adv-x="1067" d="M0 168q0 33 9 76l92 253q18 33 53 55q17 11 68 32q0 40 -54 61q-40 16 -87 16h-14q60 64 144 106q91 46 172 46q7 0 20.5 -2.5t19.5 -2.5q48 -9 99 -48q110 -85 134 -89l-186 -532l227 173q85 64 110 64l135 363q33 90 137 144q99 51 235 51h12q-262 -42 -324 -231 l-113 -343l121 -165q-148 -106 -224 -220q-68 44 -68 116q0 7 2.5 19.5t2.5 18.5l58 173h-4q-30 0 -146 -89q-188 -144 -220 -166q-131 -90 -191 -90q64 33 89 55q35 31 70 94l180 506q-101 82 -116 92q-79 55 -132 55q-61 0 -121 -47q121 -29 121 -136h-13q-64 0 -112 -88 q-13 -25 -57 -143q11 0 28 11q40 25 49 25h10q25 -16 44 -74q18 -51 18 -87q0 -45 -18 -68q-88 -113 -204 -163q-56 89 -56 179zM94 174q0 -102 45 -102l5 2q62 12 62 106q-16 106 -58 106q-16 0 -32 -11q-22 -15 -22 -101zM808 127q0 -40 29 -46l92 91l-72 92 q-49 -59 -49 -137z" />
<glyph unicode="&#xb4;" horiz-adv-x="746" d="M15 -15q23 61 23 140q0 42 -7 104q-16 142 -16 172q0 107 59 175q37 63 122 141q106 96 196 96q6 0 17.5 -2.5t16.5 -2.5q21 -4 172 -91q64 -37 99 -37l15 4l-229 -588q-25 -47 -84 -78q-23 -12 -108 -43q61 30 93 68q30 35 46 82l172 489q-20 2 -173 88q-69 39 -116 39 q-25 0 -60 -14q-172 -120 -172 -275q0 -53 24 -144q33 -125 39 -160l142 143q-41 5 -70 50q-26 41 -26 85q0 24 11 53l148 135q38 0 69 -56q27 -48 27 -90q0 -33 -15 -63q-222 -265 -415 -420zM264 452q0 -28 11 -61q14 -42 36 -42l2 3q47 12 47 74v35q0 22 -13.5 46.5 t-33.5 24.5q-30 0 -42 -35q-7 -21 -7 -45z" />
<glyph unicode="&#xb5;" horiz-adv-x="745" d="M0 364q0 54 21 110q23 62 137 183q102 109 164 150q9 -27 59 -89l125 90h24q58 0 106 -45l98 -92l-202 -539q-50 -83 -178 -143q78 48 105 132l153 476q-4 34 -56.5 91t-85.5 57l-144 -105l-51 69q-186 -133 -186 -292q0 -74 42 -186q11 -29 51 -126q73 59 131 173 l-15 -3q-51 0 -93 38t-42 88q0 12 5 33.5t91.5 90t107.5 68.5q37 -12 61 -56q21 -39 21 -82q0 -24 -11 -50q-156 -254 -328 -424q-2 17 -79 232q-31 86 -31 151zM244 438q0 -32 18 -59q21 -30 51 -30l14 3q42 18 42 49l-5 48q-35 72 -62 72q-12 0 -22 -9q-36 -32 -36 -74z " />
<glyph unicode="&#xb6;" horiz-adv-x="765" d="M9 142q0 69 18 118l92 252q50 81 125 94q-57 68 -143 68h-20q146 150 298 150q46 0 95 -7q38 -9 124 -62q78 -48 120 -48l-243 -664q-86 -153 -301 -153q98 23 147 56q57 39 96 121l180 566q-20 0 -127.5 74t-162.5 74q-60 0 -101 -58q45 -14 80 -51q37 -40 43 -85h-13 q-73 0 -110 -77q-14 -29 -47 -123q11 0 38.5 10t41.5 10h13q46 -33 46 -163q0 -50 -18 -81q-109 -140 -206 -182q-65 19 -65 161zM112 167q0 -86 45 -86l6 4q63 20 63 110q0 127 -52 127q-12 0 -20 -6q-18 -10 -32 -69q-10 -47 -10 -80z" />
<glyph unicode="&#xb7;" horiz-adv-x="786" d="M-38 -25q58 37 65 43q31 25 53 73l142 426q-36 -30 -63 -30q-44 0 -76 47q-30 43 -30 89q0 7 5 26q36 56 200 164q42 -11 72 -56.5t30 -91.5l-96 -273l329 411q5 4 25 4q34 0 69 -32q29 -28 88 -83l-220 -603q-32 -67 -91 -96q-41 -20 -135 -35q62 21 87.5 39.5 t62.5 70.5l186 588q-11 17 -35 44q-31 34 -43 34l-361 -465l-87 -189q-47 -76 -177 -105zM129 661q0 -26 18 -64q21 -44 44 -44l6 2q47 16 47 68v26q-16 74 -58 74q-8 0 -32 -11q-25 -16 -25 -51z" />
<glyph unicode="&#xb8;" horiz-adv-x="699" d="M-76 -11q29 14 52 34q17 15 62 71l134 376l150 70q-33 -26 -45 -42q-15 -20 -33 -68l-115 -305q31 0 69 -26q84 -58 100 -57l18 1l159 456q-6 67 -125 106q-91 30 -176 30q-54 0 -98 -12q174 199 303 199h11q45 0 133 -22.5t133 -22.5q140 0 230 161q-41 -101 -102 -157 q-87 -81 -193 -74l-32 2q-53 3 -94 16q-116 36 -138 36q-63 0 -126 -58q105 0 217 -45q141 -56 141 -146v-13l-158 -431l-128 -79h-29q-35 0 -90 32t-74 32q-12 0 -27 -6q-43 -26 -129 -58z" />
<glyph unicode="&#xb9;" horiz-adv-x="813" d="M-89 -38q57 17 87 42q46 38 69 101l123 340q-32 -9 -94 -32l-7 -2q-36 0 -59 51q-19 41 -19 82q0 46 23 74l115 93q80 64 109 102q75 -48 71 -167l-2 -53l-153 -414l271 185q38 26 54 26q12 0 60 -21l133 365q32 87 136 140q99 50 235 50h13q-143 -23 -217 -74 q-81 -56 -113 -156l-111 -345q37 -18 78 -64q48 -54 52 -99q-156 -109 -230 -218q-67 47 -67 113q0 6 3 19.5t3 20.5l52 165q-24 27 -56 27l-21 -2q-65 -34 -182 -131q-135 -112 -186 -147q-103 -71 -170 -71zM101 538q0 -52 26 -68q15 -6 25 -6q36 0 59 34q17 25 17 93 q0 116 -38 116h-4q-85 -47 -85 -169zM559 119q0 -42 25 -45l100 98q-14 50 -78 81q-17 -18 -32 -63t-15 -71z" />
<glyph unicode="&#xba;" horiz-adv-x="828" d="M-74 -21q70 17 101 42q42 34 67 111l128 389q-34 -31 -65 -31q-43 0 -75 48q-29 44 -29 89q0 12 5 22q20 33 97 93q52 41 103 75q41 -13 71.5 -58t30.5 -90l-180 -535h26q60 0 142.5 -39t96.5 -39q24 0 54 25l224 618q32 89 125.5 142t239.5 53h22q-140 -21 -208 -69 q-73 -52 -108 -149l-214 -596q-6 -3 -70 -37q-79 -42 -123 -49h-8q-21 0 -125 38q-52 19 -82 19q-24 0 -56 -17q-105 -55 -172 -55h-18zM129 665q0 -26 18 -65q21 -45 44 -45l6 4q47 13 47 68v27q-16 73 -58 73q-34 0 -50 -32q-7 -14 -7 -30z" />
<glyph unicode="&#xbb;" horiz-adv-x="832" d="M-38 -9q66 25 148 141l125 389q-31 -31 -63 -31q-41 0 -74 49q-30 44 -30 88q0 5 2 10l4 12q20 32 96 93q61 49 103 75q41 -12 72 -58t31 -90l-181 -535h27q60 0 142.5 -39t96.5 -39q25 0 52 25l309 843q32 87 121.5 140t229.5 53h32q-136 -18 -207 -68 q-75 -53 -109 -147l-296 -822l-69 -37q-78 -42 -123 -49h-9q-36 0 -118 28.5t-122 28.5q-39 0 -63 -17q-16 -3 -62 -24q-42 -19 -54 -19h-11zM144 661q0 -27 18 -64q20 -42 44 -42l6 4q57 0 57 81v20q-15 63 -63 63q-23 0 -38 -8q-24 -12 -24 -54z" />
<glyph unicode="&#xbc;" horiz-adv-x="716" d="M9 401q0 71 32 134q28 55 219 272h7q46 0 80 -72q29 -61 29 -113q0 -27 -7 -46q-18 -29 -67 -70q-55 -45 -82 -45l-8 3q-21 15 -52 71q-23 42 -33 67q-59 -79 -59 -134q0 -50 49 -186q26 -75 55 -153l150 345q17 -22 42 -132q18 -79 41 -200l207 565q32 86 124.5 138.5 t239.5 52.5h22q-140 -20 -207 -67q-72 -51 -107 -147l-194 -532q-79 -127 -145 -177q0 131 -54 330l-143 -326q-139 293 -139 422zM191 649q0 -31 15 -66q19 -43 46 -43l15 4q40 15 40 58v25q-2 22 -24 58q-26 42 -48 42l-13 -5q-31 -26 -31 -73z" />
<glyph unicode="&#xbd;" horiz-adv-x="718" d="M11 423q0 111 118 244q18 20 140 146h11q52 0 87 -61q31 -53 31 -108q0 -34 -15 -68q-96 -106 -155 -112q-39 9 -72 64q-31 51 -31 94q-49 -76 -49 -139q0 -61 110 -354l152 345q17 -23 42 -132q7 -29 41 -200l288 782q35 95 123 145q83 48 223 48h38q-138 -18 -208 -68 q-74 -53 -108 -147l-271 -750q-42 -65 -65 -95q-40 -51 -81 -82q0 129 -53 330l-144 -326q-152 324 -152 444zM210 656q0 -36 17 -76q20 -50 51 -50l13 5q35 13 35 56l-4 36q-3 23 -24 58q-26 42 -46 42l-17 -5q-25 -22 -25 -66z" />
<glyph unicode="&#xbe;" horiz-adv-x="942" d="M15 -25q62 15 100 56q23 25 64 98l132 384q-35 -20 -69 -39l-9 -4q-30 0 -50 48q-15 38 -15 73q0 31 12 53l159 173q43 -8 66 -70q18 -48 18 -101q0 -49 -16 -93l-116 -320q32 49 101 182q76 148 111 205q68 112 146 193q-22 -60 -22 -129q0 -33 23 -211q11 -85 11 -146 q0 -84 -12 -136l190 508q69 185 349 185h23q-140 -21 -211 -70.5t-106 -144.5l-200 -544q-20 -35 -83 -93t-99 -75q68 111 68 321q0 130 -40 315q-100 -208 -168 -320q-181 -298 -357 -298zM239 608q0 -47 41 -47q13 0 33 19q26 24 26 55v14q-21 83 -41 83h-7 q-19 -16 -35.5 -57t-16.5 -67z" />
<glyph unicode="&#xbf;" horiz-adv-x="841" d="M-47 -19q56 42 68 54q32 32 70 94l135 384q-35 -20 -69 -39l-15 -4q-37 0 -62 40q-22 35 -22 74q0 31 18 56l177 177q44 -8 67 -70q18 -47 18 -101q0 -24 -16 -93l-116 -320q36 54 101 182q78 152 110 205q69 113 147 193q-24 -60 -24 -126q0 -34 24 -198q12 -82 12 -137 q0 -72 -12 -132l268 709q35 93 122.5 141.5t233.5 48.5h27q-139 -20 -207.5 -69t-105.5 -146l-294 -779q-19 -36 -82 -93.5t-100 -74.5q66 105 66 321q0 145 -37 315q-285 -586 -502 -612zM144 612q0 -63 51 -66q11 -1 32 25q26 31 26 64v14q-7 37 -12 51q-11 32 -29 32h-6 q-62 -36 -62 -120z" />
<glyph unicode="&#xc0;" horiz-adv-x="898" d="M6 105q0 31 13 62q102 153 153 153q15 0 72 -18l63 173q29 57 131 84q-35 41 -51 54q-47 36 -109 36h-34q137 170 324 170h27q16 0 28 -2q57 -9 172 -98q51 -39 99 -45l-245 -683q-40 -111 -161 -181q-101 -58 -206 -58q116 18 195 95q73 72 103 159l206 606 q-30 4 -170 110q-62 47 -108 47q-58 0 -127 -77l2 -5q43 0 84 -41.5t41 -84.5v-6q-102 -25 -132 -110l-112 -316q-39 -35 -69 -65q-9 -9 -85 -89l-5 4q-45 0 -74 42q-25 37 -25 84zM72 172q0 -29 16 -70q20 -49 44 -49l2 3q57 11 57 98v13q-21 91 -64 91q-12 0 -26 -14 q-29 -23 -29 -72z" />
<glyph unicode="&#xc1;" horiz-adv-x="828" d="M4 190q0 17 7 43l247 159l37 129q-49 -38 -89 -38q-44 0 -72 44q-33 50 -29 96l1 12l184 184q56 -8 95 -58q36 -49 36 -107v-21q-3 -8 -4 -11l-74 -230q124 -117 170 -286l237 629q30 80 138 140q103 57 235 57h12q-139 -22 -221 -83q-74 -55 -107 -150l-220 -631 l-135 -95q0 138 -141 317l-85 -223l-141 -73q-19 11 -48 72q-33 70 -33 124zM91 235q3 -28 23 -77q21 -55 38 -69l87 240zM190 646q0 -29 17 -69q20 -47 45 -47q55 18 55 93v17q-21 94 -65 94q-12 0 -22 -12q-30 -30 -30 -76z" />
<glyph unicode="&#xc2;" horiz-adv-x="745" d="M15 190l207 130q-48 5 -77 57q-26 45 -26 97q0 70 102 175q40 41 98 89q7 6 104 81q39 0 71 -62q29 -54 29 -97v-12q0 -9 -2 -17q-75 -108 -205 -157q-28 0 -50 55q-18 45 -18 79l4 23q-62 -34 -62 -93q0 -22 7 -55q49 -104 105 -104q60 0 166 100q-39 -72 -148 -135 q-158 -90 -191 -116q25 -37 79 -108q48 -59 114 -69l27 -4q37 0 64 25q35 33 55 87l206 568q32 90 125.5 142.5t238.5 52.5h23q-139 -21 -210.5 -71.5t-105.5 -143.5l-210 -580q-72 -60 -114 -86q-75 -45 -143 -45h-5q-66 0 -115 43q-20 17 -71 86q-39 52 -72 65zM320 649 q0 -28 17 -68q20 -46 44 -46l2 3q55 12 55 93v15q-21 93 -62 93q-15 0 -24 -12q-32 -26 -32 -78z" />
<glyph unicode="&#xc3;" horiz-adv-x="602" d="M6 612q96 96 149 132q91 63 184 63q53 0 104 -13l116 -29q70 0 173 112q-71 -101 -112 -135q-52 -43 -123 -43q-8 0 -26.5 4t-27.5 4q-25 0 -115 29q-43 14 -70 14q-63 0 -116 -51h21q81 0 163 -44q91 -49 91 -111v-4l-126 -334q-12 -67 -71 -130q-35 -37 -108 -91 q-78 69 -78 147l4 12q14 42 71 118q62 83 95 87l49 -38l76 215q0 47 -89 81q-72 28 -128 28q-68 0 -106 -23zM105 179q0 -31 11 -60q15 -39 41 -39l10 1q43 20 43 86v23l-4 1q0 20 -17.5 49t-36.5 29q-17 0 -23 -9q-24 -46 -24 -81z" />
<glyph unicode="&#xc4;" horiz-adv-x="703" d="M-426 -349q116 82 299 89q234 10 272 21q143 43 204 212l235 649l-172 97q-74 42 -122 42q-54 0 -95 -45q105 -37 118 -140h-8q-77 0 -115 -78q-8 -17 -46 -122q11 0 25 4q43 12 51 12h13q49 -25 49 -157q0 -59 -18 -83q-99 -133 -206 -184q-58 63 -58 195q0 39 11 81 l94 253q46 82 124 96q-62 68 -144 68h-17q43 55 113 97q92 55 188 55q41 0 90 -10q38 -8 125 -61q78 -48 115 -48l-309 -815q-36 -96 -134 -142q-68 -32 -175 -32q-41 0 -78 2l-142 7q-157 0 -287 -63zM94 157q0 -85 48 -85l6 2q62 13 62 106q0 131 -53 131q-15 -4 -23 -6 q-16 -16 -29 -70q-11 -48 -11 -78z" />
<glyph unicode="&#xc5;" horiz-adv-x="940" d="M0 125q0 84 32 153q70 150 259 328t306 197h34q62 0 167.5 -52t125.5 -52l8 4l-238 -640l-118 -84q36 126 36 288q0 260 -74 268q-127 -102 -158 -144q-37 -51 -37 -139q13 8 33 28q50 50 62 57h13q38 0 61 -62q18 -49 18 -95q0 -7 -6 -39q-29 -47 -79 -96 q-57 -56 -93 -66l-3 2q-44 0 -77 82q-28 67 -28 119q0 35 16 82q22 65 79 134q45 55 112 110q38 31 125 94h15q56 0 83 -116q18 -78 18 -159v-60l130 360q-28 0 -106 51q-85 55 -132 61h-10q-89 0 -240.5 -145.5t-212.5 -280.5q-30 -67 -30 -139q0 -98 51 -195 q54 -101 136 -147q52 -29 161 -29q158 0 378 58q-49 -20 -118 -44q-202 -69 -361 -69h-24q-41 0 -81 8q-81 16 -153 120q-80 116 -80 249zM343 163q0 -108 47 -116q39 0 63 94l-2 5q0 87 -61 87q3 0 -32 -7q-15 -11 -15 -63z" />
<glyph unicode="&#xc6;" horiz-adv-x="898" d="M-197 -349q138 101 329 101h137q100 0 157 27q76 36 120 132l240 701q-30 4 -170 110q-62 47 -108 47q-58 0 -127 -77q44 0 85.5 -43.5t41.5 -87.5v-6q-102 -25 -132 -110l-112 -316q-39 -35 -69 -65q-9 -9 -85 -89h-5q-48 0 -75 43q-24 37 -24 87q0 31 13 62 q102 153 153 153q15 0 72 -18l63 173q29 57 131 84q-35 41 -51 54q-47 36 -109 36h-34q168 170 326 170h27q14 0 26 -2q57 -10 172 -98q51 -39 99 -45l-296 -842q-82 -137 -269 -137q-39 0 -101 7q-143 16 -185 16q-132 0 -240 -67zM72 172q0 -28 17 -70q20 -49 43 -49l2 3 q31 7 52 42q18 31 18 65v9q-29 88 -75 88q-12 0 -28 -16q-29 -23 -29 -72z" />
<glyph unicode="&#xc7;" horiz-adv-x="870" d="M0 142q0 34 10 76q11 52 24 80q44 99 155 228q87 101 185 182q139 114 223 114h11q56 0 113 -36q125 -79 130 -79l9 2l-206 -565q-23 -39 -101 -110q-32 -29 -66 -59l-4 4q-38 0 -70 48q-36 52 -32 94l2 23q29 53 85 110q19 19 67 66h5q16 0 43 -23q10 -9 31 -28l140 375 q-20 4 -99 63q-36 27 -79 32h-17q-106 0 -256 -154q-131 -134 -182 -252q-30 -70 -30 -138q0 -99 52 -196q52 -100 135 -151q60 -28 165 -28q145 0 374 59q-137 -60 -288 -90q-109 -22 -191 -22h-26q-47 0 -79 5q-77 20 -151 125q-82 117 -82 245zM452 163q0 -106 50 -120 q58 0 66 53l-4 9q0 41 -14 76q-19 48 -51 48q-18 0 -31 -7q-16 -3 -16 -59z" />
<glyph unicode="&#xc8;" horiz-adv-x="676" d="M-4 383q0 146 114 271q118 100 159 123q71 40 132 40q59 0 105 -31q95 120 213 166q93 37 219 35l161 -2q121 -2 212 31q115 41 211 147q-105 -159 -249 -218q-105 -43 -228 -41l-199 3q-100 2 -172 -24q-88 -31 -148 -112q30 -16 81 -59q38 -32 64 -32l-196 -546 q-34 -55 -90 -92q-39 -26 -121 -61q60 45 83 73q36 44 60 113l154 447q-17 4 -76 51q-28 22 -40 22q-16 0 -28 -26l9 48q-58 30 -99 30q-75 0 -188 -99q-54 -58 -54 -157q0 -38 11 -87q3 -11 23 -80q135 268 282 268h6q20 -20 38.5 -76t18.5 -87v-8q-21 -36 -82.5 -78.5 t-103.5 -52.5q-17 3 -39.5 41t-22.5 58l4 9q-72 -66 -72 -170q0 -56 24 -152l-145 -89q7 42 7 88q0 53 -19 158t-19 158zM290 468q0 -33 15 -73q19 -50 47 -50l2 4q12 0 27 18t15 31v15q-4 28 -25 66q-26 47 -51 47h-7q-23 -14 -23 -58z" />
<glyph unicode="&#xc9;" horiz-adv-x="898" d="M-72 -6q111 51 130 112l133 415q-31 -31 -64 -31q-42 0 -74 49q-28 44 -28 88l4 22q18 32 96 93q55 43 103 75q101 -31 101 -133v-15l-177 -535h28q65 0 139.5 -43.5t85.5 -43.5q28 0 65 34l83 226q-10 0 -30.5 -2.5t-30.5 -2.5q-79 0 -136 33q-70 41 -70 114v6 q9 28 77.5 80t97.5 52h9q42 -37 42 -90t-42 -99q7 -17 65 -17q39 0 45 6l114 312q33 89 125.5 142t237.5 53h24q-142 -21 -210 -70q-71 -50 -106 -148l-105 -289q111 20 226 166q-83 -172 -251 -233l-86 -240q-52 -29 -94 -50q-59 -30 -97 -36h-15q-27 0 -88.5 36.5 t-97.5 36.5t-80 -19q-37 -17 -75 -34q-34 -12 -74 -20zM110 649q0 -29 12 -58q16 -36 41 -36l5 4q65 13 65 97v15q-8 68 -54 68l-31 -5q-38 -26 -38 -85zM354 474q0 -54 59 -61q12 0 27 21t15 34v7q0 18 -18 39t-36 21l-14 -3q-33 -26 -33 -58z" />
<glyph unicode="&#xca;" horiz-adv-x="924" d="M0 125q0 85 32 153q70 150 269 334t307 195h25q35 0 85 -15q101 112 248 150q24 3 54 3h18q46 0 107 -6q154 -15 194 -15q184 0 344 101q-195 -170 -427 -170q-55 0 -106 4l-163 12q-153 0 -242 -94q22 -9 67 -42q87 -64 107 -64l3 3l-228 -621l-126 -80q59 104 59 302 q0 194 -68 238q-90 -59 -118 -89q-49 -54 -49 -133q4 -13 4 -22q51 41 134 89v-4q37 0 37 -103q0 -132 -84 -209q-48 -44 -87 -53h-6q-40 0 -72 91q-27 76 -27 126q0 73 35 127q61 95 152 169q77 63 124 68q53 -6 80 -86q21 -62 21 -139q0 -8 -2 -23.5t-2 -23.5l118 314 q-14 4 -77 51q-28 21 -43 21q-31 0 -51 -49q10 30 10 74q-18 15 -58 14l-45 -1q-107 -2 -253 -156q-125 -132 -179 -253q-30 -67 -30 -139q0 -98 51 -195q54 -101 136 -147q52 -29 161 -29q158 0 378 58q-49 -20 -118 -44q-202 -69 -361 -69h-24q-41 0 -81 8 q-81 16 -153 120q-80 116 -80 249zM387 204q0 -38 16 -86q20 -60 49 -65q40 33 40 130q0 81 -54 81q-51 0 -51 -60z" />
<glyph unicode="&#xcb;" horiz-adv-x="771" d="M-81 -58q72 24 106 55q39 35 85 122l143 387q-91 -67 -114 -67q-31 20 -54 69q-22 46 -22 85q0 28 11 47l195 177q95 -54 95 -194v-29q-3 -13 -4 -18l-140 -394l333 373q-27 15 -62 53q-42 46 -42 76q0 15 12 23q40 35 91 67q69 43 108 43q28 -8 64.5 -71.5t36.5 -96.5 v-11q-20 -14 -115 -68q32 -8 59 -46.5t27 -71.5l-145 -385q-32 -67 -90 -96q-39 -20 -133 -38q60 22 84 40q28 20 60 70l136 400v16q0 19 -19.5 45t-37.5 34q-75 -69 -207 -235.5t-213 -238.5q-137 -122 -248 -122zM144 614q0 -92 51 -102q25 0 45 21.5t20 46.5 q0 142 -48 142q-20 0 -39 -21q-29 -31 -29 -87zM540 707q0 -25 21 -58q22 -37 45 -37l6 2q18 0 38.5 15t23.5 32q-5 23 -32 56q-32 39 -58 39q-16 0 -20 -2q-24 -15 -24 -47z" />
<glyph unicode="&#xcc;" horiz-adv-x="855" d="M-72 -15q71 16 114 77q29 40 59 129l96 284q-21 -17 -72 -26l-4 -4q-20 0 -39 60q-16 53 -15 79l1 34l176 206q43 -5 67 -65q18 -47 18 -99q0 -57 -16 -101l-118 -324q61 55 120 179q33 72 102 217q57 117 123 168q-17 -53 -17 -105q0 -61 25.5 -185t25.5 -180v-31 l187 519l-29 72q-9 -3 -74 -23q-29 -9 -52 -9q-34 0 -85 24q-24 8 -37 35l-20 46q33 3 143 70q48 29 77 29q58 0 104 -76q38 22 116 65q71 38 134 38q55 0 88 -16q-18 4 -56 4q-85 0 -171 -71l-86 -71l38 -121l-253 -701q-63 -102 -123 -123q27 57 27 140q0 64 -15 152 l-29 173q-15 84 -15 130q-55 -176 -197 -367q-172 -232 -318 -232zM139 623q0 -24 11 -55q13 -38 32 -42l4 -3q26 0 43 34q15 28 15 57v24q0 23 -13 49q-16 31 -36 31h-5q-51 -23 -51 -95zM540 951q47 -47 106 -47q49 0 81 36q0 7 -13 24q-34 44 -83 44q-91 -13 -91 -57z " />
<glyph unicode="&#xcd;" horiz-adv-x="924" d="M0 125q0 83 32 153q45 98 156 229q254 300 410 300h14q85 0 184.5 -61.5t116.5 -61.5l6 3l-203 -566q-85 -63 -118 -85q-72 -49 -111 -65h-12q-57 0 -125 70q-75 77 -75 160q0 11 5 34q10 47 90 138q38 44 116 119q96 93 122 101q31 0 53 -67q19 -58 19 -115 q0 -5 -2 -15.5t-2 -14.5q-86 -98 -174 -129q-24 0 -45 58q-18 49 -18 80l4 21q-30 -21 -55 -59q-34 -51 -34 -100q0 -18 10 -46q19 -52 62 -103q55 -65 106 -65t99 67l177 518q-22 4 -92 61q-66 54 -142 50q-89 -4 -241 -145t-212 -276q-30 -68 -30 -139q0 -98 51 -195 q54 -101 136 -147q52 -29 161 -29q158 0 378 58q-49 -20 -118 -44q-202 -69 -361 -69h-24q-41 0 -81 8q-81 16 -153 120q-80 116 -80 249zM502 411q0 -25 10 -54q14 -36 34 -37q45 -1 56 59q0 41 -7 72q-11 48 -34 48q-10 0 -35 -16q-24 -24 -24 -72z" />
<glyph unicode="&#xce;" horiz-adv-x="718" d="M6 228q0 34 21 74q43 55 162 131q109 70 149 79q27 -8 47 -65q16 -47 16 -83l-3 -26q-57 -86 -145 -116l-11 -2q-43 0 -71 36q-27 33 -27 77l4 25q-21 -14 -57 -72l-2 -17q0 -65 69 -147q74 -88 147 -88q23 5 61 25q50 26 60 30l186 519l-99 57q-87 -96 -223 -121 q-8 0 -24 -2t-24 -2q-104 -2 -153 47q-15 18 -15 44q0 67 131 124q111 48 193 48h9q60 -6 142 -47l4 -2q204 182 369 212q40 7 220 18q134 8 227 44q144 56 290 192q-166 -238 -355 -289l-337 -25q-211 -16 -383 -165q38 -22 128 -85l-204 -565l-114 -57q-78 -38 -121 -45 h-31q-86 0 -161 76t-75 163zM142 649l2 -5q7 -47 125 -47q155 0 206 87q-93 61 -189 61q-10 0 -51 -6q-93 -26 -93 -90zM226 364q0 -84 56 -84q44 0 44 63v17q-10 83 -51 83q-10 0 -17 -4q-32 -14 -32 -75z" />
<glyph unicode="&#xcf;" horiz-adv-x="606" d="M-21 -134q115 15 194 92q72 71 102 158l168 492q-185 -178 -291 -178q-36 0 -76 19q-76 46 -76 144q0 40 15 68l153 90q86 50 118 57h4q27 0 47 -41q17 -34 17 -64v-19q-41 -64 -157 -120l-15 -3q-30 0 -55.5 29t-25.5 59q-20 -18 -20 -47q0 -48 33 -87.5t81 -39.5 q4 0 12.5 2t12.5 2q29 8 120 92q25 23 157 152q82 80 94 80l-246 -702q-39 -112 -161 -180q-99 -55 -205 -55zM174 709q0 -21 17 -54q19 -37 38 -37l6 4q48 9 45 47l-2 23q-18 62 -56 62q-9 0 -27 -8q-21 -7 -21 -37z" />
<glyph unicode="&#xd0;" horiz-adv-x="674" d="M-15 222v20l195 154q26 0 48 -39q20 -34 20 -62q0 -17 -9 -31q-14 -22 -76 -74q30 -11 66 -11q176 0 369 304q-68 -124 -119 -188q-68 -85 -149 -128q-99 -52 -209 -48l-53 2q-34 1 -59 35q-24 31 -24 66zM81 258q0 -20 16.5 -38.5t36.5 -18.5q16 0 32 17.5t16 34.5v11 q-12 63 -43 63q-12 0 -27 -14q-31 -28 -31 -55zM132 591l2 21l195 153q30 -3 50 -40q17 -32 17 -64q0 -7 -1 -13q-4 -13 -5 -17q-17 -22 -41 -42l-36 -30q43 -13 68 -13q173 0 369 305q-68 -123 -120 -188q-69 -86 -148 -128q-102 -54 -209 -48l-53 3q-36 2 -62 33t-26 68z M233 623q0 -20 16.5 -36.5t36.5 -16.5q17 0 32 17.5t15 35.5v8q-11 63 -43 63t-49 -40q-8 -17 -8 -31z" />
<glyph unicode="&#xd1;" d="M-305 1048v22q26 41 76.5 72t96.5 31q32 0 51 -12q25 -28 25 -58q0 -20 -16 -36l-96 -74q63 -23 141 -23q240 0 496 226q101 89 162 178q-131 -227 -307 -349q-189 -132 -366 -123l-39 2l-24 -2q-55 -5 -126 38q-74 44 -74 108zM-248 1081q0 -52 62 -52q14 0 38 17 q16 11 16 21l-7 11q0 14 -28.5 32.5t-44.5 18.5h-14q-22 -6 -22 -48z" />
<glyph unicode="&#xd2;" horiz-adv-x="524" d="M4 -47q97 29 144.5 71.5t67.5 104.5l165 506q-115 99 -153 99h-18q-88 -14 -199 -196q41 95 98 168q79 101 155 101q67 0 139 -57.5t84 -57.5l-207 -582q-41 -114 -276 -157z" />
<glyph unicode="&#xd3;" horiz-adv-x="524" d="M-258 972q0 42 42 80q38 34 82 43q24 22 62 22q82 0 97 -72l2 -27q4 -50 -49 -89q-43 -32 -94 -36q-19 -7 -38 -7q-71 0 -94 48q-10 21 -10 38zM-179 942q0 -13 11 -13l5 -5q31 0 84.5 38t53.5 67l-4 16q-3 2 -5 2q-13 5 -24 5q-51 0 -74 -23q-16 -8 -31.5 -38t-15.5 -49 zM4 -47q97 29 144.5 71.5t67.5 104.5l165 506q-115 99 -153 99h-18q-88 -14 -199 -196q41 95 98 168q79 101 155 101q67 0 139 -57.5t84 -57.5l-207 -582q-41 -114 -276 -157z" />
<glyph unicode="&#xd4;" d="M-761 1093q156 163 371 163q39 0 63 -4q61 -18 130 -67q21 -15 117 -95q72 -60 118 -86q7 -1 26 -6q16 -4 25 -4h50l20 4q-125 -105 -260 -105q-34 0 -56 5q-56 23 -155 84q-112 69 -158 90q-92 42 -174 42q-41 0 -117 -21zM-568 1178q112 -14 243 -93q38 -23 219 -134 h112q-61 20 -153 87q-129 94 -151 108q-87 53 -163 53q-56 0 -107 -21z" />
<glyph unicode="&#xd5;" d="M-857 1088q207 164 374 164q63 0 100 -12q58 -19 137 -80q42 -34 127 -100q70 -52 140 -66l91 167q55 101 168 101h31q-70 -19 -87 -40q-24 -50 -44 -83l-117 -197q-39 -65 -159 -65q-15 0 -30 2q-50 7 -54 7q-83 14 -181 73q-56 35 -169 103q-93 52 -188 52 q-59 0 -139 -26zM-646 1177l125 -36q52 -15 145 -75q106 -69 139 -85q93 -46 157 -41l24 2q-62 21 -155 90q-127 94 -153 110q-90 53 -171 53q-62 0 -111 -18z" />
<glyph unicode="&#xd6;" d="M-904 1117q77 57 131 89q157 94 298 94q13 0 39.5 -3t39.5 -3q96 -30 216 -124q19 -15 99 -82q6 58 90 100l82 41h14q72 0 111 -83v-32q0 -75 -64 -116q-135 -112 -281 -112q-90 17 -208 86q-65 40 -198 116q-108 58 -215 58q-85 0 -154 -29zM-654 1215l116 -37 q44 -14 166.5 -87.5t168.5 -94.5q97 -45 182 -45q12 4 17 4q-76 23 -153 78q-47 35 -143 106q-85 62 -152 90q-31 13 -83 13q-90 0 -119 -27zM27 1104q0 -81 54 -81q13 0 28.5 24t15.5 39v13q0 18 -27 48.5t-45 30.5q-26 -12 -26 -74z" />
<glyph unicode="&#xd7;" d="M-938 1076q78 58 128 89q161 99 297 99q44 0 115.5 -17t158.5 -76q68 -46 138 -110q32 64 53 94q83 121 187 134q-143 -135 -143 -271q28 0 57 49l66 111q30 39 70 67q27 19 80 44q-63 -24 -93 -101q-18 -49 -54 -146q-78 -161 -274 -161q-93 0 -203 57q-72 38 -212 111 q-116 59 -217 59q-77 0 -154 -32zM-716 1167h36q28 0 55 -6q17 -4 49 -13q61 -18 155 -72q118 -68 152 -84q90 -41 164 -41q6 0 19 2t19 2q-69 19 -170 85q-139 91 -166 106q-97 53 -177 53q-64 0 -136 -32z" />
<glyph unicode="&#xd8;" d="M-707 -745q92 9 129 26q52 24 81 88l74 250q-34 -26 -64 -26q-45 0 -79 49q-31 44 -31 91q35 54 83 103q21 21 88 79q51 -19 84 -81q29 -55 29 -114q0 -27 -7 -47l-97 -275q-27 -75 -79 -112q-48 -33 -131 -32zM-523 -280q0 -67 26 -72h23q55 0 61 47q0 39 -15 76 q-20 49 -55 61q-40 -28 -40 -112z" />
<glyph unicode="&#xd9;" d="M-756 -671q166 96 192 358q-11 -8 -26.5 -18t-40.5 -21q-23 0 -40 44q-13 36 -13 64q0 14 8 34q42 49 130 143q30 -19 48 -81q15 -50 15 -96v-15q0 -21 -4 -46q-7 -85 -23 -141q-17 -62 -54 -107h11q41 0 71 81q17 46 23 76q36 180 78 252q57 97 152 97q6 0 17 -3t17 -3 q-107 0 -146 -144q-20 -93 -67 -276q-44 -151 -172 -171zM-631 -229q0 -64 29 -69h9q32 0 38 59q0 18 -11 47q-13 35 -27 35l-5 -2q-33 -13 -33 -70z" />
<glyph unicode="&#xda;" d="M-538 -343q0 42 41 80q38 34 82 43q27 23 63 23q82 0 97 -72l2 -29q3 -49 -47 -86q-43 -32 -96 -39q-13 -5 -38 -5q-42 0 -71 22q-33 23 -33 63zM-459 -373q0 -14 10 -14l6 -3q31 0 84.5 37.5t53.5 66.5l-4 17q-6 2 -9 2q-15 3 -21 3q-52 0 -74 -22q-14 -10 -30 -40 t-16 -47z" />
<glyph unicode="&#xdb;" d="M-835 1093q158 163 372 163q39 0 62 -4q62 -18 130 -67q16 -11 117 -95q72 -59 120 -86q6 -1 25 -6q16 -4 24 -4h52l20 4q-129 -105 -261 -105q-35 0 -55 5q-57 23 -156 84q-112 69 -159 90q-92 42 -172 42q-33 0 -74 -9q-18 -4 -45 -12zM-640 1178q82 -11 166 -51 q53 -25 150 -87q116 -74 144 -89h113q-63 20 -154 87q-132 97 -150 108q-88 53 -164 53q-56 0 -105 -21z" />
<glyph unicode="&#xdc;" d="M-917 1101q205 163 371 163q71 0 101 -10q60 -20 137 -80q42 -34 127 -100q70 -52 141 -66l91 165q55 100 169 100h30q-68 -18 -86 -40q-28 -55 -45 -83l-117 -195q-38 -64 -161 -64q-26 0 -82 9q-83 13 -182 72q-56 35 -170 102q-94 52 -186 52q-65 0 -138 -25z M-707 1188l125 -35q52 -15 145 -75q109 -71 139 -86q81 -41 157 -41l24 4q-63 21 -155 90q-127 95 -152 110q-91 54 -171 54q-58 0 -112 -21z" />
<glyph unicode="&#xdd;" d="M-953 1117q78 58 131 89q159 94 298 94q13 0 39.5 -3t39.5 -3q97 -31 216 -124q27 -21 99 -82q8 58 91 100q27 13 81 41h13q32 0 65.5 -26t46.5 -57v-32q0 -77 -64 -116q-137 -112 -282 -112q-90 17 -207 86q-65 40 -197 116q-108 58 -216 58q-85 0 -154 -29zM-701 1215 l115 -37q47 -15 165 -87t169 -95q98 -45 182 -45q3 0 9 2t10 2q-76 23 -154 78q-48 35 -144 106q-86 63 -151 90q-31 13 -84 13q-92 0 -117 -27zM-23 1104q0 -81 57 -81q12 0 30 29q12 19 12 34v13q0 19 -26.5 49t-45.5 30q-27 -12 -27 -74z" />
<glyph unicode="&#xde;" d="M-1010 1088q80 59 128 89q162 100 295 100q60 0 115 -19q67 -13 160 -75q75 -50 138 -111q48 94 89 142q67 78 152 87q-57 -51 -97 -123q-46 -82 -46 -149q31 0 72 80.5t49 81.5q30 39 71 66q19 12 81 44q-64 -24 -94 -101l-54 -147q-56 -118 -201 -151q-39 -9 -72 -9 q-97 0 -211 58q-68 37 -205 109q-116 59 -217 59q-80 0 -153 -31zM-788 1178h34q50 0 105 -17q61 -19 155 -74q110 -65 153 -84q91 -41 165 -41l37 4q-71 21 -171 86q-152 99 -167 107q-96 52 -177 52q-64 0 -134 -33z" />
<glyph unicode="&#xdf;" horiz-adv-x="904" d="M0 470q0 179 141 282q118 87 311 108l118 59v-59q60 4 61 4l32 134l74 20l-38 -156q161 -25 161 -153q0 -74 -64 -141q-54 -55 -131 -89q181 -28 181 -177q0 -118 -118 -203q-98 -70 -228 -90l-25 -114l-79 -29l32 138h-394l72 70q163 19 192 142l141 597 q-132 -15 -216 -74q-104 -72 -104 -193q0 -41 23 -116l-131 -61q-11 63 -11 101zM260 85q126 -22 178 -22l88 360l-62 -2q-23 -140 -65 -200q-21 -29 -139 -136zM464 468q18 0 38 3l38 6l82 343q-16 4 -52 4h-24zM513 68q151 28 190 160q9 30 9 63q0 99 -115 124zM616 502 q83 39 111 131q7 23 7 59q0 67 -50 102z" />
<glyph unicode="&#xe0;" horiz-adv-x="295" d="M0 182q0 9 3 26.5t3 26.5l176 488q22 61 126 108q67 30 147 44q-165 -51 -186 -114l-164 -481l74 53q24 -15 40 -69q14 -45 14 -82v-19q-16 -46 -49 -98q-39 -63 -72 -80q-54 0 -86 75q-26 60 -26 122zM85 172q0 -98 63 -104q14 0 27 46q11 38 11 58q-25 81 -57 81 q-17 0 -25 -11q-19 -26 -19 -70z" />
<glyph unicode="&#xe1;" horiz-adv-x="549" d="M0 186q0 12 3 31l3 27l176 490q53 110 270 150q-71 -25 -107 -45q-65 -35 -76 -68l-164 -485l75 57q24 -16 40 -68q13 -44 13 -80v-23q-16 -44 -51 -99q-41 -65 -72 -79l-4 2q-50 0 -81 74q-25 59 -25 116zM81 179q0 -96 63 -103q15 0 31 48q11 33 11 56q-16 84 -57 84 q-13 0 -24 -12q-24 -22 -24 -73zM260 186q0 9 3.5 26.5t3.5 26.5l176 488q22 62 123 107q71 32 150 43q-164 -48 -186 -112l-166 -483l74 56q21 -16 38 -60q18 -51 16 -83l-2 -28q-13 -44 -48 -99q-39 -61 -73 -79q-53 0 -84 76q-25 60 -25 121zM343 174q0 -102 62 -102 q15 0 27 45q11 37 11 57q-15 84 -53 84q-27 0 -40 -43q-7 -21 -7 -41z" />
<glyph unicode="&#xe2;" horiz-adv-x="535" d="M116 1173q167 132 271 132q53 0 105 -23q27 -12 93 -64q71 -57 109 -77q68 -37 134 -37q114 0 244 114q-126 -166 -295 -166q-69 0 -150 41q-31 16 -144 102q-90 69 -154 69q-41 0 -87 -25q107 0 207 -68q112 -75 112 -177q0 -22 -6 -38l-265 -712l79 46q39 0 62 -46 q18 -38 18 -81q0 -27 -11 -53q-69 -90 -163 -131q-38 11 -63 77q-21 55 -21 103q0 16 4 37l6 30l269 746q0 92 -96 156q-87 58 -184 58q-52 0 -74 -13zM273 148q0 -28 11 -60q15 -41 38 -41l7 4q52 20 52 76v21q-8 68 -54 68q-36 0 -48 -33q-6 -17 -6 -35z" />
<glyph unicode="&#xe3;" horiz-adv-x="703" d="M112 1104q0 18 15 59l372 233q98 0 177 -65q93 -76 93 -202q0 -44 -12 -96q-6 -23 -39 -111l-248 -662q50 35 70 35h4q49 -16 49 -105q0 -52 -29 -80q-68 -65 -143 -121q-36 0 -59 48q-19 39 -19 79q0 5 3 16t3 16l322 877q5 40 5 74q0 104 -63 162.5t-168 58.5 l-212 -132q-17 -27 -17 -62q0 -63 37 -111q40 -53 101 -53q68 0 167 76q-31 -31 -83 -40l-4 -4q-26 0 -46 29q-19 26 -19 53q0 23 18 43q56 63 136 92h7q39 0 61 -44q17 -35 17 -79q0 -54 -21 -70q-173 -105 -282 -105q-45 0 -95 21q-98 65 -98 170zM430 110q0 -53 34 -54 q21 -1 41 38q18 34 18 58q0 70 -40 70q-11 0 -22 -10q-31 -37 -31 -102zM434 1095q0 -51 36 -61l4 -2q50 0 64 44v5q0 74 -55 74h-15q-34 -12 -34 -60z" />
<glyph unicode="&#xe4;" horiz-adv-x="622" d="M112 1287l55 2q114 4 202 -62q83 -63 101 -175q94 87 204 136q92 41 159 41q19 0 42 -5q-55 0 -90 -24q-49 -34 -76 -108l-313 -859q30 21 45 31q26 16 33 18q19 0 34 -61q13 -49 13 -77q0 -37 -13 -55q-28 -39 -148 -110q-78 56 -78 146q0 25 16 87l335 907 q-39 -8 -129 -89q-85 -75 -112 -117q6 41 6 80q0 133 -77 213.5t-209 80.5zM369 119q0 -55 29 -77l7 -4q21 0 40 28t19 50v32q0 72 -34 72q-11 0 -38 -19q-23 -33 -23 -82z" />
<glyph unicode="&#xe5;" horiz-adv-x="646" d="M81 -260q99 31 145.5 72.5t68.5 107.5l243 720q-117 99 -155 99h-16q-92 -14 -199 -195q41 96 96 167q78 102 153 102h4q66 0 137.5 -58t85.5 -58l-280 -798q-23 -66 -113 -109q-54 -26 -170 -50z" />
<glyph unicode="&#xe6;" horiz-adv-x="452" d="M-105 -144q202 26 300 250l165 492q9 27 9 56q0 34 -15 64q-19 38 -49 38l-95 -64q-4 20 -24 43.5t-38 23.5q-26 -11 -49 -38q-25 -30 -25 -56q0 -16 11 -34q27 21 83 53q32 0 57 -40q23 -36 23 -70q0 -9 -6 -36q-91 -73 -141 -79h-7q-46 0 -71 51q-19 40 -19 92 q0 27 5 54q68 72 91 94q50 48 79 57q25 -8 44 -25l30 -36q84 62 96 62q100 -29 100 -143q0 -50 -11 -81l-174 -493q-39 -110 -162 -179q-100 -56 -207 -56zM96 598q0 -25 18 -57q20 -35 43 -35l6 2q23 12 23 51v25q-13 47 -57 47q-10 0 -24 -8q-9 -11 -9 -25z" />
<glyph unicode="&#xe7;" d="M-411 1010q0 27 4 38q18 155 250 155q59 0 85 -4q36 -6 84 -12q66 -9 104 -9q223 0 345 133q-54 -88 -166 -142q-115 -56 -214 -56q-15 0 -30 1l-36 3q4 -5 37 -25q24 -15 28 -35l1 -28q2 -50 -53 -98q-49 -43 -102 -54l-31 -6q-33 0 -73 28q-17 12 -66 57 q-56 -68 -120 -79q-47 64 -47 133zM-345 1038q0 -47 32 -82l109 73l62 -59q29 -28 68 -28q25 0 45 13q3 2 8 7q-23 -7 -32 -7q-45 0 -74 34q-7 18 -7 34q0 25 31 44l94 59q-30 0 -90.5 3.5t-90.5 3.5q-140 0 -153 -66q-1 -12 -2 -29zM-76 1045q0 -23 33 -35l28 -2 q42 -3 42 15q-27 44 -95 44q-8 -8 -8 -22z" />
<glyph unicode="&#xe8;" d="M163 1341q44 22 60 68q8 26 25 78l54 138q10 25 57 32q44 6 133 6q-64 0 -85 -12q-25 -14 -47 -69l-69 -172q-42 -32 -54 -39q-38 -23 -74 -30z" />
<glyph unicode="&#xe9;" d="M-58 1347q151 42 177 142q-35 -7 -51 -7q-56 0 -68 40v13q0 40 59 86q54 42 89 42q30 0 59 -54q26 -48 26 -82v-12q-27 -86 -91 -109q11 0 34 -3t34 -3q176 0 318 136q49 47 110 127q-53 -138 -195 -228q-159 -101 -338 -94zM74 1578q0 -63 45 -63q10 9 16 16 q17 19 17 32v10q-3 14 -24 36t-34 22q-20 -9 -20 -53z" />
<glyph unicode="&#xea;" d="M-87 1455v31l168 137l63 -52q59 43 76 43q9 0 24 -9q54 -32 54 -94q0 -73 -70 -115q97 0 199 105q92 94 124 200q-40 -377 -374 -376q-20 0 -41 1l-28 2q10 16 75 74q48 43 48 80l-3 22q-7 10 -17 26q-8 12 -21 23q-17 -7 -38.5 -16t-37.5 -20l-53 48q-88 -39 -88 -99 q0 -12 8 -18q19 15 39 29q29 20 48 20q15 0 21 -2q38 -25 38 -53q0 -14 -13 -29q-16 -34 -53 -59.5t-74 -25.5l-14 4q-60 54 -60 123zM17 1423q0 -42 32 -42q6 0 17.5 12.5t11.5 19.5l-4 10q0 10 -15 24t-25 14h-7q-10 -7 -10 -38z" />
<glyph unicode="&#xeb;" d="M-72 1449q31 57 90 73q33 9 114 9q69 119 161 128q-62 -21 -85 -130l47 -14q26 -7 43 -7q33 0 67 21q-12 -63 -162 -63q-12 4 -17 4q-11 -122 -121 -136q58 29 58 92q0 9 -3 21l-6 19q-16 0 -48.5 4t-48.5 4q-55 0 -89 -25z" />
<glyph unicode="&#xec;" d="M-65 1449q78 72 103 90q70 48 144 48q48 0 100 -18q54 -29 101 -29q93 0 170 96q-85 -159 -188 -159q-37 0 -81 18q-101 41 -112 41q-27 0 -38 -11q2 -3 28 -35q22 -27 22 -44q0 -15 -12 -27q-37 -89 -121 -89q-12 0 -49 15q-20 24 -40 49q-21 29 -27 55zM40 1430 q0 -58 43 -58q11 0 26.5 17.5t15.5 29.5l-4 7q-1 16 -21 39.5t-35 23.5h-7q-18 -10 -18 -59z" />
<glyph unicode="&#xed;" d="M-258 972q0 42 42 80q38 34 82 43q24 22 62 22q82 0 97 -72l2 -27q4 -50 -49 -89q-43 -32 -94 -36q-19 -7 -38 -7q-71 0 -94 48q-10 21 -10 38zM-179 942q0 -13 11 -13l5 -5q31 0 84.5 38t53.5 67l-4 16q-3 2 -5 2q-13 5 -24 5q-51 0 -74 -23q-16 -8 -31.5 -38t-15.5 -49 z" />
<glyph unicode="&#xee;" d="M-303 968q0 -76 114 -76q11 0 15 1q59 4 95 26l30 30l-19 23q-5 -10 -18 -16q-26 -11 -66 -16q-16 -2 -20 -2q-59 0 -59 42q0 8 5 20q14 23 32 29q36 7 110 18q9 0 23 1l-11 35q-28 6 -43 11q-32 10 -35 22q-6 34 52 54q46 16 94 16q-10 0 100 -20l-24 35q-25 4 -38 6 q-43 6 -68 6q-56 0 -119 -23q-80 -29 -80 -75q0 -24 34 -41q21 -10 25 -11q-19 -3 -46 -10q-67 -17 -81 -68q-2 -9 -2 -17z" />
<glyph unicode="&#xef;" horiz-adv-x="718" d="M-2 396q0 93 53 174.5t138 119.5q61 27 128 27q122 0 213 -82q106 -96 106 -237q0 -122 -81 -214q-93 -106 -237 -106q-121 0 -213 81q-107 94 -107 237zM95 403q0 -106 79 -174q61 -53 149 -53q107 0 172 77q54 64 54 149q0 106 -79 174q-63 54 -145 54q-105 0 -175 -81 q-55 -64 -55 -146zM222 417q0 41 29.5 71t70.5 30t71.5 -30t30.5 -71t-30.5 -71.5t-71.5 -30.5q-42 0 -71 30t-29 72z" />
<glyph unicode="&#xf0;" horiz-adv-x="591" d="M6 197q0 86 109.5 232t191.5 164q5 0 15.5 2t15.5 2q88 0 188 -114q58 -81 58 -150q0 -26 -10 -73q-33 -92 -125 -175q-101 -91 -191 -91h-6q-79 0 -155 59.5t-88 136.5zM91 258l3 -30q13 -62 87 -111q69 -45 135 -45q35 0 74 17q62 50 80 78q25 37 32 106v9 q0 78 -65 151t-142 73h-15q-82 -16 -137 -91q-52 -71 -52 -157z" />
<glyph unicode="&#xf1;" horiz-adv-x="646" d="M-32 -174q176 35 335 118q190 99 229 210l3 43q7 104 -71 211q-71 97 -153 109h-4q-48 0 -131.5 -66t-94.5 -113l-1 -25q-2 -57 48 -128q47 -69 92 -69l62 64l-13 -1q-31 -2 -61 34q-28 33 -28 65l2 13q13 38 49.5 76.5t73.5 49.5h11q37 0 67 -38.5t30 -76.5 q0 -35 -12 -58l-211 -212l-8 -3q-56 0 -118 93q-58 87 -58 147q0 12 2 22l3 14q27 70 155 177q132 111 201 111h6q119 -17 196 -148q64 -109 64 -216q-6 -52 -30 -94q-19 -33 -97 -108q-207 -156 -538 -201zM235 322q0 -31 30.5 -63.5t61.5 -32.5l25 3q12 12 12 31 q0 31 -26 66q-39 28 -65 28q-14 0 -25 -9q-13 -5 -13 -23z" />
<glyph unicode="&#xf2;" horiz-adv-x="841" d="M4 1025h70q174 0 246 -63q40 -46 40 -100q0 -38 -34 -130l-199 -537q-21 -100 -21 -79q0 -36 46 -36l7 1l343 -1q36 -3 60.5 11.5t45.5 67.5l119 302q5 7 5 22q0 47 -52 47l-127 -123q-23 87 -36 106q-18 27 -47 27h-6q-90 -68 -124 -100q-49 -45 -49 -71q0 -10 14 -24 q30 24 62 47q47 34 63 34h8q59 -24 59 -99q0 -28 -14 -54q-89 -101 -176 -141q-41 0 -78 68q-32 60 -32 105q0 27 19 55q48 57 142 140q102 90 150 112h13q30 0 57 -43q22 -36 28 -70l117 123l105 -114l-136 -374q-27 -73 -63.5 -103.5t-115.5 -30.5h-437q-67 6 -67 67 q0 31 17 79l25 70l209 576q18 50 18 83q0 84 -102 123q-71 27 -172 27zM311 307q0 -29 18 -61q20 -36 47 -36l3 2q51 8 51 61v9q-15 76 -61 76q-22 0 -45 -19q-13 -10 -13 -32z" />
<glyph unicode="&#xf3;" horiz-adv-x="873" d="M4 190q0 47 23 70l331 331h9q34 0 94 -46q49 -38 79 -75l121 121q67 0 113.5 -41t53.5 -107q0 -105 -34 -216q-36 -120 -97 -195q-102 -105 -292 -157q106 52 165 104q151 133 180 417l-4 2q0 43 -47 79q-41 31 -76 31l-64 -63q21 -46 21 -72v-15q-67 -219 -121 -294 q-39 -54 -120 -83q44 26 70 76q37 71 93 276q0 50 -63 108t-113 58l-19 -2l-222 -222q-11 -18 -11 -40q0 -42 35 -102q39 -66 77 -66l9 1q31 31 49 71q-40 80 -40 100q0 3 3 13.5t3 14.5q16 42 47 79q39 46 76 46q20 0 40 -46q17 -40 17 -64q-15 -49 -106 -152 q-83 -94 -142 -136h-8q-46 0 -90 76q-40 69 -40 120zM252 252q0 -42 34 -42q10 0 25.5 18.5t15.5 31.5v7q0 13 -14.5 36t-26.5 23h-4q-30 -15 -30 -74z" />
<glyph unicode="&#xf4;" horiz-adv-x="870" d="M6 233q0 69 41 134q64 58 161 130q109 81 144 90q75 7 131 6l140 -2q229 -3 375 341q-50 -231 -169 -340q-81 -75 -196 -93l-35 -2q-14 -1 -59 3q-95 8 -122 8q-180 0 -283 -148q-24 -50 -24 -112q0 -70 32 -124q37 -61 102 -71q25 23 76 23h29q-47 35 -47 121 q0 46 20 70q26 31 81 69q62 43 94 43h5q82 -21 82 -101q0 -38 -20 -52q-43 -39 -166 -72l-2 -6q0 -34 37 -67q34 -31 69 -38q7 0 21 -2.5t21 -2.5q75 0 140 47q-73 -91 -201 -91q-55 0 -87 27q-25 21 -58 21q-62 0 -147 -61q-79 24 -132 97t-53 155zM376 233q0 -47 31 -47 l6 4q93 0 93 77q0 12 -7 31q-17 24 -56 24q-20 0 -45 -15q-22 -25 -22 -74z" />
<glyph unicode="&#xf5;" horiz-adv-x="870" d="M6 233q0 69 41 134q63 57 155 123q100 72 137 84q18 6 40 6h32v11q0 10 -4 26q-9 36 -9 48q0 15 7 32q19 48 70 87.5t101 39.5q31 0 59 -16q57 -33 57 -96q0 -15 -8 -36l-76 -83q250 0 396 349q-52 -235 -170 -342q-81 -74 -196 -92l-36 -2q-16 -1 -51 1l-99 5 q-204 0 -318 -152q-24 -50 -24 -112q0 -70 32 -124q37 -61 102 -71q25 23 76 23h29q-47 35 -47 121q0 46 20 70q26 31 81 69q62 43 94 43h5q82 -21 82 -101q0 -38 -20 -52q-43 -39 -166 -72l-2 -6q0 -34 37 -67q34 -31 69 -38q7 0 21 -2.5t21 -2.5q75 0 140 47 q-73 -91 -201 -91q-55 0 -87 27q-25 21 -58 21q-62 0 -147 -61q-79 24 -132 97t-53 155zM376 235q0 -49 31 -49l6 4q93 0 93 77q0 12 -7 31q-17 24 -56 24q-20 0 -45 -15q-22 -25 -22 -72zM475 699q7 -23 15 -49q14 -30 50 -44q57 0 57 65v13q0 28 -21.5 51.5t-49.5 23.5h-5 q-18 -2 -32 -21.5t-14 -38.5z" />
<glyph unicode="&#xf6;" horiz-adv-x="687" d="M-85 1029h74q230 0 297 -100q30 -45 30 -116q0 -116 -115 -281q92 42 172 42q78 0 144 -30q76 -35 123 -103q44 -65 44 -134q0 -91 -62 -153q-228 -173 -370 -173q-40 0 -95 10q-65 0 -114 80q-43 71 -43 141l4 14l271 212l32 1q48 1 81 -37t33 -86q0 -25 -14 -47 q-55 -61 -132 -115l-31 -2q-49 -3 -83 38q-27 33 -27 74q5 16 5 22q-38 -29 -38 -91q0 -73 50.5 -121.5t123.5 -48.5q13 0 63 7q63 24 102 46q60 34 104 81q36 47 36 101q0 117 -110 214q-62 39 -141 39q-107 0 -253 -87q163 201 163 381q0 36 -11 95q-63 127 -313 127z M216 320q0 -38 24 -65t62 -27q43 0 43 70q0 26 -27.5 48.5t-53.5 22.5q-20 0 -29 -2q-19 -16 -19 -47z" />
<glyph unicode="&#xf7;" horiz-adv-x="898" d="M11 253q0 89 56 145q163 163 282 233h5q17 0 72 -45q27 -22 48 -22l90 63q116 -47 116 -201q0 -92 -57 -187q-54 -90 -133 -150q123 32 207 93q69 64 96 216q6 31 20 247q12 178 33 217q48 91 151 139q80 37 160 37q-66 -21 -100 -34q-135 -53 -163 -185q-5 -23 -8 -183 q-3 -151 -18 -235q-23 -131 -76 -179q-49 -44 -104 -85l-11 -8q-177 -129 -332 -129q52 41 81 67q90 78 135 177q26 57 26 129q0 126 -85 173l-85 -54l-6 -2q-12 0 -54 28t-59 28h-7q-47 -17 -134 -101q-66 -64 -66 -155q0 -73 41 -137q44 -67 112 -86l61 58q-40 0 -70.5 39 t-30.5 80q0 39 22 61q116 116 153 121q48 0 84 -37.5t36 -86.5q0 -45 -24 -69l-246 -239q-92 0 -158 85q-60 79 -60 174zM291 290q0 -37 20 -66q23 -33 58 -33l14 4q18 6 26 20t8 33q0 6 -2 19t-2 19q-20 66 -70 66q-16 0 -30 -9q-22 -20 -22 -53z" />
<glyph unicode="&#xf8;" horiz-adv-x="870" d="M4 222q0 83 64 175t115 139q58 52 115 76q27 11 92 11l140 -1q135 -1 220 49q165 131 237 307q-33 -134 -131 -256q-121 -150 -272 -176q-22 0 -41 -2l-60 -6q-26 0 -78 3t-78 3q-118 0 -195 -114q-27 -54 -27 -119q0 -62 32 -119q36 -65 92 -76l78 74q28 -37 86 -76 q64 -42 104 -42q105 96 130 156q-69 -48 -137 -48q-39 0 -71 23q-36 26 -36 64q0 6 9 35q64 59 176 143h16q52 0 85.5 -33t33.5 -85q0 -53 -29 -105q-34 -45 -103 -134q-43 -55 -107 -99q-44 5 -104 38.5t-91 68.5l-112 -105q-69 24 -111 90t-42 141zM470 305q0 -79 83 -79 q37 6 48 21t11 55q-21 74 -82 74q-22 0 -43 -16q-17 -17 -17 -55z" />
<glyph unicode="&#xf9;" horiz-adv-x="929" d="M0 253q0 46 17 89q15 37 50 69q75 68 150 120q120 81 196 81q58 0 90 -39q24 -44 29 -52l42 48q22 24 44 24h5q39 0 69.5 -48t42.5 -48l6 2q74 25 132 160q50 116 78 275q0 -195 -59 -339q-69 -169 -189 -169q-22 0 -57 52t-55 52q-14 0 -27 -16l-24 -31q20 -41 35 -126 q8 -48 25 -143q15 -75 44 -109q25 -24 83 -24l-94 -90h-10q-63 0 -96 145q-18 91 -58 271q-37 146 -120 146q-17 0 -44 -9q-38 -17 -91 -59l-75 -59q-54 -46 -54 -121q0 -69 43.5 -137.5t106.5 -93.5q14 12 47 42q52 46 57 52q-30 -14 -59 -14q-37 0 -65.5 25.5t-28.5 62.5 q0 22 9 38q96 111 172 133h9q32 0 57 -38q22 -34 22 -68q0 -29 -16 -59q-39 -57 -123 -140q-75 -74 -137 -123q-77 20 -130 105q-49 79 -49 163zM267 282q0 -81 60 -81q50 0 56 77q-18 74 -67 74q-14 0 -25 -3q-24 -19 -24 -67z" />
<glyph unicode="&#xfa;" horiz-adv-x="889" d="M-21 -134q115 15 194 92q72 71 102 158l168 492q-185 -178 -291 -178q-36 0 -76 19q-76 46 -76 144q0 40 15 68l153 90q86 50 118 57h4q27 0 47 -41q17 -34 17 -64v-19q-41 -64 -157 -120l-15 -3q-30 0 -55.5 29t-25.5 59q-20 -18 -20 -47q0 -48 33 -87.5t81 -39.5 q4 0 12.5 2t12.5 2q29 8 120 92q25 23 157 152q82 80 94 80l-246 -702q-39 -112 -161 -180q-99 -55 -205 -55zM174 709q0 -21 17 -54q19 -37 38 -37l6 4q48 9 45 47l-2 23q-18 62 -56 62q-9 0 -27 -8q-21 -7 -21 -37zM197 -148q116 16 195 93q73 72 103 160l166 492 q-20 -20 -30 -28q-5 -3 -9 -5q0 11 144 180q9 10 51 59l-253 -714q-41 -117 -159 -182q-100 -55 -208 -55z" />
<glyph unicode="&#xfb;" horiz-adv-x="1449" d="M30 284q0 237 222 278q11 2 17 2h14q47 0 97 -20q18 -7 41 -21l-6 -106q-46 46 -133 46h-16q-12 -2 -18 -2q-66 -9 -109.5 -63t-43.5 -121q0 -156 187 -156q90 0 150 76q44 84 89 168q4 0 45 -84t54 -84q8 0 40.5 85t46.5 85q9 0 83 -174l52 113q26 56 35 56 q11 0 47.5 -95.5t62.5 -90.5q5 1 73 108q32 51 69 57q23 4 51 -14q64 -41 77 -41t21 4q17 3 31 16q4 3 21 25l42 -87q-31 -50 -80 -62q-11 -4 -24 -4q-17 0 -76 33q-29 16 -51 16q-40 0 -86 -55q-43 -51 -87 -51q-32 0 -63 57q-24 44 -24 50q-25 -36 -35 -49 q-39 -51 -54 -58q-20 -7 -54 53q-10 18 -31 55q-31 -42 -41 -54q-43 -54 -52 -52q-17 7 -41 42q-9 14 -27 47q-29 -88 -94 -145q-71 -61 -159 -61q-90 0 -163 52q-78 55 -92 141q-8 48 -8 85z" />
<glyph unicode="&#xfc;" d="M-763 -720q92 9 129 26q52 24 81 88l20 55q-34 -26 -64 -26q-45 0 -79 49q-31 44 -31 91q35 54 83 103q21 21 88 79q51 -19 84 -81q29 -55 29 -114q0 -34 -7 -47l-43 -80q-25 -48 -37 -66q-20 -31 -42 -46q-48 -33 -131 -32zM-633 -450q0 -67 26 -72h23q55 0 61 47 q0 39 -15 76q-20 49 -55 61q-40 -28 -40 -112z" />
<glyph unicode="&#xfd;" d="M-749 -737q76 44 123 125q37 64 42 112q-11 -8 -26.5 -18t-40.5 -21q-23 0 -40 44q-13 36 -13 64q0 14 8 34q42 49 130 143q30 -19 48 -81q15 -50 15 -96v-15q0 -82 -54 -173h11q41 0 71 81q12 33 30 106q10 43 44 101q57 97 152 97q6 0 17 -3t17 -3q-107 0 -146 -144 q-7 -32 -40 -155q-44 -151 -172 -171zM-651 -416q0 -64 29 -69h9q32 0 38 59q0 18 -11 47q-13 35 -27 35l-5 -2q-33 -13 -33 -70z" />
<glyph unicode="&#xfe;" d="M-748 -483q0 42 41 80q38 34 82 43q27 23 63 23q82 0 97 -72l2 -29q3 -49 -47 -86q-43 -32 -96 -39q-13 -5 -38 -5q-42 0 -71 22q-33 23 -33 63zM-669 -513q0 -14 10 -14l6 -3q31 0 84.5 37.5t53.5 66.5l-4 17q-6 2 -9 2q-15 3 -21 3q-52 0 -74 -22q-14 -10 -30 -40 t-16 -47z" />
<glyph unicode="&#xff;" horiz-adv-x="455" />
<glyph unicode="&#x152;" horiz-adv-x="644" d="M6 305q0 15 9 40q32 51 97 109q54 48 79 58q51 -22 91 -153q34 -112 34 -196l110 324v15q0 72 -97 107q-68 24 -157 24q-85 0 -161 -19q191 193 305 193h10q36 -3 126 -27q81 -21 122 -21q109 0 248 111q-157 -173 -320 -173q-17 0 -39 4l-33 6q-29 0 -66 12 q-83 27 -104 27q-57 0 -108 -49l54 2q114 4 215 -52q95 -53 92 -121l-1 -27l-160 -443l-123 -83q13 84 13 118q0 51 -30 200q-11 -45 -51 -79q-20 -17 -70 -45q-35 0 -62 53q-23 46 -23 85zM74 333q0 -28 13 -60q16 -40 40 -40l7 2q45 19 45 94q0 53 -22 101h-15 q-13 0 -33 -20q-13 -12 -31 -44q-4 -17 -4 -33z" />
<glyph unicode="&#x153;" d="M-119 1455q78 72 103 89q69 47 143 47q44 0 101 -17q55 -30 99 -30q92 0 172 99q-85 -161 -188 -161q-38 0 -105 30t-89 30q-24 0 -37 -13q49 -58 49 -80q0 -9 -12 -26q-14 -36 -48.5 -62.5t-72.5 -26.5q-12 0 -49 15l-39 48q-20 26 -27 58zM-15 1434q0 -59 44 -59 q12 0 30 24q11 14 11 24l-3 9q0 16 -21 39.5t-37 23.5h-5q-19 -13 -19 -61z" />
<glyph unicode="&#x160;" d="M-235 1010q30 56 89 73q35 10 114 10q68 127 161 127q-63 -20 -86 -128q32 -11 47 -15q26 -7 42 -7q36 0 69 22q-14 -63 -163 -63l-17 3q-10 -123 -122 -138q59 31 59 95q0 20 -9 40q-16 0 -48.5 2.5t-48.5 2.5q-58 0 -87 -24z" />
<glyph unicode="&#x161;" d="M-250 1455v31l169 137l62 -52q61 43 77 43q7 0 23 -9q53 -31 53 -94q0 -72 -67 -115q96 0 198 105q93 96 124 200q-40 -376 -375 -376q-20 0 -41 1l-28 2q10 16 75 74q50 44 48 80l-1 22q-10 13 -19 26t-21 23q-17 -7 -38.5 -16t-37.5 -20l-54 48q-87 -40 -87 -99 q0 -12 8 -18q19 15 39 29q29 20 49 20q14 0 20 -2q40 -28 40 -53q0 -14 -15 -29q-16 -34 -53 -59.5t-74 -25.5l-14 4q-60 54 -60 123zM-146 1423q0 -42 32 -42q6 0 17.5 12.5t11.5 19.5l-4 10q0 10 -15 24t-25 14h-5q-12 -6 -12 -38z" />
<glyph unicode="&#x178;" horiz-adv-x="1040" d="M11 121q0 67 18 118l90 253q52 85 125 95q-53 69 -143 69h-20q139 151 295 151h45q60 -6 185 -80q56 -33 106 -33l-213 -613h7q22 0 81 -16q33 -9 51 -9q-1 0 59 12l254 664q31 82 122 136t230 54h33q-141 -21 -208 -68q-75 -52 -109 -147l-231 -649l-104 -64 q-41 -19 -76 -19q-22 0 -71.5 12.5t-75.5 12.5q-39 0 -92 -19l228 633q-41 8 -99 43q-33 21 -99 61q-54 32 -97 32q-53 0 -92 -43q46 -8 82.5 -43t36.5 -80v-14h-13q-71 0 -107 -78q-11 -23 -46 -123q11 0 39 10.5t40 10.5h10q24 -13 39 -74q11 -48 11 -87q0 -51 -22 -85 q-106 -133 -204 -178q-65 13 -65 155zM112 152q0 -85 47 -85l8 1q50 12 61 106q0 131 -54 131q-11 0 -20 -7q-19 -11 -32 -68q-10 -45 -10 -78z" />
<glyph unicode="&#x192;" d="M-474 889q154 39 183 143l-48 -9q-58 0 -72 40v13q0 37 55 86t92 49q32 0 63 -56q29 -50 29 -85l-2 -13q-15 -41 -31 -62q-24 -32 -62 -48q12 0 36 -2.5t36 -2.5q141 0 250 89q87 71 173 221q-52 -170 -194 -269q-151 -105 -339 -99zM-329 1117q0 -60 38 -60q8 0 23 23 q10 15 10 24l-2 10q0 14 -19 36.5t-32 22.5h-5q-13 -7 -13 -56z" />
<glyph unicode="&#x2c6;" d="M-343 907q155 41 180 141q-26 -8 -47 -8q-60 0 -72 41v12q0 38 56 87t94 49q22 -3 54 -48q36 -51 36 -95l-1 -10q-30 -85 -91 -110q33 -6 66 -6q244 0 422 311q-51 -170 -194 -269q-151 -105 -334 -100zM-204 1139q0 -63 41 -63q9 0 22.5 18.5t13.5 28.5l-2 10 q-2 12 -21 35t-30 23h-6q-18 -9 -18 -52z" />
<glyph unicode="&#x2dc;" d="M108 1332q43 18 66 56q10 17 29 69l59 163q12 33 50.5 57t90.5 24q9 0 27 -2.5t27 -2.5q-74 0 -104 -51q-11 -19 -31 -69l-67 -168q-50 -66 -147 -76z" />
<glyph unicode="&#xe00;" horiz-adv-x="211" />
<glyph unicode="&#xe01;" horiz-adv-x="786" d="M-47 -216q206 38 318 93q138 68 172 165l211 598q-10 3 -131 80q-47 30 -93 30h-25q-80 -15 -138 -66q129 0 144 -129q-73 0 -99 -13q-31 -17 -60 -78l-147 -406l-124 -79l182 495q15 41 57 68.5t87 27.5h9q-8 65 -94 65q-37 0 -68 -12q110 196 310 196h19q88 0 168 -51 q84 -54 110 -52l23 2l-225 -608q-54 -147 -148 -213q-87 -62 -223 -87q-51 -10 -235 -26z" />
<glyph unicode="&#xe02;" horiz-adv-x="660" d="M11 508q0 25 16 66l189 245q73 -16 123 -68q53 -56 53 -128q0 -15 -1 -22q-2 -16 -10 -37l-153 -412q39 -15 98 -96l238 643q74 199 258 199q11 0 32 -2.5t32 -2.5h-20q-162 0 -228 -184l-231 -641q-19 -14 -49 -34q-19 -13 -53 -34q-46 0 -87 46q-45 51 -76 55 q-62 0 -121 -105q24 65 55 97q13 13 56 41l184 459l4 30q0 50 -44 90q-37 33 -64 33l-45 -54q40 -19 72 -63q34 -47 34 -89q0 -4 -2 -13.5t-2 -14.5l-140 -154q-49 8 -83.5 54t-34.5 96zM89 540q0 -31 19 -64q22 -38 51 -38l9 1q48 13 48 67v11q-3 23 -35.5 60t-53.5 37h-6 q-32 -34 -32 -74z" />
<glyph unicode="&#xe03;" horiz-adv-x="674" d="M6 523q0 16 5 38l186 238q19 -7 47 -41q11 -14 34 -42l61 83q91 -31 91 -115q0 -27 -10 -63q-8 -28 -22 -66l-159 -428q66 -19 88 -85l257 657q65 167 224 167h43q-83 0 -126 -40q-39 -36 -79 -146l-223 -613q-66 -48 -121 -71h-7q-27 0 -49 22q-55 55 -87 58h-15 q-78 0 -102 -91q0 55 34 99t87 58l176 470q10 27 10 49q0 49 -38 55l-58 -76q-13 0 -73 76h-6q-15 0 -35 -40q90 -15 90 -127l-100 -173l-8 -3q-42 0 -80 55q-35 51 -35 95zM58 559q0 -31 18 -65q21 -39 49 -39l4 4q36 6 43 64q0 28 -27 59.5t-54 31.5h-10q-23 -15 -23 -55z " />
<glyph unicode="&#xe04;" horiz-adv-x="734" d="M9 4q16 42 16 170q0 11 -2 34t-2 34q0 116 13 190q40 229 230 352q32 22 74 50q51 28 101 28q26 0 51 -5q26 -8 151 -100q46 -34 91 -34l-206 -556q-34 -90 -102 -131q-34 -20 -122 -40q106 39 141 138l184 527q-15 2 -141 85q-53 35 -103 35q-37 0 -76 -16 q-115 -47 -169 -161q-44 -92 -44 -208q0 -20 4 -48q1 -9 7 -43q24 94 115 202q84 101 147 126h12q35 0 65 -54q26 -48 26 -87q0 -18 -2 -24l-152 -155q-28 0 -59 39.5t-31 68.5l2 9q-50 -41 -79 -130q-24 -75 -24 -152q0 -17 4 -59zM273 490q0 -30 18 -66q21 -41 48 -41 q44 20 44 78v13q0 25 -22 59q-25 37 -48 37q-40 -22 -40 -80z" />
<glyph unicode="&#xe05;" horiz-adv-x="718" d="M0 260q0 387 333 557l54 -95l88 85h24q59 0 124.5 -60t92.5 -60l-199 -533q-43 -115 -98 -147q-38 -22 -137 -32q79 22 107 50q21 21 45 91l178 522q-17 4 -82 69q-28 28 -51 28h-11l-119 -95l-33 69q-220 -93 -220 -288q0 -39 16 -119q59 200 271 304h4q33 0 62 -53 q25 -46 25 -83q0 -5 -2 -15.5t-2 -15.5l-144 -159q-32 0 -66 47q-32 44 -32 78l1 6q-100 -96 -100 -216q0 -32 23 -115l-125 -91q-27 270 -27 271zM291 464q0 -28 15 -63q19 -41 43 -41q22 0 38 37q14 30 14 55v9q0 25 -15 50q-18 29 -41 29h-6q-48 -8 -48 -76z" />
<glyph unicode="&#xe06;" horiz-adv-x="771" d="M4 561q0 12 7 41l201 201q17 0 35 -19q42 -43 55 -43q10 0 25 9l60 63q72 -24 72 -95q0 -19 -14 -57l-93 -254q52 -30 89 -113q33 -75 33 -142l225 598q70 186 282 205q-88 -23 -130 -63t-74 -127l-242 -669l-166 -115q21 80 21 148q0 147 -64 209l-97 -257l-110 -90 q-38 0 -78 96q-35 85 -35 133q0 29 9 38l260 172l89 235q15 40 15 58q0 23 -19 23v4l-58 -58q-4 0 -13 -4t-11 -4q-25 0 -87 51v4l-19 -17q37 -21 66 -66q31 -48 31 -88q0 -18 -5 -28l-135 -129l-8 -4q-44 0 -82 56q-35 52 -35 98zM81 597q0 -73 61 -100q5 -5 10 -5 q16 0 30.5 18.5t14.5 35.5q0 27 -28 69q-29 46 -53 46h-4q-31 -10 -31 -64zM91 233q0 -40 23 -96q19 -47 34 -63l100 290l-152 -97q-5 -20 -5 -34z" />
<glyph unicode="&#xe07;" horiz-adv-x="654" d="M9 452q0 45 15 92q17 53 48 91q40 76 129 160q111 104 320 219q-110 -87 -168 -138q-206 -181 -241 -317q-6 -45 -6 -60q0 -94 57 -196q66 -119 159 -193l157 413l-98 -59l-8 -3q-33 0 -60 61q-23 51 -23 90q0 28 12 49l210 178q43 -21 71.5 -74.5t28.5 -103.5 q0 -9 -6 -43l-172 -451l-182 -176q-9 44 -73 127q-90 116 -112 153q-58 97 -58 181zM387 635q0 -100 36 -100l7 3q76 33 76 100v18q0 27 -13 56q-15 35 -38 34l-16 -1q-52 -17 -52 -110z" />
<glyph unicode="&#xe08;" horiz-adv-x="841" d="M0 134q0 70 25 156q68 146 237 315q186 187 322 212h30q57 0 113 -42q73 -55 110 -68l-215 -597q-24 -66 -77 -111q-37 -31 -107 -55q55 29 78 63q29 43 37 147q2 34 2 75q0 107 -20 135l-114 -86l-16 -3q-40 0 -71 60q-27 51 -27 95q0 25 13 45q22 23 88 65q60 38 84 47 q53 0 95 -120q35 -98 35 -165v-22l119 380q-24 5 -73.5 40t-87.5 41h-21q-108 0 -249 -149q-123 -129 -171 -249q-38 -95 -38 -171q0 -105 47 -198q50 -97 119.5 -131t177.5 -34q66 0 154 14q54 9 151 29q-230 -96 -405 -96q-77 0 -123 11q-80 19 -147 118q-75 111 -75 249z M387 449q0 -28 16 -70q19 -50 42 -50q61 22 61 97v8q-5 26 -29 53q-27 30 -51 30h-9q-30 -13 -30 -68z" />
<glyph unicode="&#xe09;" horiz-adv-x="940" d="M6 127q0 64 32 153q54 111 163 238q103 121 207 202q120 93 194 93h6q85 0 155 -39l156 -87l5 5l-130 -372q42 -32 74 -83q34 -57 34 -105v-7q-45 -26 -104 -67q-71 -50 -106 -87q-9 13 -31 41q-34 42 -43 62l76 193l-20 6q-36 0 -109 -70q-48 -48 -143 -140 q-82 -77 -142 -90q80 46 112 96q37 58 83 226q-35 -20 -64 -20q-42 0 -71 36q-27 33 -27 76q0 9 3 19l6 20l86 81q49 45 82 69h12q33 0 62 -48q27 -44 27 -79q-4 -18 -4 -23l-75 -231q106 99 128 118q29 25 78 25l99 289q-25 4 -96 59q-64 49 -145 49q-105 0 -261 -161 q-134 -138 -190 -258q-31 -66 -31 -136q0 -99 51 -197q54 -103 137 -150q64 -28 163 -28q160 0 377 61q-84 -40 -199 -71q-157 -43 -284 -43h-24q-49 0 -80 6q-75 14 -149 123q-80 117 -80 246zM392 423q0 -30 20 -55t49 -25q2 0 29 9q16 21 16 53q0 29 -12 61 q-15 42 -39 42h-10q-16 -13 -44 -44q-9 -22 -9 -41zM707 85q0 -10 32 -34l85 68q0 29 -19 66q-20 42 -44 50q-15 -48 -40 -107q-14 -34 -14 -43z" />
<glyph unicode="&#xe0a;" horiz-adv-x="687" d="M9 502q0 20 12 53l259 262q68 -8 120 -65t52 -125q0 -27 -9 -53l-153 -440q12 -11 40 -32q55 -41 60 -51l190 557q7 35 7 57q0 119 -100 148q139 144 269 165q19 3 46 3h15q36 0 186 -23q72 -11 123 -11q165 0 342 114q-195 -177 -426 -177q-52 0 -153.5 16.5 t-149.5 16.5q-106 0 -155 -80q100 -38 100 -140q0 -47 -15 -89l-195 -550l-131 -79q-15 25 -57 54q-51 35 -95 35h-19q-19 -5 -66 -50t-59 -45h-4q61 89 103 126q22 18 66 55l148 420q4 11 4 28q0 41 -36 87t-76 46l-46 -43q44 -9 77 -54.5t33 -91.5l-3 -25 q-21 -47 -89 -108q-73 -64 -119 -64l-4 3q-40 10 -68 60q-24 45 -24 90zM91 526q0 -30 17 -62q19 -38 46 -38l5 4q61 19 61 76v6q0 31 -29 63.5t-59 32.5l-11 -2q-30 -32 -30 -80z" />
<glyph unicode="&#xe0b;" horiz-adv-x="716" d="M0 544q0 21 11 47l222 222q19 -2 50 -50q14 -22 33 -22l10 4l87 74q79 -38 79 -120q0 -29 -17 -77l-173 -488q30 -5 60.5 -30t38.5 -53l190 557q27 79 27 114q0 69 -116 129q121 140 269 167q12 0 37 2.5t37 2.5q36 0 175 -19q73 -10 119 -10q164 0 345 105 q-173 -175 -398 -175q-55 0 -163 15.5t-162 15.5q-115 0 -164 -78q106 -56 106 -154q0 -22 -6 -49q-4 -21 -17 -66l-197 -550l-129 -79q-11 25 -53 54q-50 35 -97 35h-22q-18 -5 -66.5 -46t-59.5 -41q58 92 121 138q16 11 49 35l170 484q17 36 17 59q0 35 -32 53l-86 -66h-9 q-17 0 -40 27.5t-30 27.5h-6l-28 -27q46 -49 57 -63q36 -46 36 -79v-11q-69 -108 -169 -146l-10 -2q-42 0 -71 47q-25 41 -25 86zM72 576q0 -33 24 -61.5t56 -31.5q34 0 49 72q0 27 -29.5 58t-55.5 31h-6q-38 -20 -38 -68z" />
<glyph unicode="&#xe0c;" horiz-adv-x="1095" d="M11 121q0 67 18 118l90 253q52 85 125 95q-53 69 -143 69h-20q139 151 295 151h45q64 -6 132 -42q149 -78 188 -81l-97 -305q120 -120 148 -252l227 618q32 87 125 140t239 53h23q-139 -23 -209.5 -72.5t-104.5 -143.5l-235 -648l-135 -93q0 149 -108 294l-82 -228 l-142 -72q-29 11 -58 82q-25 64 -25 102q0 34 20 63l234 154l79 236q-39 8 -105 44l-115 62q-68 32 -113 32q-58 0 -97 -43q46 -8 82.5 -43t36.5 -80v-14h-13q-71 0 -107 -78q-11 -23 -46 -123q11 0 39 10.5t40 10.5h10q24 -13 39 -74q11 -48 11 -87q0 -51 -22 -85 q-106 -133 -204 -178q-65 13 -65 155zM112 152q0 -85 47 -85l8 1q50 12 61 106q0 131 -54 131q-11 0 -20 -7q-19 -11 -32 -68q-10 -45 -10 -78zM392 204q0 -29 19 -74q21 -51 44 -58l91 244l-150 -94q-4 -8 -4 -18z" />
<glyph unicode="&#xe0d;" horiz-adv-x="1040" d="M11 121q0 67 18 118l90 253q52 85 125 95q-53 69 -143 69h-20q139 151 295 151h45q60 -6 185 -80q56 -33 106 -33l-213 -613h7q22 0 81 -16q33 -9 51 -9q-1 0 59 12l254 664q31 82 122 136t230 54h33q-141 -21 -208 -68q-75 -52 -109 -147l-231 -649l-104 -64 q-41 -19 -76 -19q-22 0 -71.5 12.5t-75.5 12.5q-39 0 -92 -19l228 633q-41 8 -99 43q-33 21 -99 61q-54 32 -97 32q-53 0 -92 -43q46 -8 82.5 -43t36.5 -80v-14h-13q-71 0 -107 -78q-11 -23 -46 -123q11 0 39 10.5t40 10.5h10q24 -13 39 -74q11 -48 11 -87q0 -51 -22 -85 q-106 -133 -204 -178q-65 13 -65 155zM112 152q0 -85 47 -85l8 1q50 12 61 106q0 131 -54 131q-11 0 -20 -7q-19 -11 -32 -68q-10 -45 -10 -78zM290 -228q34 69 93 69q15 0 24 -8q14 -21 14 -39q0 -21 -8 -23l-51 -51q35 -15 76 -15q98 0 206 94q89 77 142 176 q-68 -151 -162 -234q-103 -90 -194 -82l-23 2l-9 -2q-39 0 -73.5 30t-34.5 69v14zM320 -220q0 -35 32 -35q8 0 19.5 9t11.5 17l-4 7q0 8 -16 20t-24 12h-8q-11 0 -11 -30z" />
<glyph unicode="&#xe0e;" horiz-adv-x="898" d="M-51 -197q0 21 22 43q80 65 122 89q54 31 102 31q46 0 131 -33q91 86 173 86q-46 -13 -79 -41q-20 -17 -56 -63l142 -82l280 779q-30 4 -170 110q-62 47 -108 47q-58 0 -127 -77q44 0 85.5 -43.5t41.5 -87.5v-6q-102 -25 -132 -110l-112 -316q-39 -35 -69 -65 q-9 -9 -85 -89h-5q-48 0 -75 43q-24 37 -24 87q0 31 13 62q102 153 153 153q15 0 72 -18l63 173q29 57 131 84q-35 41 -51 54q-47 36 -109 36h-34q139 170 320 170h30q17 0 29 -2q57 -9 172 -98q51 -39 99 -45l-310 -846l-114 -86l-148 95q-80 -78 -201 -123q-11 -4 -41 -4 q-44 0 -84 24q-47 28 -47 69zM32 -167q39 -45 97 -45q77 0 149 68q-64 53 -144 53q-19 0 -29 -10q-43 -20 -48 -24q-25 -17 -25 -42zM72 172q0 -28 17 -70q20 -49 43 -49l2 3q57 11 57 98v13q-21 91 -64 91q-12 0 -26 -14q-29 -23 -29 -72z" />
<glyph unicode="&#xe0f;" horiz-adv-x="898" d="M-159 -201q0 16 5 29q80 55 101 67q66 37 120 37q51 0 101 -38q83 68 184 68q-112 -46 -148 -101q25 -32 54 -87l140 145q54 -15 108 -73l280 766q-30 4 -170 110q-62 47 -108 47q-58 0 -127 -77q44 0 85.5 -43.5t41.5 -87.5v-6q-102 -25 -132 -110l-112 -316 q-39 -35 -69 -65q-9 -9 -85 -89h-5q-48 0 -75 43q-24 37 -24 87q0 31 13 62q102 153 153 153q15 0 72 -18l63 173q29 57 131 84q-35 41 -51 54q-47 36 -109 36h-34q133 168 340 168h39q58 -10 172 -98q51 -39 99 -45l-318 -869l-89 -87q-36 86 -106 123l-161 -163 q-58 110 -86 121q-17 -12 -58 -48q-52 -46 -82 -56q-8 -1 -37 -6q-43 0 -79.5 34t-36.5 76zM-96 -174v-12q0 -53 69 -53q63 0 128 65q-10 53 -101 53q-43 -10 -56 -16q-32 -13 -40 -37zM72 172q0 -28 17 -70q20 -49 43 -49l2 3q57 11 57 98v13q-21 91 -64 91q-12 0 -26 -14 q-29 -23 -29 -72z" />
<glyph unicode="&#xe10;" horiz-adv-x="644" d="M-387 -186q25 22 77 65q59 45 120 45q40 0 84 -25q10 17 43 32q44 20 78 18l32 -2l-5 2q-33 0 -67 -22q-37 -24 -42 -56q2 -18 25 -47q28 -34 33 -44l103 104q6 4 11 4q29 0 74 -48q37 -40 54 -75q3 16 6 41q5 38 5 52q0 35 -40 61l118 54q17 -23 17 -64q0 -8 -17 -137 l-140 -94q-25 83 -110 140l-135 -131l-53 85q-25 -10 -64 -43q-74 -62 -106 -62q-35 0 -70 57q-31 51 -31 86v4zM-322 -159v-9q0 -29 33 -56.5t63 -27.5q61 7 72 55q-29 68 -94 68q-32 0 -74 -30zM6 305q0 15 9 40q32 51 97 109q54 48 79 58q51 -22 91 -153q34 -112 34 -196 l110 324v15q0 72 -97 107q-68 24 -157 24q-85 0 -161 -19q191 193 305 193h10q36 -3 126 -27q81 -21 122 -21q109 0 248 111q-157 -173 -320 -173q-17 0 -39 4l-33 6q-29 0 -66 12q-83 27 -104 27q-57 0 -108 -49l54 2q114 4 215 -52q95 -53 92 -121l-1 -27l-160 -443 l-123 -83q13 84 13 118q0 51 -30 200q-11 -45 -51 -79q-20 -17 -70 -45q-35 0 -62 53q-23 46 -23 85zM74 333q0 -28 13 -60q16 -40 40 -40l7 2q45 19 45 94q0 53 -22 101h-15q-13 0 -33 -20q-13 -12 -31 -44q-4 -17 -4 -33z" />
<glyph unicode="&#xe11;" horiz-adv-x="857" d="M9 576q0 7 5 28q2 8 5 18l201 197q15 -1 44 -32t43 -31q10 0 26 9l59 63q72 -15 72 -93q0 -26 -12 -59l-69 -189l112 130q64 74 95 106q61 65 104 94q29 -6 90 -63.5t61 -82.5l-223 -595q-80 -82 -158 -95q34 13 54 35q32 34 50 85l191 543q-33 59 -98 91 q-182 -156 -326 -416q-37 -66 -125 -245q-29 -30 -75 -52q-42 -19 -84 -37q35 26 57 47q43 41 55 93l206 559q18 34 18 61q0 24 -14 24l-66 -62l-21 -4q-25 0 -89 53l-18 -21q36 -19 66 -65t30 -86q0 -20 -6 -29l-142 -129q-43 0 -82 54q-36 51 -36 96zM89 614 q0 -74 59 -102q3 -1 9 -4q17 0 32 19t15 37q0 27 -28 68q-31 44 -55 44q-32 -7 -32 -62z" />
<glyph unicode="&#xe12;" horiz-adv-x="1123" d="M6 373q0 54 21 110q23 61 138 184q103 110 162 150q17 0 40 -31q18 -26 54 -79l119 100l34 1q45 1 102 -49q41 -42 83 -85l-94 -291q118 -118 148 -251l227 618q31 86 125.5 139t238.5 53h22q-140 -21 -211 -70.5t-105 -144.5l-233 -647l-136 -91q0 150 -106 291 l-82 -227l-142 -72q-30 11 -59 83q-25 64 -25 103q0 31 22 61l235 153l65 225q-6 33 -47 84q-43 56 -72 56h-4l-147 -115l-88 103q-197 -156 -197 -327q0 -107 97 -295q66 60 129 170l-9 -2q-53 0 -98 39.5t-45 91.5q0 4 5.5 31t92.5 93.5t110 66.5q36 -13 59.5 -56.5 t23.5 -84.5q0 -25 -14 -48q-62 -102 -152 -220q-98 -128 -177 -202q-4 46 -34 123q-25 60 -50 121q-26 70 -26 138zM252 445q0 -29 17 -56q20 -31 47 -31l17 2q46 20 46 51q0 6 -2 20l-4 28q-38 71 -66 71q-11 0 -21 -9q-34 -31 -34 -76zM413 210q0 -31 18 -75 q20 -51 44 -59l93 246l-151 -94q-4 -8 -4 -18z" />
<glyph unicode="&#xe13;" horiz-adv-x="1067" d="M0 168q0 33 9 76l92 253q18 33 53 55q17 11 68 32q0 40 -54 61q-40 16 -87 16h-14q60 64 144 106q91 46 172 46q7 0 20.5 -2.5t19.5 -2.5q48 -9 99 -48q110 -85 134 -89l-186 -532l227 173q85 64 110 64l135 363q33 90 137 144q99 51 235 51h12q-262 -42 -324 -231 l-113 -343l121 -165q-148 -106 -224 -220q-68 44 -68 116q0 7 2.5 19.5t2.5 18.5l58 173h-4q-30 0 -146 -89q-188 -144 -220 -166q-131 -90 -191 -90q64 33 89 55q35 31 70 94l180 506q-101 82 -116 92q-79 55 -132 55q-61 0 -121 -47q121 -29 121 -136h-13q-64 0 -112 -88 q-13 -25 -57 -143q11 0 28 11q40 25 49 25h10q25 -16 44 -74q18 -51 18 -87q0 -45 -18 -68q-88 -113 -204 -163q-56 89 -56 179zM94 174q0 -102 45 -102l5 2q62 12 62 106q-16 106 -58 106q-16 0 -32 -11q-22 -15 -22 -101zM808 127q0 -40 29 -46l92 91l-72 92 q-49 -59 -49 -137z" />
<glyph unicode="&#xe14;" horiz-adv-x="746" d="M15 -15q23 61 23 140q0 42 -7 104q-16 142 -16 172q0 107 59 175q37 63 122 141q106 96 196 96q6 0 17.5 -2.5t16.5 -2.5q21 -4 172 -91q64 -37 99 -37l15 4l-229 -588q-25 -47 -84 -78q-23 -12 -108 -43q61 30 93 68q30 35 46 82l172 489q-20 2 -173 88q-69 39 -116 39 q-25 0 -60 -14q-172 -120 -172 -275q0 -53 24 -144q33 -125 39 -160l142 143q-41 5 -70 50q-26 41 -26 85q0 24 11 53l148 135q38 0 69 -56q27 -48 27 -90q0 -33 -15 -63q-222 -265 -415 -420zM264 452q0 -28 11 -61q14 -42 36 -42l2 3q47 12 47 74v35q0 22 -13.5 46.5 t-33.5 24.5q-30 0 -42 -35q-7 -21 -7 -45z" />
<glyph unicode="&#xe15;" horiz-adv-x="745" d="M0 364q0 54 21 110q23 62 137 183q102 109 164 150q9 -27 59 -89l125 90h24q58 0 106 -45l98 -92l-202 -539q-50 -83 -178 -143q78 48 105 132l153 476q-4 34 -56.5 91t-85.5 57l-144 -105l-51 69q-186 -133 -186 -292q0 -74 42 -186q11 -29 51 -126q73 59 131 173 l-15 -3q-51 0 -93 38t-42 88q0 12 5 33.5t91.5 90t107.5 68.5q37 -12 61 -56q21 -39 21 -82q0 -24 -11 -50q-156 -254 -328 -424q-2 17 -79 232q-31 86 -31 151zM244 438q0 -32 18 -59q21 -30 51 -30l14 3q42 18 42 49l-5 48q-35 72 -62 72q-12 0 -22 -9q-36 -32 -36 -74z " />
<glyph unicode="&#xe16;" horiz-adv-x="765" d="M9 142q0 69 18 118l92 252q50 81 125 94q-57 68 -143 68h-20q146 150 298 150q46 0 95 -7q38 -9 124 -62q78 -48 120 -48l-243 -664q-86 -153 -301 -153q98 23 147 56q57 39 96 121l180 566q-20 0 -127.5 74t-162.5 74q-60 0 -101 -58q45 -14 80 -51q37 -40 43 -85h-13 q-73 0 -110 -77q-14 -29 -47 -123q11 0 38.5 10t41.5 10h13q46 -33 46 -163q0 -50 -18 -81q-109 -140 -206 -182q-65 19 -65 161zM112 167q0 -86 45 -86l6 4q63 20 63 110q0 127 -52 127q-12 0 -20 -6q-18 -10 -32 -69q-10 -47 -10 -80z" />
<glyph unicode="&#xe17;" horiz-adv-x="786" d="M-38 -25q58 37 65 43q31 25 53 73l142 426q-36 -30 -63 -30q-44 0 -76 47q-30 43 -30 89q0 7 5 26q36 56 200 164q42 -11 72 -56.5t30 -91.5l-96 -273l329 411q5 4 25 4q34 0 69 -32q29 -28 88 -83l-220 -603q-32 -67 -91 -96q-41 -20 -135 -35q62 21 87.5 39.5 t62.5 70.5l186 588q-11 17 -35 44q-31 34 -43 34l-361 -465l-87 -189q-47 -76 -177 -105zM129 661q0 -26 18 -64q21 -44 44 -44l6 2q47 16 47 68v26q-16 74 -58 74q-8 0 -32 -11q-25 -16 -25 -51z" />
<glyph unicode="&#xe18;" horiz-adv-x="699" d="M-76 -11q29 14 52 34q17 15 62 71l134 376l150 70q-33 -26 -45 -42q-15 -20 -33 -68l-115 -305q31 0 69 -26q84 -58 100 -57l18 1l159 456q-6 67 -125 106q-91 30 -176 30q-54 0 -98 -12q174 199 303 199h11q45 0 133 -22.5t133 -22.5q140 0 230 161q-41 -101 -102 -157 q-87 -81 -193 -74l-32 2q-53 3 -94 16q-116 36 -138 36q-63 0 -126 -58q105 0 217 -45q141 -56 141 -146v-13l-158 -431l-128 -79h-29q-35 0 -90 32t-74 32q-12 0 -27 -6q-43 -26 -129 -58z" />
<glyph unicode="&#xe19;" horiz-adv-x="813" d="M-89 -38q57 17 87 42q46 38 69 101l123 340q-32 -9 -94 -32l-7 -2q-36 0 -59 51q-19 41 -19 82q0 46 23 74l115 93q80 64 109 102q75 -48 71 -167l-2 -53l-153 -414l271 185q38 26 54 26q12 0 60 -21l133 365q32 87 136 140q99 50 235 50h13q-143 -23 -217 -74 q-81 -56 -113 -156l-111 -345q37 -18 78 -64q48 -54 52 -99q-156 -109 -230 -218q-67 47 -67 113q0 6 3 19.5t3 20.5l52 165q-24 27 -56 27l-21 -2q-65 -34 -182 -131q-135 -112 -186 -147q-103 -71 -170 -71zM101 538q0 -52 26 -68q15 -6 25 -6q36 0 59 34q17 25 17 93 q0 116 -38 116h-4q-85 -47 -85 -169zM559 119q0 -42 25 -45l100 98q-14 50 -78 81q-17 -18 -32 -63t-15 -71z" />
<glyph unicode="&#xe1a;" horiz-adv-x="828" d="M-74 -21q70 17 101 42q42 34 67 111l128 389q-34 -31 -65 -31q-43 0 -75 48q-29 44 -29 89q0 12 5 22q20 33 97 93q52 41 103 75q41 -13 71.5 -58t30.5 -90l-180 -535h26q60 0 142.5 -39t96.5 -39q24 0 54 25l224 618q32 89 125.5 142t239.5 53h22q-140 -21 -208 -69 q-73 -52 -108 -149l-214 -596q-6 -3 -70 -37q-79 -42 -123 -49h-8q-21 0 -125 38q-52 19 -82 19q-24 0 -56 -17q-105 -55 -172 -55h-18zM129 665q0 -26 18 -65q21 -45 44 -45l6 4q47 13 47 68v27q-16 73 -58 73q-34 0 -50 -32q-7 -14 -7 -30z" />
<glyph unicode="&#xe1b;" horiz-adv-x="832" d="M-38 -9q66 25 148 141l125 389q-31 -31 -63 -31q-41 0 -74 49q-30 44 -30 88q0 5 2 10l4 12q20 32 96 93q61 49 103 75q41 -12 72 -58t31 -90l-181 -535h27q60 0 142.5 -39t96.5 -39q25 0 52 25l309 843q32 87 121.5 140t229.5 53h32q-136 -18 -207 -68 q-75 -53 -109 -147l-296 -822l-69 -37q-78 -42 -123 -49h-9q-36 0 -118 28.5t-122 28.5q-39 0 -63 -17q-16 -3 -62 -24q-42 -19 -54 -19h-11zM144 661q0 -27 18 -64q20 -42 44 -42l6 4q57 0 57 81v20q-15 63 -63 63q-23 0 -38 -8q-24 -12 -24 -54z" />
<glyph unicode="&#xe1c;" horiz-adv-x="716" d="M9 401q0 71 32 134q28 55 219 272h7q46 0 80 -72q29 -61 29 -113q0 -27 -7 -46q-18 -29 -67 -70q-55 -45 -82 -45l-8 3q-21 15 -52 71q-23 42 -33 67q-59 -79 -59 -134q0 -50 49 -186q26 -75 55 -153l150 345q17 -22 42 -132q18 -79 41 -200l207 565q32 86 124.5 138.5 t239.5 52.5h22q-140 -20 -207 -67q-72 -51 -107 -147l-194 -532q-79 -127 -145 -177q0 131 -54 330l-143 -326q-139 293 -139 422zM191 649q0 -31 15 -66q19 -43 46 -43l15 4q40 15 40 58v25q-2 22 -24 58q-26 42 -48 42l-13 -5q-31 -26 -31 -73z" />
<glyph unicode="&#xe1d;" horiz-adv-x="718" d="M11 423q0 111 118 244q18 20 140 146h11q52 0 87 -61q31 -53 31 -108q0 -34 -15 -68q-96 -106 -155 -112q-39 9 -72 64q-31 51 -31 94q-49 -76 -49 -139q0 -61 110 -354l152 345q17 -23 42 -132q7 -29 41 -200l288 782q35 95 123 145q83 48 223 48h38q-138 -18 -208 -68 q-74 -53 -108 -147l-271 -750q-42 -65 -65 -95q-40 -51 -81 -82q0 129 -53 330l-144 -326q-152 324 -152 444zM210 656q0 -36 17 -76q20 -50 51 -50l13 5q35 13 35 56l-4 36q-3 23 -24 58q-26 42 -46 42l-17 -5q-25 -22 -25 -66z" />
<glyph unicode="&#xe1e;" horiz-adv-x="942" d="M15 -25q62 15 100 56q23 25 64 98l132 384q-35 -20 -69 -39l-9 -4q-30 0 -50 48q-15 38 -15 73q0 31 12 53l159 173q43 -8 66 -70q18 -48 18 -101q0 -49 -16 -93l-116 -320q32 49 101 182q76 148 111 205q68 112 146 193q-22 -60 -22 -129q0 -33 23 -211q11 -85 11 -146 q0 -84 -12 -136l190 508q69 185 349 185h23q-140 -21 -211 -70.5t-106 -144.5l-200 -544q-20 -35 -83 -93t-99 -75q68 111 68 321q0 130 -40 315q-100 -208 -168 -320q-181 -298 -357 -298zM239 608q0 -47 41 -47q13 0 33 19q26 24 26 55v14q-21 83 -41 83h-7 q-19 -16 -35.5 -57t-16.5 -67z" />
<glyph unicode="&#xe1f;" horiz-adv-x="841" d="M-47 -19q56 42 68 54q32 32 70 94l135 384q-35 -20 -69 -39l-15 -4q-37 0 -62 40q-22 35 -22 74q0 31 18 56l177 177q44 -8 67 -70q18 -47 18 -101q0 -24 -16 -93l-116 -320q36 54 101 182q78 152 110 205q69 113 147 193q-24 -60 -24 -126q0 -34 24 -198q12 -82 12 -137 q0 -72 -12 -132l268 709q35 93 122.5 141.5t233.5 48.5h27q-139 -20 -207.5 -69t-105.5 -146l-294 -779q-19 -36 -82 -93.5t-100 -74.5q66 105 66 321q0 145 -37 315q-285 -586 -502 -612zM144 612q0 -63 51 -66q11 -1 32 25q26 31 26 64v14q-7 37 -12 51q-11 32 -29 32h-6 q-62 -36 -62 -120z" />
<glyph unicode="&#xe20;" horiz-adv-x="898" d="M6 105q0 31 13 62q102 153 153 153q15 0 72 -18l63 173q29 57 131 84q-35 41 -51 54q-47 36 -109 36h-34q137 170 324 170h27q16 0 28 -2q57 -9 172 -98q51 -39 99 -45l-245 -683q-40 -111 -161 -181q-101 -58 -206 -58q116 18 195 95q73 72 103 159l206 606 q-30 4 -170 110q-62 47 -108 47q-58 0 -127 -77l2 -5q43 0 84 -41.5t41 -84.5v-6q-102 -25 -132 -110l-112 -316q-39 -35 -69 -65q-9 -9 -85 -89l-5 4q-45 0 -74 42q-25 37 -25 84zM72 172q0 -29 16 -70q20 -49 44 -49l2 3q57 11 57 98v13q-21 91 -64 91q-12 0 -26 -14 q-29 -23 -29 -72z" />
<glyph unicode="&#xe21;" horiz-adv-x="828" d="M4 190q0 17 7 43l247 159l37 129q-49 -38 -89 -38q-44 0 -72 44q-33 50 -29 96l1 12l184 184q56 -8 95 -58q36 -49 36 -107v-21q-3 -8 -4 -11l-74 -230q124 -117 170 -286l237 629q30 80 138 140q103 57 235 57h12q-139 -22 -221 -83q-74 -55 -107 -150l-220 -631 l-135 -95q0 138 -141 317l-85 -223l-141 -73q-19 11 -48 72q-33 70 -33 124zM91 235q3 -28 23 -77q21 -55 38 -69l87 240zM190 646q0 -29 17 -69q20 -47 45 -47q55 18 55 93v17q-21 94 -65 94q-12 0 -22 -12q-30 -30 -30 -76z" />
<glyph unicode="&#xe22;" horiz-adv-x="745" d="M15 190l207 130q-48 5 -77 57q-26 45 -26 97q0 70 102 175q40 41 98 89q7 6 104 81q39 0 71 -62q29 -54 29 -97v-12q0 -9 -2 -17q-75 -108 -205 -157q-28 0 -50 55q-18 45 -18 79l4 23q-62 -34 -62 -93q0 -22 7 -55q49 -104 105 -104q60 0 166 100q-39 -72 -148 -135 q-158 -90 -191 -116q25 -37 79 -108q48 -59 114 -69l27 -4q37 0 64 25q35 33 55 87l206 568q32 90 125.5 142.5t238.5 52.5h23q-139 -21 -210.5 -71.5t-105.5 -143.5l-210 -580q-72 -60 -114 -86q-75 -45 -143 -45h-5q-66 0 -115 43q-20 17 -71 86q-39 52 -72 65zM320 649 q0 -28 17 -68q20 -46 44 -46l2 3q55 12 55 93v15q-21 93 -62 93q-15 0 -24 -12q-32 -26 -32 -78z" />
<glyph unicode="&#xe23;" horiz-adv-x="602" d="M6 612q96 96 149 132q91 63 184 63q53 0 104 -13l116 -29q70 0 173 112q-71 -101 -112 -135q-52 -43 -123 -43q-8 0 -26.5 4t-27.5 4q-25 0 -115 29q-43 14 -70 14q-63 0 -116 -51h21q81 0 163 -44q91 -49 91 -111v-4l-126 -334q-12 -67 -71 -130q-35 -37 -108 -91 q-78 69 -78 147l4 12q14 42 71 118q62 83 95 87l49 -38l76 215q0 47 -89 81q-72 28 -128 28q-68 0 -106 -23zM105 179q0 -31 11 -60q15 -39 41 -39l10 1q43 20 43 86v23l-4 1q0 20 -17.5 49t-36.5 29q-17 0 -23 -9q-24 -46 -24 -81z" />
<glyph unicode="&#xe24;" horiz-adv-x="703" d="M-426 -349q116 82 299 89q234 10 272 21q143 43 204 212l235 649l-172 97q-74 42 -122 42q-54 0 -95 -45q105 -37 118 -140h-8q-77 0 -115 -78q-8 -17 -46 -122q11 0 25 4q43 12 51 12h13q49 -25 49 -157q0 -59 -18 -83q-99 -133 -206 -184q-58 63 -58 195q0 39 11 81 l94 253q46 82 124 96q-62 68 -144 68h-17q43 55 113 97q92 55 188 55q41 0 90 -10q38 -8 125 -61q78 -48 115 -48l-309 -815q-36 -96 -134 -142q-68 -32 -175 -32q-41 0 -78 2l-142 7q-157 0 -287 -63zM94 157q0 -85 48 -85l6 2q62 13 62 106q0 131 -53 131q-15 -4 -23 -6 q-16 -16 -29 -70q-11 -48 -11 -78z" />
<glyph unicode="&#xe25;" horiz-adv-x="940" d="M0 125q0 84 32 153q70 150 259 328t306 197h34q62 0 167.5 -52t125.5 -52l8 4l-238 -640l-118 -84q36 126 36 288q0 260 -74 268q-127 -102 -158 -144q-37 -51 -37 -139q13 8 33 28q50 50 62 57h13q38 0 61 -62q18 -49 18 -95q0 -7 -6 -39q-29 -47 -79 -96 q-57 -56 -93 -66l-3 2q-44 0 -77 82q-28 67 -28 119q0 35 16 82q22 65 79 134q45 55 112 110q38 31 125 94h15q56 0 83 -116q18 -78 18 -159v-60l130 360q-28 0 -106 51q-85 55 -132 61h-10q-89 0 -240.5 -145.5t-212.5 -280.5q-30 -67 -30 -139q0 -98 51 -195 q54 -101 136 -147q52 -29 161 -29q158 0 378 58q-49 -20 -118 -44q-202 -69 -361 -69h-24q-41 0 -81 8q-81 16 -153 120q-80 116 -80 249zM343 163q0 -108 47 -116q39 0 63 94l-2 5q0 87 -61 87q3 0 -32 -7q-15 -11 -15 -63z" />
<glyph unicode="&#xe26;" horiz-adv-x="898" d="M-197 -349q138 101 329 101h137q100 0 157 27q76 36 120 132l240 701q-30 4 -170 110q-62 47 -108 47q-58 0 -127 -77q44 0 85.5 -43.5t41.5 -87.5v-6q-102 -25 -132 -110l-112 -316q-39 -35 -69 -65q-9 -9 -85 -89h-5q-48 0 -75 43q-24 37 -24 87q0 31 13 62 q102 153 153 153q15 0 72 -18l63 173q29 57 131 84q-35 41 -51 54q-47 36 -109 36h-34q168 170 326 170h27q14 0 26 -2q57 -10 172 -98q51 -39 99 -45l-296 -842q-82 -137 -269 -137q-39 0 -101 7q-143 16 -185 16q-132 0 -240 -67zM72 172q0 -28 17 -70q20 -49 43 -49l2 3 q31 7 52 42q18 31 18 65v9q-29 88 -75 88q-12 0 -28 -16q-29 -23 -29 -72z" />
<glyph unicode="&#xe27;" horiz-adv-x="870" d="M0 142q0 34 10 76q11 52 24 80q44 99 155 228q87 101 185 182q139 114 223 114h11q56 0 113 -36q125 -79 130 -79l9 2l-206 -565q-23 -39 -101 -110q-32 -29 -66 -59l-4 4q-38 0 -70 48q-36 52 -32 94l2 23q29 53 85 110q19 19 67 66h5q16 0 43 -23q10 -9 31 -28l140 375 q-20 4 -99 63q-36 27 -79 32h-17q-106 0 -256 -154q-131 -134 -182 -252q-30 -70 -30 -138q0 -99 52 -196q52 -100 135 -151q60 -28 165 -28q145 0 374 59q-137 -60 -288 -90q-109 -22 -191 -22h-26q-47 0 -79 5q-77 20 -151 125q-82 117 -82 245zM452 163q0 -106 50 -120 q58 0 66 53l-4 9q0 41 -14 76q-19 48 -51 48q-18 0 -31 -7q-16 -3 -16 -59z" />
<glyph unicode="&#xe28;" horiz-adv-x="676" d="M-4 383q0 146 114 271q118 100 159 123q71 40 132 40q59 0 105 -31q95 120 213 166q93 37 219 35l161 -2q121 -2 212 31q115 41 211 147q-105 -159 -249 -218q-105 -43 -228 -41l-199 3q-100 2 -172 -24q-88 -31 -148 -112q30 -16 81 -59q38 -32 64 -32l-196 -546 q-34 -55 -90 -92q-39 -26 -121 -61q60 45 83 73q36 44 60 113l154 447q-17 4 -76 51q-28 22 -40 22q-16 0 -28 -26l9 48q-58 30 -99 30q-75 0 -188 -99q-54 -58 -54 -157q0 -38 11 -87q3 -11 23 -80q135 268 282 268h6q20 -20 38.5 -76t18.5 -87v-8q-21 -36 -82.5 -78.5 t-103.5 -52.5q-17 3 -39.5 41t-22.5 58l4 9q-72 -66 -72 -170q0 -56 24 -152l-145 -89q7 42 7 88q0 53 -19 158t-19 158zM290 468q0 -33 15 -73q19 -50 47 -50l2 4q12 0 27 18t15 31v15q-4 28 -25 66q-26 47 -51 47h-7q-23 -14 -23 -58z" />
<glyph unicode="&#xe29;" horiz-adv-x="898" d="M-72 -6q111 51 130 112l133 415q-31 -31 -64 -31q-42 0 -74 49q-28 44 -28 88l4 22q18 32 96 93q55 43 103 75q101 -31 101 -133v-15l-177 -535h28q65 0 139.5 -43.5t85.5 -43.5q28 0 65 34l83 226q-10 0 -30.5 -2.5t-30.5 -2.5q-79 0 -136 33q-70 41 -70 114v6 q9 28 77.5 80t97.5 52h9q42 -37 42 -90t-42 -99q7 -17 65 -17q39 0 45 6l114 312q33 89 125.5 142t237.5 53h24q-142 -21 -210 -70q-71 -50 -106 -148l-105 -289q111 20 226 166q-83 -172 -251 -233l-86 -240q-52 -29 -94 -50q-59 -30 -97 -36h-15q-27 0 -88.5 36.5 t-97.5 36.5t-80 -19q-37 -17 -75 -34q-34 -12 -74 -20zM110 649q0 -29 12 -58q16 -36 41 -36l5 4q65 13 65 97v15q-8 68 -54 68l-31 -5q-38 -26 -38 -85zM354 474q0 -54 59 -61q12 0 27 21t15 34v7q0 18 -18 39t-36 21l-14 -3q-33 -26 -33 -58z" />
<glyph unicode="&#xe2a;" horiz-adv-x="924" d="M0 125q0 85 32 153q70 150 269 334t307 195h25q35 0 85 -15q101 112 248 150q24 3 54 3h18q46 0 107 -6q154 -15 194 -15q184 0 344 101q-195 -170 -427 -170q-55 0 -106 4l-163 12q-153 0 -242 -94q22 -9 67 -42q87 -64 107 -64l3 3l-228 -621l-126 -80q59 104 59 302 q0 194 -68 238q-90 -59 -118 -89q-49 -54 -49 -133q4 -13 4 -22q51 41 134 89v-4q37 0 37 -103q0 -132 -84 -209q-48 -44 -87 -53h-6q-40 0 -72 91q-27 76 -27 126q0 73 35 127q61 95 152 169q77 63 124 68q53 -6 80 -86q21 -62 21 -139q0 -8 -2 -23.5t-2 -23.5l118 314 q-14 4 -77 51q-28 21 -43 21q-31 0 -51 -49q10 30 10 74q-18 15 -58 14l-45 -1q-107 -2 -253 -156q-125 -132 -179 -253q-30 -67 -30 -139q0 -98 51 -195q54 -101 136 -147q52 -29 161 -29q158 0 378 58q-49 -20 -118 -44q-202 -69 -361 -69h-24q-41 0 -81 8 q-81 16 -153 120q-80 116 -80 249zM387 204q0 -38 16 -86q20 -60 49 -65q40 33 40 130q0 81 -54 81q-51 0 -51 -60z" />
<glyph unicode="&#xe2b;" horiz-adv-x="771" d="M-81 -58q72 24 106 55q39 35 85 122l143 387q-91 -67 -114 -67q-31 20 -54 69q-22 46 -22 85q0 28 11 47l195 177q95 -54 95 -194v-29q-3 -13 -4 -18l-140 -394l333 373q-27 15 -62 53q-42 46 -42 76q0 15 12 23q40 35 91 67q69 43 108 43q28 -8 64.5 -71.5t36.5 -96.5 v-11q-20 -14 -115 -68q32 -8 59 -46.5t27 -71.5l-145 -385q-32 -67 -90 -96q-39 -20 -133 -38q60 22 84 40q28 20 60 70l136 400v16q0 19 -19.5 45t-37.5 34q-75 -69 -207 -235.5t-213 -238.5q-137 -122 -248 -122zM144 614q0 -92 51 -102q25 0 45 21.5t20 46.5 q0 142 -48 142q-20 0 -39 -21q-29 -31 -29 -87zM540 707q0 -25 21 -58q22 -37 45 -37l6 2q18 0 38.5 15t23.5 32q-5 23 -32 56q-32 39 -58 39q-16 0 -20 -2q-24 -15 -24 -47z" />
<glyph unicode="&#xe2c;" horiz-adv-x="855" d="M-72 -15q71 16 114 77q29 40 59 129l96 284q-21 -17 -72 -26l-4 -4q-20 0 -39 60q-16 53 -15 79l1 34l176 206q43 -5 67 -65q18 -47 18 -99q0 -57 -16 -101l-118 -324q61 55 120 179q33 72 102 217q57 117 123 168q-17 -53 -17 -105q0 -61 25.5 -185t25.5 -180v-31 l187 519l-29 72q-9 -3 -74 -23q-29 -9 -52 -9q-34 0 -85 24q-24 8 -37 35l-20 46q33 3 143 70q48 29 77 29q58 0 104 -76q38 22 116 65q71 38 134 38q55 0 88 -16q-18 4 -56 4q-85 0 -171 -71l-86 -71l38 -121l-253 -701q-63 -102 -123 -123q27 57 27 140q0 64 -15 152 l-29 173q-15 84 -15 130q-55 -176 -197 -367q-172 -232 -318 -232zM139 623q0 -24 11 -55q13 -38 32 -42l4 -3q26 0 43 34q15 28 15 57v24q0 23 -13 49q-16 31 -36 31h-5q-51 -23 -51 -95zM540 951q47 -47 106 -47q49 0 81 36q0 7 -13 24q-34 44 -83 44q-91 -13 -91 -57z " />
<glyph unicode="&#xe2d;" horiz-adv-x="924" d="M0 125q0 83 32 153q45 98 156 229q254 300 410 300h14q85 0 184.5 -61.5t116.5 -61.5l6 3l-203 -566q-85 -63 -118 -85q-72 -49 -111 -65h-12q-57 0 -125 70q-75 77 -75 160q0 11 5 34q10 47 90 138q38 44 116 119q96 93 122 101q31 0 53 -67q19 -58 19 -115 q0 -5 -2 -15.5t-2 -14.5q-86 -98 -174 -129q-24 0 -45 58q-18 49 -18 80l4 21q-30 -21 -55 -59q-34 -51 -34 -100q0 -18 10 -46q19 -52 62 -103q55 -65 106 -65t99 67l177 518q-22 4 -92 61q-66 54 -142 50q-89 -4 -241 -145t-212 -276q-30 -68 -30 -139q0 -98 51 -195 q54 -101 136 -147q52 -29 161 -29q158 0 378 58q-49 -20 -118 -44q-202 -69 -361 -69h-24q-41 0 -81 8q-81 16 -153 120q-80 116 -80 249zM502 411q0 -25 10 -54q14 -36 34 -37q45 -1 56 59q0 41 -7 72q-11 48 -34 48q-10 0 -35 -16q-24 -24 -24 -72z" />
<glyph unicode="&#xe2e;" horiz-adv-x="718" d="M6 228q0 34 21 74q43 55 162 131q109 70 149 79q27 -8 47 -65q16 -47 16 -83l-3 -26q-57 -86 -145 -116l-11 -2q-43 0 -71 36q-27 33 -27 77l4 25q-21 -14 -57 -72l-2 -17q0 -65 69 -147q74 -88 147 -88q23 5 61 25q50 26 60 30l186 519l-99 57q-87 -96 -223 -121 q-8 0 -24 -2t-24 -2q-104 -2 -153 47q-15 18 -15 44q0 67 131 124q111 48 193 48h9q60 -6 142 -47l4 -2q204 182 369 212q40 7 220 18q134 8 227 44q144 56 290 192q-166 -238 -355 -289l-337 -25q-211 -16 -383 -165q38 -22 128 -85l-204 -565l-114 -57q-78 -38 -121 -45 h-31q-86 0 -161 76t-75 163zM142 649l2 -5q7 -47 125 -47q155 0 206 87q-93 61 -189 61q-10 0 -51 -6q-93 -26 -93 -90zM226 364q0 -84 56 -84q44 0 44 63v17q-10 83 -51 83q-10 0 -17 -4q-32 -14 -32 -75z" />
<glyph unicode="&#xe2f;" horiz-adv-x="606" d="M-21 -134q115 15 194 92q72 71 102 158l168 492q-185 -178 -291 -178q-36 0 -76 19q-76 46 -76 144q0 40 15 68l153 90q86 50 118 57h4q27 0 47 -41q17 -34 17 -64v-19q-41 -64 -157 -120l-15 -3q-30 0 -55.5 29t-25.5 59q-20 -18 -20 -47q0 -48 33 -87.5t81 -39.5 q4 0 12.5 2t12.5 2q29 8 120 92q25 23 157 152q82 80 94 80l-246 -702q-39 -112 -161 -180q-99 -55 -205 -55zM174 709q0 -21 17 -54q19 -37 38 -37l6 4q48 9 45 47l-2 23q-18 62 -56 62q-9 0 -27 -8q-21 -7 -21 -37z" />
<glyph unicode="&#xe30;" horiz-adv-x="674" d="M-15 222v20l195 154q26 0 48 -39q20 -34 20 -62q0 -17 -9 -31q-14 -22 -76 -74q30 -11 66 -11q176 0 369 304q-68 -124 -119 -188q-68 -85 -149 -128q-99 -52 -209 -48l-53 2q-34 1 -59 35q-24 31 -24 66zM81 258q0 -20 16.5 -38.5t36.5 -18.5q16 0 32 17.5t16 34.5v11 q-12 63 -43 63q-12 0 -27 -14q-31 -28 -31 -55zM132 591l2 21l195 153q30 -3 50 -40q17 -32 17 -64q0 -7 -1 -13q-4 -13 -5 -17q-17 -22 -41 -42l-36 -30q43 -13 68 -13q173 0 369 305q-68 -123 -120 -188q-69 -86 -148 -128q-102 -54 -209 -48l-53 3q-36 2 -62 33t-26 68z M233 623q0 -20 16.5 -36.5t36.5 -16.5q17 0 32 17.5t15 35.5v8q-11 63 -43 63t-49 -40q-8 -17 -8 -31z" />
<glyph unicode="&#xe31;" d="M-305 1048v22q26 41 76.5 72t96.5 31q32 0 51 -12q25 -28 25 -58q0 -20 -16 -36l-96 -74q63 -23 141 -23q240 0 496 226q101 89 162 178q-131 -227 -307 -349q-189 -132 -366 -123l-39 2l-24 -2q-55 -5 -126 38q-74 44 -74 108zM-248 1081q0 -52 62 -52q14 0 38 17 q16 11 16 21l-7 11q0 14 -28.5 32.5t-44.5 18.5h-14q-22 -6 -22 -48z" />
<glyph unicode="&#xe32;" horiz-adv-x="524" d="M4 -47q97 29 144.5 71.5t67.5 104.5l165 506q-115 99 -153 99h-18q-88 -14 -199 -196q41 95 98 168q79 101 155 101q67 0 139 -57.5t84 -57.5l-207 -582q-41 -114 -276 -157z" />
<glyph unicode="&#xe33;" horiz-adv-x="524" d="M-258 972q0 42 42 80q38 34 82 43q24 22 62 22q82 0 97 -72l2 -27q4 -50 -49 -89q-43 -32 -94 -36q-19 -7 -38 -7q-71 0 -94 48q-10 21 -10 38zM-179 942q0 -13 11 -13l5 -5q31 0 84.5 38t53.5 67l-4 16q-3 2 -5 2q-13 5 -24 5q-51 0 -74 -23q-16 -8 -31.5 -38t-15.5 -49 zM4 -47q97 29 144.5 71.5t67.5 104.5l165 506q-115 99 -153 99h-18q-88 -14 -199 -196q41 95 98 168q79 101 155 101q67 0 139 -57.5t84 -57.5l-207 -582q-41 -114 -276 -157z" />
<glyph unicode="&#xe34;" d="M-761 1093q156 163 371 163q39 0 63 -4q61 -18 130 -67q21 -15 117 -95q72 -60 118 -86q7 -1 26 -6q16 -4 25 -4h50l20 4q-125 -105 -260 -105q-34 0 -56 5q-56 23 -155 84q-112 69 -158 90q-92 42 -174 42q-41 0 -117 -21zM-568 1178q112 -14 243 -93q38 -23 219 -134 h112q-61 20 -153 87q-129 94 -151 108q-87 53 -163 53q-56 0 -107 -21z" />
<glyph unicode="&#xe35;" d="M-857 1088q207 164 374 164q63 0 100 -12q58 -19 137 -80q42 -34 127 -100q70 -52 140 -66l91 167q55 101 168 101h31q-70 -19 -87 -40q-24 -50 -44 -83l-117 -197q-39 -65 -159 -65q-15 0 -30 2q-50 7 -54 7q-83 14 -181 73q-56 35 -169 103q-93 52 -188 52 q-59 0 -139 -26zM-646 1177l125 -36q52 -15 145 -75q106 -69 139 -85q93 -46 157 -41l24 2q-62 21 -155 90q-127 94 -153 110q-90 53 -171 53q-62 0 -111 -18z" />
<glyph unicode="&#xe36;" d="M-904 1117q77 57 131 89q157 94 298 94q13 0 39.5 -3t39.5 -3q96 -30 216 -124q19 -15 99 -82q6 58 90 100l82 41h14q72 0 111 -83v-32q0 -75 -64 -116q-135 -112 -281 -112q-90 17 -208 86q-65 40 -198 116q-108 58 -215 58q-85 0 -154 -29zM-654 1215l116 -37 q44 -14 166.5 -87.5t168.5 -94.5q97 -45 182 -45q12 4 17 4q-76 23 -153 78q-47 35 -143 106q-85 62 -152 90q-31 13 -83 13q-90 0 -119 -27zM27 1104q0 -81 54 -81q13 0 28.5 24t15.5 39v13q0 18 -27 48.5t-45 30.5q-26 -12 -26 -74z" />
<glyph unicode="&#xe37;" d="M-938 1076q78 58 128 89q161 99 297 99q44 0 115.5 -17t158.5 -76q68 -46 138 -110q32 64 53 94q83 121 187 134q-143 -135 -143 -271q28 0 57 49l66 111q30 39 70 67q27 19 80 44q-63 -24 -93 -101q-18 -49 -54 -146q-78 -161 -274 -161q-93 0 -203 57q-72 38 -212 111 q-116 59 -217 59q-77 0 -154 -32zM-716 1167h36q28 0 55 -6q17 -4 49 -13q61 -18 155 -72q118 -68 152 -84q90 -41 164 -41q6 0 19 2t19 2q-69 19 -170 85q-139 91 -166 106q-97 53 -177 53q-64 0 -136 -32z" />
<glyph unicode="&#xe38;" d="M-707 -745q92 9 129 26q52 24 81 88l74 250q-34 -26 -64 -26q-45 0 -79 49q-31 44 -31 91q35 54 83 103q21 21 88 79q51 -19 84 -81q29 -55 29 -114q0 -27 -7 -47l-97 -275q-27 -75 -79 -112q-48 -33 -131 -32zM-523 -280q0 -67 26 -72h23q55 0 61 47q0 39 -15 76 q-20 49 -55 61q-40 -28 -40 -112z" />
<glyph unicode="&#xe39;" d="M-756 -671q166 96 192 358q-11 -8 -26.5 -18t-40.5 -21q-23 0 -40 44q-13 36 -13 64q0 14 8 34q42 49 130 143q30 -19 48 -81q15 -50 15 -96v-15q0 -21 -4 -46q-7 -85 -23 -141q-17 -62 -54 -107h11q41 0 71 81q17 46 23 76q36 180 78 252q57 97 152 97q6 0 17 -3t17 -3 q-107 0 -146 -144q-20 -93 -67 -276q-44 -151 -172 -171zM-631 -229q0 -64 29 -69h9q32 0 38 59q0 18 -11 47q-13 35 -27 35l-5 -2q-33 -13 -33 -70z" />
<glyph unicode="&#xe3a;" d="M-538 -343q0 42 41 80q38 34 82 43q27 23 63 23q82 0 97 -72l2 -29q3 -49 -47 -86q-43 -32 -96 -39q-13 -5 -38 -5q-42 0 -71 22q-33 23 -33 63zM-459 -373q0 -14 10 -14l6 -3q31 0 84.5 37.5t53.5 66.5l-4 17q-6 2 -9 2q-15 3 -21 3q-52 0 -74 -22q-14 -10 -30 -40 t-16 -47z" />
<glyph unicode="&#xe3f;" horiz-adv-x="904" d="M0 470q0 179 141 282q118 87 311 108l118 59v-59q60 4 61 4l32 134l74 20l-38 -156q161 -25 161 -153q0 -74 -64 -141q-54 -55 -131 -89q181 -28 181 -177q0 -118 -118 -203q-98 -70 -228 -90l-25 -114l-79 -29l32 138h-394l72 70q163 19 192 142l141 597 q-132 -15 -216 -74q-104 -72 -104 -193q0 -41 23 -116l-131 -61q-11 63 -11 101zM260 85q126 -22 178 -22l88 360l-62 -2q-23 -140 -65 -200q-21 -29 -139 -136zM464 468q18 0 38 3l38 6l82 343q-16 4 -52 4h-24zM513 68q151 28 190 160q9 30 9 63q0 99 -115 124zM616 502 q83 39 111 131q7 23 7 59q0 67 -50 102z" />
<glyph unicode="&#xe40;" horiz-adv-x="295" d="M0 182q0 9 3 26.5t3 26.5l176 488q22 61 126 108q67 30 147 44q-165 -51 -186 -114l-164 -481l74 53q24 -15 40 -69q14 -45 14 -82v-19q-16 -46 -49 -98q-39 -63 -72 -80q-54 0 -86 75q-26 60 -26 122zM85 172q0 -98 63 -104q14 0 27 46q11 38 11 58q-25 81 -57 81 q-17 0 -25 -11q-19 -26 -19 -70z" />
<glyph unicode="&#xe41;" horiz-adv-x="549" d="M0 186q0 12 3 31l3 27l176 490q53 110 270 150q-71 -25 -107 -45q-65 -35 -76 -68l-164 -485l75 57q24 -16 40 -68q13 -44 13 -80v-23q-16 -44 -51 -99q-41 -65 -72 -79l-4 2q-50 0 -81 74q-25 59 -25 116zM81 179q0 -96 63 -103q15 0 31 48q11 33 11 56q-16 84 -57 84 q-13 0 -24 -12q-24 -22 -24 -73zM260 186q0 9 3.5 26.5t3.5 26.5l176 488q22 62 123 107q71 32 150 43q-164 -48 -186 -112l-166 -483l74 56q21 -16 38 -60q18 -51 16 -83l-2 -28q-13 -44 -48 -99q-39 -61 -73 -79q-53 0 -84 76q-25 60 -25 121zM343 174q0 -102 62 -102 q15 0 27 45q11 37 11 57q-15 84 -53 84q-27 0 -40 -43q-7 -21 -7 -41z" />
<glyph unicode="&#xe42;" horiz-adv-x="535" d="M116 1173q167 132 271 132q53 0 105 -23q27 -12 93 -64q71 -57 109 -77q68 -37 134 -37q114 0 244 114q-126 -166 -295 -166q-69 0 -150 41q-31 16 -144 102q-90 69 -154 69q-41 0 -87 -25q107 0 207 -68q112 -75 112 -177q0 -22 -6 -38l-265 -712l79 46q39 0 62 -46 q18 -38 18 -81q0 -27 -11 -53q-69 -90 -163 -131q-38 11 -63 77q-21 55 -21 103q0 16 4 37l6 30l269 746q0 92 -96 156q-87 58 -184 58q-52 0 -74 -13zM273 148q0 -28 11 -60q15 -41 38 -41l7 4q52 20 52 76v21q-8 68 -54 68q-36 0 -48 -33q-6 -17 -6 -35z" />
<glyph unicode="&#xe43;" horiz-adv-x="703" d="M112 1104q0 18 15 59l372 233q98 0 177 -65q93 -76 93 -202q0 -44 -12 -96q-6 -23 -39 -111l-248 -662q50 35 70 35h4q49 -16 49 -105q0 -52 -29 -80q-68 -65 -143 -121q-36 0 -59 48q-19 39 -19 79q0 5 3 16t3 16l322 877q5 40 5 74q0 104 -63 162.5t-168 58.5 l-212 -132q-17 -27 -17 -62q0 -63 37 -111q40 -53 101 -53q68 0 167 76q-31 -31 -83 -40l-4 -4q-26 0 -46 29q-19 26 -19 53q0 23 18 43q56 63 136 92h7q39 0 61 -44q17 -35 17 -79q0 -54 -21 -70q-173 -105 -282 -105q-45 0 -95 21q-98 65 -98 170zM430 110q0 -53 34 -54 q21 -1 41 38q18 34 18 58q0 70 -40 70q-11 0 -22 -10q-31 -37 -31 -102zM434 1095q0 -51 36 -61l4 -2q50 0 64 44v5q0 74 -55 74h-15q-34 -12 -34 -60z" />
<glyph unicode="&#xe44;" horiz-adv-x="622" d="M112 1287l55 2q114 4 202 -62q83 -63 101 -175q94 87 204 136q92 41 159 41q19 0 42 -5q-55 0 -90 -24q-49 -34 -76 -108l-313 -859q30 21 45 31q26 16 33 18q19 0 34 -61q13 -49 13 -77q0 -37 -13 -55q-28 -39 -148 -110q-78 56 -78 146q0 25 16 87l335 907 q-39 -8 -129 -89q-85 -75 -112 -117q6 41 6 80q0 133 -77 213.5t-209 80.5zM369 119q0 -55 29 -77l7 -4q21 0 40 28t19 50v32q0 72 -34 72q-11 0 -38 -19q-23 -33 -23 -82z" />
<glyph unicode="&#xe45;" horiz-adv-x="646" d="M81 -260q99 31 145.5 72.5t68.5 107.5l243 720q-117 99 -155 99h-16q-92 -14 -199 -195q41 96 96 167q78 102 153 102h4q66 0 137.5 -58t85.5 -58l-280 -798q-23 -66 -113 -109q-54 -26 -170 -50z" />
<glyph unicode="&#xe46;" horiz-adv-x="452" d="M-105 -144q202 26 300 250l165 492q9 27 9 56q0 34 -15 64q-19 38 -49 38l-95 -64q-4 20 -24 43.5t-38 23.5q-26 -11 -49 -38q-25 -30 -25 -56q0 -16 11 -34q27 21 83 53q32 0 57 -40q23 -36 23 -70q0 -9 -6 -36q-91 -73 -141 -79h-7q-46 0 -71 51q-19 40 -19 92 q0 27 5 54q68 72 91 94q50 48 79 57q25 -8 44 -25l30 -36q84 62 96 62q100 -29 100 -143q0 -50 -11 -81l-174 -493q-39 -110 -162 -179q-100 -56 -207 -56zM96 598q0 -25 18 -57q20 -35 43 -35l6 2q23 12 23 51v25q-13 47 -57 47q-10 0 -24 -8q-9 -11 -9 -25z" />
<glyph unicode="&#xe47;" d="M-411 1010q0 27 4 38q18 155 250 155q59 0 85 -4q36 -6 84 -12q66 -9 104 -9q223 0 345 133q-54 -88 -166 -142q-115 -56 -214 -56q-15 0 -30 1l-36 3q4 -5 37 -25q24 -15 28 -35l1 -28q2 -50 -53 -98q-49 -43 -102 -54l-31 -6q-33 0 -73 28q-17 12 -66 57 q-56 -68 -120 -79q-47 64 -47 133zM-345 1038q0 -47 32 -82l109 73l62 -59q29 -28 68 -28q25 0 45 13q3 2 8 7q-23 -7 -32 -7q-45 0 -74 34q-7 18 -7 34q0 25 31 44l94 59q-30 0 -90.5 3.5t-90.5 3.5q-140 0 -153 -66q-1 -12 -2 -29zM-76 1045q0 -23 33 -35l28 -2 q42 -3 42 15q-27 44 -95 44q-8 -8 -8 -22z" />
<glyph unicode="&#xe48;" d="M163 1341q44 22 60 68q8 26 25 78l54 138q10 25 57 32q44 6 133 6q-64 0 -85 -12q-25 -14 -47 -69l-69 -172q-42 -32 -54 -39q-38 -23 -74 -30z" />
<glyph unicode="&#xe49;" d="M-58 1347q151 42 177 142q-35 -7 -51 -7q-56 0 -68 40v13q0 40 59 86q54 42 89 42q30 0 59 -54q26 -48 26 -82v-12q-27 -86 -91 -109q11 0 34 -3t34 -3q176 0 318 136q49 47 110 127q-53 -138 -195 -228q-159 -101 -338 -94zM74 1578q0 -63 45 -63q10 9 16 16 q17 19 17 32v10q-3 14 -24 36t-34 22q-20 -9 -20 -53z" />
<glyph unicode="&#xe4a;" d="M-87 1455v31l168 137l63 -52q59 43 76 43q9 0 24 -9q54 -32 54 -94q0 -73 -70 -115q97 0 199 105q92 94 124 200q-40 -377 -374 -376q-20 0 -41 1l-28 2q10 16 75 74q48 43 48 80l-3 22q-7 10 -17 26q-8 12 -21 23q-17 -7 -38.5 -16t-37.5 -20l-53 48q-88 -39 -88 -99 q0 -12 8 -18q19 15 39 29q29 20 48 20q15 0 21 -2q38 -25 38 -53q0 -14 -13 -29q-16 -34 -53 -59.5t-74 -25.5l-14 4q-60 54 -60 123zM17 1423q0 -42 32 -42q6 0 17.5 12.5t11.5 19.5l-4 10q0 10 -15 24t-25 14h-7q-10 -7 -10 -38z" />
<glyph unicode="&#xe4b;" d="M-72 1449q31 57 90 73q33 9 114 9q69 119 161 128q-62 -21 -85 -130l47 -14q26 -7 43 -7q33 0 67 21q-12 -63 -162 -63q-12 4 -17 4q-11 -122 -121 -136q58 29 58 92q0 9 -3 21l-6 19q-16 0 -48.5 4t-48.5 4q-55 0 -89 -25z" />
<glyph unicode="&#xe4c;" d="M-65 1449q78 72 103 90q70 48 144 48q48 0 100 -18q54 -29 101 -29q93 0 170 96q-85 -159 -188 -159q-37 0 -81 18q-101 41 -112 41q-27 0 -38 -11q2 -3 28 -35q22 -27 22 -44q0 -15 -12 -27q-37 -89 -121 -89q-12 0 -49 15q-20 24 -40 49q-21 29 -27 55zM40 1430 q0 -58 43 -58q11 0 26.5 17.5t15.5 29.5l-4 7q-1 16 -21 39.5t-35 23.5h-7q-18 -10 -18 -59z" />
<glyph unicode="&#xe4d;" d="M-258 972q0 42 42 80q38 34 82 43q24 22 62 22q82 0 97 -72l2 -27q4 -50 -49 -89q-43 -32 -94 -36q-19 -7 -38 -7q-71 0 -94 48q-10 21 -10 38zM-179 942q0 -13 11 -13l5 -5q31 0 84.5 38t53.5 67l-4 16q-3 2 -5 2q-13 5 -24 5q-51 0 -74 -23q-16 -8 -31.5 -38t-15.5 -49 z" />
<glyph unicode="&#xe4e;" d="M-303 968q0 -76 114 -76q11 0 15 1q59 4 95 26l30 30l-19 23q-5 -10 -18 -16q-26 -11 -66 -16q-16 -2 -20 -2q-59 0 -59 42q0 8 5 20q14 23 32 29q36 7 110 18q9 0 23 1l-11 35q-28 6 -43 11q-32 10 -35 22q-6 34 52 54q46 16 94 16q-10 0 100 -20l-24 35q-25 4 -38 6 q-43 6 -68 6q-56 0 -119 -23q-80 -29 -80 -75q0 -24 34 -41q21 -10 25 -11q-19 -3 -46 -10q-67 -17 -81 -68q-2 -9 -2 -17z" />
<glyph unicode="&#xe4f;" horiz-adv-x="718" d="M-2 396q0 93 53 174.5t138 119.5q61 27 128 27q122 0 213 -82q106 -96 106 -237q0 -122 -81 -214q-93 -106 -237 -106q-121 0 -213 81q-107 94 -107 237zM95 403q0 -106 79 -174q61 -53 149 -53q107 0 172 77q54 64 54 149q0 106 -79 174q-63 54 -145 54q-105 0 -175 -81 q-55 -64 -55 -146zM222 417q0 41 29.5 71t70.5 30t71.5 -30t30.5 -71t-30.5 -71.5t-71.5 -30.5q-42 0 -71 30t-29 72z" />
<glyph unicode="&#xe50;" horiz-adv-x="591" d="M6 197q0 86 109.5 232t191.5 164q5 0 15.5 2t15.5 2q88 0 188 -114q58 -81 58 -150q0 -26 -10 -73q-33 -92 -125 -175q-101 -91 -191 -91h-6q-79 0 -155 59.5t-88 136.5zM91 258l3 -30q13 -62 87 -111q69 -45 135 -45q35 0 74 17q62 50 80 78q25 37 32 106v9 q0 78 -65 151t-142 73h-15q-82 -16 -137 -91q-52 -71 -52 -157z" />
<glyph unicode="&#xe51;" horiz-adv-x="646" d="M-32 -174q176 35 335 118q190 99 229 210l3 43q7 104 -71 211q-71 97 -153 109h-4q-48 0 -131.5 -66t-94.5 -113l-1 -25q-2 -57 48 -128q47 -69 92 -69l62 64l-13 -1q-31 -2 -61 34q-28 33 -28 65l2 13q13 38 49.5 76.5t73.5 49.5h11q37 0 67 -38.5t30 -76.5 q0 -35 -12 -58l-211 -212l-8 -3q-56 0 -118 93q-58 87 -58 147q0 12 2 22l3 14q27 70 155 177q132 111 201 111h6q119 -17 196 -148q64 -109 64 -216q-6 -52 -30 -94q-19 -33 -97 -108q-207 -156 -538 -201zM235 322q0 -31 30.5 -63.5t61.5 -32.5l25 3q12 12 12 31 q0 31 -26 66q-39 28 -65 28q-14 0 -25 -9q-13 -5 -13 -23z" />
<glyph unicode="&#xe52;" horiz-adv-x="841" d="M4 1025h70q174 0 246 -63q40 -46 40 -100q0 -38 -34 -130l-199 -537q-21 -100 -21 -79q0 -36 46 -36l7 1l343 -1q36 -3 60.5 11.5t45.5 67.5l119 302q5 7 5 22q0 47 -52 47l-127 -123q-23 87 -36 106q-18 27 -47 27h-6q-90 -68 -124 -100q-49 -45 -49 -71q0 -10 14 -24 q30 24 62 47q47 34 63 34h8q59 -24 59 -99q0 -28 -14 -54q-89 -101 -176 -141q-41 0 -78 68q-32 60 -32 105q0 27 19 55q48 57 142 140q102 90 150 112h13q30 0 57 -43q22 -36 28 -70l117 123l105 -114l-136 -374q-27 -73 -63.5 -103.5t-115.5 -30.5h-437q-67 6 -67 67 q0 31 17 79l25 70l209 576q18 50 18 83q0 84 -102 123q-71 27 -172 27zM311 307q0 -29 18 -61q20 -36 47 -36l3 2q51 8 51 61v9q-15 76 -61 76q-22 0 -45 -19q-13 -10 -13 -32z" />
<glyph unicode="&#xe53;" horiz-adv-x="873" d="M4 190q0 47 23 70l331 331h9q34 0 94 -46q49 -38 79 -75l121 121q67 0 113.5 -41t53.5 -107q0 -105 -34 -216q-36 -120 -97 -195q-102 -105 -292 -157q106 52 165 104q151 133 180 417l-4 2q0 43 -47 79q-41 31 -76 31l-64 -63q21 -46 21 -72v-15q-67 -219 -121 -294 q-39 -54 -120 -83q44 26 70 76q37 71 93 276q0 50 -63 108t-113 58l-19 -2l-222 -222q-11 -18 -11 -40q0 -42 35 -102q39 -66 77 -66l9 1q31 31 49 71q-40 80 -40 100q0 3 3 13.5t3 14.5q16 42 47 79q39 46 76 46q20 0 40 -46q17 -40 17 -64q-15 -49 -106 -152 q-83 -94 -142 -136h-8q-46 0 -90 76q-40 69 -40 120zM252 252q0 -42 34 -42q10 0 25.5 18.5t15.5 31.5v7q0 13 -14.5 36t-26.5 23h-4q-30 -15 -30 -74z" />
<glyph unicode="&#xe54;" horiz-adv-x="870" d="M6 233q0 69 41 134q64 58 161 130q109 81 144 90q75 7 131 6l140 -2q229 -3 375 341q-50 -231 -169 -340q-81 -75 -196 -93l-35 -2q-14 -1 -59 3q-95 8 -122 8q-180 0 -283 -148q-24 -50 -24 -112q0 -70 32 -124q37 -61 102 -71q25 23 76 23h29q-47 35 -47 121 q0 46 20 70q26 31 81 69q62 43 94 43h5q82 -21 82 -101q0 -38 -20 -52q-43 -39 -166 -72l-2 -6q0 -34 37 -67q34 -31 69 -38q7 0 21 -2.5t21 -2.5q75 0 140 47q-73 -91 -201 -91q-55 0 -87 27q-25 21 -58 21q-62 0 -147 -61q-79 24 -132 97t-53 155zM376 233q0 -47 31 -47 l6 4q93 0 93 77q0 12 -7 31q-17 24 -56 24q-20 0 -45 -15q-22 -25 -22 -74z" />
<glyph unicode="&#xe55;" horiz-adv-x="870" d="M6 233q0 69 41 134q63 57 155 123q100 72 137 84q18 6 40 6h32v11q0 10 -4 26q-9 36 -9 48q0 15 7 32q19 48 70 87.5t101 39.5q31 0 59 -16q57 -33 57 -96q0 -15 -8 -36l-76 -83q250 0 396 349q-52 -235 -170 -342q-81 -74 -196 -92l-36 -2q-16 -1 -51 1l-99 5 q-204 0 -318 -152q-24 -50 -24 -112q0 -70 32 -124q37 -61 102 -71q25 23 76 23h29q-47 35 -47 121q0 46 20 70q26 31 81 69q62 43 94 43h5q82 -21 82 -101q0 -38 -20 -52q-43 -39 -166 -72l-2 -6q0 -34 37 -67q34 -31 69 -38q7 0 21 -2.5t21 -2.5q75 0 140 47 q-73 -91 -201 -91q-55 0 -87 27q-25 21 -58 21q-62 0 -147 -61q-79 24 -132 97t-53 155zM376 235q0 -49 31 -49l6 4q93 0 93 77q0 12 -7 31q-17 24 -56 24q-20 0 -45 -15q-22 -25 -22 -72zM475 699q7 -23 15 -49q14 -30 50 -44q57 0 57 65v13q0 28 -21.5 51.5t-49.5 23.5h-5 q-18 -2 -32 -21.5t-14 -38.5z" />
<glyph unicode="&#xe56;" horiz-adv-x="687" d="M-85 1029h74q230 0 297 -100q30 -45 30 -116q0 -116 -115 -281q92 42 172 42q78 0 144 -30q76 -35 123 -103q44 -65 44 -134q0 -91 -62 -153q-228 -173 -370 -173q-40 0 -95 10q-65 0 -114 80q-43 71 -43 141l4 14l271 212l32 1q48 1 81 -37t33 -86q0 -25 -14 -47 q-55 -61 -132 -115l-31 -2q-49 -3 -83 38q-27 33 -27 74q5 16 5 22q-38 -29 -38 -91q0 -73 50.5 -121.5t123.5 -48.5q13 0 63 7q63 24 102 46q60 34 104 81q36 47 36 101q0 117 -110 214q-62 39 -141 39q-107 0 -253 -87q163 201 163 381q0 36 -11 95q-63 127 -313 127z M216 320q0 -38 24 -65t62 -27q43 0 43 70q0 26 -27.5 48.5t-53.5 22.5q-20 0 -29 -2q-19 -16 -19 -47z" />
<glyph unicode="&#xe57;" horiz-adv-x="898" d="M11 253q0 89 56 145q163 163 282 233h5q17 0 72 -45q27 -22 48 -22l90 63q116 -47 116 -201q0 -92 -57 -187q-54 -90 -133 -150q123 32 207 93q69 64 96 216q6 31 20 247q12 178 33 217q48 91 151 139q80 37 160 37q-66 -21 -100 -34q-135 -53 -163 -185q-5 -23 -8 -183 q-3 -151 -18 -235q-23 -131 -76 -179q-49 -44 -104 -85l-11 -8q-177 -129 -332 -129q52 41 81 67q90 78 135 177q26 57 26 129q0 126 -85 173l-85 -54l-6 -2q-12 0 -54 28t-59 28h-7q-47 -17 -134 -101q-66 -64 -66 -155q0 -73 41 -137q44 -67 112 -86l61 58q-40 0 -70.5 39 t-30.5 80q0 39 22 61q116 116 153 121q48 0 84 -37.5t36 -86.5q0 -45 -24 -69l-246 -239q-92 0 -158 85q-60 79 -60 174zM291 290q0 -37 20 -66q23 -33 58 -33l14 4q18 6 26 20t8 33q0 6 -2 19t-2 19q-20 66 -70 66q-16 0 -30 -9q-22 -20 -22 -53z" />
<glyph unicode="&#xe58;" horiz-adv-x="870" d="M4 222q0 83 64 175t115 139q58 52 115 76q27 11 92 11l140 -1q135 -1 220 49q165 131 237 307q-33 -134 -131 -256q-121 -150 -272 -176q-22 0 -41 -2l-60 -6q-26 0 -78 3t-78 3q-118 0 -195 -114q-27 -54 -27 -119q0 -62 32 -119q36 -65 92 -76l78 74q28 -37 86 -76 q64 -42 104 -42q105 96 130 156q-69 -48 -137 -48q-39 0 -71 23q-36 26 -36 64q0 6 9 35q64 59 176 143h16q52 0 85.5 -33t33.5 -85q0 -53 -29 -105q-34 -45 -103 -134q-43 -55 -107 -99q-44 5 -104 38.5t-91 68.5l-112 -105q-69 24 -111 90t-42 141zM470 305q0 -79 83 -79 q37 6 48 21t11 55q-21 74 -82 74q-22 0 -43 -16q-17 -17 -17 -55z" />
<glyph unicode="&#xe59;" horiz-adv-x="929" d="M0 253q0 46 17 89q15 37 50 69q75 68 150 120q120 81 196 81q58 0 90 -39q24 -44 29 -52l42 48q22 24 44 24h5q39 0 69.5 -48t42.5 -48l6 2q74 25 132 160q50 116 78 275q0 -195 -59 -339q-69 -169 -189 -169q-22 0 -57 52t-55 52q-14 0 -27 -16l-24 -31q20 -41 35 -126 q8 -48 25 -143q15 -75 44 -109q25 -24 83 -24l-94 -90h-10q-63 0 -96 145q-18 91 -58 271q-37 146 -120 146q-17 0 -44 -9q-38 -17 -91 -59l-75 -59q-54 -46 -54 -121q0 -69 43.5 -137.5t106.5 -93.5q14 12 47 42q52 46 57 52q-30 -14 -59 -14q-37 0 -65.5 25.5t-28.5 62.5 q0 22 9 38q96 111 172 133h9q32 0 57 -38q22 -34 22 -68q0 -29 -16 -59q-39 -57 -123 -140q-75 -74 -137 -123q-77 20 -130 105q-49 79 -49 163zM267 282q0 -81 60 -81q50 0 56 77q-18 74 -67 74q-14 0 -25 -3q-24 -19 -24 -67z" />
<glyph unicode="&#xe5a;" horiz-adv-x="889" d="M-21 -134q115 15 194 92q72 71 102 158l168 492q-185 -178 -291 -178q-36 0 -76 19q-76 46 -76 144q0 40 15 68l153 90q86 50 118 57h4q27 0 47 -41q17 -34 17 -64v-19q-41 -64 -157 -120l-15 -3q-30 0 -55.5 29t-25.5 59q-20 -18 -20 -47q0 -48 33 -87.5t81 -39.5 q4 0 12.5 2t12.5 2q29 8 120 92q25 23 157 152q82 80 94 80l-246 -702q-39 -112 -161 -180q-99 -55 -205 -55zM174 709q0 -21 17 -54q19 -37 38 -37l6 4q48 9 45 47l-2 23q-18 62 -56 62q-9 0 -27 -8q-21 -7 -21 -37zM197 -148q116 16 195 93q73 72 103 160l166 492 q-20 -20 -30 -28q-5 -3 -9 -5q0 11 144 180q9 10 51 59l-253 -714q-41 -117 -159 -182q-100 -55 -208 -55z" />
<glyph unicode="&#xe5b;" horiz-adv-x="1449" d="M30 284q0 237 222 278q11 2 17 2h14q47 0 97 -20q18 -7 41 -21l-6 -106q-46 46 -133 46h-16q-12 -2 -18 -2q-66 -9 -109.5 -63t-43.5 -121q0 -156 187 -156q90 0 150 76q44 84 89 168q4 0 45 -84t54 -84q8 0 40.5 85t46.5 85q9 0 83 -174l52 113q26 56 35 56 q11 0 47.5 -95.5t62.5 -90.5q5 1 73 108q32 51 69 57q23 4 51 -14q64 -41 77 -41t21 4q17 3 31 16q4 3 21 25l42 -87q-31 -50 -80 -62q-11 -4 -24 -4q-17 0 -76 33q-29 16 -51 16q-40 0 -86 -55q-43 -51 -87 -51q-32 0 -63 57q-24 44 -24 50q-25 -36 -35 -49 q-39 -51 -54 -58q-20 -7 -54 53q-10 18 -31 55q-31 -42 -41 -54q-43 -54 -52 -52q-17 7 -41 42q-9 14 -27 47q-29 -88 -94 -145q-71 -61 -159 -61q-90 0 -163 52q-78 55 -92 141q-8 48 -8 85z" />
<glyph unicode="&#x2000;" horiz-adv-x="850" />
<glyph unicode="&#x2001;" horiz-adv-x="1701" />
<glyph unicode="&#x2002;" horiz-adv-x="850" />
<glyph unicode="&#x2003;" horiz-adv-x="1701" />
<glyph unicode="&#x2004;" horiz-adv-x="567" />
<glyph unicode="&#x2005;" horiz-adv-x="425" />
<glyph unicode="&#x2006;" horiz-adv-x="283" />
<glyph unicode="&#x2007;" horiz-adv-x="283" />
<glyph unicode="&#x2008;" horiz-adv-x="212" />
<glyph unicode="&#x2009;" horiz-adv-x="340" />
<glyph unicode="&#x200a;" horiz-adv-x="94" />
<glyph unicode="&#x2010;" horiz-adv-x="733" d="M29 350v88h684v-88h-684z" />
<glyph unicode="&#x2011;" horiz-adv-x="733" d="M29 350v88h684v-88h-684z" />
<glyph unicode="&#x2012;" horiz-adv-x="733" d="M29 350v88h684v-88h-684z" />
<glyph unicode="&#x2013;" d="M-313 972q0 41 42 79q38 35 81 44q26 22 63 22q83 0 96 -72l2 -27q4 -49 -49 -89q-42 -32 -92 -36q-21 -7 -38 -7q-71 0 -95 46q-10 20 -10 40zM-233 942q0 -13 9 -13l6 -5q31 0 84.5 38t53.5 67l-3 16l-9 3q-14 4 -22 4q-49 0 -74 -23q-13 -10 -29 -40.5t-16 -46.5z" />
<glyph unicode="&#x2014;" d="M-508 1023v19q0 5 2 19q22 154 253 154q58 0 85 -4l84 -12q61 -8 103 -8q224 0 345 134q-61 -96 -180 -150q-109 -49 -231 -49l-34 3q4 -5 36 -25q24 -15 26 -34q4 -9 4 -30q0 -50 -54 -97q-50 -43 -103 -52q-11 -7 -29 -7q-34 0 -75 28q-20 14 -67 58q-48 -65 -118 -79 q-47 67 -47 132zM-443 1050q0 -45 32 -80l109 70l63 -59q28 -26 67 -26q25 0 45 14q3 2 8 7q-20 -10 -33 -10q-41 0 -72 36q-9 21 -9 32q0 30 53 58q65 35 74 47q-30 0 -90 2.5t-90 2.5q-143 0 -153 -66q-4 -6 -4 -28zM-174 1057q0 -22 32 -34q5 0 15 -2t15 -2q40 0 40 15 q-26 44 -95 44q-7 -8 -7 -21z" />
<glyph unicode="&#x2018;" horiz-adv-x="341" d="M53 745q0 97 106 200q31 30 94 80l37 -23q-71 -69 -96 -103q-42 -57 -42 -113q0 -31 18 -83l-96 -47q-21 49 -21 89z" />
<glyph unicode="&#x2019;" horiz-adv-x="341" d="M40 636q139 136 139 215q0 30 -20 83l96 47q20 -58 20 -88q0 -128 -201 -281z" />
<glyph unicode="&#x201a;" d="M-167 893q42 17 65 56q5 9 28 69l61 162q9 37 57 61q41 21 83 21q10 0 25 -2l30 -4q-73 0 -103 -51q-8 -13 -32 -68l-66 -169q-50 -65 -148 -75z" />
<glyph unicode="&#x201c;" horiz-adv-x="523" d="M53 745q0 97 106 200q31 30 94 80l37 -23q-71 -69 -96 -103q-42 -57 -42 -113q0 -31 18 -83l-96 -47q-21 49 -21 89zM248 745q0 128 201 280l34 -23q-72 -72 -95 -103q-43 -58 -43 -113q0 -35 20 -83l-98 -47q-19 49 -19 89z" />
<glyph unicode="&#x201d;" horiz-adv-x="523" d="M40 636q139 136 139 215q0 30 -20 83l96 47q20 -58 20 -88q0 -128 -201 -281zM235 636q61 62 74 77q64 74 64 138q0 35 -21 83l98 47q20 -49 20 -88q0 -128 -201 -281z" />
<glyph unicode="&#x201e;" d="M-540 1002l2 30l169 141l62 -56q4 2 37 26q25 18 41 18q6 -3 9 -4q10 -5 14 -9q54 -24 54 -91q0 -69 -70 -112l6 -3q95 0 195 106q90 95 122 199q-42 -392 -408 -372l-36 2q9 12 77 72q50 44 50 80q-6 16 -6 23q-15 24 -17 26q-10 12 -25 21q-36 -11 -74 -36l-54 47 q-83 -36 -83 -96q0 -15 5 -21q9 7 26 22q37 30 61 30l23 -5q34 -23 34 -53q0 -14 -12 -25q-14 -35 -50 -60t-73 -25l-14 4q-30 26 -48.5 59t-16.5 62zM-438 976q0 -44 37 -44q9 5 14 8q14 10 14 20l-3 10q0 10 -17 24t-28 14h-5q-12 -12 -12 -32z" />
<glyph unicode="&#x2020;" d="M-434 994q70 70 100 91q69 48 144 48q44 0 105 -19q43 -28 96 -28q92 0 171 96q-80 -159 -186 -159q-39 0 -109 31.5t-88 31.5q-23 0 -34 -14q49 -60 49 -83q0 -6 -11 -27q-45 -87 -123 -87l-49 14q-14 16 -41 49q-21 27 -24 56zM-333 976q0 -59 47 -59q10 0 27 20 q11 13 11 25l-4 14q0 13 -21 35.5t-34 22.5h-6q-20 -13 -20 -58z" />
<glyph unicode="&#x2021;" d="M-81 917q44 18 65 56q3 6 27 69l61 163q8 35 57 60q43 22 83 22q2 0 55 -7q-73 0 -103 -51q-8 -13 -32 -68l-65 -168q-32 -41 -55 -55q-34 -21 -93 -21z" />
<glyph unicode="&#x2022;" d="M-305 1048v22q26 41 76.5 72t96.5 31q32 0 51 -12q25 -28 25 -58q0 -20 -16 -36l-96 -74q63 -23 141 -23q240 0 496 226q101 89 162 178q-131 -227 -307 -349q-189 -132 -366 -123l-39 2l-24 -2q-55 -5 -126 38q-74 44 -74 108zM-248 1081q0 -52 62 -52q14 0 38 17 q16 11 16 21l-7 11q0 14 -28.5 32.5t-44.5 18.5h-14q-22 -6 -22 -48z" />
<glyph unicode="&#x2026;" d="M-421 1018q32 57 93 75q34 10 116 10q65 126 161 126q-66 -24 -81 -130q45 -11 90 -21q12 0 32 7l29 10q-7 -27 -48 -42q-48 -17 -92 -15l-36 2q-18 -120 -123 -138q54 31 54 91q0 25 -7 41q-61 8 -96 8q-63 0 -92 -24z" />
<glyph unicode="&#x202f;" horiz-adv-x="340" />
<glyph unicode="&#x2030;" d="M-333 1018v30l166 138l62 -53q10 3 38 25q25 19 40 19q11 0 23 -11q55 -26 55 -94q0 -74 -70 -114q97 0 199 104q94 96 125 202q-41 -378 -415 -378q-5 0 -14.5 2.5t-14.5 2.5q11 18 74 72q50 43 50 80l-4 24l-16 26q-8 12 -21 23l-76 -38l-54 48q-87 -41 -87 -97 q0 -7 6 -19q12 9 41 29t47 20q16 0 22 -4q38 -26 38 -53q0 -13 -13 -26q-45 -85 -128 -85l-13 2q-60 57 -60 125zM-229 985q0 -41 32 -41q7 0 18 12t11 20l-4 9q0 10 -15 24t-25 14h-8q-9 -7 -9 -38z" />
<glyph unicode="&#x2039;" d="M-311 1040q76 71 102 89q69 48 142 48q55 0 101 -20q64 -28 100 -28q95 0 173 97q-85 -159 -188 -159q-38 0 -105.5 29.5t-87.5 29.5q-29 0 -38 -12q49 -60 49 -80q0 -6 -11 -26q-15 -35 -49.5 -62t-71.5 -27q-11 0 -49 15q-20 25 -40 49q-22 30 -27 57zM-206 1019 q0 -59 43 -59q11 0 26.5 18.5t15.5 29.5l-4 10q-2 15 -22.5 37.5t-34.5 22.5h-8q-16 -11 -16 -59z" />
<glyph unicode="&#x203a;" d="M-112 1449q30 57 89 74q34 10 114 10q70 126 161 126q-63 -17 -85 -128q69 -21 88 -21q20 0 45 9q10 4 24 12q-12 -63 -163 -63q-11 4 -17 4q0 -121 -121 -138q58 31 58 94q0 12 -3 24l-4 16q-17 0 -49.5 3t-49.5 3q-57 0 -87 -25z" />
<glyph unicode="&#x205f;" horiz-adv-x="425" />
<glyph unicode="&#x2122;" d="M-220 1334q154 36 178 140q-6 -1 -14 -3q-25 -7 -33 -7q-60 0 -72 44v11q0 37 56.5 87t93.5 50q30 -4 62 -60q30 -51 30 -85l-3 -9q-28 -85 -91 -110q23 -5 66 -5q246 0 422 310q-51 -171 -194 -271q-155 -109 -334 -100zM-81 1565q0 -63 39 -63q11 0 24.5 17.5 t13.5 29.5l-3 8q-3 14 -21 37.5t-30 23.5h-7q-16 -11 -16 -53z" />
<glyph unicode="&#x2212;" horiz-adv-x="1040" d="M11 121q0 67 18 118l90 253q52 85 125 95q-53 69 -143 69h-20q139 151 295 151h45q60 -6 185 -80q56 -33 106 -33l-213 -613h7q22 0 81 -16q33 -9 51 -9q-1 0 59 12l254 664q31 82 122 136t230 54h33q-141 -21 -208 -68q-75 -52 -109 -147l-231 -649l-104 -64 q-41 -19 -76 -19q-22 0 -71.5 12.5t-75.5 12.5q-39 0 -92 -19l228 633q-41 8 -99 43q-33 21 -99 61q-54 32 -97 32q-53 0 -92 -43q46 -8 82.5 -43t36.5 -80v-14h-13q-71 0 -107 -78q-11 -23 -46 -123q11 0 39 10.5t40 10.5h10q24 -13 39 -74q11 -48 11 -87q0 -51 -22 -85 q-106 -133 -204 -178q-65 13 -65 155zM112 152q0 -85 47 -85l8 1q50 12 61 106q0 131 -54 131q-11 0 -20 -7q-19 -11 -32 -68q-10 -45 -10 -78zM290 -228q34 69 93 69q15 0 24 -8q14 -21 14 -39q0 -21 -8 -23l-51 -51q35 -15 76 -15q98 0 206 94q89 77 142 176 q-68 -151 -162 -234q-103 -90 -194 -82l-23 2l-9 -2q-39 0 -73.5 30t-34.5 69v14zM320 -220q0 -35 32 -35q8 0 19.5 9t11.5 17l-4 7q0 8 -16 20t-24 12h-8q-11 0 -11 -30z" />
<glyph unicode="&#xe000;" horiz-adv-x="685" d="M0 0v685h685v-685h-685z" />
<glyph unicode="&#xf700;" horiz-adv-x="644" d="M6 305q0 15 9 40q32 51 97 109q54 48 79 58q51 -22 91 -153q34 -112 34 -196l110 324v15q0 72 -97 107q-68 24 -157 24q-85 0 -161 -19q191 193 305 193h10q36 -3 126 -27q81 -21 122 -21q109 0 248 111q-157 -173 -320 -173q-17 0 -39 4l-33 6q-29 0 -66 12 q-83 27 -104 27q-57 0 -108 -49l54 2q114 4 215 -52q95 -53 92 -121l-1 -27l-160 -443l-123 -83q13 84 13 118q0 51 -30 200q-11 -45 -51 -79q-20 -17 -70 -45q-35 0 -62 53q-23 46 -23 85zM74 333q0 -28 13 -60q16 -40 40 -40l7 2q45 19 45 94q0 53 -22 101h-15 q-13 0 -33 -20q-13 -12 -31 -44q-4 -17 -4 -33z" />
<glyph unicode="&#xf701;" d="M-835 1093q158 163 372 163q39 0 62 -4q62 -18 130 -67q16 -11 117 -95q72 -59 120 -86q6 -1 25 -6q16 -4 24 -4h52l20 4q-129 -105 -261 -105q-35 0 -55 5q-57 23 -156 84q-112 69 -159 90q-92 42 -172 42q-33 0 -74 -9q-18 -4 -45 -12zM-640 1178q82 -11 166 -51 q53 -25 150 -87q116 -74 144 -89h113q-63 20 -154 87q-132 97 -150 108q-88 53 -164 53q-56 0 -105 -21z" />
<glyph unicode="&#xf702;" d="M-917 1101q205 163 371 163q71 0 101 -10q60 -20 137 -80q42 -34 127 -100q70 -52 141 -66l91 165q55 100 169 100h30q-68 -18 -86 -40q-28 -55 -45 -83l-117 -195q-38 -64 -161 -64q-26 0 -82 9q-83 13 -182 72q-56 35 -170 102q-94 52 -186 52q-65 0 -138 -25z M-707 1188l125 -35q52 -15 145 -75q109 -71 139 -86q81 -41 157 -41l24 4q-63 21 -155 90q-127 95 -152 110q-91 54 -171 54q-58 0 -112 -21z" />
<glyph unicode="&#xf703;" d="M-953 1117q78 58 131 89q159 94 298 94q13 0 39.5 -3t39.5 -3q97 -31 216 -124q27 -21 99 -82q8 58 91 100q27 13 81 41h13q32 0 65.5 -26t46.5 -57v-32q0 -77 -64 -116q-137 -112 -282 -112q-90 17 -207 86q-65 40 -197 116q-108 58 -216 58q-85 0 -154 -29zM-701 1215 l115 -37q47 -15 165 -87t169 -95q98 -45 182 -45q3 0 9 2t10 2q-76 23 -154 78q-48 35 -144 106q-86 63 -151 90q-31 13 -84 13q-92 0 -117 -27zM-23 1104q0 -81 57 -81q12 0 30 29q12 19 12 34v13q0 19 -26.5 49t-45.5 30q-27 -12 -27 -74z" />
<glyph unicode="&#xf704;" d="M-1010 1088q80 59 128 89q162 100 295 100q60 0 115 -19q67 -13 160 -75q75 -50 138 -111q48 94 89 142q67 78 152 87q-57 -51 -97 -123q-46 -82 -46 -149q31 0 72 80.5t49 81.5q30 39 71 66q19 12 81 44q-64 -24 -94 -101l-54 -147q-56 -118 -201 -151q-39 -9 -72 -9 q-97 0 -211 58q-68 37 -205 109q-116 59 -217 59q-80 0 -153 -31zM-788 1178h34q50 0 105 -17q61 -19 155 -74q110 -65 153 -84q91 -41 165 -41l37 4q-71 21 -171 86q-152 99 -167 107q-96 52 -177 52q-64 0 -134 -33z" />
<glyph unicode="&#xf705;" d="M-167 893q42 17 65 56q5 9 28 69l61 162q9 37 57 61q41 21 83 21q10 0 25 -2l30 -4q-73 0 -103 -51q-8 -13 -32 -68l-66 -169q-50 -65 -148 -75z" />
<glyph unicode="&#xf706;" d="M-474 889q154 39 183 143l-48 -9q-58 0 -72 40v13q0 37 55 86t92 49q32 0 63 -56q29 -50 29 -85l-2 -13q-15 -41 -31 -62q-24 -32 -62 -48q12 0 36 -2.5t36 -2.5q141 0 250 89q87 71 173 221q-52 -170 -194 -269q-151 -105 -339 -99zM-329 1117q0 -60 38 -60q8 0 23 23 q10 15 10 24l-2 10q0 14 -19 36.5t-32 22.5h-5q-13 -7 -13 -56z" />
<glyph unicode="&#xf707;" d="M-540 1002l2 30l169 141l62 -56q4 2 37 26q25 18 41 18q6 -3 9 -4q10 -5 14 -9q54 -24 54 -91q0 -69 -70 -112l6 -3q95 0 195 106q90 95 122 199q-42 -392 -408 -372l-36 2q9 12 77 72q50 44 50 80q-6 16 -6 23q-15 24 -17 26q-10 12 -25 21q-36 -11 -74 -36l-54 47 q-83 -36 -83 -96q0 -15 5 -21q9 7 26 22q37 30 61 30l23 -5q34 -23 34 -53q0 -14 -12 -25q-14 -35 -50 -60t-73 -25l-14 4q-30 26 -48.5 59t-16.5 62zM-438 976q0 -44 37 -44q9 5 14 8q14 10 14 20l-3 10q0 10 -17 24t-28 14h-5q-12 -12 -12 -32z" />
<glyph unicode="&#xf708;" d="M-421 1018q32 57 93 75q34 10 116 10q65 126 161 126q-66 -24 -81 -130q45 -11 90 -21q12 0 32 7l29 10q-7 -27 -48 -42q-48 -17 -92 -15l-36 2q-18 -120 -123 -138q54 31 54 91q0 25 -7 41q-61 8 -96 8q-63 0 -92 -24z" />
<glyph unicode="&#xf709;" d="M-434 994q70 70 100 91q69 48 144 48q44 0 105 -19q43 -28 96 -28q92 0 171 96q-80 -159 -186 -159q-39 0 -109 31.5t-88 31.5q-23 0 -34 -14q49 -60 49 -83q0 -6 -11 -27q-45 -87 -123 -87l-49 14q-14 16 -41 49q-21 27 -24 56zM-333 976q0 -59 47 -59q10 0 27 20 q11 13 11 25l-4 14q0 13 -21 35.5t-34 22.5h-6q-20 -13 -20 -58z" />
<glyph unicode="&#xf70a;" d="M-81 917q44 18 65 56q3 6 27 69l61 163q8 35 57 60q43 22 83 22q2 0 55 -7q-73 0 -103 -51q-8 -13 -32 -68l-65 -168q-32 -41 -55 -55q-34 -21 -93 -21z" />
<glyph unicode="&#xf70b;" d="M-343 907q155 41 180 141q-26 -8 -47 -8q-60 0 -72 41v12q0 38 56 87t94 49q22 -3 54 -48q36 -51 36 -95l-1 -10q-30 -85 -91 -110q33 -6 66 -6q244 0 422 311q-51 -170 -194 -269q-151 -105 -334 -100zM-204 1139q0 -63 41 -63q9 0 22.5 18.5t13.5 28.5l-2 10 q-2 12 -21 35t-30 23h-6q-18 -9 -18 -52z" />
<glyph unicode="&#xf70c;" d="M-333 1018v30l166 138l62 -53q10 3 38 25q25 19 40 19q11 0 23 -11q55 -26 55 -94q0 -74 -70 -114q97 0 199 104q94 96 125 202q-41 -378 -415 -378q-5 0 -14.5 2.5t-14.5 2.5q11 18 74 72q50 43 50 80l-4 24l-16 26q-8 12 -21 23l-76 -38l-54 48q-87 -41 -87 -97 q0 -7 6 -19q12 9 41 29t47 20q16 0 22 -4q38 -26 38 -53q0 -13 -13 -26q-45 -85 -128 -85l-13 2q-60 57 -60 125zM-229 985q0 -41 32 -41q7 0 18 12t11 20l-4 9q0 10 -15 24t-25 14h-8q-9 -7 -9 -38z" />
<glyph unicode="&#xf70d;" d="M-235 1010q30 56 89 73q35 10 114 10q68 127 161 127q-63 -20 -86 -128q32 -11 47 -15q26 -7 42 -7q36 0 69 22q-14 -63 -163 -63l-17 3q-10 -123 -122 -138q59 31 59 95q0 20 -9 40q-16 0 -48.5 2.5t-48.5 2.5q-58 0 -87 -24z" />
<glyph unicode="&#xf70e;" d="M-311 1040q76 71 102 89q69 48 142 48q55 0 101 -20q64 -28 100 -28q95 0 173 97q-85 -159 -188 -159q-38 0 -105.5 29.5t-87.5 29.5q-29 0 -38 -12q49 -60 49 -80q0 -6 -11 -26q-15 -35 -49.5 -62t-71.5 -27q-11 0 -49 15q-20 25 -40 49q-22 30 -27 57zM-206 1019 q0 -59 43 -59q11 0 26.5 18.5t15.5 29.5l-4 10q-2 15 -22.5 37.5t-34.5 22.5h-8q-16 -11 -16 -59z" />
<glyph unicode="&#xf70f;" horiz-adv-x="1040" d="M11 121q0 67 18 118l90 253q52 85 125 95q-53 69 -143 69h-20q139 151 295 151h45q60 -6 185 -80q56 -33 106 -33l-213 -613h7q22 0 81 -16q33 -9 51 -9q-1 0 59 12l254 664q31 82 122 136t230 54h33q-141 -21 -208 -68q-75 -52 -109 -147l-231 -649l-104 -64 q-41 -19 -76 -19q-22 0 -71.5 12.5t-75.5 12.5q-39 0 -92 -19l228 633q-41 8 -99 43q-33 21 -99 61q-54 32 -97 32q-53 0 -92 -43q46 -8 82.5 -43t36.5 -80v-14h-13q-71 0 -107 -78q-11 -23 -46 -123q11 0 39 10.5t40 10.5h10q24 -13 39 -74q11 -48 11 -87q0 -51 -22 -85 q-106 -133 -204 -178q-65 13 -65 155zM112 152q0 -85 47 -85l8 1q50 12 61 106q0 131 -54 131q-11 0 -20 -7q-19 -11 -32 -68q-10 -45 -10 -78z" />
<glyph unicode="&#xf710;" d="M-305 1048v22q26 41 76.5 72t96.5 31q32 0 51 -12q25 -28 25 -58q0 -20 -16 -36l-96 -74q63 -23 141 -23q240 0 496 226q101 89 162 178q-131 -227 -307 -349q-189 -132 -366 -123l-39 2l-24 -2q-55 -5 -126 38q-74 44 -74 108zM-248 1081q0 -52 62 -52q14 0 38 17 q16 11 16 21l-7 11q0 14 -28.5 32.5t-44.5 18.5h-14q-22 -6 -22 -48z" />
<glyph unicode="&#xf711;" d="M-313 972q0 41 42 79q38 35 81 44q26 22 63 22q83 0 96 -72l2 -27q4 -49 -49 -89q-42 -32 -92 -36q-21 -7 -38 -7q-71 0 -95 46q-10 20 -10 40zM-233 942q0 -13 9 -13l6 -5q31 0 84.5 38t53.5 67l-3 16l-9 3q-14 4 -22 4q-49 0 -74 -23q-13 -10 -29 -40.5t-16 -46.5z" />
<glyph unicode="&#xf712;" d="M-508 1023v19q0 5 2 19q22 154 253 154q58 0 85 -4l84 -12q61 -8 103 -8q224 0 345 134q-61 -96 -180 -150q-109 -49 -231 -49l-34 3q4 -5 36 -25q24 -15 26 -34q4 -9 4 -30q0 -50 -54 -97q-50 -43 -103 -52q-11 -7 -29 -7q-34 0 -75 28q-20 14 -67 58q-48 -65 -118 -79 q-47 67 -47 132zM-443 1050q0 -45 32 -80l109 70l63 -59q28 -26 67 -26q25 0 45 14q3 2 8 7q-20 -10 -33 -10q-41 0 -72 36q-9 21 -9 32q0 30 53 58q65 35 74 47q-30 0 -90 2.5t-90 2.5q-143 0 -153 -66q-4 -6 -4 -28zM-174 1057q0 -22 32 -34q5 0 15 -2t15 -2q40 0 40 15 q-26 44 -95 44q-7 -8 -7 -21z" />
<glyph unicode="&#xf713;" d="M108 1332q43 18 66 56q10 17 29 69l59 163q12 33 50.5 57t90.5 24q9 0 27 -2.5t27 -2.5q-74 0 -104 -51q-11 -19 -31 -69l-67 -168q-50 -66 -147 -76z" />
<glyph unicode="&#xf714;" d="M-220 1334q154 36 178 140q-6 -1 -14 -3q-25 -7 -33 -7q-60 0 -72 44v11q0 37 56.5 87t93.5 50q30 -4 62 -60q30 -51 30 -85l-3 -9q-28 -85 -91 -110q23 -5 66 -5q246 0 422 310q-51 -171 -194 -271q-155 -109 -334 -100zM-81 1565q0 -63 39 -63q11 0 24.5 17.5 t13.5 29.5l-3 8q-3 14 -21 37.5t-30 23.5h-7q-16 -11 -16 -53z" />
<glyph unicode="&#xf715;" d="M-250 1455v31l169 137l62 -52q61 43 77 43q7 0 23 -9q53 -31 53 -94q0 -72 -67 -115q96 0 198 105q93 96 124 200q-40 -376 -375 -376q-20 0 -41 1l-28 2q10 16 75 74q50 44 48 80l-1 22q-10 13 -19 26t-21 23q-17 -7 -38.5 -16t-37.5 -20l-54 48q-87 -40 -87 -99 q0 -12 8 -18q19 15 39 29q29 20 49 20q14 0 20 -2q40 -28 40 -53q0 -14 -15 -29q-16 -34 -53 -59.5t-74 -25.5l-14 4q-60 54 -60 123zM-146 1423q0 -42 32 -42q6 0 17.5 12.5t11.5 19.5l-4 10q0 10 -15 24t-25 14h-5q-12 -6 -12 -38z" />
<glyph unicode="&#xf716;" d="M-112 1449q30 57 89 74q34 10 114 10q70 126 161 126q-63 -17 -85 -128q69 -21 88 -21q20 0 45 9q10 4 24 12q-12 -63 -163 -63q-11 4 -17 4q0 -121 -121 -138q58 31 58 94q0 12 -3 24l-4 16q-17 0 -49.5 3t-49.5 3q-57 0 -87 -25z" />
<glyph unicode="&#xf717;" d="M-119 1455q78 72 103 89q69 47 143 47q44 0 101 -17q55 -30 99 -30q92 0 172 99q-85 -161 -188 -161q-38 0 -105 30t-89 30q-24 0 -37 -13q49 -58 49 -80q0 -9 -12 -26q-14 -36 -48.5 -62.5t-72.5 -26.5q-12 0 -49 15l-39 48q-20 26 -27 58zM-15 1434q0 -59 44 -59 q12 0 30 24q11 14 11 24l-3 9q0 16 -21 39.5t-37 23.5h-5q-19 -13 -19 -61z" />
<glyph unicode="&#xf718;" d="M-763 -720q92 9 129 26q52 24 81 88l20 55q-34 -26 -64 -26q-45 0 -79 49q-31 44 -31 91q35 54 83 103q21 21 88 79q51 -19 84 -81q29 -55 29 -114q0 -34 -7 -47l-43 -80q-25 -48 -37 -66q-20 -31 -42 -46q-48 -33 -131 -32zM-633 -450q0 -67 26 -72h23q55 0 61 47 q0 39 -15 76q-20 49 -55 61q-40 -28 -40 -112z" />
<glyph unicode="&#xf719;" d="M-749 -737q76 44 123 125q37 64 42 112q-11 -8 -26.5 -18t-40.5 -21q-23 0 -40 44q-13 36 -13 64q0 14 8 34q42 49 130 143q30 -19 48 -81q15 -50 15 -96v-15q0 -82 -54 -173h11q41 0 71 81q12 33 30 106q10 43 44 101q57 97 152 97q6 0 17 -3t17 -3q-107 0 -146 -144 q-7 -32 -40 -155q-44 -151 -172 -171zM-651 -416q0 -64 29 -69h9q32 0 38 59q0 18 -11 47q-13 35 -27 35l-5 -2q-33 -13 -33 -70z" />
<glyph unicode="&#xf71a;" d="M-748 -483q0 42 41 80q38 34 82 43q27 23 63 23q82 0 97 -72l2 -29q3 -49 -47 -86q-43 -32 -96 -39q-13 -5 -38 -5q-42 0 -71 22q-33 23 -33 63zM-669 -513q0 -14 10 -14l6 -3q31 0 84.5 37.5t53.5 66.5l-4 17q-6 2 -9 2q-15 3 -21 3q-52 0 -74 -22q-14 -10 -30 -40 t-16 -47z" />
<glyph unicode="&#xf71b;" d="M-615 0v1024h615v-1024h-615z" />
<glyph unicode="&#xf71c;" horiz-adv-x="455" />
<glyph unicode="&#xf71d;" horiz-adv-x="455" d="M24 -4h406v-180h-98v67h-215v-67h-93v180z" />
</font>
</defs>
</svg>
