<?xml version="1.0" standalone="no"?>
<!DOCTYPE svg PUBLIC "-//W3C//DTD SVG 1.1//EN" "http://www.w3.org/Graphics/SVG/1.1/DTD/svg11.dtd" >
<svg xmlns="http://www.w3.org/2000/svg">
<metadata></metadata>
<defs>
<font id="papyrusregular" horiz-adv-x="1175" >
<font-face units-per-em="2048" ascent="1638" descent="-410" />
<missing-glyph horiz-adv-x="437" />
<glyph horiz-adv-x="0" />
<glyph horiz-adv-x="437" />
<glyph unicode=" "  horiz-adv-x="437" />
<glyph unicode="&#x09;" horiz-adv-x="437" />
<glyph unicode="&#xa0;" horiz-adv-x="437" />
<glyph unicode="!" horiz-adv-x="437" d="M106 113q12 20 17 23l52 31q25 26 29 28q8 4 16 4t28 -19q3 -3 46 -31q38 -25 38 -54q0 -4 -10 -19q-16 -27 -18 -28q-52 -37 -69 -51q-16 15 -44 49l-27 24q-17 28 -23 33q-10 7 -35 10zM279 1283q12 -9 12 -21q0 -42 -34 -62l-56 -32l86 -26l-16 -22q15 -58 15 -87 q0 -2 -3 -37l1 -29l-12 -35q6 -39 6 -43q0 -2 -3 -52l-4 -62q-9 -38 -9 -48q0 -20 17 -36q0 -58 -1 -69q-2 -13 -14 -32q15 -21 21 -51q3 -22 6 -37l3 -22q-16 -18 -24 -40q-7 -19 -34 -42q-18 4 -26 4l-38 -1q-12 0 -34 24q8 22 35 56q2 3 4 28q9 71 12 98q29 1 29 20 q0 11 -4 26l-30 -3q-3 13 -3 16q0 11 2 69q1 24 7 33q5 8 10 15q-16 29 -17 39q-1 96 -4 119h-6l-2 2v15h35q-1 18 -7 22q-6 6 -34 12q30 22 50 34q15 9 15 15l-67 44v2l5 32q-40 36 -40 64q0 26 27 49q39 31 84 39q20 3 40 12z" />
<glyph unicode="&#x22;" horiz-adv-x="732" d="M277 1187q12 -12 12 -17q0 -3 -22 -60l-69 -35q84 -27 84 -31q0 -5 -14 -19q15 -58 15 -69l-1 -63q0 -8 2 -29l-15 -21q13 -52 22 -117q-15 -19 -33 -59q-3 -7 -26 -23q-17 4 -24 4l-37 -1q-10 0 -36 25q3 10 16 31l3 5q16 17 17 20q1 2 5 40q4 31 4 39q0 13 -4 38l-8 3 v17h32v17q-16 10 -38 16q29 21 49 32q18 10 18 18q0 4 -61 34q-9 4 -9 14q0 2 1 5q3 11 3 14q0 5 -3 15q-35 27 -35 59q0 38 63 73q15 8 57 15q13 2 32 10zM556 1177q9 9 18 11q11 -13 11 -23v-3l-20 -21l-8 -34q-63 -30 -63 -32q0 -1 2 -2q35 -22 85 -25l-17 -23 q5 -20 6 -26q11 -38 11 -57l-4 -34l1 -39l-14 -37q15 -46 17 -66q3 -24 6 -41q-15 -16 -27 -48q-1 -4 -15.5 -18.5t-16.5 -14.5l-24 5l-42 -1q-16 2 -30 21q-2 3 -2 6q0 2 35 56q6 40 8 114l-10 3v17h32v11l3 3q-10 9 -25 14q-9 3 -16 7q64 25 64 48q0 3 -12 24 q-11 50 -15 55q-2 2 -38 18q-35 16 -35 51q0 21 28 43q47 37 107 38z" />
<glyph unicode="#" d="M88 386v17l41 14v14q15 10 17 19q4 18 14 42l7 -6q16 4 27 4q3 0 33 -7l14 1q5 0 16 -6l1 1q37 -5 77 -17q5 20 7 26q8 33 8 51l-3 28l3 28l5 51q9 28 11 52q-27 11 -36 11q-5 0 -47 -14q-113 -9 -137 -16q-9 15 -9 25q0 2 2 10q29 2 34 11l5 8l11 15l6 17l3 2 q6 21 12 28q8 -3 9 -3l30 4l18 -5q74 -11 84 -14q15 -5 34 -10l4 28q6 28 6 43v14l14 6l4 31q-15 7 -15 14q0 16 15 52q7 19 7 53l8 35l2 27l3 19q-10 27 -10 28q0 13 18 26q20 14 62 19q2 -15 2 -26q0 -5 -16 -83l-2 -44l-10 -28q-2 -43 -2.5 -47t-8.5 -14q-23 -31 -23 -36 q0 -10 18 -25l-14 -90h11l5 -5h21q25 -18 38 -18q12 0 30 18l81 -4l4 4q12 -4 18 -4l29 3h65q4 0 36 8l13 79l13 9l2 25q-14 16 -14 22q0 12 15 49q6 16 8 48l7 40l2 27l3 17q-10 29 -10 31q0 12 18 25q20 14 61 19q4 -13 4 -14l-15 -85l-3 -49l-10 -27l-3 -47l-28 -47 q10 -42 10 -49q0 -10 -8 -54q-5 -27 -8 -49h11q14 0 24 7q9 18 25 21v5q36 0 67 13q11 -13 28 -16q13 18 17 20.5t26 7.5q25 5 34 6h1l26 -5v-11l-50 -33l4 -24l-47 -26l-26 4q-26 -23 -42 -23v0q-15 3 -36 47l-40 -43l-13 2q-3 1 -5 1q-6 0 -15 -1q-5 -23 -5 -32 q-2 -27 -5 -33q2 -6 -27 -20l8 -30l12 -3q-3 -21 -4 -27q-8 -51 -9 -106h-15v-6q16 -7 25 -7q15 0 23 31q11 3 23 8q35 2 65 12l13 -13l10 -3q15 22 28 27q22 8 59 8q18 0 23 -13l-49 -37v-26q-44 -24 -56 -24q-4 0 -16 4q-26 -23 -44 -23q-1 0 -51 6l-25 -3l-23 5 q-1 0 -6 -2l-3 -4l9 -14q-8 -27 -23 -106l-8 -25v-32l-14 -98q-1 -94 -56 -94q-19 0 -45 24q7 21 8 28q13 56 14 59q15 36 15 37l-3 49l13 37l6 27l14 52q3 32 8 57q-22 6 -60 6l-52 4h-1h-2q-12 0 -33 -3q-19 -4 -27 -4q-10 0 -54 10q-17 4 -34 20q-21 -28 -33 -28 q-5 0 -30 2q-6 1 -16 1v-4l15 -20q-9 -25 -23 -98l-10 -35v-31l-15 -96q-1 -94 -53 -94q-21 0 -37 15q-8 7 -8 13l8 32l11 51l15 37l-3 44l13 40l6 26q14 53 16 74q3 23 6 45q-16 14 -39 54l-43 -33q-39 -10 -81 -22l-35 -5q-6 -2 -22 -13zM413 574q-2 -23 -10 -73 q-1 -6 0 -8v-7v-23h3l3 2l7 -7h23v-6q29 -11 40 -11t26 19l17 -2h179l36 7q4 21 6 28q7 33 7 50q0 1 -3 32l4 29l4 47q8 16 12 38q-19 5 -68 6l-47 2q-7 0 -44 -3h-8q-58 0 -82 18q-14 10 -18 10q-3 0 -7 -1l-3 -21q-18 -6 -26 -6q-13 0 -32 3q-4 -19 -5 -26q-4 -38 -6 -44 q-5 -8 -26 -20v-3q0 -3 1 -6q4 -9 4 -11q1 -8 13 -13z" />
<glyph unicode="$" d="M174 248q1 8 12 39l5 26q1 4 11 12q2 20 8 39q32 -11 39 -23q6 -10 9 -32q13 -12 18 -15q30 -22 35 -28q4 -5 10 -22q13 -1 15 -3l19 -17q6 -6 63 -25q51 -30 67 -34q13 -3 43 -6q13 14 16 24q0 5 2 40l4 48v12v19v2l8 129q1 3 -3 10q-9 19 -9 77l2 46q0 9 -9 36 q-15 5 -21 14q-6 8 -10 13q-33 10 -56 10h-12q-21 22 -35 23l-14 -10h-1q-4 1 -26 14q-27 12 -42 24q-21 17 -39 31q0 32 -3 42q-6 27 -6 32q0 11 22 54q29 0 31 6q4 -2 13 23q-14 18 -14 28q0 5 7 18q28 1 40 11l-5 28q22 10 79 48q4 3 14 3q8 0 20 -2q18 27 44 32 q18 3 29 12q4 37 4 54q0 26 -20 48q15 24 24 27q1 3 23 8l1 -2l27 5q5 -19 5 -29q0 -11 -2 -30q-2 -18 -2 -36t13 -30q3 -3 18 -15l28 6l11 -1l59 -2q37 -10 66 -11q3 -13 6 -17q3 -6 27 -10q-6 -23 -20 -33q-57 -41 -63 -41q-15 0 -28 29q-36 1 -83 11q-26 5 -34 6v-21 q0 -6 4 -42q1 -8 -20 -27q0 -6 14 -28q5 -6 4 -18v-1v-37q-1 -21 -1 -30q0 -11 1 -36q23 -13 49 -20v-16q0 -32 9 -65q3 -14 4 -14q4 0 19 70l11 18q20 -7 27 -8q4 -1 21 -16q3 -3 38 -7q15 -2 65 -29q64 -34 97 -93q-21 -7 -21 -20q0 -27 36 -27q6 -43 8 -60v0l-5 -31 l-18 2l-1 -1l3 -35l-1 -1q-3 -5 -11 -29q-9 -30 -19 -45q-7 -11 -66 -84l-90 -69l-32 -30q-85 -30 -99 -30h-17q-6 -25 -6 -33l1 -36v-35q5 -31 5 -35q0 -45 -43 -45q-19 0 -48 18q4 19 4 25q4 46 6 51q10 28 10 32q0 14 -21 34q-14 13 -27 13q-1 0 -30 -5q-3 -1 -5 -1 q-28 0 -69 19q-35 16 -60 18q-4 5 -10 25q-6 22 -32 22q-12 0 -39 -9q-33 27 -38 31q-31 31 -47 46zM391 837q5 -9 6 -9l46 -25l22 -23l11 -3q38 -12 72 -12q18 32 18 48q0 14 -15 38q16 18 16 34v9l-19 11q6 31 6 68q-18 4 -31 4q-16 0 -45 -20q-22 -15 -64 -65 q-14 -16 -23 -55zM595 326l3 -6q25 -16 25 -30l-6 -36v-46l-5 -32q6 -10 16 -10h4h9q5 0 15 -1q14 16 18 19l30 16q30 19 45 29q51 44 73 121v0l-5 53q0 5 11 20l23 -3l6 23v1q0 9 -49 37l-13 45l-22 12q-3 31 -23 53q-14 -4 -30 -18q-6 -5 -11 -5q-6 0 -30 12q-14 4 -61 10 l-5 -7v-77l-21 -11l11 -23l12 -8q-1 -22 -1 -39q0 -12 1 -21q3 -23 3 -28q0 -17 -26 -48z" />
<glyph unicode="%" horiz-adv-x="1344" d="M125 870q-3 23 -5 31q-3 11 -3 16q0 2 1 7q8 -1 14 -1q24 0 57 78q17 24 43 29l-6 7v2q18 16 23 21q33 30 60 46q25 16 40 25v10q19 6 25 8q46 17 79 20l12 5l24 7l18 7l16 -24q3 -5 26 -14q30 -12 37 -40l7 -26l23 83l5 -3q23 -14 30 -27q4 -6 20 -46h28q7 -9 11 -28 q0 -5 12 -37q9 -24 9 -40q0 -1 -2 -22l3 -31q-4 -43 -5 -46.5t-14 -17.5q-2 -15 -4.5 -19.5t-25.5 -33.5q-32 -59 -39 -65q-8 -7 -20 -7q-3 0 -5 1q-6 -9 -9 -25q-46 -45 -81 -60q-22 -10 -39 -28q-4 -3 -15 -6q-34 -8 -53 -15q-30 -9 -40 -11q-20 -3 -40 -11q-2 -1 -5 -1 q-12 0 -37 16l-26 -5l-20 18q-9 -2 -15 -2q-23 0 -36 27q-7 14 -11 17q-2 2 -13 3q-15 18 -21 23q-31 31 -31 48q0 12 4 30l-16 2q-7 27 -8 69l-1 7q1 3 8 11q4 6 11 18zM199 918v-31h5l3 -2q-52 -20 -52 -41q0 -22 82 -44l-6 -51q26 1 35 -3t45 -35l-4 -4l6 -16q12 1 22 1 q5 0 40 -18q9 -4 25 -4q23 0 73 15q15 5 39 20q10 6 31 11v8q26 17 30 27q14 19 28 27q6 3 8 8q19 41 20.5 44t15.5 17q-5 13 -5 22q0 3 10 32q-8 25 -8 29q0 8 3 21h-6l-24 36l11 21l-7 7q-6 -1 -9 -1q-7 0 -26 16q-20 14 -26 22l-18 7l5 33l-37 -14q-38 24 -77 24 q-11 0 -39 -4q-25 -4 -28 -7l-14 -16q-26 -18 -30 -23q-3 -2 -27 -8l-30 -35q-33 -30 -39 -43q-2 -9 -2 -32l-26 -13zM277 25q8 30 25 57q12 18 21 40q31 2 38 10q2 2 13 37q6 17 43 56l-7 15v0q-2 3 7 18q2 3 6 12q13 24 39 41v21l31 18q4 34 22 60q61 84 62 92q3 25 6 32 q24 10 24 13q8 4 25 40q8 17 15 29q35 60 41 81l27 -5l4 5v5q-13 16 -13 25q0 22 42 46q9 6 14 20q1 3 1 31q0 10 25 44q18 24 18 46q0 4 -1 7l-3 6q0 3 12 12q3 1 18 25q2 4 14 16l-2 2q2 20 1 27q1 22 7 29q7 8 28 20q-3 14 -3 23q0 13 11 29q38 54 51 55l27 3q7 1 31 15 q21 12 34 12q25 0 25 -21q0 -12 -9 -24q-27 -38 -40 -64q-13 -5 -35 -5q-7 -11 -7 -33q2 -5 -15 -26q-12 -15 -12 -19q-3 -7 -7 -10q-6 -4 -12 -12q5 -9 5 -11q0 -11 -36 -56q-11 -14 -17 -43l-32 -15v-15q0 -14 -1 -16l-71 -107l-12 -30l-26 -42l-10 -24l-15 -21 q-50 -74 -66 -97h-11v-3q0 -14 -17 -62q-30 -10 -37 -24q-5 -13 -5 -50q-17 -17 -19 -21l-26 -73l-30 -43q-9 -50 -15 -61t-33 -20q9 -17 9 -28q0 -5 -11 -21q-18 -31 -29 -39t-63 -27q-2 -1 -17 -8q-19 -10 -34 -10q-9 0 -23 11zM613 269q16 19 16 32q0 5 -1 12 q-1 12 -4 35l4 4l10 4h15q15 11 42 72q2 6 23 25q8 7 18 21l18 13l22 20l33 26q19 17 47 25l4 14q20 5 27 7q52 16 57 17q36 8 44 12q19 9 22 8l25 -8l24 -4l52 -15q19 -1 40 -15q4 -8 6 -10q5 -9 6 -25q5 -17 39 -23q26 -78 34 -109v-3q-2 -37 -4 -75q-2 -20 -17 -44 q-12 -20 -25 -36q-7 -9 -23 -39q-13 -25 -23 -32t-32 -13v-22q-11 -7 -24 -16q-38 -26 -74 -48q-38 -25 -56 -32q-12 -3 -71 -16q-42 -16 -48 -16q-3 0 -33 15l-33 2q-7 1 -20 17q-5 -1 -9 -1q-13 0 -38 17q-4 15 -6 18q-31 26 -43 47l-20 4q0 37 -5 60h-5q-15 45 -15 64z M741 217q-10 -15 -10 -23q0 -6 6 -18q9 1 16 1q18 0 39 -18l10 -8q13 -9 13 -26q9 -4 30 -6q54 -21 62 -21q10 0 77 20q38 22 66 29q9 15 24 27q9 7 15 23l21 8q12 37 40 67l-7 14q2 15 14 44l-4 4h-7q0 17 11 38q-24 19 -37 40l11 38q-7 2 -9 2q-10 0 -27 -8q-8 24 -14 26 q-2 7 -31 14q1 10 1 17q0 10 -5 22h-12l-11 -17h-7q-8 0 -18 10q-11 11 -23 12q-35 1 -57 8q-18 -13 -30 -13q-5 0 -11 1q-30 -27 -40 -34q-7 -4 -41 -16q-2 -1 -10 -10q-21 -23 -27 -29q-20 -20 -22 -23l-17 -47q-3 -9 -19 -17v-27l2 -2q9 -9 9 -11l-1 -48q0 -25 30 -43z " />
<glyph unicode="&#x26;" horiz-adv-x="1357" d="M337 606q51 18 83 56q-51 13 -51 44q0 8 1 20l-38 -9q-11 19 -27 31q-8 7 -30 38l4 29l-19 11l17 44h-5q-1 10 -1 17q0 23 25 51h21q9 19 13 23l30 25l30 31q5 3 24 9l10 22l35 4q14 21 29 27q6 2 45 13l26 12l18 7q59 32 75 33v0q6 -4 35 -47l47 49q11 11 32 11 q23 0 57 -33q24 -16 26 -20q2 -3 6 -28q1 -8 18 -34q-8 -18 -17 -18q-5 0 -39 38l-55 28l-19 12q-13 0 -16 -53l-25 14l-12 -20q-4 -1 -6 -1q-7 0 -28 7q-7 3 -11 3q-7 0 -22 -5q-9 -3 -29 -7q-18 9 -27 9q-5 0 -31 -12l-34 -10l-21 -11q-19 -7 -27 -12q-6 -4 -47 -41 q-39 -29 -40.5 -30.5t-8.5 -28.5q-8 -32 -12 -45q16 -21 24 -26q14 -11 19 -33q20 -10 26 -15q24 -15 42 -21q9 -2 63 -16l25 -1l32 -11q63 0 86 -3q15 -2 27 -2q9 0 52 17l58 3q30 8 33 8q10 0 29 -11q-11 -20 -20 -52q-4 -16 -18 -21q-61 -24 -64.5 -25.5t-21.5 -17.5 q-18 10 -28 21q-7 8 -25 13l-15 -10q-22 43 -29 43q-6 0 -16 -43q-21 42 -39 42q-7 0 -12 -5l-47 -56q-20 6 -21 6q-11 0 -34 -10l11 -22l-4 -4h-13q-16 0 -25 -4q-3 -1 -33 -23q-46 -25 -49 -28q-2 -1 -20 -30q-16 -14 -31 -33q-13 -16 -42 -25q-4 -22 -26 -63 q-7 -16 -13 -35q-1 -7 -4 -48l-6 -22l9 -25q4 -30 19 -58q3 -6 5 -12q10 -24 33 -39q9 -24 14 -28l29 -26q47 -48 58 -56q8 -6 52 -20q8 -2 32 -2l42 -11h31l34 -2l14 1l42 1l21 9l29 9l32 16l49 15q17 7 23 7h9q11 18 14 20l69 45q10 6 42 51q32 44 32 101q0 33 -37 55 q-29 17 -30 18l-14 19l-22 14l-34 30l-34 11l-36 15l-15 1l-17 11l-37 -11q-34 -5 -41 -10q-12 -3 -47 -66q-3 -7 -16 -28l12 -26v0q0 -23 -34 -23q-7 0 -15 1q-8 11 -33 24q-16 8 -16 28q0 21 13 36.5t57 50.5l38 33l61 24l25 14l29 8l26 10l32 4l24 3l35 -8l17 -2l31 -12 q26 -9 44 -21q3 -51 26 -51q5 0 10 6v22q20 -12 26 -16q37 -24 66 -35q21 -10 22 -10q12 0 33.5 8t35.5 18q29 20 40 25q32 15 30 68l6 37v0q1 15 -26 42q-14 14 -16 28q13 11 64 26l17 -29q37 -9 49 -19l6 -24l27 -4q-2 -21 -2 -28q-3 -61 -18 -83q-1 -1 -29 -22 q-14 -27 -62 -55l-16 -12q-20 -2 -24 -3q-3 -2 -29 -19q-58 -14 -67 -21q-13 -10 -13 -25q0 -10 12 -32q-18 -13 -19 -19q-4 -35 -14 -54l-39 4q-1 -18 15 -36q-14 -15 -36 -32l-23 -24l-39 -20q-8 -5 -22 -27h-8q-4 0 -26 -8l-4 -1l-14 -9l-37 -16q-23 -18 -82 -43l-52 -14 l-32 -12l-81 -11q-87 -16 -88 -16q-10 0 -37 12q-13 -16 -22 -16q-8 0 -25 2q-5 1 -15 2q-34 3 -42 11q-26 26 -37 33l-11 -23q-33 12 -57 33t-43 38q-36 48 -36 52q0 1 7 43l-2 3l-4 10q-38 18 -40 20q-3 3 -3 7v17l-1 11q29 4 29 18q0 16 -22 16h-9q-8 12 -8 32q0 8 11 34 l6 22l13 23q9 35 22 52q19 23 20 25q13 24 15 25l16 11q2 2 12 15q13 17 47 34q12 7 21 25q10 22 11 23l24 21q11 9 13 26z" />
<glyph unicode="'" horiz-adv-x="437" d="M277 1187q12 -12 12 -17q0 -3 -22 -60l-69 -35q84 -27 84 -31q0 -5 -14 -19q15 -58 15 -69l-1 -63q0 -8 2 -29l-15 -21q13 -52 22 -117q-15 -19 -33 -59q-3 -7 -26 -23q-17 4 -24 4l-37 -1q-10 0 -36 25q3 10 16 31l3 5q16 17 17 20q1 2 5 40q4 31 4 39q0 13 -4 38l-8 3 v17h32v17q-16 10 -38 16q29 21 49 32q18 10 18 18q0 4 -61 34q-9 4 -9 14q0 2 1 5q3 11 3 14q0 5 -3 15q-35 27 -35 59q0 38 63 73q15 8 57 15q13 2 32 10z" />
<glyph unicode="(" horiz-adv-x="654" d="M313 1374q25 14 42 35q11 13 21 26l23 34l35 36q18 42 26 50q31 31 47 51q14 2 21 15q17 29 37 37q10 4 40 10l7 -7q-5 -11 -5 -17q0 -3 2 -8q12 -35 12 -39q0 -3 -20 -55q-8 -22 -18 -27q-3 -1 -50 -7q-15 -4 -37 -19q-6 -5 -28 -32l-29 -26q-4 -4 -22 -35 q-12 -21 -27 -36q-33 -34 -36 -39t-12 -31q-6 -20 -17 -40q-23 -42 -38 -81l-11 -19l-6 -24l-9 -30l-2 -21l-15 -38l-12 -120l-10 -46l8 -47q2 -54 2 -58q0 -9 -12 -41l10 -75l-2 -32l16 -67l-51 -37q20 -33 25 -44q2 -6 18 -51q6 -35 7 -37l14 -16l13 -25l18 -27l4 -25 l24 -35l11 -34l4 -6l-1 -53q1 -11 31 -24q4 -15 21 -28q45 -79 61 -96q-13 -34 -13 -48q0 -19 23 -19q15 0 35 3q37 -46 57 -55q18 -8 68 -10q6 -17 15 -32q5 -8 7 -15l-4 -4h-22l-21 -61q18 -24 18 -38q0 -36 -40 -64q-28 36 -43 44l-45 26l-27 25q-41 29 -53 47 q-18 34 -18.5 35t-15.5 13l-5 12l-26 38q-5 12 -11 20q-10 13 -20 39l12 13v4q-24 10 -34 20q-38 70 -58 164l-6 18l-6 24l-17 50q0 25 -4 45l8 3q-11 23 -21 67q-21 70 -21 98q0 12 2 22q2 15 2 21q0 4 -14 34l49 105q0 13 -42 21l-7 2l-5 1l7 32q-4 23 -4 26q0 8 2 18 q2 22 4 81l5 30l4 44q1 3 17 34q1 2 1 3l-1 38q0 6 20 36l3 30l51 139q3 10 7 35l27 53l5 23q12 22 15 33q4 19 10 38z" />
<glyph unicode=")" horiz-adv-x="654" d="M22 1505l2 2h23q4 19 7 25q11 26 11 31q0 11 -17 32q10 68 43 73q26 -33 39 -41l35 -19l40 -33q29 -22 40 -32q8 -8 31 -47l13 -14l12 -22l20 -27q8 -16 17 -28q7 -9 15 -33l-12 -15q26 -13 34 -23q6 -6 22 -48q1 -3 9 -20q17 -39 18 -55q7 -43 17 -59q4 -23 12 -40 q10 -22 10 -43q0 -3 -1 -5l-2 -13q4 -13 4 -15v-5l-7 -10l14 -7q3 -29 25 -106q2 -8 4 -93l11 -30q-3 -16 -3 -20t3 -85l2 -25q0 -1 -4 -29l3 -37l-5 -29l-2 -64l-6 -32l-1 -32l-19 -42l1 -23q0 -4 -10 -42l-13 -8l3 -20l-55 -155q-4 -11 -4 -13l1 -16l-29 -53l-5 -24 q-13 -26 -25 -71q-40 -22 -66 -63q-16 -29 -20 -33l-34 -34l-22 -44q-51 -55 -63 -62q-3 -2 -23 -29q-15 -21 -64 -29l-8 7q4 12 4 20q0 4 -12 34q-1 2 -1 3q0 32 28 76q11 15 20 17q1 0 38 2q37 19 44 23q5 4 21 25l27 26q59 84 64 90q9 10 29 25q6 28 9 33l38 78l16 42 l12 19l6 24l8 30l3 22l15 45l1 46l8 40l2 29l10 45l-7 36q-2 67 -2 69q0 8 12 39l-12 81l2 39l-15 51v1l3 34v1q0 8 -13 37q-14 30 -17 97q-10 10 -15 28l-16 38l-6 33q-13 28 -15 42q-2 15 -7 27v29q1 14 1 21q0 18 -19 24q-13 5 -17 17q-15 11 -17 14l-34 63 q-24 34 -24 41q0 4 12 51l-5 4q-18 5 -26 5q-9 0 -26 -5q-37 47 -59 57q-21 9 -68 10q-5 12 -21 40v9z" />
<glyph unicode="*" horiz-adv-x="710" d="M109 1061q8 -2 28 -17q19 -15 21 -18t2 -18l59 -34l15 15q29 -27 78 -40l13 13v4l-11 3q-7 22 -11 51q-7 26 -7 29q0 11 15 37q-47 11 -47 58q0 10 9 18q6 5 10 5l78 -2q14 0 53 17l11 -7q-45 -93 -46 -103q-1 -5 -2 -26l17 -5q-5 -20 -7 -26q-9 -28 -9 -48q0 -10 12 -23 q10 16 20 22q9 6 35 14q19 22 30 21h1l24 -6q9 61 53 61q4 0 13 -5q8 -21 16 -58q33 -57 42 -78h-25q-9 0 -47 14q-3 1 -8 1q-8 0 -30 -2q-9 -1 -27 -2v-23q-22 3 -38 3q-25 0 -60 -22v-8l3 -4h24q27 -33 61 -55l3 -33q17 7 28 7q20 0 36 -21q6 -8 6 -16q0 -9 -2 -20 q-41 -20 -52.5 -30.5t-41.5 -55.5q-3 -5 -7 -5t-9 3q-5 27 -9 35q-7 16 -7 20q0 5 3 20v1q0 10 -11 30q-5 9 -11 25l-21 -5q-8 37 -20 59q-9 14 -35 25l-5 -5l9 -33q-12 -18 -14 -24q-15 -30 -28 -44q-15 -1 -15 -8q0 -3 10 -22q4 -6 4 -15q0 -20 -15 -34q-9 -9 -21 -9 q-10 0 -34 23q-20 18 -94 45q17 19 47 38l5 4l17 -1q16 3 46 44l-12 8v5q23 16 31 22q34 23 34 40q0 11 -11 11h-2q-2 0 -12 -2q-8 -2 -10 -2t-42 8q-8 2 -16 2q-7 0 -16 -1l-19 22q-14 -24 -28 -27q-8 -2 -38 -5q-17 19 -17 31q0 5 16 35q6 12 7 49q1 25 5 50z" />
<glyph unicode="+" d="M172 658q23 -2 31 -2q20 -1 26 -2l20 -3l42 2q28 -11 31 -11q2 0 33 7l22 -1l25 1l15 -50q30 53 34 53q5 0 34 -51l4 -3q26 46 31 50h1l17 -2q3 25 5 33q1 9 1 15q0 3 -5 18q0 4 1 63l7 30q-9 28 -9 32q0 67 10 93l-17 10l2 59q9 8 19 8l24 -1l37 1q5 0 24 -5 q5 -16 5 -28q0 -8 -10 -23q5 -13 5 -15l-7 -43l3 -29l-1 -32v-64q-1 -15 -1 -21q0 -59 5 -98q26 0 34 1q19 1 27 1q5 0 39 -9l20 6l14 -50l25 50l70 -1q8 0 25 6v-6l12 -11q22 18 47 20q18 2 29 3l19 1q7 -10 7 -80q0 -6 -3 -26q-21 -2 -28 -3q-15 -2 -25 -2q-6 0 -13 3 l-23 8l-29 -4l-24 45l-18 -43l-41 51l-42 -50l-34 13l-25 -11q-24 51 -28 51q-11 0 -37 -61q1 -19 1 -33q0 -7 -5 -43q5 -58 5 -69q0 -61 -9 -90l18 -17q-5 -17 -6 -69q-1 -25 -51 -25q-17 0 -54 6l-1 36v7q0 4 10 32q1 3 1 6q0 4 -7 24q7 30 7 31q0 2 -6 33q-1 6 -1 13 q0 16 9 31q-7 27 -7 54q0 49 9 78q-12 7 -15 7l-34 -4l-31 47l-48 -46q-35 49 -42 49q-8 0 -34 -51l-40 4l-31 -5l-30 55l-25 -49q-6 -8 -17 -8q-4 0 -12 1q-9 2 -27 4q1 2 1 3t-1 5q-1 2 -1 4q0 4 1 9q3 16 3 25v2q-3 33 -3 34q1 5 11 16z" />
<glyph unicode="," horiz-adv-x="437" d="M65 -313q-1 4 -1 7q0 4 7 8q28 21 38 21q3 0 5 -2l1 -1h21l11 18q25 6 53 26q2 17 8 23q7 8 27 23q2 18 2 24q2 28 13 49l-2 27l8 24l-5 8q-3 3 -5 18q-11 62 -37 75q-14 8 -21 18l-12 4q-3 14 -11 25l-43 -4l-7 7q2 19 57 62q19 19 44 47q36 -4 54 -19q23 -19 33 -36 l3 -21l4 -26l8 -27l2 -17q6 -36 6 -43q0 -10 -14 -31q-3 -6 -3 -15q0 -8 1 -14l5 -37q-1 -14 -21 -55q-9 -17 -30 -38v-8l8 -7v-5l2 -3q-19 -25 -24 -33q-24 -37 -59 -65q-22 -18 -33 -18l-38 1q-2 0 -29 1q-15 0 -26 9z" />
<glyph unicode="-" horiz-adv-x="693" d="M277 436q-2 -7 -2 -12q0 -3 3 -6q15 -15 32 -15q6 0 14 7l3 15q19 3 37 12q19 -11 36 -12l46 -4l43 3q7 0 23 -4q34 -10 44 -10q27 0 55 13q16 7 22 7q4 0 10 -1l4 -4q24 35 45 35q-7 -33 -15 -48q-5 -9 -35 -35q-14 -15 -57 -46q-40 -28 -66 -28q-11 0 -24 3 q-21 4 -23 4l-71 -1l-20 11l-39 18l-32 26l-90 -44l-22 11q-10 7 -25 12q-23 -10 -35 -10q-9 0 -22 2q-15 -13 -24 -13q-11 0 -34 11q-17 -32 -33 -32q-9 0 -21 3l-1 2q-3 11 -3 16q0 9 14 26q4 4 61 45l18 16l24 14q29 19 34 20q3 1 46 3l27 2q33 -12 53 -12z" />
<glyph unicode="." horiz-adv-x="437" d="M103 98v12q16 13 22 17q39 28 54 45q13 13 32 25q34 -27 59 -38q32 -15 44 -27q19 -20 19 -30q0 -5 -19 -45q-9 -19 -79 -61q-16 15 -21 21q-18 19 -48 41q-6 4 -25 33q-26 1 -38 7z" />
<glyph unicode="/" horiz-adv-x="1214" d="M-251 -295q25 29 52 58q4 4 45 39q13 10 28 34l32 -4q19 31 27 43q6 10 54 57l25 30q41 45 61 69q13 15 36 25v27q20 15 81 75l35 34q34 39 39 43q32 20 33 21q4 6 6 28q46 44 82 93q7 10 23 14q2 1 30 37l-2 12q22 17 46 49q15 21 53 60q30 37 36 41q32 16 49 26l-12 18 l9 22q34 3 41 10q6 5 6 17q0 10 -2 23l20 20q22 21 29 34l27 -5q19 45 33 71q11 18 57 67q6 6 27 32q4 6 18 6q5 1 11 10q17 26 17 42v11q15 18 57 78q44 51 53 69q12 26 20 41h11l10 9v21l22 -7q7 6 7 11q0 8 -4 18l-13 9q33 41 79 43q14 2 29 5q27 6 44 6q15 0 38 -19 q-19 -23 -24 -30q-28 -35 -37 -45q-23 -24 -44 -44q-2 -3 -15 -28q-20 -36 -61 -79q-50 -52 -55 -57l-96 -119q-29 -27 -32 -29q-1 -2 -32 -52q-3 -4 -35 -30q-11 -10 -48 -55l-35 -35q-14 -13 -39 -59q-11 -18 -26 -25q-8 -3 -38 -14q1 -8 1 -15q0 -15 -16 -29q-11 7 -14 7 q-14 0 -34 -29l11 -22q-20 -21 -27 -27q-54 -54 -91 -99q-18 -22 -26 -50l-27 7l-31 -27l5 -23q-7 -8 -8.5 -8.5t-21.5 -3.5q-24 -3 -24 -23v0l4 -17q-19 -25 -26 -32q-12 -14 -24 -29q-36 -46 -48 -56.5t-40 -16.5q-9 -33 -21 -48q-4 -5 -72 -74l-28 -39q-35 -39 -46 -59 l-23 4q-26 -32 -42 -72l-24 -30l-13 -22l-23 -16q-4 0 -15 -23q-20 -3 -56 -14q-3 -1 -10 -1q-5 0 -36 5q-19 1 -42 10z" />
<glyph unicode="0" d="M69 505l9 4q13 0 25 6q-10 23 -10 36q0 4 2 15l-19 -10q-2 24 -2 42q0 37 16 57q10 13 40 26v7l-11 13q7 22 56 105q39 66 57 66q6 0 15 -2q11 17 25 23l-8 15q15 11 23 17q46 35 79 53q29 16 54 31v5l6 7l22 -13q25 15 33 19q44 23 72 45l3 -3q8 -1 9 -1l30 5l69 3l35 5 h1q8 0 57 -29q2 -2 26 -2l3 -3q2 -42 27 -43q2 22 11 31l88 -24l-5 -28l31 -5q18 -24 56 -53q29 -43 42 -62l-4 -34q28 -4 51 -79q11 -27 13 -51l-20 -4q11 -9 16 -26l12 -3q10 -40 10 -62q0 -11 -2 -20l-11 -53l3 -18v-1q-4 -12 -22 -63q-42 -3 -42 -28q0 -15 12 -32 t12 -23q0 -3 -18 -42q-32 -79 -35 -84q-3 -4 -44 -42l-28 -33q-101 -56 -108 -64q-9 -9 -16 -30h-32q-12 -14 -38 -26q-26 -13 -48 -28q-9 1 -15 1q-7 0 -40 -11q-2 -1 -4 -1h-3q-42 8 -55 8q-9 0 -24 -17q-24 5 -32 6q-41 7 -94 25l-1 -5l-3 -2q-19 8 -34 8l-2 3l-3 10 l-25 -9q-18 14 -43 22v5q-14 1 -19 3l-22 22q-25 22 -38 35l-17 5q-12 23 -12 39v13q-8 11 -15 11q-9 0 -21 -12q-12 19 -42 49q-6 6 -28 72l-18 35l-6 24l-8 18l-4 30q-8 30 -8 34t7 31l-4 24q0 3 5 12zM297 251q-6 -13 -6 -20q0 -12 11 -27q4 -7 13 -7q10 0 29 10 q16 -18 41 -29q45 -21 68 -27l-131 -25l125 -13q21 10 37 11v2l-3 2v6q32 -15 46 -20q10 -3 56 -5q42 -6 46 -6q6 0 58 16q84 13 94 19q6 4 46 39l24 16l29 37q40 37 42 39.5t8 17.5q3 11 11 43l22 15q-2 13 -2 23q0 6 13 42q1 3 1 7q0 11 -12 32q18 10 27 22l-24 21 q4 28 4 53q0 20 -1 48v24q1 65 -6 65l-25 59q13 35 13 39q0 18 -17 18q-11 0 -27 -17q-7 21 -26 40q4 13 4 22q0 8 -11 21q-23 -8 -34 -8q-20 0 -37 25q2 11 2 19q0 14 -15 22q-3 2 -24 4q-13 2 -20 13q-24 10 -31 17q-14 11 -15 11l-47 -5q-13 0 -58 7q-15 2 -28 2 q-29 0 -91 -10l-15 -12q-14 0 -30 -8q-7 -3 -18 -7q-67 -25 -82 -41l-27 -28l-33 -24l-30 -56l-35 -36l-8 -26l-29 -53l-11 -66q-16 -54 -16 -63q0 -90 8 -117q5 -16 55 -83q72 -69 92 -90z" />
<glyph unicode="1" d="M673 1121q-3 -16 -3 -53v-13q1 -44 -56 -68l-82 -32l103 -47q7 0 31 -33l-3 -2q-24 -2 -24 -27q0 -26 29 -35v-13q0 -21 -19 -34q-1 -14 -1 -28q0 -8 1 -19q3 -26 -3 -67q18 -49 18 -53q0 -2 -10 -53q-1 -5 -1 -10q0 -4 13 -49q-6 -25 -7 -44l-10 -19q7 -9 8 -11 q5 -12 4 -56q0 -13 3 -24q1 -5 1 -6q0 -4 -5 -19q-2 -8 -2 -17v-13q-25 -18 -25 -34q0 -14 25 -33v-16q0 -17 5 -67l1 -26q1 -17 1 -25q1 -8 1 -10q0 -8 -4 -11q-7 -7 -75 -40q-49 -11 -60 -11q-8 0 -19 9q-1 12 -1 16q0 5 3 35q1 11 1 33l23 18q-2 12 -14 26q-2 3 -2 7 q0 13 18 37q-14 22 -14 41q0 32 2.5 42.5t16.5 37.5q6 11 6 27q0 4 -10 41q-1 4 -1 11q0 26 6 30l16 10q8 6 8 20q0 7 -22 59q-2 4 -2 40q0 10 4 33q0 3 -16 37q-9 18 -9 51q0 22 16 183q1 13 1 32q0 32 -9 77l-32 3l-4 -5h-68q-5 8 -5 19q0 13 4 19q4 5 60 28q19 8 34 22 q41 36 82 71q22 20 42 20q11 0 31 -12z" />
<glyph unicode="2" d="M142 27q19 10 30 26q8 11 43 13q9 33 19 42.5t39 12.5l7 15l19 9l-7 28q58 53 93 94l20 22q15 32 33 49q8 8 32 35l23 25l12 29l20 30l13 35l8 19l9 28l11 12l47 78l55 81l8 28l12 26q3 7 5 39q1 23 7 47q2 11 2 18q0 4 -13 28q-11 21 -14 41l-50 30l6 37q-15 12 -35 19 l-6 -23q-125 104 -192 104q-37 0 -78 -46q-17 -18 -23 -25q-3 -3 -21 -37q-3 -7 -10 -7q-3 0 -48 24q7 18 16 31q10 12 20 30h19l7 12q18 2 37 16l25 14q29 23 36 26q39 17 103 17q31 0 70 -8q14 -28 27 -28q11 0 25 22q11 -10 16 -27q3 -10 16 -10h9l16 13q30 -15 41 -17 q18 -5 35 -20v-12q65 -31 98 -76q10 -15 8 -19l2 -50q7 -27 7 -29q0 -11 -13 -37l-22 -5q5 -23 5 -35q0 -18 -7.5 -32.5t-36.5 -51.5q-10 -13 -41 -65l-61 -89q-33 -62 -34 -63t-10 -4q-10 -22 -33 -52l-22 -35l-23 -25q-76 -112 -80 -125h-5q-13 -23 -35 -55 q-20 -32 -22.5 -35t-19.5 -13v-26q20 0 27 -1q19 -2 26 -2q2 0 23 4h2q1 0 49 -7l38 -10l63 6q24 -7 56 -7q8 0 21 -2q11 -2 17 -2q2 0 29 5h5q7 0 15 -2q37 -8 51 -8q2 0 30 6l34 -9l26 3l47 -4q7 0 38 11q19 6 36 27l31 -9q2 -14 2 -25t-18 -36q-18 -24 -27 -50 q-18 0 -29 -2q-13 -2 -32 -19q-29 -27 -46 -25v0l-30 6l-29 5q-40 10 -63 10q-12 0 -33 -1h-14q-9 0 -38 4h-32q-28 5 -35 6h-1q-13 0 -35 -3q-23 -3 -31 -3q-4 0 -28 2q-11 1 -32 2l-19 18l-9 -9l-17 5l-3 -3v-8l-11 -3h-1h-14q-6 1 -12 1q-3 0 -15 -1h-28v26l-35 2v-19 l-6 -7q-11 1 -19 1q-5 0 -50 -14q-6 -2 -45 -6t-50 -4q-28 0 -32 14v1z" />
<glyph unicode="3" d="M310 1156q21 -3 27 -5q25 -7 27 -7l24 2q50 -1 66 -1q17 -1 43 -8l68 2l40 -5q30 1 40 1q12 1 77 36q9 -14 9 -22q0 -3 -12 -45q-4 -28 -5 -30.5t-20 -38.5q-20 -38 -76 -111l-64 -102q-5 -6 -26 -29q30 -13 54 -13q8 0 15 1q19 2 23 2q1 0 39 -8q45 -2 55 -6 q11 -5 31 -22q13 0 23 -1q8 -1 52 -24l62 -27l41 -58q15 -16 18 -43l-27 -28q17 -18 20 -24q6 -15 6 -88q0 -19 -11 -62q1 -32 -13 -71q-7 -17 -12 -21q-10 -7 -21 -13l-31 -63q-21 -28 -28 -47q-13 -39 -20 -45l-35 -31l-9 -28l-48 -43q-31 -43 -47 -59v-13h-5 q-26 -26 -56 -35q-10 -16 -14 -18l-26 -17q-4 -3 -14 -12q-71 -62 -125 -65q-10 -29 -39 -47q-4 -2 -17 -7q-51 -19 -55 -19q-10 0 -34 17l-42 -3q-11 13 -11 24q0 33 75 43l23 14l24 1q53 27 69 30q20 3 24 5q4 1 27 18q7 5 28 16q17 8 61 41l5 2q13 17 15 19q7 4 36 6 l-6 26q32 24 71 69h7l6 6q-7 15 -7 26q0 4 13 20l19 34q35 48 41 62q3 8 21 58l5 24q5 15 5 27l8 22l1 12l3 14q-1 3 -9 8q-1 7 -1 10q0 8 10 44q-16 15 -17 21l-6 27l-14 31l94 25l-45 22l-17 19q-7 7 -32 11h-14l2 16q-12 71 -19 72v-2q-14 -34 -20 -88q-44 34 -68 46 q-3 25 -13 38h-5l-15 -15h-12l-13 -12q-14 9 -36 9l-17 2l-30 -2l-22 4q-38 1 -42 1q-11 0 -30 -16l-42 -27l-25 -16l-27 -8q-33 -13 -39 -13q-10 0 -25 3q8 20 10 27q11 31 23 37q10 5 34 8q12 35 21 41q2 1 41 20q15 6 30 28q5 7 12 32q2 11 24 26q4 22 7 46t9 31l33 37 l14 35q26 53 27.5 56.5t3.5 23.5q-17 11 -39 11h-45q-5 0 -22 5q-19 6 -81 8l-86 10v0q-10 0 -43 -22q-16 -11 -29 -11q-24 0 -24 20q0 19 40 43l21 14l56 28q6 4 21 21z" />
<glyph unicode="4" d="M2 521q4 30 11 44q5 7 25 19l36 28l24 12l39 35l23 10l49 34l41 19l33 26q25 10 37 19q7 6 38 36q7 5 42 21l39 37l27 16l16 26l26 19l26 44l26 35q17 27 18 28t18 9q13 8 30 35q1 2 16 22q15 17 35 54q14 26 43 26q11 0 25 -11q-2 -9 -2 -16q0 -5 5 -15q6 -10 7 -38 q4 -31 4 -37q0 -9 -1 -20q-3 -29 -3 -43q0 -3 5 -30l-6 -23l-3 -36l-7 -25l12 -62q-2 -40 -3 -75q-1 -14 -21 -74q11 -22 15 -41h37l11 -17q23 24 31 24h1q14 0 32 -4q18 -3 22 -3q7 0 40 6q15 3 31 3q40 0 99 15q42 16 49 16q3 0 16 -6q20 23 36 23q21 0 21 -19 q0 -22 -39 -38q-16 -18 -49 -33v-23q-10 -6 -19 -19q-9 -10 -27 -10q-6 0 -18 -1q-3 -1 -5 -1q-16 0 -49 36q-20 22 -35 22q-2 0 -51 -19q-52 -37 -59 -37l-51 7h-2q-13 0 -20 -16q-10 -21 -10 -49v-79q-4 -56 -4 -60q0 -9 8 -24l-19 -14l4 -24l-10 -11v-5l26 -17 q0 -23 10 -71l2 -20l3 -25l-1 -48q0 -7 2 -24l-8 -3q-4 -13 -9 -19q-2 -2 -30 -15l-39 -26q-11 1 -26 -4q-17 -36 -40 -36q-25 0 -25 32q0 17 25 35q-1 8 -1 15q0 8 10 32v28q24 45 24 51l-1 15l-1 56l-8 26l55 99l-52 30v1q0 5 3 27q2 14 17 33l-4 56l-21 -5l-2 3v16 q0 10 -5 22q-46 3 -56 3q-6 0 -63 -9l-27 5l-22 1l-35 2l-24 -7l-27 49l-25 -46q-6 -7 -19 -7q-10 0 -65 9q-15 23 -25 23q-5 0 -33 -27q-8 -7 -18 -7q-13 0 -39 3q-14 2 -27 2t-22 -2q-19 -5 -22 -5q-1 0 -5 1h-66zM599 607l13 14v4h39q8 37 8 62l-10 62v0q-1 11 20 33 q5 13 5 21q0 6 -19 28q-15 17 -15 40l2 52q0 26 -19 26t-30 -39q-26 -5 -49 -30q-32 -36 -64 -65l-16 -17l-97 -81l-25 -22q-59 -43 -68 -56q-16 -24 -16 -43q0 -6 11 -17l44 53l43 -11h39q12 0 44 -13q3 -1 4 -1q5 0 27 11q3 2 6 2q4 0 17 -19l24 -6l23 -29l2 -1 q18 31 24.5 37t20.5 6q4 0 12 -1z" />
<glyph unicode="5" d="M143 -256q4 22 22 46l48 -4q21 17 29 19l35 7q12 2 53 41q11 -1 19 -1q15 0 30 13q18 14 21 37q22 13 134 110q30 20 32 23q2 1 24 38l23 20l24 25l32 20q7 6 13 35q20 18 25 29q2 5 9 39l25 40l10 29q25 49 27 62q1 8 1 52l10 37l-1 20l-2 30q-1 8 -13 28q18 2 32 12 l-3 12q-15 77 -21 77l-3 -9q-11 -34 -11 -65q0 -8 1 -25q-6 3 -17 26q-2 3 -54 41q-2 28 -11 35q-7 5 -23 6l-4 5q-10 -1 -17 -1q-8 0 -39 16q-10 7 -45 14q-26 5 -27 6q-22 5 -40 7q-20 3 -42 7v4q6 11 6 15q0 9 -15 24l-20 -35h-26q-46 0 -68 -24q-24 -26 -25 -27l-32 -13 q-32 -14 -38 -14q-10 0 -29 11q-1 4 -1 5q0 7 22 35q16 22 33 29q5 3 15 18q2 4 24 22q10 9 16 20q13 23 15 25q4 3 17 8q8 25 10 33q3 12 46 78q6 11 23 70q16 40 17 43.5t1 23.5q34 4 41 14q2 3 9 26q5 16 22 16h1h23l4 -1l50 6l30 -52q29 42 37.5 49.5t26.5 7.5 q27 0 31 -16l11 -41q2 -5 5 -5q2 0 46 69l36 -1l35 5l23 3q31 22 39 25q10 3 34 4q6 -21 6 -28t-37 -58l-28 -48l-23 -13q-26 -17 -48 -25q-23 16 -31 16h-80l-20 48q-6 10 -15 10q-5 0 -64 -57l-26 46l-18 -6l-21 -5q-13 -4 -19 -44l-4 24l-4 -31q-25 -5 -29.5 -10 t-18.5 -38q-39 -78 -48 -108q24 -5 31 -6q91 -12 101 -17q19 -8 20 -8l67 2q25 -5 57 -5l-3 -15q17 10 24 10q12 0 33 -18l32 -3v-17q0 -19 11 -38q7 -1 11 -1q8 0 26 14q7 5 12 5q4 0 25 -25q41 -34 49 -45q15 -21 15 -39v-2q0 -8 -2 -16l-1 -8l7 -45l-5 -34l-1 -29 l-13 -35l-3 -16q-7 -22 -12 -39q-2 -8 -22 -26q-2 0 -15 -39q-3 -9 -19 -38q-18 -32 -24 -40q-16 -19 -22 -27l-12 -27l-21 -25l-22 -32q-28 -32 -55 -64q-16 -17 -49 -43q-21 -16 -39 -36q-38 -42 -46 -48q-10 -8 -34 -25q0 -15 -3 -22q-3 -5 -35 -28q-14 -33 -40 -44 q-16 -4 -17 -5t-8 -12q-10 -9 -83 -60l-38 -23q-3 -1 -18 -20q-10 -3 -16 -3q-2 0 -16 4q-43 5 -100 21z" />
<glyph unicode="6" d="M291 537q-4 17 -4 28q0 13 10 30q3 5 41 52q2 2 32 68q21 44 63 72q5 11 28 35q26 52 28 55t27 35q29 37 54 61l16 20l7 7q11 22 35 38q1 14 12 25q2 2 11 16q2 2 56 54q22 22 34 44q14 24 20 28q2 1 28 13q11 14 43 45l30 34q29 28 33 32q6 6 59 37q45 29 49 29 q15 0 30 -27q-10 -16 -12 -23q-17 -42 -24 -45q-2 -1 -40 -11q-21 -7 -40 -39q-39 -2 -66 -37q-18 -26 -21 -28q-4 -8 -40 -18q-12 -29 -55 -77q-29 -31 -56 -41l-11 -31l-98 -115q-23 -27 -48 -63q-28 -39 -33 -51q-4 -7 -20 -27q-6 -22 -17 -34q-10 -10 -23 -30h-4 q-19 -26 -32 -59q0 -1 -6 -13q-18 -35 -18 -59q0 -1 9 -32q-28 -61 -39 -98q8 -13 8 -18t-9 -25q-7 -17 -11 -67v-1q0 -8 1 -16q1 -5 1 -7q0 -7 -16 -47l32 -20q8 -36 24 -65q18 -31 26 -46q28 -6 42 -21v-7q1 -21 13 -28q17 4 29 4q4 0 31 -13q7 -3 26 -8q15 -4 30 -14 l13 9l18 -9h1q5 0 13 5q13 8 37 10q42 25 102 57l22 25q48 44 60 66q10 20 15 50q22 6 29 22l-20 27q10 10 10 17q0 5 -2 13q-1 6 -1 8q-2 16 -3 17l-12 18q-4 13 -22 29l11 39v27q0 42 -11 71l-8 -16l-30 -79q-15 34 -27 45q-9 8 -31 13q6 15 6 27q0 6 -7 14h-10 q-6 0 -30 -13q-2 -1 -4 -1t-29 8l-61 -5q-35 11 -43 11q-36 0 -57 -19q-15 4 -21 4q-3 0 -6 -1l-26 -6q-11 3 -11 20q0 14 98 79q87 28 95 28l46 -1h52l23 -4q16 -2 18 -3q8 -2 24 -24q18 12 27 12q40 0 54 -25q1 -1 11 -31q4 -13 20 -30h30q11 -26 29 -93l10 -30v-17l2 -32 q0 -3 -11 -59q-27 -52 -30 -58q-3 -5 -32 -40q-17 -38 -29 -52q-15 -17 -48 -31q-29 -61 -148 -120l-32 -21q-7 -4 -89 -27q-3 0 -33 -10t-51 -10q-3 0 -42 11q-63 16 -86 26l-19 9l-24 12v21q-32 22 -46 40q-10 14 -20 23q-15 14 -32 47l10 5q-24 50 -24 82q0 8 17 47 q2 4 2 11q0 4 -7 35l7 49l-7 32l9 16l22 44l14 24q15 34 15.5 34.5t11.5 8.5q13 9 23 18z" />
<glyph unicode="7" d="M185 -253q7 20 8 25q4 15 41 92l-5 3q9 12 19 27q24 33 26 39q16 27 40 40l-5 34q18 10 21 20q9 19 50 79q5 6 15 58l28 9v28q20 17 22 25l8 22q42 66 52 87q17 6 16 8q4 6 8 24q4 20 31 63l33 56l19 27l20 37l15 27q13 32 16 37q7 10 36 25l-6 33q16 16 22 26q1 3 40 85 l39 64l5 36q20 31 20 31.5t2 20.5q2 24 9 48h-188l-13 1v23l-25 5h-2q-20 0 -20 -27l-3 -4q-23 8 -32 8q-5 0 -44 -6q-5 19 -15 19q-12 0 -24 -26l-20 82l-37 -79q-43 0 -53 -4q-34 -11 -57 -26q-25 -16 -43 -17q-18 14 -18 32q0 3 63 69l60 40l22 25l44 17l33 13 q41 -8 48 -8q8 0 18 1q20 -14 25 -14l71 -5q39 -17 53 -22l-3 28q29 -9 38 -9q3 0 60 13l77 -6q2 0 11 1l13 11l9 -25l46 -11l12 34q22 10 29 13q30 10 35 15l19 20q6 6 25 6q27 0 27 -22q0 -13 -21 -29q-51 -53 -86 -142l-11 -15l-20 -29q-42 -44 -47 -53q-6 -11 -12 -37 q-11 -5 -22 -22l-23 -30l-6 -22q-20 -32 -20 -44v-8q-22 -11 -25 -18l-10 -27l-12 -22l-29 -58q-21 -18 -23 -21t-12 -24q-3 -7 -36 -59q-13 -21 -20 -39q-14 -31 -43 -76q-10 -21 -32 -38q0 -20 -2 -24q-5 -10 -46 -85q-45 -71 -52 -91l-24 -6l2 -27v-3q0 -13 -6 -23 q-4 -6 -31 -24q-11 -8 -13 -19q-1 -3 -2 -35q0 -2 -24 -48q-4 -7 -13 -44q-7 -25 -16 -34l-15 -13q-8 -5 -8 -25v-29q1 -8 -12 -20q-19 -18 -20 -21l-4 -30q-16 -36 -29 -49q-5 -5 -21 -18q-18 -5 -33 -7q-31 -21 -42 -25q-6 -1 -40 -10q-9 8 -9 17q0 16 26 58q21 34 26 39 q7 7 32 8z" />
<glyph unicode="8" d="M238 404l17 -8q11 13 11 21t-11 17q5 22 8 25l33 35q30 32 63 52q39 27 44 27q10 0 26 -8l6 7v17q23 13 39 34q-25 9 -34 12q-17 6 -19 8l-41 53q-3 5 -28 10l6 25v2q-1 4 -23 45q-2 4 -2 12q0 12 5 30l30 4q5 9 5 26l-21 17l20 28q32 46 63 75q86 80 99 90q40 30 68 39 q2 1 17 10q28 16 53 20q18 3 22 4q8 3 12 3q2 0 13 -7q5 -4 55 -20q9 0 35 15q11 -19 34 -32q30 -19 51 -25l-12 -46q15 -5 23 -5q4 0 12 2q10 -37 10 -41q0 -2 -1 -8l-11 -7q13 -20 13 -39q0 -29 -7 -45q-30 -69 -39 -80q-12 -16 -45 -32q-10 -6 -14 -42q-20 -18 -72 -46 q-5 -2 -5 -7q0 -4 3 -10q23 -7 55 -23q24 -12 43 -20q9 -21 11 -28q2 -5 22 -18q8 -5 27 -32q15 -20 16 -27q0 -1 -4 -30v-6q0 -34 39 -49q-4 -24 -4 -43q-1 -36 -10 -52l-19 -38l-10 -25q-26 -34 -32 -40q-14 -12 -35 -29l-32 -21l-39 -49l-42 -30l-24 -23l-28 -16 q-30 -22 -55 -28l-22 -27q-25 -1 -30 -3l-65 -24q-9 -3 -18 -3q-2 0 -37 4l-38 -3l-44 24q-34 -9 -35 -9q-18 0 -91 37q-11 30 -21 38q-8 8 -33 14q-17 44 -20 86q-2 28 -13 68l-1 4l13 47l4 20l16 25q13 33 19 42q5 7 26 30zM276 236q8 -24 12 -30q3 -3 25 -10 q27 -25 53 -49q27 -23 74 -27l14 -18l18 5q14 -26 26 -30q7 -2 25 -4l15 24q26 -3 35 -5q18 -3 28 -3q15 0 40 21q23 5 40 25q20 4 29 9q3 2 36 36l25 17q13 37 35 74q16 -3 22 -3q19 0 19 20q0 16 -31 24q5 15 5 21q0 4 -7 37q-2 13 -2 27t1 33q-24 8 -28 13q-30 39 -49 55 l5 29q-26 8 -29 17q-2 4 -3 4l-20 -5h-4q-7 0 -53 26q-13 15 -19 15h-5h-7l-61 1l-10 -17l-3 4q-32 -8 -105 -42q-23 -11 -44 -30q-35 -33 -41.5 -41.5t-17.5 -41.5q-22 -34 -27 -49q-2 -10 -4 -50l-3 -24l4 -34q-12 -21 -13 -24zM495 783q-89 -19 -89 -27q0 -9 93 -26h11 l28 21q19 -13 39 -18v-17l5 -5q11 1 27 8l70 -87q34 69 56 93q11 31 19 35q2 2 21 11q15 8 25 41q2 9 6 57q1 18 4 40q-8 5 -15 17q-4 7 -33 39q-20 25 -27 27l-32 16q-29 22 -51 29l-19 -25q-12 2 -21 2q-6 0 -35 -13q-3 -1 -22 -6q-65 -15 -74 -74q-11 -13 -14.5 -20 t-11.5 -38q0 -22 40 -80z" />
<glyph unicode="9" d="M141 -258q6 9 25 14q71 16 150 108l19 -4q24 15 28 22l21 33l44 41q18 26 21 29q9 7 28 18q2 16 4 18l46 39q3 15 8 22q23 27 31 37l22 26l29 44l19 23q18 36 21 39q9 9 30 19q7 28 17 43q4 6 46 57q17 21 17 34q0 6 -8 15q12 18 24 53l12 31l1 25q0 2 15 25q19 28 19 56 q0 9 -6 26q11 15 13 27q8 38 9 44q3 11 3 15q0 6 -6 25q-5 18 -5 38q0 16 6 53q-18 9 -22 14q-3 4 -21 46q-9 18 -28 32q-17 12 -39 28q2 10 2 18q0 15 -27 30l-27 -15q-19 8 -26 10q-30 9 -44 19l-12 -12q-18 11 -31 11q-16 -12 -26 -12q-2 0 -8 2l-3 -3l-5 15l-4 -4 l-5 -21q-19 -9 -60 -30q-18 -10 -49 -39q-42 -36 -55 -54.5t-23 -58.5l-24 -14q1 -17 8 -27q3 -5 3 -10v-1l-3 -37v-1q-2 -15 22 -49q9 -13 20 -40q3 -6 20 -20q24 -28 32 -34q15 -11 28 -24q0 -6 30 -5q16 -29 55 -29l61 1q29 -9 39 -9q24 0 31.5 2.5t19.5 14.5l24 -4 q17 -1 32 -11q-23 -37 -42 -50q-80 -57 -182 -55l-20 -2q-31 11 -35 11q-2 0 -26 -6q-2 -1 -5 -1q-10 0 -34 9l-12 21l-27 -6h-1q-27 9 -35 13q-11 4 -30 28l-14 16q-26 30 -29 44l-10 46l-20 81l3 29q5 51 6 57q2 5 27 43l15 28l26 28l8 27l12 7l17 16l35 28q17 26 21 31 q3 3 57 41q25 21 92 60l31 18l29 22q30 18 47 33q15 -2 26 -2q5 0 38 10l22 -8l33 -9l19 -9l82 -19l22 -23l37 -22q35 -29 41 -37q2 -4 6 -37q2 -3 3 -8q1 -2 12 -17q18 -32 22 -81l4 -20v0q-1 -6 -18 -38q-9 -16 -9 -36q0 -9 4 -34q1 -4 1 -7q0 -4 -1 -7q-10 -46 -10 -47 q0 -2 7 -7l-22 -16q0 -15 -6 -28l-9 -24l-25 -41q-12 -30 -20 -41q-6 -8 -9 -18q-3 -11 -22 -21q-6 -38 -8 -41l-21 -32q-6 -4 -15 -44q-23 -10 -22 -15q-1 -1 -8 -23q-5 -21 -86 -129l-20 2q-9 -17 -13 -22q-11 -15 -11 -17l-1 -29l-71 -70l-12 -22l-41 -47l-24 -35 l-40 -34l-17 -27q-39 -42 -42 -45q-10 -10 -34 -15q-7 -27 -24 -46q-30 -34 -41 -40q-11 -7 -40 -13l-3 -16q-18 -11 -24 -15q-31 -23 -47 -27l-24 -7q-28 3 -33 3q-6 1 -16 15q-22 14 -26 17t-4 10q0 20 17 20h9h9h13z" />
<glyph unicode=":" horiz-adv-x="437" d="M103 98v12q17 13 22 17q39 28 55 45q12 13 32 25q33 -27 58 -38q31 -14 44 -27q19 -20 19 -30q0 -5 -19 -45q-9 -19 -79 -61q-16 15 -20 21q-19 19 -49 41q-5 3 -25 33q-26 1 -38 7zM211 615q19 -14 86 -50q18 -10 30 -31q6 -10 6 -17q0 -9 -14 -24q-7 -16 -8 -22 q-2 -4 -14 -10q-3 -1 -17 -15q-8 -7 -40 -33q-22 19 -28 26q-14 15 -46 40l-24 28q-6 5 -32 6l-5 6q-2 1 -2 4q0 6 68 58q16 19 40 34z" />
<glyph unicode=";" horiz-adv-x="437" d="M65 -313q-1 4 -1 7q0 4 7 8q28 21 38 21q3 0 5 -2l1 -1h21l11 18q25 6 53 26q2 17 8 23q7 8 27 23q2 18 2 24q2 28 13 49l-2 27l8 24l-5 8q-3 3 -5 18q-11 62 -37 75q-14 8 -21 18l-12 4q-3 14 -11 25l-43 -4l-7 7q2 19 57 62q19 19 44 47q36 -4 54 -19q23 -19 33 -36 l3 -21l4 -26l8 -27l2 -17q6 -36 6 -43q0 -10 -14 -31q-3 -6 -3 -15q0 -8 1 -14l5 -37q-1 -14 -21 -55q-9 -17 -30 -38v-8l8 -7v-5l2 -3q-19 -25 -24 -33q-24 -37 -59 -65q-22 -18 -33 -18l-38 1q-2 0 -29 1q-15 0 -26 9zM104 520v10q19 14 25 18q32 24 81 68q22 -16 91 -54 q31 -21 33 -46v-1l-12 -24q-12 -24 -27 -34q-33 -23 -43 -32q-9 -7 -13 -7q-5 0 -38 34l-34 27l-24 28q-6 5 -32 6z" />
<glyph unicode="&#x3c;" d="M81 540v8q23 9 58 10q18 1 27 11q9 9 18 40q31 7 99 33l10 41q33 9 47 14q9 4 51 37q47 23 51 26q8 8 17 27l49 -7q14 16 18 26q5 16 12 34h42q9 32 16 35l38 19l74 46l41 15l25 20q36 23 42 29t22 33l51 -6l15 60l74 -6q12 30 22 43q18 22 77 44q-6 -22 -6 -26l-3 -111 q0 -7 -7 -16q-6 -10 -58 -26q-27 -9 -49 -35q-21 -24 -33 -37l-45 5l-23 -30l-33 -5l-18 -35l-35 -7l-17 -29h-41q-16 -18 -50 -38q-7 -4 -20 -31l-39 4q-12 -42 -24 -49q-7 -3 -61 -6q-16 -9 -41 -23q-20 -12 -21 -13t-26 -38q-8 -14 -42 -24q-16 -28 -31 -28h-4 q-9 2 -27 4l-58 -62q32 -14 70 -15q9 -10 39 -53l42 -2q11 -12 21 -26q17 -25 46 -25l27 1h1q15 0 19 -9q13 -55 16 -65l82 13l45 -75l47 4l13 -39l46 5q23 -23 70 -52q10 -6 27 -38q20 -4 44 -5q24 -4 40 -41q20 -4 27 -5q29 -5 42 -11q3 -28 10 -40l31 -12q9 -33 9 -39 q0 -3 -16 -45v-11q11 -16 18 -31q-49 19 -62 32q-12 11 -22 36q-9 1 -15 1q-4 0 -9 -1q-7 -1 -10 -1q-4 0 -40 44q-7 7 -73 25q-12 2 -40 51h-10q-20 1 -30 5q-11 5 -23 28h-37l-19 33q-35 12 -43 24q-15 24 -25 34l-52 -10l-18 42q-27 5 -36 6q-53 8 -59 19q-6 8 -11 44 q-17 -1 -30 -1q-20 0 -30 9q-2 1 -38 49q-9 8 -56 11l-14 37q-29 5 -43 10q-7 3 -45 27l-31 16l-40 43q-3 7 -39 27z" />
<glyph unicode="=" d="M166 424q0 21 2 52l-1 29q0 5 4 21q38 -1 118 -8v-3l14 -14q20 18 31 17h1l59 -3h22l24 -5l22 9l57 -44l30 44l3 -4q5 -6 18 -15q37 21 45 20l71 -5l44 2q7 0 27 -4l13 7q23 -3 24 -3q11 0 27 2q15 -14 21 -14q1 0 41 18h39l15 1q37 0 59 3q13 -15 13 -19l-3 -41l6 -29 q0 -3 -7 -13q-13 1 -23 1q-5 0 -11 -1q-31 -7 -32 -7q-7 2 -18 22q-25 -18 -39 -17h-1q-29 -1 -46 28l-17 27l-68 -51l-35 49l-54 -48q-2 0 -7 9l-9 -13l-55 50l-22 -25q-13 -25 -23 -25h-1l-44 12h-1q-5 0 -12 -4q-7 -3 -8 -3l-42 42l-41 -43l-34 6l-18 -5l-34 -3l-32 -2 q-17 0 -27 -6zM178 788h20q23 0 28 -8l32 -45l41 51l5 -6q9 -9 32 -16l26 16h19h30l13 -50l16 29q12 22 20 22q3 0 7 -1q19 -3 34 -3q2 0 57 6l49 -18q24 14 29 15h19l44 1h3q7 0 31 -9h2q2 0 5 1q21 5 33 5h39h8h10h10q17 0 36 -16l15 19q21 2 28 2q54 5 83 10q9 -11 9 -23 v-15q-1 -45 -2 -74l-25 -4q-24 -3 -40 -3q-12 0 -29 9l-6 -4l-46 26l-22 7l-32 20l-37 -47l-37 41l-53 -40q-2 0 -8 11q-29 -18 -38 -18q-7 0 -39 40l-55 -38l-2 1l-18 12l-6 -10l-46 47l-40 -47q-33 50 -39 50q-5 0 -44 -32l-32 -9l-37 -13q-7 1 -20 17l-19 -22 q-33 58 -44 58q-18 0 -25 -51v2q0 2 -4 8q-1 1 -1 3q0 4 2 12q4 10 4 21q0 4 -1 9l-3 23q1 10 11 28z" />
<glyph unicode="&#x3e;" d="M96 1185q44 -17 57 -30q12 -12 24 -44h45q24 -42 38 -51q6 -3 66 -19q7 -1 17 -17q14 -23 25 -39l40 -3l21 -31h37q10 -24 19 -33q2 -2 30 -17q5 -2 19 -24q4 -6 17 -23l54 10q8 -32 22 -41q8 -5 63 -12q36 -8 37 -57l51 -2q14 -12 29 -32q13 -17 29 -33l46 -4l15 -37 q29 -5 61 -21q54 -29 56 -30t20 -20q33 -35 60 -52v-8q-24 -8 -60 -9q-32 -4 -42 -51q-30 -6 -99 -33l-10 -41l-33 -9q-17 -5 -19 -7l-47 -35q-47 -23 -51 -27q-8 -7 -17 -26l-48 7q-15 -16 -19 -26l-12 -34h-43q-7 -26 -10.5 -30t-35.5 -20l-83 -51l-30 -9l-34 -24 q-36 -24 -42 -30q-8 -10 -22 -33l-49 7l-19 -61l-70 7q-24 -46 -30 -51q-2 -4 -28 -15q-12 -4 -43 -21q8 28 8 41q0 9 -1 41q-1 12 -1 28q0 32 9 42q8 9 25 15q54 20 62 26q12 9 52 57l48 -3q16 25 23 27q4 5 32 7l17 34q28 2 37 11q8 7 16 28l41 -4q18 22 40 34q16 8 31 35 h40q7 40 21 47q9 4 63 7q4 1 35 19q24 14 24 15l26 38q5 9 14 13q29 13 33.5 16.5t18.5 21.5l39 -4l59 62v2q-23 9 -62 15q-26 9 -46 50l-42 4q-12 13 -16 18q-26 33 -37 32q-41 1 -65 9l-13 66l-83 -14q-29 52 -47 77l-43 -6l-14 40l-45 -6q-21 23 -73 56q-10 7 -23 39 q-27 4 -36 6q-26 3 -35 15q-5 7 -16 31q-38 3 -63 11q-6 20 -7 27q-4 16 -10 20q-8 6 -27 11q-10 27 -10 46q0 5 3 12q16 32 16 35t-6 14q-6 9 -14 28z" />
<glyph unicode="?" horiz-adv-x="806" d="M417 1134q9 -10 15 -10l13 5q5 2 11 2t32 -4l61 3q39 -10 50 -14q12 -3 37 -23q33 -10 72 -22q8 -22 33 -55q25 -35 25 -62q0 -52 -55 -58l3 -26q-17 -15 -45 -50l-14 -13q-39 -37 -63 -55q-16 12 -23 12q-10 0 -28 -16l10 -17v0q-1 -17 -35 -48q-53 -49 -53 -73 q0 -34 30 -59l-16 -8q5 -28 23 -39q-19 -35 -52 -35q-18 0 -44 9q-29 7 -36 17q-1 3 -7 24q-2 10 -17 29q6 11 19 20l-4 19q12 18 35 35l20 33l16 20q15 24 24 33q8 7 18 16q24 23 78 65q28 24 60 47q3 30 20 65q2 5 2 10q0 38 -47 87l-8 14l-18 -6q-18 15 -33 20 q-34 10 -43 12q-18 3 -26 8l8 8v4q0 11 -15 11t-36 -22q-28 4 -47 4q-3 0 -51 -5l-34 2l-27 -9q-25 -5 -41 -17q-20 -12 -52 -32l18 -54q-23 -24 -42 -56q-17 -4 -42 -17q-16 -9 -25 -10h-3l-25 5q-9 14 -9 37t11 43q2 4 26 32l16 21l31 19q47 42 54 48q5 3 60 28l33 17 l35 6l41 17q52 2 76 8zM315 123l2 16q20 15 27 19q43 24 53 34t29 20q19 -17 76 -56q27 -19 36 -56q-10 -12 -25 -40q-1 -1 -31 -22q-23 -16 -40 -31q-22 20 -47 48q-30 31 -41 46q-10 14 -39 22z" />
<glyph unicode="@" horiz-adv-x="1607" d="M182 834h5l33 41q8 -2 12 -2q14 0 26 16q6 8 6 17q0 8 -2 19q33 39 53 49q11 6 34 16q3 14 8 22q3 2 46 30q59 41 75 41q4 0 13 -4l14 27q27 2 57 17q41 21 89 36q50 19 69 19q17 0 55 -9l17 24q11 -10 13 -10l62 12q31 -5 36 -5q15 0 30 4q20 5 22 5l44 -4l27 1 q35 -11 54 -12q23 -4 60 -27q82 -12 140 -67l-11 -30l5 -5h12q11 8 14 8q9 0 23 -21q-3 -15 -3 -24q0 -20 16 -20q1 0 22 7q3 1 7 1q29 0 48 -37q25 -11 31 -20q3 -6 10 -27q1 -3 15 -21q4 -6 14 -24q-41 -4 -67 -22q-9 -6 -9 -14t10 -15q2 -1 58 -27q22 -10 26 -18l11 -21 q25 -39 25 -48q0 -10 -16 -25l14 -7q5 -23 7 -64l2 -22l-91 -56l82 -61q0 -1 -16 -7l-2 2h-14l-12 -29q18 -29 19 -32q2 -5 2 -19q-22 -18 -30 -43q-19 -8 -36 -9q-28 -1 -30 -1.5t-34 -10.5q-7 -3 -14 -3q-3 0 -38 10l-48 3l-61 15q-59 4 -72 10q-19 8 -38 15v-10 q-23 -3 -31 -5q-42 -8 -52 -8q-7 0 -26 4q-22 -13 -27.5 -15t-41.5 -7q-79 -21 -121 -23q-57 -7 -73 -7q-33 0 -77 11l-12 17l-19 -11l-18 28l-35 -7q-15 25 -41 41q2 10 2 17q0 5 -25 39q-14 19 -14 61q0 40 7 58l22 53q20 56 42 56q9 0 21 -2l3 45q17 7 22.5 11t23.5 26 q22 27 42 27l40 -7h1l17 6l4 26q49 18 111 27l22 -23l27 18q18 -7 64 -16q22 -12 29 -12t22 6v4l59 7q-1 -9 -1 -16q0 -5 2 -12q-12 -26 -12 -29q0 -5 2 -19q2 -10 3 -54l2 -20l3 -44l1 -18l1 -54l8 -40q4 -58 8 -80q13 4 24 4q14 0 41 -1q4 -1 25 -9q1 -1 4 -1h7l2 -2 q2 -18 13 -28q29 22 48 22q2 0 22 -9q25 -3 74 -7v14q0 8 16 50q5 28 8 34h11q0 25 10 54q-21 27 -21 74q0 6 8 30l-5 42q0 7 24 40q2 3 2 7q0 40 -44 46q-11 14 -11 26q0 13 3 30q-29 28 -37 43q-7 13 -13 41q-10 2 -16 9q-12 13 -25 27l-23 31l-37 25q-28 26 -41 30 q-14 4 -20 20q-28 1 -47 7q-8 3 -85 44l-78 13l-54 11l-54 -3h-39l-47 -12q-29 -3 -35 -5q-13 -5 -37 -24q-16 7 -23 7q-13 0 -36 -14q-64 -37 -78 -43q-13 -5 -28 -6q-32 -47 -39 -40l-25 -10l-38 -38q-67 -62 -89 -94q-12 -18 -35 -53l-17 -4q-18 -28 -18 -49v-10 q-12 -10 -14 -27l-6 -5q-19 78 -26 79q-1 0 -7.5 -21t-8.5 -30q-5 -30 -22 -57l3 -9q23 -10 28 -19q5 -7 5 -24v-12v-21v-1q0 -6 -1 -14t-1 -9l2 -24l1 -17l7 -30q0 -30 1 -33q3 -8 11 -19q11 -13 13 -30q-16 -7 -16 -17q0 -28 26 -28q7 0 17 1l30 -35l-7 -32q19 -13 48 -36 l56 -36q51 -40 52 -40.5t15 -3.5l11 -3q7 -1 29 -6q9 -20 18 -25q32 -14 122 -45q16 -20 28 -23q4 -1 34 -2l144 -16q40 -5 56 -5q8 0 39 11l47 -8l20 1q44 0 63 7q63 27 95 36q6 -10 10 -10l10 5l16 7q12 34 13 36q3 5 16 16q7 4 23 20q50 -22 50 -53q0 -10 -25 -27 q-8 -5 -34 -21l-42 -19l-25 -13l-31 -11q-92 -37 -184 -37q-29 0 -58 19l-52 -27q-9 12 -15 23q-4 10 -25 18q-13 -11 -33 -15q-27 -5 -30 -6q-18 -6 -22 -6q-2 0 -81 19q-17 8 -20 8q-8 0 -20 -1t-34 -1l-18 17q-19 -4 -30 -4q-9 0 -54 13l-38 7l-45 13q-27 4 -32 6 q-2 1 -17 16q-12 12 -43 15q-16 48 -19 65q-16 62 -32 82l-8 9q-11 -3 -25 -99q-21 19 -20 33v0l4 29q-25 20 -35 22q-34 12 -39 18q-2 4 -19 30q0 14 -3 23q-19 52 -20 55l-1 25l-9 57l2 24l1 46l10 43l1 35l30 77l23 56q6 19 41 56q10 11 15 23zM605 455q14 -4 22 -17 q20 -31 86 -64q13 -7 42 -9q1 0 13 -5q17 -6 36 -6q10 0 79 3q84 18 90 22q7 5 16 23q12 27 12 45l-2 63q-1 39 -5 60l24 10q-4 20 -6 26q-7 23 -9 59l-5 35l5 27q0 4 -7 15q-8 -1 -28 -6q-10 -3 -17 -3q-9 0 -46 13q-45 7 -56 10q-22 5 -38 5q-9 0 -43 -12q-25 -1 -32 -2 q-11 -4 -27 -22l-20 3q-9 -10 -29 -21q-19 -10 -25 -22q-1 -3 -9 -24q-1 -2 -25 -25q-28 -26 -28 -61q0 -43 18 -76q14 -25 14 -35v-9z" />
<glyph unicode="A" horiz-adv-x="1993" d="M0 -274q7 13 9 15l29 18q11 8 40 48q3 4 23 19q11 8 19 23q-1 9 -1 16q0 21 27 45q38 36 46 48l55 100q1 1 19 6l4 4q-1 11 -1 19q0 12 2 15l25 33l99 154l2 10q-8 6 -12 6q-2 0 -11 -2q-4 -1 -10 -1q-8 0 -19 1q-6 19 -6 28q0 5 13 23q8 26 17 40q15 21 24 34 q20 0 28 -3l44 -15l3 2q3 11 3 16q0 8 -5 23q18 12 20 17l20 38q7 14 39 43q3 24 6.5 29t38.5 36q3 4 23 54q6 13 55 86l66 128l27 29q2 18 4 21t28 41q2 3 2 7q0 7 -2 16q9 8 19 28q9 19 19 34l20 -29q5 12 5 17q0 8 -8 24q10 24 15 30q19 28 19 33q1 1 1 22q0 3 11 22 q4 6 20 49q2 6 11 27l43 4l-4 13l-26 12v16q15 12 22 27l-11 10v4q15 14 29 39q13 24 23 40q-8 14 -8 23v7v10v21l81 56l19 -14q10 19 12 25q7 17 14 17t16 -4q5 21 20 31q20 15 36 15q30 0 33 -73q11 -48 12 -66q4 -31 26 -70q13 -52 13 -68v-24l-40 -21q9 -20 17 -25 q5 -2 45 -14q19 -6 40 -59q15 -37 15 -45q0 -6 -12 -25q16 -16 21 -20q25 -22 27 -27l12 -31l20 -50q3 -6 5 -33q31 -32 35 -66q3 -27 3 -28l22 -34l42 -84l-23 -14q6 -19 16 -28l15 -3l-3 -22q102 -97 105 -189q4 -22 43 -93q54 -102 60 -119q8 -22 22 -43l62 -137l-2 -29 q60 -32 60 -61q0 -14 -29 -28q8 -17 16 -21q2 -2 20 -8q14 -5 30 -37q8 -15 26 -72q43 -66 54 -86q-19 -15 -19 -32q0 -6 1 -15q-34 -15 -48 -18q-5 -2 -35 -3q-14 -1 -70 -24q-26 59 -31 84q-4 21 -19 45q-27 74 -27 83q0 7 1 16q-18 17 -21 30q-1 3 -2 31q-2 11 -2 15 q0 12 10 33l-30 27q12 15 17 20q10 8 10 14t-2 14l-48 -4q-24 32 -33 51q-5 12 -16 63l-15 35q-12 64 -18 76q-17 36 -56 36q-35 0 -39 -75q-8 -3 -10 -3q-11 0 -28 14q-29 20 -60 26q-15 2 -42 15q-36 17 -58 17q-9 0 -55 -10l-29 5l-32 -3h-27l-27 -4l-47 -1 q-30 -1 -40 -1l-15 -1l-62 14l-30 -6q-32 9 -35 9q-6 0 -48 -11q-31 -7 -55 -9l-28 32q-32 -6 -64 -23q-3 -2 -44 -8q-15 -2 -16 -2q-12 0 -30 3q-25 5 -44 5q-14 0 -50 -9q-21 -6 -44 -8q-11 -18 -14 -24q-15 -31 -39 -60q-17 -27 -47 -79l-18 4q-8 -8 -8 -15q0 -6 3 -21 q1 -6 2 -17q-19 -22 -21 -27l-48 -97q-13 -21 -28 -46l-9 -14l-55 -35q-4 -3 -4 -11q0 -11 23 -30l-15 -47q-24 -9 -33 -16q-14 -10 -29 -44q-29 -12 -37 -18q-14 -10 -21 -10q-3 0 -20 10q-4 3 -13 3q-6 0 -14 -1q-19 19 -42 26zM552 418q22 12 27 12q7 0 21 -13l31 4 l12 -21q21 7 57 7h89q25 -1 67 -15q44 -3 65 -7q21 -31 49 -31l63 31v0l34 -7h57l22 -6l29 4l27 -3l27 2l25 -7l59 10l46 3l89 9l74 -6q16 0 16 12q0 5 -9 34q-2 8 -3 24q-19 13 -28 30q-35 71 -40 71q-10 14 -15 33q-4 17 -16 36q5 26 5 44q0 10 -8 33l-35 -5 q-11 23 -13 30l-7 25l-22 31l-25 44l-11 19q-7 41 -26 74q-14 25 -13 44l20 9q-10 16 -25 16q-6 0 -14 -1q-10 21 -14 27q-23 34 -24 37l-6 39l-15 26l-15 35l-33 41l-18 58l-17 30q-13 27 -29 50q-25 -15 -34 -32q-17 -33 -16 -60h-6q-17 -29 -44 -67l-58 -110 q-16 -28 -21 -48q-18 -11 -23 -28q-19 -43 -54 -55l5 -28l-15 -7h-1q-19 2 -33 3l-8 -13l26 -16q-12 -39 -35 -79q-47 -90 -89 -116q-10 -6 -12 -32q-1 -19 -9 -36l-27 -50l-23 -25l-12 -28q-23 -37 -28 -50q-6 -18 -13 -35z" />
<glyph unicode="B" horiz-adv-x="1983" d="M262 217q16 2 23 5v18l-17 14q-2 22 -6 50q-1 6 -1 12q0 19 22 44l-3 3q-2 17 -11 27q-6 7 -10 24q-7 31 -7 47l7 79v45v24l14 16q-21 7 -21 10q6 76 6 77q0 14 -7 67l4 4l-3 50q12 7 27 10q8 2 17 8q-4 16 -18 28q2 9 2 13q0 11 -9 29l-20 -13q-15 34 -15 53q0 7 5 29 l-2 56v29l-4 20l3 42q-15 93 -15 102q0 14 8 29q4 8 5 25q10 9 10 17v2v4l4 26l-29 -3q0 21 -7 48l-4 27q-10 57 -10 88q0 21 6 46q-11 -3 -43 -4l-52 -11q-3 0 -12 3q15 40 17 40q22 12 31 20v5q20 4 26 6q25 7 31 7q2 0 28 -5q8 -2 16 -2q13 0 62 22q4 1 44 1q8 0 69 8 q5 1 7 1q14 0 46 -9q16 -5 30 -5q8 0 38 5q14 -25 24 -28q9 -2 34 -2l7 13q25 6 44 18q50 -6 90 -7q51 -2 120 -15h37l62 -7q23 -1 27 -2q11 -3 27 -18q19 3 28 3q20 0 127 -41q49 -15 56 -23q20 -23 20 -62q0 -47 -53 -125l-28 -45q-56 -49 -73 -72h-43l-4 -3v-31 q-21 -12 -27 -15q-51 -30 -88 -42l-36 -17q-39 -7 -47 -10q-8 -4 -19 -13q20 -10 31 -12q2 -1 67 -5q28 -2 68 -16q56 -19 85 -26q22 -4 43 -16q-4 -16 -4 -28q0 -15 27 -28q8 9 25 47q23 -1 49 -11q48 -19 65 -26q11 -2 19 -28l27 -12l3 -11l15 7l10 -11q13 13 25 13 q23 0 67 -28q79 -51 113 -75q16 -12 39 -41q-4 -9 -4 -13q0 -7 8 -19q12 12 20 12q4 0 86 -60l13 -19q20 -11 26 -15q3 -3 26 -35q30 -36 41 -56q-25 -21 -25 -40q0 -5 1 -13l34 5q20 -27 30 -50q5 -13 21 -76q22 -48 23 -68v-1l-3 -37v-39q-1 -20 -36 -57q1 -8 15 -15 q-1 -12 -1 -21q0 -5 1 -10q2 -16 2 -21q0 -6 -63 -92l-22 -16l-23 -21q-26 -17 -31 -21q-3 -4 -18 -31q-26 -35 -105 -66l-13 12q-30 -3 -42 -8q-12 -6 -28 -30q21 -2 21 -17q0 -6 -6 -14q-8 -11 -78 -24q-21 -4 -91 -36q-15 -6 -28 -11q-41 -15 -48 -19q-12 -6 -17 -6 q-6 0 -19 9l-30 -10l-9 -15q-20 -4 -26 -5q-30 -5 -40 -10l-26 -15q-39 11 -43 11q-5 0 -21 -15q-5 -6 -22 -8q-42 -7 -65 -20l-25 23h-6q-12 1 -25 5l-20 -28l-196 -6l-43 11l7 30l-28 6q-11 -13 -30 -19q-32 -10 -37 -10q-1 0 -75 17l-17 9l-34 -2q-24 10 -44 11 q-13 1 -53 4l-27 -3l-39 3l-91 4l-5 1q-46 -6 -55 -6q-52 0 -52 23q0 4 5 8q19 18 39 26l77 30q10 4 20 21q8 15 8 22l-2 28l88 25l-73 20q-16 4 -16 24q0 5 13 30l1 57v16q0 9 -17 45l96 41l-94 30q12 14 13 16q3 3 5 23q0 8 6 29zM341 1337h4l6 3q10 -20 26 -34v-168 l-5 -28q25 -6 33 -8t12 -2l23 2h1q1 0 35 -5q42 -2 86 -6q-4 -16 -4 -26q0 -32 15 -32q9 0 46 50v15l182 37q12 3 44 24l41 14l35 24q74 43 100 67q38 37 40 44l18 50q16 42 16 47q0 12 -18 28l13 30q-9 4 -13 4q-2 0 -32 -12l-44 48q-10 -1 -15 -1q-13 0 -38 6 q-10 16 -12 17l-100 19l-37 12l-32 -5l-19 2h-27l-37 9l-39 2l-34 2l-85 -12l-76 -7q-31 -7 -51 -7h-24q-10 -22 -11 -25l-7 -116q-1 -16 -26 -36l2 -3q6 -10 8 -23zM354 71l9 -33l31 5q12 -28 12 -49v-5q0 -12 -2 -28q-3 -15 -3 -16q14 -74 14 -78q0 -21 -24 -45 q-10 3 -18 3q-6 0 -14 -10q24 -16 55 -21q27 -3 49 -15l4 -20q17 3 29 19q34 -16 76 -24l34 -14l31 -4q122 -18 191 -18q58 0 163 22l20 -16q13 16 18 17l44 6q11 1 33 22q37 1 47 4l56 14q44 9 77 26q20 10 30 10q4 0 16 -4q9 11 26 17q113 49 160 92q10 8 88 50q5 3 21 33 q23 28 30 36q11 12 48 25l2 21q92 15 92 22t-95 18q15 29 20 39q1 5 12 54q6 17 7 30l-4 4l18 14q-11 17 -11 22v49l-20 36l1 29q0 30 -62 110q-24 32 -98 105q2 11 2 19t-7 15q-10 9 -13 9h-11q-20 9 -39 19q-38 21 -46 26q-6 4 -15 20q-1 1 -7 5q-9 5 -18 12 q-20 15 -41 21l-21 13q-17 9 -20 12q-2 2 -17 36q-2 4 -8 4q-3 0 -35 -14q-3 -1 -5 -1q-13 0 -29 9q-20 13 -48 23l-20 10l-90 27l-62 33q-28 11 -44 24q-34 -16 -40 -16l-56 18l-36 14l-41 6l-33 8l-19 3l-37 8q-85 8 -88 8l-53 -2l-82 3q-45 0 -91 -42q3 -24 13 -74 q1 -4 1 -9q0 -11 -9 -37h-2q-24 0 -33 -7q5 -35 7 -41q2 -5 21 -26q-4 -15 -5 -33v-2v-28v-8q0 -11 7 -54q2 -17 2 -32q0 -13 -2 -37l-5 -59l-2 -21l10 -38l2 -49q7 -41 7 -54q0 -19 -9 -65h-16l5 -50q26 -20 26 -40l-1 -67q0 -9 1 -29l-6 -6h-5l-4 -4v-6q-15 1 -25 1 q-15 0 -21 -9z" />
<glyph unicode="C" horiz-adv-x="2052" d="M146 643q-15 9 -15 21q0 5 12 50q4 27 25 99l43 3q-1 12 -14 39q-3 6 -3 15q0 12 25 81q8 41 25 75l33 55q14 -2 18 -4q15 -5 17 -5q7 0 20 11q13 2 17 6t7 16l-24 3l-10 36v0q0 10 30 40q7 7 16 20q13 22 18 27q17 17 24 36l7 7q18 26 29 34q6 5 41 28l3 -3l28 14l2 23 l129 103q7 6 30 18l27 18l25 7q39 27 44 27q9 0 29 -10l14 37l41 -8l3 19q33 10 44 14q36 14 72 17l30 9q35 7 39 9q9 4 24 18q14 -1 24 -1q12 0 50 13q15 5 33 5q15 0 29 -4q11 -3 14 -2l133 4q38 -2 70 -37q22 -24 27 -24q18 0 34 42q32 -21 54 -21q7 0 14 1l27 6l32 -11 q132 -34 170 -51v-30h-1q-16 -16 -20 -21q-37 -39 -49 -39q-10 0 -33 13q-57 23 -131 50l-13 33q-20 -4 -26 -6q-16 -5 -19 -5q-4 0 -65 21q-18 7 -23 14t-9 14q-33 -13 -42 -13h-57h-80l-25 3q-45 -7 -69 -17l-61 -7q-39 -8 -61 -12q-12 -2 -39 -17l-50 -23l-36 -25 q-109 -45 -147 -96q-25 -7 -59 -28q0 -12 -4 -23q-20 -10 -53 -43l-24 -22q-30 -41 -39 -46q-9 -6 -17 -6q-4 0 -12 1q6 -11 6 -14t-49 -83q-38 -40 -44 -49q-3 -6 -23 -53l-21 -50l-9 -29q-28 -49 -35 -73q-4 -16 -13 -60q-15 -59 -17 -65q-3 -14 -33 -20q3 -26 23 -43 q-10 -26 -10 -34q0 -22 8 -55q1 -3 1 -4q0 -9 -9 -13l-79 -30q-9 -3 -9 -11q0 -4 5 -11q15 -23 19 -34q8 -21 10 -22q22 -18 45 -37l17 -46q7 -15 9 -36h-6l6 -34l14 -4q11 -19 11 -31h3q3 -20 4 -26q5 -31 9 -38l18 -36q28 -73 28 -86q0 -10 -20 -10l10 -25q20 1 31 -3 q10 -4 19 -10q20 -23 38 -47l30 -27l23 -29q40 -22 55 -34q1 -24 16 -35q19 -14 48 -24l45 -27l34 -16l31 -16l33 -13l23 -17q10 -5 20 -17q14 14 27 14q2 0 116 -31q124 -1 130.5 -1t15.5 -6q17 -9 29 -11q14 8 17 13q8 7 12 7l12 -1l7 -1l81 11q19 1 90 20q37 -11 44 -11 q15 0 50 23l47 11q43 14 57 22l23 -5q13 -2 85 22q83 28 87 30q3 2 16 19l38 19q31 18 58 18q6 0 24 -6q1 26 9 32q5 5 34 17q32 19 36 19q7 0 21 -9q-4 -53 -21 -82q-9 -15 -14 -39q-3 -9 -12 -15q-8 -5 -84 -18q-35 -15 -47 -17q-7 -2 -54 -13l-44 -9l-47 -13l-42 -6 q-62 -19 -72 -19q-11 0 -31 1q-14 0 -41 1v-6q0 -19 -24 -19q-4 0 -8 1q-19 2 -20 2t-11 -2l-123 -28q-39 -8 -90 -10l-76 -4h-4q-9 -14 -25 -15q-46 -2 -79 -2q-21 0 -67 18q-10 4 -25 4q-13 0 -27 -18l-49 2q-18 28 -34 28h-3q-21 0 -37 -1q-16 -2 -18 -2q-38 0 -95 31 q-43 24 -96 46q-83 52 -110 65l-7 18h22v14q0 33 -25 36q-15 -17 -25 -17q-5 0 -35 25l-68 47l-21 29l-10 11l-35 52q-78 106 -104 238l20 12v19l-22 15q0 23 -9 43l-6 21q-11 17 -12 22q-1 4 -1 38l-4 44l6 20q-10 29 -10 38q0 23 15 44q2 2 8 37z" />
<glyph unicode="D" horiz-adv-x="2023" d="M143 1569q17 0 44 29h30q18 -1 22 -1l54 2q6 0 49 -19q2 -1 5 -1t20 9h11l187 6q8 1 24 -10q8 -6 27 -12l17 17q55 0 113 -8l3 3q17 -23 32 -23q14 0 27 24q28 -2 49 -2l140 -18l44 -1q33 -8 58 -10q4 -20 12 -22q4 -3 40 -6q11 22 23 22q2 0 20 -6l34 -1q10 0 34 -15 q32 -20 41 -20l21 6l92 -39q90 -19 101 -27q13 -10 15 -10l20 -3q23 -17 34 -24l42 -33l45 -28q38 -29 61 -40q-6 -22 -6 -31q0 -26 17 -26q14 0 31 7q19 -23 53 -55q23 -23 21 -29l7 -30l25 -69l2 -46l17 -62l3 -76l7 -32l-5 -76q-2 -58 -9 -89q-6 -26 -23 -72h-18 q-1 -4 -1 -7q0 -2 11 -22q1 -3 1 -8q0 -14 -7 -32q-8 -20 -9 -24q-15 -47 -29 -47q-12 0 -25 31l-22 -36l7 -12l-5 -20l18 -26q-16 -21 -43 -79l-25 -32l-4 -12l-45 -47l-7 -18l-29 -34q-16 -19 -21 -19t-14 9h-15l-13 17q-18 -20 -18 -31q0 -9 14 -26q-24 -23 -61 -47 q-21 -14 -33 -29q-31 13 -64 17l-4 -12q13 -18 17 -30q-19 -19 -68 -53l-68 -35q-8 -4 -33 -28q-23 21 -42 22q-7 -32 -18 -41q-5 -3 -62 -18q-6 -1 -15 -8q-37 -31 -39 -31h-22q-4 0 -28 -18q-5 -4 -44 -17q-7 -3 -18 -8q-59 -28 -84 -32q-27 -2 -66 -14l-96 -33l-66 -6 l-25 -8l-17 -2l-37 -5h-22l-42 -10l-57 -2l-79 -6l-18 1q-26 1 -40 3l-152 -6q-1 0 -9 -3q-3 -1 -6 -1q-26 0 -26 25q0 8 6.5 12t45.5 19q41 15 58 27q4 27 20 48q-3 32 -3 47l13 76v1q0 11 -3 24l-4 14q0 3 14 63q2 9 2 17q0 10 -12 37l82 23l-79 127l2 4q38 8 38 26 q0 11 -14 31q-9 -4 -17 -4q-15 0 -15 33l2 25v135q0 14 -2 24q-1 10 -1 12q0 16 17 43l-17 12v29l16 16q-19 19 -19 45v4v22q0 59 -3 84q-1 14 -1 23t6 22q12 -2 21 -2q13 0 13 11q0 3 -12 15q-9 13 -18 20q-25 2 -27 23v0l7 55l-8 198l7 7h8q11 32 11 43q0 14 -29 28 q-2 22 -19 90l-2 36q-8 27 -8 54q-1 27 -11 96q-22 0 -28 1l-6 1q-5 0 -22 -6q-11 -5 -41 -5q-6 13 -6 22q0 22 27 34q17 7 23 15zM356 1344h24q8 -20 13 -65l5 -22l-2 -64l3 -37q-15 -33 -15 -37t8 -32l-4 -73l1 -21l1 -33q7 -32 7 -38q0 -8 -5 -18l-26 8q-6 -12 -6 -19 q0 -18 15 -22q2 -1 11 -2t24 -6q-21 -21 -32 -29q-48 -36 -48 -58q0 -3 81 -127q-9 -43 -10 -77l-24 -11l5 -10l25 -9l2 -10v-143q0 -133 5 -142q1 -7 1 -11q0 -2 -5 -33q-1 -10 -1 -17q0 -18 11 -82q1 -6 1 -12q0 -9 -7 -21l-41 13q-11 -16 -11 -26q0 -33 37 -33h11 q1 -22 6 -44q4 -18 4 -66q0 -15 8 -74q-30 -21 -41 -48l-29 -12v-6l3 -4q10 4 12 4l54 -2q34 0 38 -1t19 -10l14 20q14 -2 19 -2l100 3q2 0 17 -7q10 20 19 25q14 6 42 6h10q56 0 71 6l27 12l40 12q88 36 108 48l32 9q54 23 60 25q4 0 23 1l53 29q36 8 39 12q1 3 2 12 q20 9 27 12q35 14 90 51q31 15 42 22q7 5 99 82l56 44l29 43l49 46q7 6 18 27q7 15 66 86q1 1 10 25q4 9 21 42q12 24 13 55q1 18 22 65q20 47 17 58l1 46l9 54q3 33 7 48q37 8 37 55q0 28 -37 45q-2 26 -12 71l-2 29q-12 36 -12 42q0 13 4 33q-20 18 -39 50q-29 51 -31 56 q-1 1 -4 28l-11 11q-16 0 -23 2q-10 1 -36 23q6 16 6 27q0 7 -9 19q-15 2 -27 2q-3 0 -27 -4h-2q-6 0 -61 45l-46 27l-30 24l-31 15l-71 37l-30 9l-26 9l-51 7l-38 11l-81 13l-61 13q-80 14 -85 17q-3 2 -20 17q-10 9 -15 9q-9 0 -24 -8q-11 -6 -19 -6q-1 0 -34 5l-41 1 l-106 7l-86 -3h-47h-10h-6q-13 0 -24 5q-27 11 -30 11q-1 0 -16 -6q-8 -3 -25 -5q-9 -16 -9 -21l3 -36l-8 -29q-4 -35 -11 -56l-18 6q-9 -15 -9 -24q0 -6 4 -10z" />
<glyph unicode="E" horiz-adv-x="2018" d="M143 1484q3 27 15 42h19q13 20 29 30q15 9 34 25q16 -6 24 -6q4 0 24 5q6 2 15 2q8 0 100 -9q14 -1 32 -1q9 0 22 4q34 -24 45 -25h13l21 -3q28 17 51 17q10 0 60 -18l42 -7l44 -11q2 0 16 5q13 5 23 4l206 -2l8 -12l55 -4l15 18q65 2 125 9q12 2 24 2t26 -2q32 -4 40 -4 q7 0 141 27l57 7q43 6 45 6q7 0 39 -7q-1 -17 -16 -35l-11 -12l-50 -27q-7 -4 -28 -22q-23 -19 -34 -18h-2q-26 2 -48 4q-9 1 -38 14h-9h-7h-49q-13 0 -62 6l-57 -5h-41l-62 -12l-73 7l-37 1l-22 2l-61 -6l-52 2l-24 -9l-113 6l-32 -5q-1 0 -24 7q-14 5 -86 5h-19 q-9 0 -39 -3l-32 7q-7 0 -22 -17q15 -28 16 -58q1 -26 2 -42q-20 -22 -34 -22q-3 0 -13 4q-3 -20 -3 -26t3 -10q5 -6 16 -14q9 -6 25 -19q-7 -31 -7 -39q0 -6 11 -63q21 -5 76 -10l66 -12l47 -2l39 -5q38 0 79 -6q17 -2 33 -2q17 0 30 3q30 5 40 5q1 0 39 -8q3 -1 7 -1 q8 0 52 3q11 1 26 1q26 0 74 2q74 2 113 10q3 1 7 1q9 0 32 -2q11 -1 33 -2v14q28 1 34 8l5 4l42 -55q16 28 21.5 34.5t21.5 17.5q25 17 34 17q12 0 28 -3q-2 -33 -8 -36q-1 -7 -27 -22v-27q-22 -12 -34 -29q-26 -7 -34 -7q-15 0 -27 13q-38 42 -43 42q-1 0 -36 -49 q-1 -1 -4 -1q-2 0 -6 2q-10 4 -29 9q-11 -6 -54 -10q-48 6 -54 6t-62 -7l-36 8l-42 2l-22 1l-73 -10l-71 11l-91 -2l-30 7l-36 -1l-30 1l-25 -7l-39 -2q-34 -4 -65 -4q11 -27 13 -60l4 -30l-1 -88l6 -56q-1 -7 -13 -24l-17 -5l-3 3q-8 -20 -8 -31q0 -5 3 -16l8 4 q19 -14 23 -23q2 -4 2 -32q0 -15 -19 -29q3 -22 17 -62q3 -8 3 -31v-19l-22 -11q-2 -12 -2 -22q0 -19 31 -36q-9 -15 -8 -18l9 -45l2 -39l4 -24l-4 -30l1 -37l-5 -22l-3 -64q-1 -25 -1 -26q0 -8 5 -23l-37 -22q0 -18 11 -43h6q12 9 17 9q8 0 21 -12q-13 -36 -13 -48 q0 -4 9 -32l1 -71l6 -83q0 -40 -53 -81q0 -28 7 -40q2 -5 15 -11q7 -3 24 -16l39 35h44l78 15l35 -3q52 0 54.5 -0.5t35.5 -17.5q2 -1 7 -1q16 0 40 19l3 1l3 2l27 -39l38 32q8 12 14 13h5l113 -8l38 -1h35q13 -1 14 -1q3 0 34 6q2 1 8 1q5 0 11 -1q60 -5 63 -5q1 0 40 5h16 l179 3l14 -1v0q1 -1 12 2q6 1 10 1q2 0 29 -7q5 -1 30 -1l12 -35l29 -5v34l2 3l10 5q29 -49 33 -49q3 0 57 44q12 10 25 10q11 0 27 -15q23 6 32 6q17 3 25 8q2 14 9 18q13 7 25 10q23 1 41 1q88 19 102 23q23 14 30 14q16 0 16 -23q0 -8 -9 -27q-9 -18 -14 -36 q-16 -8 -17 -13l-7 -21q-26 -33 -103 -32l-32 -6l-54 47l-71 -54l-40 8l-52 2l-36 6h-47l-55 5q-2 0 -14 -3l-14 10q-26 -15 -41 -15q-5 0 -71 12q-13 2 -63 2q-30 0 -49 -2q-29 -4 -39 -4q-1 0 -87 14q-17 -2 -18 -2q-8 0 -19 2l-16 -17q-22 4 -25 4l-105 -2h-42l-60 -4 q-5 0 -22 5l7 17q-25 0 -51 -8l-3 -27h-18h-4l-2 -1h-2q-2 0 -4 1q-22 10 -44 10q-18 0 -26 -3l-2 -1q-2 0 -31 35q-9 11 -19 11q-8 0 -72 -40q-15 -10 -34 -10q-7 0 -47 10q-3 1 -10 1q-6 0 -64 -9l-53 -2q-70 -16 -76 -16q-10 0 -33 6q-1 10 -1 17q0 11 8 29q5 -1 7 -1 q12 0 22 10q8 9 37 71l-1 56q0 1 3 4q14 19 14 20q-6 19 -6 23t1 9q5 59 5 138q1 25 13 72q3 8 16 17q9 5 9 18q2 22 5 32l-13 -25h-8q-4 14 -15 29v25l-1 43v1l22 29l17 54q3 7 43 25l5 2q-1 8 -78 27l33 15v13l-21 10q-5 18 -18 28q0 24 5 48l-12 90l80 59l-80 103l61 26 l-63 24l24 13q0 28 7 54q-11 6 -22 17q-6 7 -12 10q-4 33 -4 43q-2 40 -3 45q-1 7 -1 11q0 11 15 28q-5 11 -15 11q-3 0 -8 -1q-3 18 -3 32q0 16 17 34q-23 20 -23 39v124q0 23 -6 78q-6 56 -7 59q-2 2 -14 10v46l-34 -4v5l-5 3h-18q-14 0 -27 4z" />
<glyph unicode="F" horiz-adv-x="1543" d="M143 1546v10q12 9 33 13q16 15 48 31q44 23 56 23q8 0 27 -13q18 11 24 16q12 8 23 11q19 -19 49 -26q57 -13 74 -13h4l64 6l57 -50q35 43 40 43q10 0 30 -14q5 -3 12 -3l24 1l64 -11l42 4l42 -8l42 1l66 -2l29 8l57 -2l25 1h29l97 14q70 -6 84 -6q33 0 45 7q15 8 28 11 l162 33q1 -7 1 -12t-6 -18q-11 -26 -16 -33t-24 -23q-40 -33 -64 -63q-16 22 -26 22h-22q-2 0 -32 36l-1 1q-7 -1 -20 -40v-16q-27 10 -31 16q-13 18 -27 37q-1 2 -2 2l-62 -46q-3 -3 -13 -3q-23 0 -61 4l-42 3q-14 21 -30 20h-5q-20 1 -25 1q-13 0 -46 -10q-19 -6 -53 -6 q-14 0 -60 17l-27 -3h-29q-25 -10 -26 -10t-95 21l-25 30l-31 -43l-55 50l-16 -30q-15 -29 -45 -29h-2q-10 -1 -25 17q-30 36 -46 36q-20 0 -29 -53l3 -4l-93 -99l88 -26l-1 -30v-16q-1 -10 -17 -30l20 -20l4 -97q27 2 40 2q21 0 102 -14l123 -5l25 -10l33 12q44 -8 52 -8 q12 0 30 10q3 1 6 1q6 0 22 -9l5 11q10 2 11 2l67 -8q44 -1 46 -1q3 0 22 19l9 -37q3 -7 10 -7q6 0 68 39q12 8 18 8q1 0 39 -11q4 -1 7 -1q15 0 35 7q31 11 123 22q63 19 88 23v-10q0 -19 -5 -28q-5 -10 -27 -20l5 -33q-28 -17 -54 -41q-30 1 -39 1q-52 2 -74 11 q-25 10 -46 18q-26 -17 -41 -21q-6 -1 -78 -2l-22 -1q-39 9 -48 9t-18 -1q-50 -8 -56 -8q-1 0 -41 5q-7 1 -11 1q-12 0 -38 -2q-9 -1 -18 -1q-7 0 -38 8l-60 -12l-34 3l-34 -3h-27l-40 -3q-35 13 -56 17l-4 -5l-3 -22l-53 6q-3 -3 -5 -28q-5 -22 -5 -24q0 -10 3 -35 q3 -72 4 -99q-12 -9 -24 -10q-11 -12 -11 -22q0 -23 30 -39q-48 -15 -64 -34q-12 -15 -12 -54q0 -43 33 -58q45 -21 45 -28l-1 -2q-16 -28 -16 -42q0 -9 3 -23l17 -13l3 -10l-7 -7q-14 -1 -21 -6q4 -11 19 -21v-15l2 -152q0 -11 -7 -19q-1 -2 -29 -28q-4 -3 -4 -10 q0 -20 39 -24l2 -87l2 -162q6 -35 6 -38q0 -23 -30 -45q12 -65 39 -61q0 -29 1 -38q4 -62 4 -74q0 -30 -18 -30q-10 0 -23 5q-1 -26 -8 -32q-2 -2 -21 -8l-29 -13l-42 -13l-35 -12q-8 0 -26 15q4 10 4 13q0 11 -14 29q11 18 25 50q16 24 17 29q1 3 1 26q13 68 13 130 q0 6 -3 27q6 5 10 5q10 0 23 -6l-8 18q-11 4 -15 4q-14 3 -17 7q-4 5 -4 46q0 63 1 66q2 8 19 21q-2 7 -2 14q0 8 13 14l3 -3l8 6v26l-7 -3l-5 21q-5 -1 -9 -1q-18 0 -18 17v2q0 15 1 30q2 16 2 74q10 21 10 24q0 7 -6 19q17 20 17 34q0 11 -17 23q-1 26 -1 39q0 16 1 29 q2 16 2 23q0 4 -8 34q-4 12 -4 29q0 22 20 31v20h4l16 15l-10 34l-17 5q-10 25 -12 32q-2 5 -2 82l-7 39l-3 32q-3 35 -3 40q0 21 3 53q22 -1 24 6q2 3 6 25l-32 65q8 25 8 33q0 5 -9 46l-6 54l-11 49l-4 59l-8 33l5 32v2q-1 11 -19 47q-7 13 -7 39q0 11 1 31l-36 -6z" />
<glyph unicode="G" horiz-adv-x="2084" d="M114 531l31 9q-6 39 -12 60h-26q4 21 10 84l9 28q21 90 22 93q6 18 20 50h44l7 35q-33 0 -33 18q0 19 61 117l17 27l40 49l26 43q4 5 21 20q16 -11 25 -11q7 0 21 8l-7 45q41 39 53 51q32 33 73 62l25 24l25 17l17 19l83 53q46 39 66 52q19 -19 30 -23q23 11 25 17 q3 1 6 23q26 15 66 31l37 18l60 20l29 11q38 2 61 10q59 17 128 31l25 8l29 3l20 1l37 1q1 0 37 13q5 2 8 2q4 0 87 -46q31 42 39 42h1q14 -3 69 -4q3 0 88 -4q43 -11 76 -11l13 -14h5q14 11 20 11q9 0 25 -17q-3 -13 -11 -18q-4 -3 -26 -14q-17 -9 -32 -21q-33 -26 -44 -26 q-13 0 -60 10l-44 16l-64 6q-38 22 -49 22q-5 0 -9 -4q-14 -13 -17 -12l-11 5l-47 9l-32 31l-37 -39q-10 -9 -23 -9q-1 0 -33 4l-67 -22q-32 14 -41 14q-11 0 -54 -24q-9 -4 -56 -5q-2 -18 -9 -22q-42 -14 -85 -32q-24 -10 -66 -39l-53 -32q-5 -3 -18 -23q-22 6 -34 6 q-4 0 -13 -1q-9 -34 -24 -46q-6 -5 -30 -23q-7 -5 -23 -9q-3 0 -11 -13q-7 -13 -38 -38l-25 8l5 -27q-21 -16 -30 -24q-3 -3 -28 -39q-21 -26 -42 -59q-21 -36 -42 -66l-24 -3q-7 -19 -18 -31l-2 3l-9 1l-3 -11l12 -1q-1 -16 -2 -18.5t-16 -29.5q-38 -96 -39.5 -98.5 t-15.5 -18.5q4 -31 4 -55q0 -13 -19 -57q-11 -25 -15 -68q-30 -7 -35 -25q33 -20 33 -34v-2q-7 -62 -7 -74q0 -9 6 -47q-29 -17 -29 -39q0 -14 14 -30l20 3q3 -21 12 -49q4 -15 5 -25q-37 -10 -98 -25l-6 -1q0 -5 83 -12l30 -7q1 -59 20 -97l1 -2q-12 -65 -12 -66 q0 -11 11 -11t25 12q15 -25 21 -32q21 -32 23 -44l8 -37q2 -9 21 -21q27 -16 46 -40q17 -21 48 -48q13 -11 18 -16q15 -15 17.5 -16.5t25.5 -9.5q18 -5 23 -11l9 -14l7 8q38 -42 92 -71q16 -8 51 -24t38 -16q24 0 62 51q31 -26 79 -26q15 0 25 4q22 9 23 9l17 -4q5 -1 12 -1 t118 4q31 2 38 2t41 -2q7 -1 16 -1q18 0 57 5q9 13 17 18q2 1 93 11q60 12 65 12t33 -13q2 -1 6 -1q19 0 26 34q22 -3 34 -3t73 14l51 6q57 18 78 22q-2 8 -2 11q0 17 11 20l84 24l-85 52l83 47l-86 102l2 6q9 23 9 58q0 10 -11 73l-2 110v10q0 32 18 39l62 25q3 1 3 3 q0 1 -4 3q-32 18 -70 18h-17q-7 51 -36 73q-9 6 -18 6q-10 0 -23 -2l-15 10h-1q-1 0 -26 -7q-9 -3 -104 -3q-5 0 -28 6q-11 -9 -20 -9q-16 0 -16 15t31 39q17 14 29 18q3 1 30 1q35 0 41 -2l52 -18q2 -1 7 -1q14 0 35 19q40 -8 58 -8q7 0 15 1q24 3 28 3l38 -5h1q34 6 66 11 q20 -33 20 -42v-2q-7 -54 -7 -56q0 -5 1 -15q6 -38 6 -74q0 -18 -2 -85q-1 -19 -9 -57q-4 -17 -7 -38h-23q-15 -40 -15 -49t5 -36q24 10 27 15q5 3 14 24q9 -1 16 -11l-84 -33l83 -69l-4 -7q-4 -8 -7 -25l-21 -9q14 -28 21 -32q3 -2 13 -2q10 -18 11 -24q0 -1 -2 -41v-7 q0 -25 5 -35q9 -18 9 -19l-7 -22q-2 -6 -2 -13t1 -16l-30 -7q-13 -22 -21 -26q-3 -1 -84 -2q-73 -20 -88 -20t-40 6l-13 -12q-27 -2 -127 -19h-2q-5 0 -12 1q-10 2 -16 2q-14 0 -59 -20q-13 -4 -79 -4l-54 -13q-20 -5 -51 -6l-81 -19l-37 -2q-93 -15 -169 -22q-16 17 -24 16 l-19 -2l-31 -3l-15 -11q-3 -1 -112 -1q-1 0 -31 3q-25 3 -74 4q-19 19 -30 23q-12 3 -35 5l-6 -17q-104 30 -134 63q-35 36 -54 50q-6 27 -22 43q-14 -1 -23 -1q-17 0 -27 7q-17 13 -57 65q-13 15 -41 43q10 34 10 49q0 28 -25 28q-11 0 -25 -3q-7 18 -26 48l-5 17l-44 123 q-14 41 -14 66v4q3 21 3 22q0 4 -8 37q0 3 -4 86q-1 20 -5 38q-2 13 -2 20t8 22z" />
<glyph unicode="H" horiz-adv-x="2025" d="M177 1548q11 13 14 14l42 22q42 28 72 36q41 11 80 44q3 2 4 2v0l18 -12q-1 -14 -18 -31l23 -12q-38 -27 -43 -41l-26 -77l-27 -27l80 -25q-5 -6 -7 -8t-4 -2h-1l-23 8q1 -22 4 -22q1 -5 24 -14l6 -8v-154v-22l1 -22q0 -1 -6 -12q-4 -8 -8 -26q21 -12 21 -24t-5 -27 q50 17 75 17q46 0 96 -18q9 -4 35 -36q6 -3 58 -18l111 45l3 -1q8 -23 21 -34l22 16l22 -4q10 9 16 9q3 0 9 -3l16 17v4q15 -3 20 -6q22 -9 29 -9h1q34 9 39 9l89 -3h26l23 2q57 0 67 2q6 1 27 11q27 -7 30 -7q4 0 31 7l27 2q40 11 42 11q10 0 27 -12h19q13 0 24 -6 q15 -9 30 -9q24 29 33 34q8 4 77 6l40 3l27 -4l37 3l29 -2q15 0 21 15q3 6 11 41q-25 49 -25 51q0 1 9 33l-1 44q4 12 4 17q0 9 -12 22l8 27v1q1 10 -26 23q-1 3 -1 4q0 7 7 31q5 17 5 43q0 12 -14 29q2 8 2 11q0 10 -1 24q-32 5 -32 24q0 8 5 13q3 3 32 21q35 21 42 23 q22 7 26 16q25 5 34 9q44 19 53 19q3 0 14 -5q-4 -28 -6 -131q0 -7 -11 -53l-25 -3q-8 -20 -8 -30q0 -6 4 -20q21 -9 24 -16l6 -14l11 -21q-6 -37 -6 -40q0 -4 1 -11q3 -33 3 -41q0 -77 -11 -110q15 -17 15 -32q0 -8 -21 -34q-7 -11 -9 -48l22 -3v-199q0 -7 -11 -33 q-7 -17 -7 -28l18 -15q-6 -15 -6 -25q0 -11 1 -24q-8 -7 -14 -7q-5 0 -10 1q3 -28 11 -31q15 -7 22 -13q-9 -47 -9 -64q0 -9 1 -19q6 -41 6 -50q0 -8 -9 -25l-22 4v-10l16 -10q11 -99 14 -162q-31 -14 -31 -28q0 -39 31 -63q0 -8 -8 -32q10 -45 10 -47q0 -7 -3 -25 q-2 -15 -2 -33q0 -23 3 -35q3 -13 3 -19q0 -9 -4 -10l-75 -25l78 -35l-2 -23q0 -2 6 -18v-1q0 -3 -8 -7q-77 -34 -77 -58q0 -27 67 -51q39 -15 38 -31q-22 -13 -29 -17q-23 -15 -60 -31l-24 -9q-42 -34 -52 -38q-20 -7 -29 -7q-18 0 -18 11l1 64q0 7 -5 22q23 25 26 40 q3 14 3 52q0 27 1 35q5 36 29 48l58 31q-76 29 -76 33q0 3 78 40l-70 73q14 23 15 50v1q0 6 -5 21q-5 16 -5 21l3 172q0 1 -2 15q25 18 25 28q0 8 -8 22q-5 9 -10 28l-23 6q8 45 8 49q0 110 1 134h6q9 11 11 29q2 22 5 40q-17 15 -18 29v37q0 1 1 21l-4 53q0 4 6 43 q7 42 40 49l6 24h-8q-13 0 -31 12q-69 -1 -91 -4q-31 -3 -36 -3q-8 0 -65 5q-21 2 -47 2q-28 0 -63 -2l-18 -1q-35 -2 -41 -3q-34 -5 -43 -5q-12 0 -33 13q-25 17 -34 17q-5 0 -27 -17q-14 -11 -35 -11q-7 0 -71 3h-22q-32 0 -79 -10q-97 -3 -100 -3q-5 0 -36 5 q-40 -24 -49 -24q-3 0 -73 11l-30 43l-41 -45l-47 8l-25 -8h-29l-56 -4l-25 2q-25 0 -54 3q-6 1 -11 1q-9 0 -23 -9v-146q0 -61 3 -75q4 -23 4 -34v-1q-1 -6 -1 -14l2 -53q0 -1 -4 -6q-9 -15 -9 -17l6 -35q1 -3 -6 -22v-1q9 -60 9 -64q0 -25 -21 -76q16 -15 17 -23l3 -17 q1 -1 6 -14q4 -9 4 -14q0 -1 -3 -37l-16 -30v-61q-6 -31 -6 -47t3 -21q5 -9 26 -16q-6 -23 -9 -76l-3 -33l4 -62v-185l-3 -13l-14 -9l11 -22q-18 -13 -24 -18q-34 -27 -73 -43l-2 3v4q-36 0 -40 -8q-6 -4 -14 -23l-35 -4q3 35 2 47q1 22 13 57q0 29 2 33q8 16 11 78l4 122 q1 21 5 24l17 14q5 4 5 15q0 14 -3 34h-9q-7 14 -7 22l5 44v49q5 20 11 48q17 3 30 12l-4 62l-24 2q-3 16 -3 75q-10 46 -10 59q0 12 8 74q2 17 2 37q0 18 -2 38q-4 30 -4 47q0 26 27 31q-2 25 -2 33q0 22 -3 29q-6 10 -28 19q4 22 10 53q2 12 2 23q0 8 -14 48q4 22 4 25v4 l-1 105l-1 10q0 8 8 22l14 -4q3 14 3 24q0 8 -21 46q-3 5 -3 14q0 15 17 43l-22 2l-6 32l16 5l3 37q-19 13 -23 29q-8 34 -8 56q0 13 4 24q6 15 6 21l-7 30l2 22v1q0 7 -9 25q-3 7 -11 27q-19 1 -20 4q-6 1 -19 21z" />
<glyph unicode="I" horiz-adv-x="560" d="M157 -307q4 17 9 33q6 22 9 29q17 35 17 43q0 6 -10 22q11 26 20 98q2 12 13 30q3 5 3 10q0 6 -12 26q-2 4 -2 14l1 39v129q4 26 5 31q2 8 16 15v36q22 20 22 40q0 8 -1 17l3 2q-9 9 -12 29l-10 42l2 25l-1 41q10 48 10 56q0 6 -7 47l3 57v5q-1 10 -1 17l2 110q0 2 3 9 q1 5 1 8q0 15 -9 47q-2 7 -2 12q0 9 17 18v61q-21 10 -21 21q0 23 7 90q1 9 1 15v9q-10 143 -10 150q0 58 40 91q-3 27 -15 42l-31 -4q-3 12 -3 21q0 2 12 70l-6 12q-7 16 -7 83q0 10 -3 40l-25 25h-18l-2 11v1q0 9 5 14q1 2 27 17l27 20l20 7q21 8 45 12l10 27q42 2 66 17 q8 -24 9 -37q0 -3 -1 -18q-1 -10 -2 -27l-5 -161v-66q-12 -9 -14.5 -13.5t-3.5 -19.5q0 -25 -3 -47l26 -5q-3 -23 -3 -31q-10 -88 -23 -144l16 -16q-1 -50 -17 -115q-1 -8 -2 -48l24 -6q-8 -67 -10 -85v-1l2 -67q0 -4 -5 -20l-22 -21l10 -51l24 -3l-5 -10v-168l7 -38v-55 l1 -39q0 -16 -40 -42q0 -26 5 -30q0 -4 19 -17q3 -17 7 -23q8 -13 8 -17l-1 -4q-3 -10 -2 -41l4 -198l-20 -21l21 -13v-191v-15q-14 -2 -16 -3l-36 -26q-8 -4 -47 -11q-18 -11 -36 -21q-22 -13 -43 -13q-12 0 -34 9z" />
<glyph unicode="J" horiz-adv-x="1393" d="M67 -110l-12 -15q3 -20 7 -24l18 -15q3 -2 17 -30q15 -22 83 -84q11 0 14 -2.5t14 -22.5q6 -11 18 -19l25 -18l98 37l50 -6q6 0 23 7l3 14q35 12 47 17q18 7 28 7l53 -4h1q10 1 45 34l24 11l22 12q30 3 45 10l-7 20q14 10 48 20q10 3 28 13q16 9 58 28l94 72q5 3 28 12 q8 33 9 37q1 3 30 44l7 21l49 111q24 66 24 71q-2 15 -4 24v2q1 17 30 34q57 34 57 65q0 11 -10 16l-45 25l-23 64l-11 26q0 8 10 14.5t71 36.5l-69 30q-16 9 -16 23q0 1 1 4q13 9 24 23q6 9 17 12q-12 16 -29 24q-2 16 -2 22q0 18 -2 23q2 2 -11 13q1 20 1 37q0 12 -1 22 q-6 42 -6 43q1 9 15 42q5 13 13 39q-22 15 -22 36v12l-19 13l2 12v143l-1 36q-2 42 -12 66v1l14 17l10 14q65 39 65 41q0 4 -90 45q0 34 1 39.5t10 14.5q-7 14 -7 24q0 1 1 4l4 13l-1 6l-3 19q-11 25 -11 45l-37 18q-5 10 -22 17l7 24q35 12 43 16q5 2 48 34l35 19l24 20 l25 9q21 11 25 11q19 0 34 -13q11 -11 10 -20l-9 -69l-6 -73q0 -8 -14 -31q-6 -11 -6 -18q0 -3 1 -8q14 -13 21 -30q-91 -62 -91 -67q0 -14 36 -26q53 -18 54 -39l-1 -3q-2 -6 -4 -18q-28 -8 -28 -24q0 -6 4 -13h20q-1 -17 -1 -25q0 -23 6 -52q-26 -19 -26 -61q0 -10 4 -18 l23 2l5 -19l6 -198q0 -7 -16 -55q-1 -2 -1 -4q0 -4 17 -43l5 -57l6 -27l-2 -44l6 -44q7 -87 7 -96q0 -10 -7 -35q-2 -5 -2 -13q0 -9 2 -22h-5l-23 -20v-48q4 -3 8 -3q6 0 13 1q11 -32 11 -49q0 -14 -11 -49q-9 -33 -12 -39.5t-12 -6.5q-4 0 -25 5q7 -20 7 -25l-2 -23l-3 -34 l-16 -24q-17 -34 -25 -42q-5 -4 -32 -27q0 -1 -21 -31q-9 -17 -50 -53q-51 -44 -61 -56q-23 -22 -62 -48q-26 -22 -42 -30q-10 -5 -66 -29q-35 -20 -56 -28q-13 -5 -60 -29q-17 -8 -54 -22q-41 -22 -56 -26q-9 -2 -55 -8q-12 -2 -55 -22l-27 -4l-57 -14l-39 -3 q-54 -10 -72 -10q-39 0 -88 12q-33 8 -42 13q-29 17 -55 40l-14 11l-4 10q-11 24 -13 54l20 9q-21 37 -32 42q-17 8 -18 12q0 2 -1 42l-4 23l-1 41l-2 27q1 19 23 19q16 0 24 -24q17 -44 24 -62z" />
<glyph unicode="K" horiz-adv-x="1811" d="M152 1565l102 71l8 -2q41 27 65 51l18 -4v0q5 0 13 1h6q11 0 19 -8q8 -10 8 -19l-2 -34v-50q-9 -51 -9 -65q0 -20 6 -59l-31 -39l-27 5l4 -27v-31l6 -18h5l19 14q11 -15 11 -24q0 -3 -2 -12q-3 -9 -3 -15l3 -201l-2 -42q-1 -71 -6 -75l-24 -22q-5 -5 -5 -14q0 -15 22 -35 q3 -21 16 -47l-8 -35l3 -32l-2 -51q4 -52 4 -78l14 -7v-19l7 -7q46 19 52 24q58 42 75 52l5 -3l30 36l149 156l14 32l104 133q16 21 37 40q15 16 51 63l-12 18v1q16 35 79 110l17 5q3 19 21 47l20 34l17 25l27 49q29 29 50 65q22 37 34 56q27 4 33 9l22 17q29 21 32 23 q2 2 15 3q10 0 27 14q21 17 36 17l8 -14v-1q0 -6 -21 -36q-20 -41 -21 -43l-32 -27q-44 -56 -51 -68q-14 -29 -27 -45l-61 6l-3 -44l17 -7q0 -25 -12 -41q-9 -13 -31 -34q-3 -14 -11 -21l-22 -24l-32 -24q-13 -36 -15 -39.5t-19 -14.5q0 -19 -4 -25q-4 -8 -32 -31 q-50 -50 -112 -136l-54 -59q-42 -56 -61 -75l-7 -28q-24 -14 -29 -19.5t-33 -52.5q-28 -18 -32 -22t-11 -26l-27 -3q-10 -13 -13 -17q-15 -17 -15 -21q0 -1 1 -3l1 -4l95 -114q31 -36 31 -65q0 -6 -1 -15q22 0 32 -2q11 -3 35 -28q24 -23 34 -43q13 -1 23 -8q38 -28 38 -47 q0 -10 -9 -25q15 -14 45 -30l29 -20l23 -6q3 4 23 -21h21q30 -34 87 -76l126 -90l32 -18q-1 -9 -1 -16q0 -17 16 -20q17 -3 27 -7v-18q5 -4 28 -9q21 -8 51 -14q26 -6 46 -25q111 -67 114 -70q7 -6 11 -30q29 -7 51 -20l21 18q24 -11 64 -19t68 -8h4l70 10q2 0 9 -8l3 -8 q6 -46 -93 -67l-16 -21q-29 -2 -38 -6q-3 -1 -31 -18l-22 3q-28 3 -31.5 4t-16.5 11l-36 -5q-29 24 -43 33q-9 7 -53 28q-26 15 -43 20q-13 3 -42 20q-33 20 -39 21q-28 13 -32 18l-22 24l-16 8q-21 21 -40 30q3 14 3 24q0 7 -4 12q-13 15 -37 15q-5 0 -42 -12q-2 -1 -3 -1 q-19 0 -34 26q-3 6 -10 37q-2 10 -13 18q-8 6 -13 6l-25 -4h-4q-16 0 -70 40q-17 13 -87 66l-46 48q-17 17 -19 20q-9 11 -29 19q-38 26 -93 59q6 25 14 45q-40 17 -48 17q-6 0 -15 -1q-15 14 -41 35l-42 47q-21 21 -25 27q-6 10 -14 33q-22 0 -32 4q-12 5 -50 43 q-14 13 -32 13q-14 0 -23.5 -9t-9.5 -22v-7l24 2v-19q0 -9 -4 -36q-1 -8 -1 -16q0 -7 6 -65v-37l1 -32q0 -8 -6 -14q-10 -10 -11 -15q-3 -12 -9 -29q21 -2 30 -12q-10 -41 -10 -146q-1 -19 -12 -19q-10 0 -24 15h-9q-5 -5 -5 -10q0 -37 47 -38q4 -11 5 -51l1 -18 q-1 -11 -14 -30l-20 -12l9 -27q15 14 23 14q11 0 11 -47q-1 -8 4 -23q4 -15 4 -23q0 -2 -1 -8q-28 -16 -36 -36q-33 0 -53 -19l4 -13q-40 -13 -58 -26q-31 -25 -40 -25q-11 0 -27 6q6 27 6 36v3v10l-1 6l105 60l-97 53l9 7q20 16 19 31l-3 41l83 43l-75 41l3 37l-1 96l2 23 q-12 27 -12 32q0 7 2 16q15 56 15 62l6 152l54 59q-41 23 -59 43l7 7h8l7 -7h4v8q16 16 19 34l-32 -4q-10 77 -10 123l5 55v1l-2 37l3 17q0 46 5 54q9 13 9 25l-30 15q8 19 9 55l1 28l-3 32q0 56 -2 71q-4 16 -16 34q7 17 9 23q4 12 10 20q-6 12 -6 28q11 9 24 12v43 q-14 -13 -26 -14q-4 15 -6 65q-4 67 -10 105q13 13 17 27q-27 24 -27 48q0 13 5 39q-54 5 -56 25z" />
<glyph unicode="L" horiz-adv-x="1526" d="M143 -311q9 13 25 25q14 10 47 37q-2 9 -2 17q0 5 6 11q33 45 68 90q9 15 42 45l-84 20l86 55l-84 82l3 34l2 29q15 37 15 52v2v30q0 16 19 25l10 6l17 -3l3 1q3 6 3 10q0 8 -24 29v27l-29 -7l-8 8q7 24 7 30l-3 46l5 88q0 5 -9 49q7 24 8 43h14q0 25 12 52q-33 5 -33 19 q0 6 4 21q2 11 2 42v31q1 16 1 24q0 11 -2 19q-4 11 -4 15t6 14h18l4 16l-16 4v7q1 13 8 24l13 18q0 2 12 5l3 13l-23 10l8 28q-14 -9 -25 -9q-14 0 -14 21q0 2 4 42v1l-5 80v42q0 12 -1 29v14q0 22 9 57l-12 13v87q6 2 6.5 3.5t1.5 24.5q-14 25 -14 35v12q-14 17 -14 22 l-1 39q-3 29 -4 38q-1 13 -16 32l-18 4l-10 30q22 11 29 15q24 12 48 14l17 8l19 9l16 16l12 5q51 22 77 22q22 0 22 -19v-30l6 -25q-13 -18 -13 -31q0 -11 2 -29q1 -18 3 -53h3v-7q-14 -4 -21 -4q-6 0 -17 2l-4 -4q-2 -18 -23 -29l22 -34l25 4l15 -26h10l3 -2 q-14 -24 -47 -56l-12 -66l-47 -52l14 -39l9 -132q3 -7 34 -20q29 -12 29 -25l-1 -2q-1 -5 -5 -16l-15 -3q23 -21 23 -74q0 -20 -31 -38q11 -22 16 -29q15 -28 15 -45q0 -1 -9 -33l1 -8v-1q-1 -3 -1 -17q1 -85 -1 -113v-24q0 -27 1 -53q1 -9 1 -16q0 -5 -3 -12l-1 4l-21 -15 q4 -31 26 -52l-3 -11l4 -142l1 -16v-18q0 -12 -15 -79l-3 -53l-10 -15q-1 -2 -2 -19q-5 -28 -7 -46l23 3q10 -29 10 -33l-2 -157q0 -21 22 -27q17 -4 30 -15q10 1 17 1t32 -7l39 -4l67 -15h59l32 -45l83 40l35 -6l27 -3l27 -9q1 0 37 6q6 1 11 1q8 0 45 -9q48 8 51 8 q14 0 50 -4q13 -1 24 -1q13 0 45 7l49 4q47 9 100 13q22 1 30 5q14 5 21 5q3 0 28 -47q1 -1 3 -1q14 0 28 26q7 13 7 45q34 9 45 14q62 28 77 28l5 -1q-1 -30 -7 -38l-16 -21l-35 -51q-21 -20 -34 -37h-24l-11 -20l-63 48l-134 -49l-8 3q-17 5 -68 5h-3q-8 0 -163 -11l-66 9 q-36 -6 -37 -6q-22 0 -41 18q-33 30 -34 30l-104 -40l-25 5l-24 2l-25 3q-66 2 -81 4l11 7h-42l-6 -21q-19 10 -25 15q-15 9 -35 12q-32 -27 -72 -27q-23 0 -56 6q-25 -17 -53 -17q-8 0 -34 7q-41 7 -70 16z" />
<glyph unicode="M" horiz-adv-x="2109" d="M232 275q27 15 27 35q0 10 -17 18q-2 43 -2 75q0 18 2 38q7 56 7 64q0 6 -3 24l27 7q1 6 1 10t-9 20q-9 18 -14 36q16 8 21 16.5t7 30.5q-16 21 -21 31l58 40l-3 1l-60 21l27 78q-7 33 -38 31q12 45 12 55q0 2 -3 22l-1 31q-3 40 -3 66t16 44q-22 34 -22 60q0 14 9 34 q-14 17 -14 26q0 5 3 16q3 8 4 54q0 6 2 26h-13q2 19 2 75q13 38 13 43q0 11 -17 51q-20 1 -31 10q1 13 12 26q28 36 69 60q55 30 74 50h17q39 -48 48 -72q9 -27 14 -31l16 -14q2 -3 4 -32q10 -33 16 -55q-58 -7 -58 -22q0 -16 35 -30q22 13 41 18l3 -3q3 -49 19 -77 q13 -20 13 -30v-1q-3 -19 -3 -32q0 -19 32 -35q3 -20 10 -38q2 -5 2 -11q0 -10 -2 -22q35 -22 35 -38q0 -17 -35 -39l14 -49l8 -2q21 28 33 28q9 0 23 -3l3 -9q1 -2 1 -14v-5l-1 -4q0 -9 8 -22q41 -71 46 -97q4 -19 12 -44q1 -3 1 -6q0 -11 -4 -26h-15q-1 -4 -1 -5 q0 -9 10 -24l15 5v0q9 0 13 -7q4 -6 9 -37l25 -9q5 -25 21 -50q22 -35 46 -103q1 -3 17 -30q17 -32 25 -74l3 -13l-3 -26q0 -4 18 -21q7 -6 16 -20l24 -6q8 -43 17 -60l19 -7q11 -34 44 -92l45 -100l20 -30q18 -35 25 -40q3 -2 13 -2q15 20 34 56l31 57l11 22l17 30l8 32 q33 54 35 58q4 5 30 22q13 9 13 18q0 3 -1 6q-11 37 -11 38l18 25q6 8 14 29l26 -3q10 13 10 20q0 8 -2 21q-1 10 -1 18q0 19 5 31l47 120q14 55 19 63q8 12 31 29q-7 23 -7 31q0 13 44 110l20 64q29 59 32 66q7 13 35 15q-10 20 -14 46l-1 10l9 38l-1 20l103 155q4 38 7 43 q22 35 30 42q2 2 47 32l10 13l2 2q-4 12 -88 20h-25l-32 45l16 34q1 1 18 9l33 21l31 12q39 23 54 28q12 4 58 13q8 -39 8 -70l4 -25l1 -15l4 -27l-4 -57v-34l-5 -35l2 -29l-1 -15q0 -5 7 -18q-12 2 -22 2q-16 0 -16 -14q0 -15 33 -21l-15 -33l4 -4h12l7 -6q0 -24 -1 -31 q-1 -24 -1 -32q0 -3 8 -79v-5q0 -12 -22 -47q-2 -4 -2 -32q0 -10 7 -21l27 3l11 -11q-8 -24 -8 -54q0 -17 6 -61l6 -181q0 -8 2 -23q3 -25 3 -41q0 -8 -4 -19l-27 2v-10q0 -11 -10 -31q20 -19 40 -22q7 -19 8 -43l12 -77l7 -46l7 -13q-13 -43 -14 -47q-2 -10 -6 -26l37 -28 q1 -20 1 -35q0 -8 -1 -16q-4 -22 -4 -23q0 -11 10 -32l-31 -6l-13 -40q10 -8 26 -14q14 -4 20 -35q5 -31 6 -31l12 -23q2 -9 16 -71q1 -46 9 -98q-14 -14 -46 -48q-58 -43 -115 -41q-5 0 -21 -7q-10 -4 -17 -4q-5 0 -16 7q12 32 15 68l3 22q-9 30 -9 32q0 16 27 29l-2 26 q-30 27 -30 47q0 10 3 21q18 68 18 71l-22 65v2l4 78v1q1 20 -10 78q-4 19 -4 28l23 2q-4 34 -6 40q-2 8 -23 12q-4 21 -12 51q-5 19 -5 60q0 5 1 34v1v11l-1 3q12 34 12 36t-6 29l-5 24l-8 18l-7 103l-7 39l7 86l-5 33l73 28l-73 18q10 17 10 22q0 37 -31 47l-1 2 q0 21 35 27l47 8l-79 44l-1 50q-1 9 -17 26h-9q-6 -20 -9 -26q-16 -40 -17 -41q-2 0 -2 -30l-25 -21v-12q0 -12 -23 -53l-13 -35l-14 -34l-11 -36l-21 -30l-6 -33l-8 -15l-5 -38l-43 -101l-20 -59q-5 -6 -21 -19l-4 -29l-25 -14q-1 -23 -16 -79l-27 -13q3 -18 3 -30 q0 -48 -42 -80q3 -9 3 -16q0 -3 -6 -12q-4 -5 -20 -39l-24 -45l-26 -71l-14 -32l-13 -32l-17 -27l-11 -24q-14 -22 -21 -52q-37 -93 -53 -141h-21h-9q-20 -1 -23 -1q-11 0 -18 8q-8 9 -40 85q-5 9 -38 51q-11 15 -17 43q-5 19 -12 41l-19 3q-10 27 -26 77q-7 23 -45 83 q-14 22 -14 49q0 4 10 32q1 2 1 5q0 10 -14 26l-32 -11q-19 41 -26 53q-14 24 -21 40l-9 16l-8 27q-24 43 -33 71q-13 10 -14 12l-34 82q-40 70 -49 95l4 3l15 5q-10 23 -14 30q-12 23 -15 32q-12 43 -18 47q-5 3 -9 3q-9 0 -21 -5q-53 101 -53 122q0 8 1 20q-18 20 -25 27 q-10 11 -12 22q-1 4 -2 37q-17 20 -21 43q-4 18 -14 39l-13 3q-27 64 -56 64q-6 0 -13 -2q8 -24 9 -54l6 -37v-46q7 -55 7 -56q0 -6 -2 -20q-1 -11 -1 -23q0 -10 4 -66v-2l-5 -30l-14 -10l5 -34l-14 -6v-25q33 -1 33 -18l-1 -27l-2 -20v-83l-3 -37l1 -38q0 -9 -14 -24l7 -54 l-15 -6q-4 -14 -4 -25q0 -3 16 -45v-3q0 -7 -3 -24q-3 -15 -3 -37q0 -12 1 -24q1 -30 1 -43q0 -9 -8 -50q-6 -33 -6 -69q0 -27 11 -53q-6 -12 -19 -20q-42 -25 -42 -43q0 -12 17 -33l20 25h8l7 -7q-3 -12 -3 -20t11 -31l1 -3q0 -14 -43 -29q-40 -14 -40 -30q0 -13 31 -24 l55 -19q-6 -23 -6 -28q0 -9 1 -20l-25 -16q4 -12 4 -21q0 -5 -3 -9q-3 -3 -62 -22l-32 -19q-64 -22 -65 -22q-3 0 -12 4v2l-1 9v1q0 4 20 27q7 9 42 33q24 16 29 26l16 30l15 20l-80 49l8 10q14 14 15 46q1 57 1 59l8 30q2 6 2 15q0 6 -5 23l7 23l-9 35q19 70 19 77 q0 15 -8 56z" />
<glyph unicode="N" horiz-adv-x="1922" d="M359 1622l9 -32h30q-1 -12 -1 -21q0 -17 29 -52q-5 -22 -5 -33q0 -7 1 -19h12q13 0 24 -10q10 -8 20 -14l16 -41q16 -14 25 -28q11 -18 23 -33l26 7q8 -25 48 -82q44 -63 69 -88q24 -26 31 -51q4 -13 23 -38l99 -132q19 -25 19 -31q0 -8 -8 -19q11 -18 15 -26 q14 -24 21 -27q1 -2 20 -6l16 -20h11l3 3q16 -21 21 -28q41 -58 50 -66l30 -26q9 -9 27 -45l25 -31l29 -42l40 -50q10 -36 11 -38q7 -8 39 -15l40 -50l13 -3v-5q20 -14 29 -23q4 -2 62 -87l74 -81q22 -34 43 -51q-8 -17 -8 -28q0 -7 33 -39q80 -93 94 -106t38 -30l7 13v2 q0 1 -2 11q-5 23 -5 38q0 36 10 119q4 29 4 52q0 9 -1 19q-8 66 -8 70q0 19 24 46q-34 49 -34 86q0 4 6 32q1 3 1 6t-9 58l2 79q-8 41 -8 47q0 5 9 46v4q0 10 -3 28q-3 16 -3 30q0 11 3 22q7 24 7 27l-4 19q-1 3 -1 5t1 5q5 21 5 22v2q-1 3 -1 4l3 127l-3 83l-2 86 q-11 69 -11 72q0 5 11 32v3q0 11 -21 26q5 20 5 33q0 4 -8 38q0 29 -3 40q-5 19 -10 35l21 21v10l-35 25q3 15 8 21q4 4 71 43q52 34 59 34q12 0 18 -21q12 -38 12 -50q0 -4 -22 -119l6 -159q-16 -59 -16 -84q0 -19 14 -40l-4 -18l-3 -167l7 -22q-24 -6 -24 -27l23 -77v-2 q0 -6 -28 -13q-29 -7 -29 -25l55 -107v-1l-7 -69v-79v-1l-3 -19l8 -35l2 -52l11 -61q0 -2 -4 -13l-23 -4v-17q0 -17 17 -32q3 -17 3 -21l-2 -44l5 -42l2 -34l8 -30l-55 -98l58 -34l-145 -37l151 -64q-12 -31 -12 -60q0 -7 8 -48v-3q0 -18 -41 -48q-41 -31 -74 -35 q-4 25 -5 34q-4 37 -21 37q-13 0 -43 -19q-16 7 -30 38l-25 42l-9 22q-30 45 -30 56q0 7 3 26q-16 10 -54 22q-27 49 -40 70q-13 19 -41 44q9 23 9 32q0 4 -23 36q-35 31 -42 40q-11 16 -30 37q2 8 12 25q1 1 1 6v6h-18q-5 20 -11 24q-7 6 -15 12l-15 19q-45 9 -45 38 q0 12 3 28l-24 5l-8 21l-118 148l-2 9l44 27v8q-16 9 -23 9q-10 0 -29 -13q-16 14 -49 52q-35 28 -46 46q-14 26 -39 53q-2 1 -13 20q-15 25 -18 35q-10 33 -17 37q-6 3 -14 3q-7 0 -15 -1q-9 13 -17 24q-23 31 -38 58q-19 5 -18 8q-12 20 -34 47q-57 77 -75 96v8l3 3l19 6 q-21 34 -49 46l-10 -13q-30 20 -32 32q-2 5 -2 21q-39 27 -65 54q-68 71 -87 88l-8 -7q-19 -34 -24 -30l-59 -27l57 -24q26 -13 26 -37q0 -4 -3 -15q-16 -55 -16 -76q-2 -43 -5 -53q-2 -8 -15 -26q13 -19 18 -36q4 -11 14 -47l-5 -75q9 -67 9 -68q0 -7 -10 -38l-17 -3l9 -30 v-14q0 -16 22 -35q-5 -31 -5 -52v-17q6 -112 6 -117t-6 -24h-28q5 -20 6 -26q4 -21 6 -27q7 -21 7 -22l-1 -32l6 -27l-3 -51q0 -7 5 -25q-8 -9 -22 -9l-4 -4l4 -65l22 3q7 -34 9 -52q1 -10 1 -90l5 -42q2 -59 7 -91q3 -17 3 -30q0 -4 -2 -19l7 -42v0q1 -9 -15 -38 q-9 10 -10 10t-112 -65q-10 -6 -30 -13q-4 14 -4 20t11 72l2 36l5 37v51l6 12q11 23 15 29q0 1 43 28q16 34 16 40q0 4 -3 8q-1 2 -51 32q-17 11 -17 25l1 4q1 7 1 20q0 12 -1 21q-3 30 -3 36q0 16 19 43l-26 13q1 22 9 106l2 51q4 24 4 30q0 2 -1 10q-7 33 -8 82 q-2 55 -5 70q-1 12 -1 17q0 10 21 29q-9 13 -9 20q0 3 1 8q2 14 2 23l-14 55v41q0 3 -1 16q-1 27 -1 46q0 12 3.5 49t5.5 41l13 36q0 1 -3 7q-38 1 -38 27q0 6 1 18v20q0 19 -2 58l15 12l3 16q25 7 29 18q2 5 2 16q0 20 -15 48l-21 -14l-11 11q76 24 76 33q0 1 -84 33l5 85 q-11 69 -11 82v12l-29 7q0 11 -2 18q-1 4 -1 8q0 8 5 14q0 2 34 21l11 17l19 16q58 53 61 56q17 12 50 28z" />
<glyph unicode="O" horiz-adv-x="2249" d="M131 715q13 -7 24 -7q10 0 10 16q0 14 -28 38q2 23 4 28l19 48q32 112 88 197q37 75 48 91q46 67 72 98l10 -5l15 16v11q0 18 22 42q17 19 69 58q14 27 17 29q4 3 10 3v0l25 -9l17 29l-4 11q30 21 59 24q5 29 15 38q7 8 63 31q29 13 38 23q16 15 32 15q15 18 19 20l50 23 l39 19l30 9q38 22 75 31q35 7 101 10l49 5l41 5q31 6 36 6q12 0 33 -2q10 -1 19 -1q57 -2 70 -6q50 -13 51 -13l92 8l7 -6q16 -20 24 -26q6 -5 50 -7q14 -1 49 -18l24 -4l19 -7l15 -5q9 -3 17 -30q11 5 18 12q37 -11 50 -19q12 -8 23 -41q15 13 26 13q6 0 87 -61 q29 -21 35 -30q5 -8 10 -17q6 -8 17 -24l-18 -30h7v-31q16 12 23 12q14 0 36 -25h18q12 -25 17 -32q17 -26 23 -47q25 -32 29 -47q-16 -16 -16 -31v-7q37 -31 49 -54q5 -13 5 -80l15 -55l1 -32q7 -44 7 -53q0 -11 -4 -16q-1 -1 -22 -21q-5 -5 -5 -39q0 -19 10 -31 q1 -2 21 -18l9 -18q7 -14 7 -17t-5 -20q-3 -9 -3 -22v-13q2 -47 2 -64q0 -13 -19 -75l-5 -18l-11 -29q-10 -49 -16 -60q-6 -10 -21 -24l6 -20q-20 -12 -21 -20v-12q1 -11 -30 -55q-62 -85 -115 -137q-48 -62 -55 -70q-5 -5 -40 -29q-7 -4 -43 -42q-20 -20 -36 -29l-160 -100 l-29 -12l-258 -120l-33 -7l-204 -54l-8 -2l-163 -18l-46 13l-34 5l-32 9q-31 1 -37 4t-11 15l3 3l-14 19q-18 -1 -41 -8l-3 -1q-13 0 -19 21q-1 2 -17 69q0 2 -8 23l-3 7q-7 -1 -19 -100q-24 18 -81 50q-56 34 -80 47q-1 16 -4.5 22t-19.5 13q-2 19 -7 30q-7 14 -15 32 q-19 0 -38 12q-17 -5 -19 -5q-9 0 -32 31q-25 32 -34 41q-1 31 -5 38q-2 3 -21 18q-2 4 -6 9q-3 4 -20 38l-45 72q-20 52 -20 60t14 23h15l-3 29q-8 8 -24 13q-23 7 -25 53q-1 37 -8 61q-11 34 -12 138v2q0 3 3 35q1 3 2 61q2 33 20 53zM323 266l11 -15l-8 -2l26 -7 q13 -36 31 -53q10 -10 12 -26q12 -18 19 -25q-18 -22 -18 -32t12 -19q10 -9 20 -9q6 0 35 10q9 -19 14 -22l24 -19q29 -28 65 -50q-5 -20 -5 -35q0 -13 10 -21q15 -13 35 -13q5 0 14 4q17 -17 43 -34q3 -21 8 -23q2 -2 14 -7q15 -4 40 -19q29 -17 35 -18q20 -8 42 -25 q20 -1 76 -15q54 -10 65 -14q26 -10 32 -10l16 3q7 1 16 1q11 0 21 -1q9 -1 14 -1q8 0 24 7q16 -21 30 -21q8 0 57 18l34 4q45 19 54 22q5 1 67 1l30 18q65 31 84 44q20 -13 30 -13q13 0 27 22q-12 14 -12 24q0 9 33 21q8 3 38 24q11 10 57 31l21 -16q17 29 40 41l3 22 q23 13 94 72l33 26l35 47l32 36l26 49l27 42q23 57 37 77q-2 13 -2 23q0 22 16 22q4 0 13 -11q11 -13 14 -16l20 23h8q19 0 19 11q0 12 -8 28q-24 -13 -40 -16q-10 15 -10 26q0 3 8 53v39l84 19l-94 37l46 5l46 87q0 2 -2 4q-19 18 -50 18q-19 0 -43 -2q36 7 36 30 q0 27 -41 46q3 21 3 31t-9 65q-6 36 -7 60q-17 18 -17 22l-18 101l-16 27l-16 34l-22 31q-26 67 -60 96q1 26 1 34q0 13 -8 29l-37 -10q-14 21 -47 53q-29 27 -33 30q-6 4 -75 42q-29 17 -47 46q-12 -8 -17 -8q-9 0 -25 15h-18q-24 0 -76 30q4 18 4 31q0 17 -35 29 q-10 -9 -18 -22q-6 -10 -15 -17q-22 8 -57 12q-54 19 -60 19q-2 0 -38 -6l-10 46l-3 -47q-25 9 -28 9q-5 0 -62 -11q-9 -2 -23 -2t-34 3q-25 3 -40 3q-4 0 -41 -7l-51 -9l-58 -27l-47 -8q-7 -3 -22 -24l-20 3l-5 -21q-36 -14 -56 -29v-17q-46 -16 -90 -55q-60 -55 -95 -70 q-12 -24 -19 -33q-4 -6 -68 -73q-7 -21 -20 -37q-12 -14 -58 -94q-10 -17 -41 -104l-19 -24l-10 -50l-11 -18q-1 -34 -3 -40q-1 -4 -20 -45q-1 -2 -1 -6l2 -8v-38v-152v-7v-6q0 -8 4 -21q3 -12 3 -13l-3 -50q0 -5 12 -21q17 -23 22 -50l7 -35l-1 -28q0 -4 33 -52q2 -3 2 -10 q0 -10 -3 -23zM293 258h6l15 -5h6v1l-1 1l-15 5h-11v-2z" />
<glyph unicode="P" horiz-adv-x="1359" d="M370 1657q34 19 60 22q34 3 82 3q30 0 99 -18l67 -4l61 -16q1 -3 49 -3q10 -40 33 -40q15 0 31 23h15q4 0 41 -16q28 -8 67 -12l44 -11l30 -4q33 -7 57 -12q12 -3 58 -25l22 3q30 -20 37 -22t24 -2q8 -19 13 -22l33 -24q5 -3 12 -18q7 -13 7 -20q0 -2 -9 -48l-16 -34 q-10 -39 -14 -44t-14 -8v4q0 5 -4 9q-18 -8 -25 -17q-3 -4 -13 -6q-34 -7 -34 -23q0 -11 15 -30q-17 -13 -22 -18q-26 -24 -30 -26l-37 -11q-13 -4 -40 -40q-27 -2 -41 -7q-7 -2 -57 -28l-45 -10l-45 -15h-34q-14 -3 -18 -3h-10q-7 -16 -19 -21q-6 -1 -56 -10l-22 -6l-39 4 l-38 -14q-86 -4 -100 -7q-9 -3 -45 -20q-3 -2 -31 -4q-30 -2 -75 -18q16 -15 15 -28l-5 -42q-3 -114 -8 -139h-8l-3 2l-4 -4q2 -20 3 -26q9 -59 9 -133l11 -51l-5 -134l1 -36v-71l3 -69q-1 -3 -7 -16l-19 -4l3 -38h27q1 -6 1 -9q0 -7 -4 -24q-3 -16 -3 -28l4 -37v-2l-5 -12 l-20 -7q-2 -13 -2 -23q0 -12 10 -32q28 0 28 -25q0 -38 -6 -97q-1 -9 -1 -15q0 -9 21 -79q2 -8 2 -17q0 -20 -12 -28q-5 -3 -56 -17q-4 -18 -9 -27q-6 -10 -38 -18q-64 -21 -84 -27q-16 21 -16 32q0 2 19 59l-3 36l9 51q3 16 25 35q-17 39 -17 48v1l10 55l6 45q2 6 15 20 q-11 34 -28 51q6 23 6 26l1 125q5 30 5 33q0 8 -8 31l32 24q-5 20 -5 28q-2 18 -4 24q0 3 -14 16q2 21 2 29l-2 82q0 15 23 44q-1 11 -16 37q-1 2 -1 6q0 2 7 27v53l3 43q0 32 -29 55q1 20 3 26q4 25 4 30q0 1 -5 24l-2 42q-9 36 -9 39q0 7 11 37q2 7 2 20t-2 29 q-2 25 -3 35q-1 26 -7 63q-1 37 -1 38.5t-8 12.5h-4l-9 59q21 17 21 35q0 21 -17 36q26 13 26 26q0 7 -34 62q-7 30 -12 48l14 25q-24 31 -24 37q0 7 4 18q3 8 7 26q-17 12 -27 12q-14 0 -32 -6q-6 10 -6 21q0 17 19 28q20 11 75 29l32 20l19 7q42 17 51 17q21 0 31 -30z M364 1376h18q-1 -22 -2 -28q-2 -12 -2 -106q-2 -17 -2 -45l20 -10q-4 -24 -4 -34v-2q0 -9 1 -20v-10q0 -8 -2 -24q10 -4 15 -4l24 2h6q14 0 34 -1v-23h9q12 0 27 5q6 10 11 12q7 2 129 17q59 2 90 8q20 3 28 5q12 7 19 12l30 1q31 9 34 9q9 0 22 -4q13 11 25 13q20 5 81 30 q51 0 103 59q10 12 30 43q6 10 17 48q17 29 17 36q0 40 -36 66q-6 5 -64 39q-3 2 -72 23l-27 9l7 22l-36 13q-22 -21 -37 -21q-2 0 -32 9q-57 4 -66 7q-13 5 -28 26q-26 -1 -34 -3q-2 -1 -15 -10h-8q-36 1 -53 6q-11 2 -54 17q1 45 -18 70q-4 5 -8 5q-16 0 -46 -69 q-27 8 -99 8q-7 0 -19 -5q-5 -25 -5 -33q-5 -66 -13 -86q-1 -3 -1 -9q0 -8 1 -18q-17 -21 -16 -31l1 -7v-7v-10z" />
<glyph unicode="Q" horiz-adv-x="2305" d="M663 1412q8 23 16 31q2 2 28 14l27 15l33 15q50 32 70 38l14 -8q38 30 60 44q22 12 59 22q24 6 52 15q41 12 97 17l30 4q4 0 52 -17q1 -1 3 -1q18 0 37 22q25 -6 129 -13l62 -13q61 -12 72 -17q32 -15 46 -15v0q3 0 14 1q7 1 13 1q40 0 62 -41q23 -8 68 -16l37 -23 q32 -14 34 -17q6 -6 14 -38q11 -79 18 -80v1q14 33 20 87q26 -10 33 -18l20 -23q2 -2 20 -12q31 -18 101 -90q15 -17 19 -23q5 -12 8 -24q9 -24 43 -47q-20 -36 -20 -48q0 -4 2 -13q5 -2 6 -2t23 4q5 1 16 1q3 -15 3 -22q0 -11 -6 -32q8 -10 13 -11q9 -4 9 -9q0 -2 12 -16 q5 -6 7 -15q21 -64 21 -65t-13 -35q-3 -8 -3 -17q0 -17 22 -39q-6 -7 -6 -8l10 -103q0 -1 -3 -4q-7 -5 -9 -5q-22 -8 -22 -17q0 -13 27 -39l-3 -9l-7 -136q-3 -55 -13 -74q-2 -4 -13 -14q-21 -18 -27 -38l30 -24q-4 -25 -9 -32l-22 -30q-4 -5 -4 -27q-13 -15 -19 -37 q-6 -20 -19 -42l-28 11q-15 -24 -16 -41v-6q1 -5 1 -16v0q-7 -48 -56 -70q-8 -22 -23 -38q-8 -7 -90 -71q-67 -65 -75 -70q-5 -3 -42 -23q-6 -4 -42 -31v-11q-85 -60 -104 -60q-6 0 -23 10q-24 -25 -35 -35q-14 -12 -44 -21q4 -10 22 -16q9 -2 85 -20l44 -6l30 -15l58 -20 q24 -13 31 -13q5 0 15 3l21 -33h27h17h2h12q8 1 10 1q23 0 43 -9q13 -6 28 -35q19 15 27 15l23 -2q47 -2 61 -5t42 -19q30 -17 34.5 -18.5t61.5 -13.5l64 -25l37 15q2 1 61 4q42 0 107 37q62 49 85 60q11 19 29 39l18 5q7 14 25 33q14 15 24 34h13q14 -20 14 -42 q0 -41 -23 -69q-4 -5 -45 -31q-35 -30 -61 -41q-19 -6 -85 -19q-62 -18 -86 -22q-28 -5 -79 -31l-44 -6l-27 -5l-35 6q-77 -10 -108 -10q-38 0 -65 16q-2 16 -6 21q-5 7 -30 11l-15 -26l-25 49l-63 -49q-14 15 -30.5 21.5t-54.5 10.5q-39 6 -61 23q0 13 -8.5 22t-19.5 9 q-12 0 -30 -18q-26 9 -73 16q-24 8 -37 13q-8 2 -18 17q-26 22 -34 29h-23l-2 -20q-37 5 -41 9l-118 83q-19 13 -35 13q-39 0 -112 -76l-7 21h-26l-185 -22q-7 -1 -8 -1l-32 5l-52 7l-30 6q-62 7 -99 30q-36 0 -55 9q-38 21 -40 25l-7 20q-3 7 -16 15t-23 8q-5 0 -42 -8 q-9 34 -19 41q-5 3 -59 12l-27 26q-81 54 -89 64q-18 21 -27 33l-7 35q-24 14 -37 33q-11 16 -34 34l14 44q-12 8 -30 10q-4 11 -28 36l-10 33l-26 41l-15 38q-11 24 -14 45q30 18 30 34q0 9 -3 22l-36 17q0 18 -6 54v2q0 12 4 26q6 19 6 28q0 1 -10 53q-1 4 -1 11 q0 6 11 90q1 23 10 69q4 16 22 47l-7 29l16 33l26 69l26 46q15 37 41 79q24 37 34 54q11 19 37 50q33 51 43 64q8 9 74 70l35 34l54 39l76 63q30 8 54 16zM251 575h14q2 -22 2 -28q3 -70 4 -76l24 -106q1 -2 -9 -20q22 -19 25 -26q6 -7 13 -41q17 -14 18 -22l4 -26l15 -19 q15 -32 31 -48q-10 -15 -10 -26q0 -7 10 -23q4 -5 31 -12q9 -2 41 -37q25 -25 37 -38l-5 -46q13 -5 20 -5t21 7q11 -21 16 -24l38 -33q38 -45 62 -61q12 3 21 3q2 0 61 -44q44 -47 62 -59q11 -7 66 -39l35 -8l31 -8q17 3 32 49q8 -17 22 -17q22 0 47 13q5 3 41 32q5 3 51 4 q15 1 54 22l29 3q21 3 22 3q25 0 44 -8q45 -19 69 -23q21 26 141 50l25 9l18 5l52 35q61 29 72 37q19 15 30 23q5 4 56 63q16 20 32 34q33 26 34 28l32 44q33 36 44 56q16 31 32 50q7 30 25 60q43 118 44 131v1l-3 32q11 79 18 95q7 14 25 14h2l27 -11q11 20 11 30 q0 11 -14 33h-2l-10 -10l-43 14v12l19 18l-14 14q6 25 6 103q0 3 10 42q-18 15 -23 26l92 53q-1 15 -3 40q-1 10 -22 37l-19 34l-28 30q-26 53 -34 63q-6 7 -92 86q-16 15 -16 26q0 10 16 24v8q-22 21 -28 53q-10 10 -19 10q-6 0 -18 -6q-4 -2 -11 -2q-30 0 -41 38 q-27 7 -35 11q-4 2 -23 23q-10 10 -30 17l-23 29q-30 2 -46 8q-7 4 -50 33l-22 12q-33 20 -47 26q-10 4 -50 14l-47 24l-56 5l-30 12l-70 -4q-1 0 -35 4q-44 15 -50 15q-11 0 -28 -3q-12 -2 -22 -2q-2 0 -15 2l-25 -12l-20 -3q-21 -8 -23 -8q-8 0 -17 13q-22 -15 -94 -44 l-30 -21l-39 -13l-22 -14q-45 -23 -65 -39q-17 8 -25 8t-23 -6l4 -25q-18 -11 -24 -14q-47 -26 -52 -33q-1 -1 -13 -24q-5 -8 -70 -60l-93 -95l-19 -7q-5 -2 -16 -20q2 -10 2 -16q0 -18 -21 -56q-24 -44 -43 -47q1 -11 1 -19q0 -17 -27 -79h-22l-26 -36q7 -20 7 -27 q2 -13 10 -27q2 -3 2 -7t-16 -42q-13 -50 -13 -51l1 -74l-16 -26q-9 -16 -9 -30q0 -5 2 -13z" />
<glyph unicode="R" horiz-adv-x="1627" d="M165 -321l5 9q31 62 33 68t4 49q19 102 22 145l-15 9l-3 6q70 33 82.5 41.5t12.5 20.5q0 26 -87 74l23 8q0 27 3 36v2q0 4 -8 22q-8 20 -8 49l15 130v138q0 10 13 27q12 13 19 33l-33 15q-7 47 -7 72q0 10 1 20q5 66 5 72v4l-11 90q0 2 10 10l21 18v14l-27 20q2 21 2 36 q0 32 -4 74l20 24q-15 20 -15 30q0 9 3 20l-18 2q-2 4 -2 5l54 87l4 82l27 32l-87 84l2 67q0 26 -21 26q-10 0 -23 -5q-10 8 -10 16q0 18 14 29q7 6 18 6q9 0 23 -2q21 17 45 29q47 22 53 22q10 0 24 -22q7 1 11 1q11 0 31 -8l21 18q40 -3 53 -5q26 -3 38 -3q2 0 100 11h1 q3 0 19 -3q39 -6 191 -10l25 -4l47 -3q12 -1 15 -1q11 0 30 15q25 -6 70 -9l52 -8l36 -4l25 -7h37l32 -5q39 -5 84 -23q23 -9 27 -30l-4 -5h-15v-26q9 -8 20 -9l5 4q-1 7 -1 12q0 9 12 21q8 -2 16 -10q5 -4 10 -7q30 -20 30 -35q0 -31 -9 -76q22 -1 22 -14q0 -7 -19 -37 q-18 -27 -40 -40q-2 -1 -12 -14q-9 -9 -73 -70q-45 -31 -48 -34q-7 -7 -14 -27l-34 -22l-18 4q-13 -11 -26 -17q-21 -8 -39 -30q-24 -27 -32 -32q-7 -4 -30 -7l-17 -15l-27 8q-6 -18 -13 -30q-36 -8 -57 -23l4 -4q-22 -27 -41 -38q-12 -6 -42 -12q-10 -2 -17 -18 q-35 -22 -52 -35q22 -4 23 -7l38 -76l36 -38q5 -5 14 -24l-17 -8l14 -14h11q18 0 41 -21q6 -6 20 -26q11 -15 23 -31q-18 -16 -21 -29l11 -10l41 -4q7 -8 15 -24q0 -2 24 -26q4 -5 35 -65q15 -26 86 -110l32 -45q34 -40 38 -50q13 -28 13 -38l-1 -14v-2q0 -9 4 -16 q3 -6 52 -33q23 -14 47 -44q73 -93 77 -102q8 -17 8 -44q15 -15 47 -30l14 3h1q7 0 10 -3q2 -1 16 -30q5 -6 37 -24q15 -18 21 -18t36 14l33 -3q4 0 15 5q9 -8 9 -16t-6 -15q-2 -2 -43 -21l-34 -19q-6 -3 -31 -8q-20 -3 -62 -19l-30 -11q-25 -17 -26 -17q-4 0 -24 19 q-9 8 -28 16q-11 24 -48 80q-6 9 -7 39l-61 37l17 37q-21 25 -43 39q-19 20 -60 83l3 25q-29 13 -49 34q-52 50 -59 112q-12 23 -47 39q-21 13 -60 78q-21 6 -32 20q-16 21 -37 42q1 28 -9 41q-22 31 -34 31q-9 0 -20 -2q-9 11 -32 51l-71 92q-31 43 -60 70q-65 59 -84 59 q-2 0 -129 -48h-4q-11 0 -27 2q-3 -16 -12 -38q-3 -8 -3 -11l2 -25v-27l6 -45q0 -6 -5 -31q-2 -10 -2 -24q0 -20 2 -42q1 -17 2 -86l7 -28v-81q4 -42 4 -45q0 -9 -7 -21q-8 -13 -9 -29l-26 -10l7 -49q15 -1 25 -8q-6 -17 -6 -28q0 -3 8 -31q1 -3 1 -9t-1 -23v-16 q0 -19 1 -40q-24 -13 -24 -35q0 -20 27 -23q-4 -13 -4 -16l2 -61q0 -15 -14 -39q-7 -13 -28 -24q-23 -13 -25 -16q-7 -7 -15 -20l-35 5q-31 -45 -78 -45q-9 0 -29 10zM334 1060l19 10l23 -23q0 -41 3 -90v-39l3 -51q-6 -30 -6 -78l-17 -6v-17h4q10 -1 25 -6q16 13 28 16 q7 2 34 8q13 -7 19 -7t19 6l5 9q22 2 74 21l27 5l56 35q29 14 63 36l199 107q58 26 80 40q15 11 44 42l40 30q27 27 35 34q6 3 29 12q7 4 32 41q21 15 25 22q9 18 9 35q0 7 -2 15q-5 15 -5 20q0 2 2 10l20 13v5l-36 13q-12 21 -17 29v13q0 1 -3 5q-6 7 -6 16q0 5 1 12l-31 9 l-2 -15q-24 7 -31 10q-26 10 -51 16q-19 4 -33 17q-17 -5 -21 -5l-56 18h-77q-11 0 -29 14q-17 -5 -64 -6q-31 -9 -34 -9q-5 0 -45 16q-2 1 -39 8q-28 0 -85 -31q-18 -10 -34 -10q-7 0 -9 3l-34 49l-35 -14q-47 -3 -54 -7q-17 -11 -21 -27q-1 -3 -3 -77q0 -9 -14 -43l-14 5 l-5 -16v-1q-1 -10 9 -22q26 -27 30 -35v-57q1 -11 1 -17q0 -7 -6 -19q-7 -13 -7 -33l-20 -19q0 -24 -15 -41z" />
<glyph unicode="S" horiz-adv-x="1978" d="M39 33q1 7 28 53l11 29q36 43 37.5 46t4.5 23q7 1 13 1q8 0 13 -5q9 -9 17 -21l16 -26l-5 -31l7 -27l-3 -30q13 -45 33 -69l20 8h1q3 0 7 -3q5 -2 19 -50q5 -17 21 -30q58 -48 72 -56l127 -50l36 -22q36 -5 43 -7q5 -2 47 -21q123 -25 144 -27l110 -4q20 -1 52 -1 q15 0 20 2q12 3 13 3l29 -8q18 7 90 17q8 -1 33 -11q11 -1 14 -1q10 0 27 25q5 7 13 7q6 0 15 -2q7 -1 13 -1q3 0 72 23l25 2l38 18q75 23 91 32q11 7 71 45l48 42q6 7 40 56l22 18l19 32q16 20 19 26q2 3 5 23q-3 9 30 58q7 11 10 31q26 2 35 7q8 5 13 27l-4 4h-21l13 42 q-13 15 -13 23q0 5 13 27q6 13 12 55q20 61 21 74q1 26 4 54h22v15l-33 -5q-6 33 -42 133l16 19l-4 10q25 -1 37 -1q73 0 73 16q0 20 -116 21q-9 -20 -23 -20q-5 0 -21 13q-7 5 -78 35q-27 17 -41 21q-31 9 -81 16l-23 8q-52 18 -56 18h-3v2l-5 3l-1 -4q-4 -7 -5 -7l-78 18 l-16 -5q-43 -6 -48 -6q-6 0 -15 8q-3 20 -23 20q-9 0 -31 -19q-7 -6 -22 -6v0q-10 0 -29 2q-21 2 -25 2q-67 0 -67 1l-45 74q-7 12 -16 12q-24 0 -51 -84q-2 75 -21 95q-5 5 -12 8l-14 7q-75 -108 -80 -108l-41 14q-50 6 -70 15q-27 14 -28 14l-25 3l-12 2h-27l-26 13 q-61 26 -79 40q-39 31 -79 94q-22 36 -22 59q0 11 3 28q-20 24 -20 46q17 17 18 22l8 60q22 52 26 55q43 48 85 95l42 30l52 42l32 15l35 18l157 67q51 26 71 33q62 21 97 30l128 34l36 7l183 17l83 8q1 0 42 -3l51 -4l27 -7q42 -6 119 -26l8 -37q-24 -18 -32 -23 q-15 -11 -19 -14q-17 -13 -27 -18q-22 12 -30 13h-31l-57 19l-36 -2q-3 0 -28 32q-23 31 -67 31q-39 0 -58 -17q-12 -10 -26 -39q-13 14 -19 14h-14q-42 0 -79 -15l-93 -17l-83 -27q-38 9 -41 9q-11 0 -39 -11v-24l-103 -39l-10 -19q-61 -9 -95 -52q-15 5 -26 5 q-19 0 -35 -33q-42 -13 -72 -52q-44 -58 -44 -105q0 -23 7 -70q3 -22 26 -43q56 -51 77 -57l47 -13q51 -18 67 -62q1 -2 12 -7q10 -6 21 -6q3 0 21 7q3 1 8 1q6 0 14 -1q1 18 8 29q16 -6 19 -6l47 6l76 -16l25 3q6 1 10 1q21 0 72 -13l4 -28q17 -4 27 -4q4 0 14 1 q-10 11 -10 18q0 12 18 12l34 -2h229q7 -7 7 -13q0 -10 -6 -23q15 -16 22 -16q10 0 27 25q13 -5 21 -5q3 0 51 21q18 -5 21 -6q65 -8 84 -18l37 -19l124 -40q3 -1 19 -13q15 -10 24 -15q44 -25 53 -37q5 -5 12 -24q-9 -16 -9 -26q0 -4 1 -11l32 -3q27 -46 25 -96 q15 -67 15 -84v-31v-13v-37v-13q0 -16 -16 -45q-2 -3 -2 -7q0 -8 6 -28q-14 -16 -15 -23l-2 -24q-28 -64 -39 -76l-1 -28l-26 -38l-2 -5q-2 -7 -2 -9q0 -9 5 -21q-24 -30 -30 -41q-19 -28 -48 -61l-34 -50l-23 -20l-40 -42q-35 -35 -47 -50q-8 -10 -15 -10v0l-19 9l9 13 l-52 -33l7 -27q-52 -35 -132 -73q-73 -35 -94 -38l-59 -7q-88 -18 -123 -30l-61 -9l-27 -5h-35l-41 -3q-34 10 -39 11q-11 1 -35 0q-23 -1 -41 13q-22 -24 -48 -24q-4 0 -32 15q-6 4 -16 4l-66 -1q-7 0 -21 1q-14 35 -45 35q-15 0 -26 -22q-18 9 -42 19q-22 9 -48 9 q-32 15 -43 18q-22 5 -40 10v26q-29 7 -31 13q-5 1 -13 29l-17 -4l-3 -29q-9 1 -73 22l-120 97l-3 1q-1 15 -4.5 20t-22.5 23q-5 4 -41 52q-21 31 -39 48z" />
<glyph unicode="T" horiz-adv-x="1949" d="M43 1538q25 8 102 53q25 14 65 14t89 -32l39 -5q53 -8 88 -11l120 -9l43 -5h1q5 0 21 1q56 6 83 6q14 0 43 -2l140 -8q4 -1 40 11q7 3 13 3q2 0 27 -7q45 -3 60 -8q10 -3 40 -14q40 23 64 23q7 0 73 -13l32 6q32 -7 36 -7l28 1l71 -1l54 3l19 -1q34 -1 37 -2l44 -14l5 3 l13 27q32 -4 46 -4l66 12h2q3 -5 22 -48l17 29q1 3 37 3q2 0 54 26q4 2 7 2q9 0 12 -7l22 -48l52 56l22 5l25 10v0q17 -2 24 -18l-21 -18l-4 -17q-21 -9 -25 -14l-24 -32q-4 -5 -26 -16q-23 -11 -46 -11q-8 0 -21 2q-34 7 -42 7q-9 0 -19 -1q-27 -4 -32 -4q-12 0 -42 7 q-26 5 -47 5q-4 0 -76 -9q-18 -2 -34 -2q-5 0 -111 6l-39 -6l-64 37l-29 -37l-20 7l-27 2l-47 4l-12 -4q-13 -4 -25 -4h-1q-7 0 -65 5q-13 1 -24 1q-16 0 -28 -7q6 -8 6 -9q0 -7 -36 -37q-5 -4 -31 -49q-4 -7 -26 -34q-17 -21 -17 -28q0 -28 62 -50q30 -11 30 -19 q0 -1 -12 -20q-6 -9 -9 -28h-17l2 -32l24 -13q10 -19 10 -28q0 -10 -4 -38q-2 -14 -2 -30q0 -17 7 -95l3 -50q1 -31 3 -52q2 -26 2 -29q0 -20 -12 -25q-1 -1 -14 -5q-8 -2 -20 -12v-6l-3 -3l23 -19v-33l28 -13q-87 -46 -87 -91q0 -42 84 -73q-13 -14 -13 -24q0 -9 4 -44 q1 -10 1 -21q0 -7 -1 -21l11 -5q-7 -42 -7 -58v-1l3 -39q2 -53 3 -61q1 -5 10 -33q-15 -37 -15 -48q0 -8 1 -21l-3 -3q-36 -5 -36 -24v-1l6 -22l33 9q1 -20 4 -27q6 -19 6 -21q0 -1 -4 -18q-1 -6 -1 -13q0 -8 5 -85q1 -13 -10 -92q-2 -17 -2 -32q0 -9 13 -56q-6 -37 -10 -41 q-6 -4 -35 -12q-19 -6 -27 -13l-15 -16q-24 0 -27 -2q-58 -36 -76 -44q-17 20 -17 33q0 4 9 36l-1 29l7 28l4 53l4 30q0 36 4 46q6 14 30 34q-20 21 -20 35v1l3 44v52q3 39 3 61l15 18q-1 11 -1 16q0 9 3 28l-16 15h-4l6 21v163q-1 8 4 34t5 43q0 6 -6 38l-5 46q-2 19 -2 22 q0 2 13 40q1 23 3 26q3 8 27 12v18l-32 -7q-7 25 -7 33q0 9 5 31q2 9 5 28q-14 5 -23 10l3 24v192q0 17 38 34q38 18 38 27q0 5 -39 27q-17 9 -40 30q23 11 23 21q0 1 -11 37q-1 3 -1 8q0 11 2 25q-27 30 -27 72q0 10 15 33q-8 26 -11 34l-2 5q1 27 89 66q9 4 9 8 q0 3 -93 23q-11 2 -11 14q0 4 4 12q-32 14 -97 16q-20 0 -59 3h-3q-4 0 -48 -7l-77 6q-4 0 -21 -7q-16 12 -29 12h-2h-23l-53 18l-16 -7l-19 -8l-34 -16q-42 9 -47 9q-9 0 -53 -6h-48l-36 -1q-9 0 -52 10q-3 1 -12 1q-17 0 -59 -5q-1 2 -2 5q-2 2 -2 3q0 7 14 21q8 7 17 23z " />
<glyph unicode="U" horiz-adv-x="2099" d="M125 383q5 25 7 65q2 31 33 59l5 24h18l7 7q-18 25 -40 43q55 32 72 52q17 18 31 24q-88 20 -88 25q0 2 19 29q-2 16 -2 29q0 9 18 47l6 24q19 28 27 47l30 -6q6 20 6 33q0 4 -17 58l17 36l16 58q6 10 13 21q10 17 37 99l8 20l8 20l23 43l18 41l44 91l9 27q9 18 9 25 q0 8 -1 18l5 6q-7 2 -24 4q-14 1 -19 9l-8 18q55 42 125 70q80 34 114 34q6 0 16 -5q4 -28 -37 -105l-62 -106l-8 -24q-4 -7 -29 -11q22 -6 22 -18q0 -14 -11 -32q-3 -5 -36 -44q-6 -6 -15 -36q-7 -23 -19 -44h-3q-8 0 -20 10h-3l-12 -26l-26 -12q2 -25 14 -44l24 12l5 -5 q-3 -17 -5 -22q-10 -32 -10 -36q0 -6 7 -21l-35 -44l-55 -183q-15 -50 -28 -65h-19q3 -24 8 -28q0 -3 17 -13v-10q0 -9 -12 -25q-7 -9 -9 -18q-1 -2 -1 -37q-6 -38 -7 -66q-1 -18 -18 -104q-2 -11 -2 -16v-1q0 -18 1 -34q1 -11 1 -14q0 -15 -7 -44l-11 -7q3 -13 3 -19 q0 -4 -7 -43l10 -10h24q7 -18 7 -26q0 -5 -2 -17q-1 -10 -1 -27q0 -42 10 -73l18 -59q3 -9 3 -21q0 -14 -6 -49q12 -7 29 -8l12 -22l23 -5q27 -74 66 -110q27 -25 78 -53q20 -22 29 -26q25 -12 50 -12q8 0 29 5l9 -24q18 -3 31 -3q10 0 58 11q9 2 21 2q4 0 26 -2l37 -2 l14 -4l36 15l23 7q41 14 63 20l7 14q29 9 51 29l35 -11q14 31 42 31h13q16 17 22 20l36 14q40 30 63 42l15 -12l36 16q9 21 14 23l30 14l39 24q35 9 43 13q7 4 37 22q13 40 41 40q10 0 24 -3v30q15 2 24 10q50 50 66 56l34 12q8 4 37 53q32 35 44 50l-7 22v1l4 40v6 q0 7 -1 31q-2 21 -2 25l5 82q0 58 1 92q32 14 32 24q0 5 -17 20v20l-11 3q-5 17 -5 30q0 6 10 25q9 17 10 38l-42 16q15 34 15 75q0 38 -5 75q-9 59 -9 72q0 40 8 79q23 17 23 30q0 10 -4 14l-29 26q-13 13 -12 26v1l80 32l-85 20l3 61l-9 30l-2 56l-12 94v0q0 7 8 45 q-15 15 -21 20q-17 13 -17 22q0 7 6 15q2 3 40 22q89 55 91 56t20 5q11 3 43 8q15 -21 15 -34q0 -1 -14 -108q-2 -16 -2 -49q0 -24 7 -64q1 -5 1 -11q0 -16 -2 -66q-1 -14 -12 -56q-2 -6 -2 -14q0 -10 14 -31q3 -4 3 -9q0 -4 -5 -22q-7 -27 -8 -28.5t-27 -18.5 q-12 -8 -12 -20q0 -5 2 -12h4q11 0 31 4l7 -6l-7 -26l21 -3q3 -24 6 -143l3 -54q-9 -39 -9 -109q0 -16 13 -37q4 -5 4 -13q0 -5 -1 -11q-2 -29 -2 -37q0 -85 1 -94q0 -6 6 -22q1 -3 1 -7q0 -9 -3 -24q-3 -22 -3 -50q0 -11 4 -140v-1q0 -8 -6 -41q-34 -12 -34 -31 q0 -22 14 -34q5 -4 33 -11q15 -4 15 -20l-8 -30v-7q0 -34 4 -60q-35 -29 -55 -35v-3q19 -17 42 -28l6 -22l11 -4q3 -22 3 -29q2 -19 10 -54q2 -21 9 -38l17 -4l6 -58q-26 -10 -32 -17l-28 -29l-36 -17l-72 -39q-10 -5 -23 -5q-11 0 -27 3q-1 7 -1 8q0 10 11 46q6 19 6 42 t-14 84q-1 4 -1 21q0 11 9 52l2 44l3 37q-7 50 -9 64q-1 7 -9 16q-20 -11 -26 -15q-77 -46 -87 -51q-59 -26 -60 -27l-53 -42q-60 -31 -86 -45q-21 -7 -26 -11q-3 0 -13 -20q-26 -8 -39 -14q-2 -1 -75 -45l-93 -41q-58 -30 -75 -30h-17l5 -28q-44 -10 -83 -35 q-36 -25 -61 -25q-8 0 -27 17q-43 -19 -46 -22q-8 -4 -16 -22q-13 3 -22 3q-7 0 -74 -22l-64 51q-9 2 -19 -50q-16 15 -49 17l-18 -27q-48 6 -127 34l9 22q-10 3 -18 3t-26 -12q-22 18 -66 46q-2 1 -54 59q-43 30 -47 36q-2 4 -19 52q-4 12 -14 25q-15 19 -15 23q0 6 5 15 q17 -1 32 -15q14 29 17 47l-4 4l-3 -3h-31l-10 10l-3 -2h-26l-7 34q-19 13 -21 20l-4 19q-11 21 -11 29q0 12 14 23q-18 23 -19 31l-4 44q-9 37 -9 46q0 7 7 88q2 24 3 26l12 18q8 12 8 30q0 19 -21 34z" />
<glyph unicode="V" horiz-adv-x="1580" d="M35 1503q25 3 29 7l29 24l35 25l35 26q10 5 24 5q8 0 20 -1q9 -28 51 -122q1 -3 1 -7q0 -6 -5 -46l-19 -4l-16 -37l19 -2h2l21 7l3 -3l2 -19l22 -12l11 -53l13 -3q7 -27 31 -78q16 -54 27 -71q-15 -16 -15 -29q0 -3 9 -17q14 -23 20 -35l19 -3q26 -89 32 -92l29 -56 l18 -42q26 -55 26 -72q0 -9 -10 -29h-2l-6 -7l5 -14l16 4l11 -8l10 21l3 -4h5q7 -26 12 -41q2 -5 37 -71q19 -53 56 -124q18 -32 18 -57q0 -16 -24 -37l17 -38h27q11 -18 15 -24q18 -24 19 -28l9 -33l21 -44q16 -39 42 -78q14 -23 39 -93q3 -8 17 -24q47 -48 47 -56 q0 -12 -19 -34l22 -16q17 17 21.5 25t10.5 34q9 38 14 56l30 97q22 86 30 103q9 18 28 41l21 9q3 6 3 8q0 1 -6 23q-1 4 -1 6q0 15 8 36q14 36 20 56l33 110q8 28 23 54q32 54 32 73q0 9 -1 22q11 13 11 15l19 73l25 79l7 37q19 51 21 57q5 12 34 18q-4 15 -4 23q0 6 3 19 l-20 26l2 1l59 152l15 38l8 29l18 66q-6 35 -6 37q0 12 12 42l21 -7q1 8 1 13q0 4 -3 15q-1 4 -1 7l12 53v25q0 5 14 32q38 7 51 12q17 6 39 28q13 11 24 12q28 -15 28 -27q0 -8 -11 -24q-21 -31 -33 -81q-13 -52 -53 -142l-11 -36l-45 -137l-12 -13l-46 -166l-1 -1 q-13 -6 -17 -18q-2 -5 -15 -49l-4 -24l-7 -22q-15 -62 -26 -93q-13 -33 -15 -41q-10 -34 -17 -41q-2 -1 -19 -16q-5 -5 -7 -13q-8 -44 -9.5 -47t-19.5 -16v-9q15 -12 15 -20q0 -4 -7 -15q-14 -22 -28 -82l-19 -61l-8 -34l-21 -52l-20 -78q-39 -99 -50 -143q-6 -25 -15 -32 t-29 -16v-16l9 -9l16 -3q-2 -7 -32 -119l-3 -31l-4 -23l-6 -44q-11 -47 -15 -70l-21 3v-36q-9 -7 -33 -13q-60 -27 -72 -29q-9 12 -10 14l-24 87l-39 95q-29 91 -33 99q-10 15 -36 37q0 25 -3 31l-14 32l-13 36l-23 40l-15 34q-14 24 -14 27t8 10q8 5 9 19q7 8 7 20l-19 3 l-13 40q-11 -1 -26 -13q-5 -4 -11 -4q-5 0 -8 5q-2 3 -3 42q-1 11 -55 133q0 2 -11 67q-22 6 -30 15q-2 3 -12 41q-35 74 -40 94q-6 26 -11 47q7 13 7 19q0 9 -10 25l-21 -6q-20 20 -22 27l-15 42q-38 79 -40 85q-2 9 -2 20q0 8 1 21q-30 18 -29 22q-6 8 -20 46 q-4 14 -24 49l23 9l3 31l-7 8l-21 3q3 54 3 81q0 70 -15 144q-5 26 -6 26q-9 -1 -23 -226q-17 28 -51 108q-11 22 -12 32v15q-16 17 -18 21l-36 73q-39 74 -39 82q0 7 8 21z" />
<glyph unicode="W" horiz-adv-x="2180" d="M228 1629q13 -29 16 -44q2 -8 11 -85l11 -37l-1 -27q0 -9 10 -43q-5 -1 -9 -5q-12 -12 -12 -18q0 -11 6 -27q24 -3 27 -12q3 -7 6 -28q0 -6 5 -26l23 -3q-1 -77 28 -150q-26 -32 -26 -44q0 -6 9 -18q10 -12 12 -12l12 -1q4 0 7 -7q8 -15 8 -33q0 -22 -21 -37l4 -35 q4 1 5 1q13 0 35 -11q6 -21 19 -43q9 -16 12 -26l54 -187q15 -51 15 -55q0 -1 -9 -32q21 -15 36 -44l13 -23l8 -39l11 -44l-80 -27q66 -38 90 -58l26 -3q9 -47 14 -72q5 -21 39 -106q9 -54 15 -76h21l16 -38h4q9 32 13 42q12 35 14 58q3 29 7 42l45 135q3 9 6 24q6 34 8 38 l26 59l7 31l13 30q26 113 29 118q6 10 21 24q-3 15 -3 17q0 11 27 140q7 34 42 104q8 62 16 88q46 132 46 193q0 5 -6 33l69 46l24 34q47 33 47 35q0 5 -11 9q-51 19 -110 26l39 65q-17 19 -17 31q0 15 12 46q4 12 26 30l31 23q45 39 49 41q8 4 15 4h2h5l40 -36 q-98 -37 -98 -64q0 -12 43 -51q13 -12 48 -63l37 -44q0 -7 -19 -27q7 -33 25 -54q31 -36 33 -39t12 -35q4 -12 31 -101q11 -81 14 -89q4 -12 21 -33l-3 -3q-51 -9 -55 -17l6 -9q10 -16 10 -51l55 -58l24 -48q17 -21 17 -28v-5h-8l-6 -6q3 -20 4 -27q4 -25 16 -51h20 q15 -31 39 -111l17 -55l3 -44q16 -25 21 -43q17 -54 17 -62q0 -9 -4 -18q-10 -26 -10 -29q0 -12 16 -27q7 -6 14 -6t19 5q7 -25 17 -78q3 -10 24 -52q8 9 19 17q17 13 17 40q0 11 -11 32q16 8 20 15q6 12 25 78l-3 22l9 32l9 43l14 21l10 37l23 66l21 106q22 66 26 79 q6 18 23 39q2 29 36 155q14 77 26 108q10 24 10 37q0 1 -12 48l21 59q6 55 11 76q10 -1 17 -1q11 0 25 8q0 20 -30 34q1 23 13 70v51l7 27q2 42 7 57q28 69 86 80q22 29 34 33q1 3 27 7q5 -11 5 -17q0 -9 -3 -20q-5 -18 -6 -61l-8 -27q-3 -37 -10 -56q-6 -16 -25 -44 q3 -15 3 -26q0 -5 -8 -31q-1 -3 -1 -9q0 -8 1 -18q-13 -18 -13 -29q0 -5 1 -11q-20 -4 -23 -9l5 -39v-4q0 -11 -11 -42q-15 -2 -29.5 -9t-13.5 -12l2 -10l2 -18q20 -27 20 -31q0 -1 -19 -33q-4 -6 -10 -27q-26 -87 -28 -102q-3 -22 -21 -68q-8 -24 -21 -37v-16q0 -10 -2 -28 q-2 -24 -4 -30q-4 -10 -22 -23v-16l-31 -130q-14 -73 -19 -91q-6 -24 -25 -66q-28 -13 -28 -29q0 -14 20 -32q-2 -23 -15 -54l9 -49l-11 -12q-7 -13 -34 -103l-6 -59l-15 -62q0 -4 8 -18q-21 -14 -23 -20q-6 -4 -13 -33q18 -23 18 -34q0 -3 -9 -45q4 -39 4 -44q0 -8 -1 -39 v-30q-19 -12 -25 -15q-36 -19 -49 -35h-11q-10 15 -19 44l-26 62l-10 25q-19 26 -26 58q-4 15 -5 18q-8 30 -8 43q0 9 12 28l-2 3l-13 2q-4 9 -20 26q-13 18 -32 130q-7 89 -13 112q-19 5 -23 13q-4 7 -16 79l-27 89l-10 49q-2 7 -35 90q-12 31 -13 55q-1 14 -7 35 q18 17 18 28q0 4 -6 15q-11 -12 -19 -12t-17 24q-32 88 -38 145q19 11 19 22q0 2 -12 22q-1 2 -1 5q0 9 6 23q-19 -1 -51 -13q-11 12 -17 42q-8 26 -43 131q-9 16 -13 33l-8 26l-5 30q-2 8 -21 25q-17 -25 -20 -39q-1 -3 -15 -83l-13 -34l-3 -34l-9 -18l-6 -39l-21 -38 l-18 -70q-23 -43 -24 -59q-3 -53 -14 -94l-36 -129l-32 -136q-18 -73 -24 -83q-3 -5 -22 -26q-14 -60 -24 -80l17 -13q-13 -31 -41 -137l-16 -62l-4 -29l-6 -30l-2 -24l-10 -40l-5 -21q-11 -34 -11 -38q0 -15 10 -33q25 -47 25 -56q0 -6 -29 -38q-16 -32 -23 -38 q-6 -5 -49 -20q-30 -14 -36 -14q-8 0 -23 11q-10 68 -13 127q-2 12 -20 75l-18 6q-6 24 -37 108q-5 14 -5 26q0 14 16 61q-16 4 -21 7q-17 8 -21 8t-12 -5q-9 10 -11 29q-3 30 -9 49q-5 18 -5 25v0q0 9 12 27l-25 7q-3 19 -16 48q-2 5 -17 72q-7 29 -21 57q-7 15 -7 25 q0 2 8 18q5 12 6 21q-9 12 -35 17q-4 40 -11 53l-23 43q-1 3 -1 19l18 11q7 21 7 38q0 8 -10 27q-10 -9 -15 -9t-15 9h-21q-6 17 -22 87l-25 96l2 39q0 39 -41 50q-6 36 -17 66l-42 115q-1 3 -4 30l14 13q-13 23 -40 88l-13 3q-17 46 -30 107q-38 86 -38 94q0 12 8 20 q4 2 24 9q15 26 19 30q3 3 29 22l16 13q35 27 41 29l18 3q8 1 21 19z" />
<glyph unicode="X" horiz-adv-x="1573" d="M36 1491l-2 9l22 7q2 19 22 35q25 20 53 35q37 43 40 44q6 4 13 4q20 0 34 -15q7 -9 7 -14v-18q8 -27 15 -50q8 -15 15 -29q4 -7 23 -25l10 -24q25 -42 25 -60q0 -13 -9 -48q23 -10 46 -10q26 -25 36 -39q7 -10 21 -52q3 -4 24 -15q7 -3 7 -14q0 -10 -4 -26l19 7 q18 -31 23 -41q22 -40 25.5 -45t37.5 -47q25 -29 35 -49l-7 -26v0q0 -19 25 -19q5 0 12 1q13 -19 35 -47q15 -19 30 -45l-22 -12q-2 -15 -2 -26q0 -29 48 -45l3 24h5q9 0 14 -4q4 -4 41 -62q35 -30 53 -46q17 18 68 93q4 7 16 7h8q3 17 21 33q2 25 4 28l44 71l30 62l77 133 l20 5q11 25 17 32q20 28 20 35v5q-3 20 -3 23v0q1 6 41 83l50 117q2 4 9 13q11 13 26 45l22 -3q10 19 12 25q48 108 56 109q3 2 37 5q54 19 74 19q15 0 15 -8q0 -9 -31 -52q-21 -31 -37 -54q-10 -14 -26 -49q-27 -41 -37 -60h-25l-3 -3q6 -13 6 -17q0 -5 -34 -76l-38 -60 q-30 -56 -38 -67.5t-34 -36.5q0 -24 -9 -38l-22 -12q-9 -37 -15 -50q-3 -6 -28 -36q-12 -25 -46 -85h-23q-11 -13 -12 -31q-1 -15 -9 -27q-2 -3 -35 -42q-5 -5 -15 -38l-21 -12v-8q0 -12 -17 -41q-9 -14 -33 -31q-3 -2 -14 -34q-3 -10 -33 -63q21 -16 34 -38h18 q27 -38 51 -89q5 -10 35 -39l16 -3q12 -21 45 -61q35 -69 39 -87q1 -2 12 -18q24 -37 26 -36q17 -18 20 -24q2 -4 3 -18l-3 -4l-6 -2v-40l8 -7q20 2 57 22q24 -36 41 -55q68 -78 82 -90q9 -8 9 -9l11 -50q2 -9 29 -21q31 -25 62 -51q18 -19 76 -60q1 -16 7 -24l49 -16 q0 -12 -1 -14q-3 -6 -25 -25q-51 -40 -65 -52q-12 -10 -39 -19q-3 -29 -29 -29q-34 0 -48 14q-1 1 -21 41l-16 24l-18 28l-30 31q-24 34 -48 56q-35 32 -61 58l9 31q-14 7 -23 18q-5 6 -40 19l-24 46l-39 51l-29 49q-23 12 -31 18q-3 27 -18 36q-14 32 -40 64q-27 35 -34 62 q-14 51 -14 62q-3 23 -13 32q-19 -22 -30 -22q-6 0 -11 6t-29 43q-26 38 -40 53h-3q-18 -34 -23 -41l-54 -69l-50 -85q-46 -55 -60 -76l6 -37q-12 -11 -20 -19q-17 -16 -71 -94l-19 -24l-27 -37q-37 -27 -41 -31q-2 -3 -13 -19l-18 -21v-19q-18 -34 -31 -59l-33 -47 q-4 -7 -9 -30l-19 -10q-13 -43 -37 -56q-1 -1 -25 -4q-11 -1 -32 -12q-5 -26 -40 -26q-50 0 -50 28q0 20 34 45q18 14 40 55q2 4 16 16q12 12 35 41l34 32l37 49l69 74q28 45 57 78q22 26 37 61q18 25 24 33q10 13 30 49q14 22 27 37q44 47 44 48l22 47q2 6 12 18 q40 49 44 57q16 29 36 44q25 61 33 93l-45 49h-5v20q6 8 9 9q14 10 14 16q0 11 -13 23q-24 23 -28 28v-24q-26 0 -30 6q-4 3 -10 19q-3 6 -12 22q-49 13 -114 148q-17 34 -34 49l-39 32q-23 59 -27 66q-7 11 -29 29q-7 27 -33 54q8 25 8 40v16h-4l-13 -10q-6 41 -42 41 q-12 0 -27 -3v5q-19 26 -74 94l-73 101l-27 29q-19 32 -33 43z" />
<glyph unicode="Y" horiz-adv-x="1710" d="M25 1545q19 13 40 23q16 10 43 45q52 30 76 49q13 -3 25 -18q15 -17 15 -22q0 -1 -5 -12q-2 -5 -3 -14q17 -12 27 -31q40 -57 43 -62q6 -13 6 -25t-3 -29q15 -12 35 -27q18 -13 33 -45q3 -8 3 -11q0 -1 -1 -5q-15 -34 -15 -35q0 -5 13 -17h11l19 11l19 -45h26 q7 -21 30 -52q32 -58 41 -71q43 -53 43 -64q0 -12 -15 -36l44 -21l7 6h5q14 -19 18 -27q12 -26 16 -27l28 -11q6 -1 38 -43q38 -49 55 -76q22 -38 36 -48q1 -1 33 -18q48 -50 97 -106q-2 -8 -2 -13t5 -14q6 -2 10 -2q8 0 34 22t42 36q6 6 19 33l23 21q16 36 31 55 q20 26 85 99q5 6 16 37q2 7 22 28q18 20 29 40q21 39 38 60l12 31l49 71l27 60q49 73 51 77q1 2 2 34q2 6 23 45q33 38 43 62q6 14 28 75q10 25 21 42l16 -3q10 24 26 24q10 0 25 -5v-5q43 26 105 37v-45l-5 -6q-12 -3 -18 -7q-13 -9 -55 -78q-25 -40 -61 -62 q-5 -19 -18 -34l7 -32q-24 -25 -32 -33q-21 -21 -44 -57l-19 -24q-45 -68 -45.5 -68.5t-25.5 -21.5q-15 -13 -25 -34l-1 -2q6 -18 6 -19q0 -3 -18 -32l-2 -3l-19 -8l-15 -21l-12 -12q-1 -2 -1 -32q-1 -16 -49 -91l-22 -39q-6 -8 -37 -37q-16 -15 -24 -27q-21 -29 -31 -30 q-5 -1 -16 -1q-19 -24 -19 -40q0 -12 3 -27q-19 -14 -27 -22q-3 -2 -27 -38q-20 -27 -22 -32q-4 -7 -4 -98q0 -10 -5 -54q-1 -14 -1 -25t4 -35q-21 -12 -28 -21q-8 -10 -15 -37q11 -10 27 -21q15 -10 15 -27q0 -71 -1 -72l-4 -16l8 -51l-6 -27q-2 -32 -3 -42q-1 -7 -3 -72 q-1 -13 -1 -25q0 -10 16 -43q1 -1 1 -5q1 -6 2 -15q3 -11 -2 -41q-2 -14 -2 -15q8 -79 8 -82q0 -11 -10 -37q-11 0 -19 -1q-7 0 -47 -27q-70 -23 -74 -26q-12 -7 -30 -27q-15 0 -30 15l15 27q-10 19 -10 29q0 35 15 92q6 23 6 27l-4 78q0 4 8 26l15 5l4 33q44 3 44 21 q0 7 -4 16l-24 -6l-8 15l-27 12q2 44 2 58q0 39 6 77q18 10 25 32l-4 3h-24q-4 13 -5 53q0 2 -3 34q-1 13 -1 24q0 14 2 25q5 43 5 52q0 1 -8 39q-3 26 -24 39q-22 12 -23 16l-6 17l-10 21l-11 27q-3 7 -22 20q10 21 10 31q0 12 -11 33q-1 2 -15 4l-51 8l-3 -13 q-11 31 -17 39l-32 45q-6 8 -17 43q-20 2 -25 4.5t-13 13.5q-18 25 -20 44l-21 -6q-10 17 -44 60l-17 34l-30 34q-27 42 -31 48q-4 7 -8 25l-14 19q-6 4 -7 34q-34 5 -53 32q-32 48 -35 51q-24 24 -27 29q-4 7 -4 23q0 12 1 26q-29 9 -36 16q-3 3 -22 38l-21 23l-33 41 q-28 31 -31 42v3v6q21 17 22 32q-22 20 -34 20q-7 0 -24 -11q-37 36 -51 66v10z" />
<glyph unicode="Z" horiz-adv-x="1715" d="M64 -244v31q17 16 42 52q18 20 33 37q7 7 43 21q23 8 23 30q0 7 -9 25q25 23 31 34q16 24 21 27q1 1 33 7q12 2 14 6q1 2 6 20l-9 29q0 5 26 35q22 25 35 25q0 26 4 27q3 5 22 26q40 56 55 76h20q28 36 28 58v15q20 21 80 106l11 13q27 35 34 42q4 4 41 23q20 12 20 32v1 l-7 30q19 17 70 90q33 36 34 37t11 21q27 44 53 84l24 -8l36 27q-5 19 -8 25q-7 14 -7 20q0 19 51 20l-7 57q18 18 74 95q19 20 20 21t13 30q13 31 33 31q9 0 21 -2q3 14 12 25q7 9 7 15q0 2 -8 42l16 16q3 3 12 17q12 17 23 19q2 1 41 1q11 0 27 43q-25 11 -25 28 q0 10 18 38q22 36 26 40q10 9 30 22v4q-15 50 -28 50l-38 -49h-218q-53 0 -67 9q-27 16 -34 16t-27 -21q-37 1 -55 1h-33q-19 -1 -23 -1l-56 4h-2q-2 1 -18 -3q-15 -4 -19 -4l-34 3q-54 0 -71 2q-11 1 -20 1l-45 -2h-1q-8 0 -12 1h-5l-37 -2l-2 1q-53 28 -64 28l-27 -26 q-34 6 -87 6l-25 4q-43 1 -47 2q-13 3 -35 15v6q15 14 33 21q11 5 42 34q43 30 56 30v0l54 -9q53 -3 101 -13q34 -8 47 -7q85 -2 87 -5q1 -1 14 -11q12 -9 36 -9q7 0 35 11q54 2 77 7l3 -3v-32q14 -4 18 -4q7 0 64 14q9 3 28 5l11 12h99q22 -35 50 -35q23 0 53 27l30 -4 l10 20q18 -1 26 -1q10 0 40 3l78 2l28 2q11 -1 48 -16l8 12l15 -5q17 10 39 11q3 0 19 2q26 3 59 3q15 0 46 -1v-13h11l4 -32q-21 -14 -21 -17q-11 -18 -16 -29q-7 -12 -50 -65q-44 -55 -48 -59q-6 -7 -22 -14l-9 9q-18 -21 -41 -31q-14 -6 -14 -23q0 -11 3 -26l-22 -35 l14 -10l-141 -186l-26 14q-20 -25 -20 -39q0 -9 4 -23l-22 -36l-19 7q7 -17 7 -23q0 -15 -29 -46q-32 -34 -40 -47l-52 -87l-16 -14q-19 -38 -29 -47q-14 -12 -24 -27q-23 0 -34 -8q-26 -17 -26 -27q0 -4 2 -9q14 -19 14 -26q0 -21 -36 -57q-16 -16 -18 -19l-9 -25 q-6 -18 -49 -65q-7 1 -12 1q-11 0 -29 -17l4 -38q-12 -12 -84 -112q-12 -17 -37 -25l11 -32q-23 -14 -35 -36q-77 -120 -102 -143q-19 25 -31 25q-5 0 -11 -8q3 -13 5 -18q4 -12 4 -19q0 -6 -13 -18l12 -23q-15 -24 -19 -32q-36 -66 -42 -73q-14 -19 -16 -27q22 -33 32 -34 l47 -6l49 -19l52 43q30 -11 50 -12q5 -23 23 -23q10 0 20 3q23 6 47 7q30 16 35 16t12 -1q8 -1 24 -4q18 -2 51 -18q20 -9 39 -9t31 37l6 2l48 -11l44 2l34 -2l25 3q39 -9 43 -9q5 0 53 12q5 1 9 1q15 0 55 -5q19 -2 39 -2q16 0 52 13l46 -37q36 42 37 42q4 0 32 -31 q9 -10 16 -10q17 0 48 29q13 12 24 12l3 -1q25 -5 35 -5q3 0 142 40l31 7q28 17 39 18h1l26 -4v-44q-17 -12 -63 -67l-22 -8q-3 2 -21 -21q-18 -3 -25 -3l-35 1l-28 -2q-3 0 -14 3q-39 10 -62 10q-1 0 -34 -4l-34 5l-29 -5l-45 11h-1q-2 0 -37 -5q-21 10 -32 10q-8 0 -22 -4 l-6 -23q-26 5 -40 7q-5 1 -88 1l-49 4q-73 -6 -96 -7l-16 20q-23 -3 -53 -13q-5 -2 -18 -2q-9 0 -21 1l-4 7l-2 5q-46 -17 -54 -17l-150 -4l-19 3l-19 -8l-3 -1q-16 0 -31 29q-12 22 -22 22q-3 0 -46 -50q-50 3 -90 3q-31 2 -42 2q-20 0 -59 -8q-32 -3 -51 -4l-39 -1h-27 q-12 0 -50 13l-19 -6l-21 1l-19 -1q-21 0 -21 21q0 19 30 27z" />
<glyph unicode="[" horiz-adv-x="654" d="M202 103l5 47v54l14 43h9q14 12 14 27q0 18 -8 35q0 1 -20 32q-6 9 -6 59q-4 51 -4 60q0 11 8 82l-3 132l4 10l24 7q-4 28 -4 39q0 18 -3 23q0 8 -26 21q4 24 6 32q7 33 7 52q0 4 -15 61q3 17 3 52v86l4 11l14 -3q4 16 4 27q0 7 -19 41q-3 5 -3 18q0 22 22 46v3l-5 1 q-15 0 -15 27v6l9 3q2 19 2 25q0 15 -5 61q-2 12 -2 22q0 9 15 66q0 37 8 57q5 10 29 31q7 42 12 49q18 18 69 32q65 28 72 28q11 0 28 -4q13 16 20 20q16 9 49 9q65 0 65 -65q0 -34 -23 -66l-43 22q-2 -18 -13 -31q-14 3 -26 13q-9 8 -22 8h-3l-32 -6q-15 -28 -28 -34 q-9 -6 -31 -7q-6 -23 -9 -30q-8 -28 -11 -78l-8 -22q7 -37 7 -57v-14v-50q-1 -41 -1 -89q0 -22 -7 -36l-7 -16q-2 -4 -2 -8q0 -3 9 -25q5 -13 5 -57l-3 -49v-2l5 -19q-8 -24 -8 -33q0 -4 1 -9q7 -41 7 -44q0 -1 -5 -40q-1 -10 -1 -20q0 -7 1 -20q-17 -17 -17 -26 q0 -8 17 -25q-6 -50 -6 -103q-1 -65 -2 -96q-69 0 -69 -27q0 -13 15 -23q1 -1 52 -22q6 -2 6 -10q0 -3 -8 -65q-11 -39 -11 -45t16 -76v-106q4 -34 4 -56q-23 -22 -23 -49q0 -14 16 -61q-5 -37 -5 -39q0 -43 10 -71q5 -12 31 -42q5 14 6 14l74 -6q1 0 15 5q7 3 23 5 q12 -14 34 -18v33q23 5 31 7q12 3 20 3q7 0 19 -8q3 -10 3 -19q0 -3 -3 -12t-4 -20q-4 -47 -13 -53q-12 -8 -60 -25l-22 -2l-8 -1q-5 1 -14 9q-15 -14 -21 -14l-25 -2l-26 -6l-36 6q-23 -6 -28 -6q-7 0 -54 14q-11 3 -18 12q-14 22 -30 33q2 14 2 23q0 7 -13 47l9 43 q-8 31 -8 36t17 56q2 5 2 14l-13 62v36q1 3 -15 30z" />
<glyph unicode="\" horiz-adv-x="1207" d="M-54 1272q0 25 42 25q10 0 26 -3q35 -6 42 -7q29 -3 41 -11q9 -5 36 -29v-5q-15 -14 -15 -22q0 -4 7 -14l22 7l4 -4l-3 -20q18 -8 20 -11l27 -49l49 -59q40 -59 54 -76v-12q0 -35 45 -54l28 -35q39 -42 52 -61q25 -36 35 -75h23l3 2l54 -56v-37q25 -7 34 -8q21 -3 21 -16 q0 -10 -11 -29q36 -17 49 -25q6 -4 35 -42q41 -40 65 -76q6 -9 10 -11l21 -15l-1 -17l9 -11l9 -13q30 -21 35 -26q3 -3 44 -52l36 -42q6 -25 9 -29q6 -10 34 -15q38 -55 153 -159l3 -26l16 -4l98 -110q2 -3 28 -28q36 -37 57 -80l31 4q28 -35 69 -68l15 -17q24 -20 43 -46 q-11 -7 -30 -9q-28 -2 -38 -4q-8 -1 -13 -1q-4 0 -25 6q-19 6 -38 8q-13 25 -38 36q-10 23 -38 58l-9 22q-19 28 -27 49l-24 -6q-8 15 -33 39q-17 17 -27 32q-18 26 -40 47q-68 76 -68 81q0 8 2 18q-23 5 -30 9q-14 3 -53 54q-7 9 -48 57q-12 14 -12 23q0 1 3 9q2 4 3 11 q-14 11 -27 14q-18 3 -28 12l4 25q-13 9 -17 12q-13 11 -20 11q-9 0 -21 -4q-8 28 -43 71q-10 12 -59 61q-17 16 -44 46q11 11 11 17q0 11 -12 23q-8 8 -14 8v0l-18 -8q-18 15 -18 32v16q-35 9 -47 17q-7 5 -17 24q-17 32 -31 47l-52 54l-30 36l-43 37q-3 4 -15 26 q-10 18 -52 59l-104 127q-58 59 -69 74q-30 41 -51 78l-46 47q-39 47 -58 66z" />
<glyph unicode="]" horiz-adv-x="654" d="M68 1519q16 8 18 13q0 1 -5 39v4q0 10 8 20q3 2 30 13q40 19 44 19l24 -2h32l29 -5q5 0 19 11q20 -5 26 -7q17 -6 21 -6q3 0 33 8q7 2 12 2q15 0 38 -18l6 -24l20 -3q7 -22 13 -95q3 -24 19 -49l-3 -16v-158q0 -8 -4 -16l-5 -8q13 -41 13 -47q0 -3 -2 -6 q-22 -33 -23.5 -36.5t-2.5 -17.5q-1 -9 -1 -21l19 -3l2 -206q0 -5 -19 -63q-1 -3 18 -10q-5 -16 -5 -26t2 -26l-8 -7h-18q4 -26 9 -27q1 -4 23 -12q-1 -21 -7 -53q-1 -7 -1 -15l7 -73v-3l-6 -22l-25 5v-10l16 -11q9 -66 15 -165l-31 -21q3 -30 6 -41q4 -14 28 -33l-14 -31 q11 -28 11 -42q0 -9 -1 -20q-2 -24 -2 -40q0 -8 1 -18q5 -40 5 -48l-5 -31l3 -35l-17 -61l1 -37l-15 -30q-4 -47 -6 -52q-1 -2 -17 -29q-8 -24 -11 -28q-6 -6 -32 -19q-29 -14 -40 -14q-6 0 -19 5q-9 -5 -19 -21q-6 -10 -24 -16q-6 -1 -46 -2l-30 -14q-21 51 -26 51 q-3 0 -7 -4q-23 -25 -39 -62q-12 4 -15 9t-9 24q-8 24 -8 31q0 12 13 37q7 14 12 30q27 -10 41 -10q5 0 28 5q36 0 39 1q9 2 21 26l33 -5l24 39q22 0 33 8q-2 23 -3 30q-4 20 -4 29q0 3 23 45q1 2 1 5t-16 56v4q0 5 2 11q16 49 16 60l-4 28v5v10q0 18 -22 24q9 32 18 67v0 q0 16 -2 29q-2 16 -2 19q0 9 7 39q1 3 1 5q0 1 -10 31q-1 3 -1 7q0 11 18 35l-7 38q15 24 15 35q0 2 -12 47l-4 47l-1 17q26 74 26 81q0 8 -1 18q-25 15 -25 26q0 2 12 35l1 31q15 43 15 49q0 7 -3 19q-24 16 -23 24l3 22v36l6 25q-8 39 -8 43q0 12 13 32q-12 31 -12 56 q0 11 1 21q3 27 3 36q0 3 -12 48q-2 7 -2 12q0 26 32 98l-16 11q2 26 5 34q8 35 8 44q0 1 -12 53q0 51 -9 64q-6 8 -16 11l-21 4l-27 4q-33 26 -36 26q-14 0 -27 -66q-14 0 -27 -1q-17 -1 -59 -19q-17 -8 -32 -8q-10 0 -12 6q-2 3 -1 16q0 6 -4 17z" />
<glyph unicode="^" d="M113 1027q14 19 38 60q31 42 32 49q3 11 3 35q27 26 35 34q23 22 28 35q1 2 12 46q5 19 15 27q10 9 38 11l7 38l30 21l3 39l28 21q-1 8 -1 14q0 10 5 18q1 2 33 19q21 41 36 58v13q0 16 7 27l35 13q-5 24 -5 34q0 21 26 34q36 17 41 22q12 24 30 64q24 -35 52 -55l-5 -37 q38 -30 53 -83q31 -11 37 -21q7 -12 14 -58l39 -24q5 -19 7 -25q8 -32 14 -34q10 -11 59 -28l-10 -81q22 -4 30 -5q35 -4 43 -16q11 -16 12 -42q0 -27 7 -45l40 -10l-3 -44l40 -9q11 -22 37 -66q15 -26 20 -42l-45 -26l-55 24q-18 -24 -31 -24t-62 50q-31 28 -33 30t-5 13 q-4 11 -5 39l-41 9q-9 20 -13 26q-22 37 -22 57q0 7 1 17l-39 15q-7 45 -17 62q-4 6 -42 36q-15 12 -18 24q-1 4 -3 36q-2 12 -17 22l-10 5q-4 2 -16 9l-4 34l-34 15l-7 39h-3q-15 -30 -34 -43q-15 -11 -31 -25l10 -53l-42 -16q-5 -20 -6 -27q-12 -62 -23 -68q-9 -7 -42 -8 q1 -16 1 -27q0 -23 -9 -35q-4 -5 -38 -27q-23 -14 -23 -40q0 -10 1 -22l-38 -17q-16 -73 -58 -115q-10 -9 -14 -9q-2 0 -39 15q-9 3 -16 3q-17 0 -40 -5z" />
<glyph unicode="_" d="M22 -462l22 69l-17 42q28 -9 38 -9l49 2l46 -2l50 16q43 -14 58 -14q32 0 40 4l29 14q1 1 2 1q3 0 53 -73l31 57l35 -7l32 12q32 -8 33 -8q9 0 36 16q20 -23 31 -22h1l29 4l40 1q8 1 27 13q23 -21 34 -21q4 0 18 8q25 14 38 21q26 -36 74 -36q18 0 38 3q5 0 57 22 q31 -5 35 -5q5 0 30 7h3q10 0 33 -23q32 12 42 12q3 0 61 -12q-6 -25 -10 -33q-6 -13 -6 -18q0 -4 4 -14q4 -8 9 -25q-11 56 -31 56q-9 0 -54 -79q-21 31 -26 40q-28 50 -41 50q-9 0 -19 -25q-26 -60 -27 -60q-33 0 -40 5q-10 1 -37 27l-50 -31l-33 27l-43 -30q-25 7 -81 9 q-17 1 -68 19l-13 -28l-83 25l-17 -30l-74 40q-33 -22 -61 -22q-24 0 -55 18l-29 -28l-28 4q-37 2 -41 3q-5 -2 -31 18l-51 -24q-18 19 -30 19q-8 0 -36 -4q-9 -1 -26 -1z" />
<glyph unicode="`" horiz-adv-x="836" d="M243 1169q22 13 31 13q2 0 43 -8q69 -3 83 -6q16 -4 37 -22l-18 -20q5 -20 7 -26q7 -25 21 -47q20 -39 36 -55l-5 -35l28 -15q-13 -35 -34 -35q-7 0 -13 2q-18 7 -21 7q-1 0 -7 -2q-16 54 -53 85q-30 42 -38 48q-9 7 -31 13q-19 38 -25 44q-27 30 -41 59z" />
<glyph unicode="a" horiz-adv-x="1044" d="M312 359q12 19 23 26q8 5 60 16q38 19 51 23q9 2 60 7l32 11l19 2l18 2h39l79 10q35 3 44 9q18 13 18 38q0 5 -8 32l52 65q0 1 -62 20q-5 2 -30 2q-43 55 -51 61q-10 4 -76 14h-32q-22 6 -29 6q-8 0 -23 -2l-19 24q-22 -8 -34 -22q-10 -11 -31 -19q-52 -22 -86 -49 l-14 -9q-13 -19 -17 -21q-12 -7 -28 -7q-6 0 -37 11q-34 8 -42 13q-9 6 -23 25q17 13 24 19q17 15 23 16l47 11l30 16l64 20l40 17h41l45 13l19 1l35 6q49 -1 62 -1q14 -1 54 -14l24 -3q39 -7 55 -10q14 -1 36 -22q-17 -15 -17 -25q0 -14 12 -14q8 0 23 8q10 4 28 9 q13 -13 14 -34l25 -18q2 -11 2 -14l-3 -39q11 -44 22 -55h4q3 -22 8 -48q3 -58 4 -77q-23 -14 -23 -27q0 -15 27 -27q1 -13 1 -22t-4 -35q-1 -11 -1 -22q0 -33 11 -82q-18 -18 -18 -36q0 -15 17 -39q2 -4 7 -19q3 -7 11 -27q-11 -13 -16 -25q-8 -7 -31 -16l-38 -17l-24 -7 q-37 -13 -41 -13q-10 0 -22 11l15 67q-29 -7 -84 -31l-29 -6q-26 -6 -27 -6l-37 4l-37 -19l-20 -2l-81 -17l-42 3q-31 -11 -42 -11q-14 0 -78 13l-42 4l-31 13q-35 13 -52 26q-15 11 -24 38l-23 8q-4 10 -9 36l-10 43v1q-1 9 13 29q11 15 28 51q49 48 65 62q14 11 63 31 q28 18 35 18q8 0 19 -2zM250 147q-8 -13 -15 -27q-11 -18 -10 -24v0l10 -19l28 24q34 -24 47 -26q37 -10 40 -11q6 -4 17 -21q23 -3 31 -4t13 -1q11 0 27 14q14 -10 24 -10q2 0 22 13l28 -6l54 19l26 12l22 -4l38 16l44 17q17 26 21 30q9 9 35 16l6 32q18 10 22 28 q-14 10 -20 21q1 17 1 25v16q-1 27 -2 46q-1 6 -1 11q0 12 8 35q-9 1 -23 12l-43 -1l-39 2l-30 -1h-19q-4 0 -30 16l-22 -7q-40 0 -59 -6q-12 -5 -20 -5q-2 0 -23 6h-2q-5 0 -32 -18q-4 -3 -52 -20q-64 -28 -92 -53q-3 -3 -22 -30q-6 -9 -35 -17q-4 -7 -4 -11q0 -3 8 -12 l7 -54q2 -7 16 -23z" />
<glyph unicode="b" horiz-adv-x="1162" d="M121 69q31 18 41 28q4 4 18 35q16 25 16 29q0 8 -5 27q-4 16 -4 33q0 56 40 59l6 37l-39 18l6 164l-4 26l22 6l5 22q-25 10 -25 23q0 9 2 30q1 8 1 15q0 6 -11 60l51 52l-53 63l1 3q23 18 23 35q0 15 -22 34q-1 26 -2 117q0 12 -2 19q-1 5 -1 6q0 7 4 9l73 27l-79 25 l3 17l-1 25l5 58q-9 56 -9 65q0 22 24 48q-1 12 -16 36q-4 7 -4 14q0 8 3 20q30 10 30 34q0 7 -8 20l-25 4q-4 18 -7 23q-7 15 -7 21q0 4 69 35v32l23 31q0 6 -26 15q-7 2 -15 4q-23 6 -67 20v15q16 12 20 16q30 24 37 26l42 11q39 20 53 20q17 0 31 -13q-1 -26 -5 -33 q-14 -36 -14 -41q0 -2 16 -32q1 -3 1 -4q0 -2 -38 -33l-10 -46l-44 -32q59 -71 69 -84t10 -22q0 -6 -1 -15q-20 -25 -20 -45q0 -8 3 -12q23 -31 23 -52q0 -9 -2 -21q-6 -30 -6 -37l2 -41q0 -3 -4 -15q2 -21 3 -28l2 -21q1 -13 2 -18q2 -11 2 -16t-8 -17q-23 -9 -37 -23l3 -3 q0 -26 4 -37q3 -11 33 -25q-3 -15 -3 -19q0 -13 4 -46q4 -27 -1 -38q-1 -2 -15 -28q-10 -18 -10 -36q0 -13 21 -13q25 -11 28 -11q14 0 34 28q13 -4 17 -4q1 0 70 15q51 20 77 26q19 -21 35 -21q11 0 25 4l4 21q16 -6 24 -6l47 1l26 -14q9 2 11 2q79 0 125 -21 q29 -14 43 -62q18 0 28 11q6 6 14 6t23 -20q29 -27 31 -29q1 -1 4 -17t43 -50q5 -45 29 -106q3 -9 3 -50q0 -30 -15 -55l-8 -12l-15 -24h-18q-13 -15 -13 -20l1 -70q0 -2 -14 -16q-6 -7 -42 -54q-11 -15 -44 -34l-30 -27l-37 -32q-32 -31 -44 -37q-76 -32 -120 -43l-25 -8 l-19 -2q-53 -12 -65 -12q-27 0 -41 15l-27 31l-39 -32q-107 29 -109 29.5t-41 2.5q-20 1 -60 15q-6 2 -8 2q-14 0 -83 -31q-8 -4 -9 -4q-11 0 -15 18q-1 3 -1 5zM413 79q14 2 25 2q8 0 30 -11q21 -11 32 -10l51 4l38 -1l26 -1l80 23q48 15 80 39q8 5 44 48l26 27q1 1 11 27 q3 11 19 34q22 33 26 65q3 29 4 34q5 13 5 14l-3 26l79 36l-14 44q-2 6 -4 44q0 15 -7 21q-4 3 -36 16q-22 35 -29 42q-6 4 -37 21l-21 12l-29 15l-26 14l-51 19l-25 12q-31 0 -54 4q-14 2 -65 5q-29 2 -85 12h-2q-2 0 -6 -1h-1q-1 0 -4 2l-24 -5q-32 -3 -37 -4 q-3 -1 -38 -24q-24 -8 -67 -31q-8 -4 -27 -12q-43 -20 -43 -50q0 -14 7 -23l28 -37l11 -50q23 -39 23 -52q0 -10 -21 -50q-2 -3 -2 -5q0 -1 6 -28l4 -23l14 -36q-6 -40 -6 -48l6 -57v-48v-13q-1 -9 -28 -36q-2 -2 -2 -8q0 -10 23 -27l61 49q19 -23 28 -23q1 0 7 3z" />
<glyph unicode="c" horiz-adv-x="956" d="M107 418q14 22 45 89q20 42 28 44q18 15 36 31l23 26l33 28l44 42l25 15l23 17l22 9l29 22l53 19q49 17 61 19q24 3 42 6q20 -20 29 -21q1 0 50 14q4 1 7 1q1 0 44 -11q5 -1 17 -2q18 -1 26 -3q47 14 52 14q20 0 37 -13q-5 -25 -14 -33q-9 -9 -33 -16l-6 -27 q-32 -15 -42 -24q-13 -9 -18 -10l-15 2h-4l-36 -2h-1l-29 4l-24 2q-34 11 -57 13q-7 0 -22 1q-18 2 -30 2q-8 0 -74 -12q-35 -4 -46 -9q-11 -7 -43 -39q-8 -9 -35 -13q-3 -23 -11 -30q-10 -8 -36 -12q2 -11 2 -20q0 -4 -27 -43q-8 -12 -8 -122q0 -24 25 -89q-16 -28 -17 -41 q6 -5 34 -12q44 -56 56 -82l24 -3q15 -20 20 -24l38 -25l27 -20q38 -15 47 -17q6 -2 46 -4l37 -8l35 -2l26 -3q20 2 66 23l18 -5q13 8 17 11q8 4 38 27q26 3 46 21q15 16 34 27q8 5 17 15q24 28 35 28q8 0 16 -10q-10 -41 -10 -69q-20 -19 -33 -40q-22 -7 -60 -33 q-16 -3 -29 -12q-19 -13 -32 -13l-34 2h-1q-53 -11 -63 -14q-3 -1 -27 -18q-5 -3 -9 -3l-101 1q-6 0 -29 -3q-24 16 -45 18q-28 3 -81 18l-24 3l-28 9q-27 6 -33.5 8.5t-15.5 11.5q-52 51 -52 60q0 8 3 19l-1 3l-34 -6l-2 2q-18 37 -26 47q-16 23 -17 37q-1 6 -4 36v3l5 28 q-28 20 -28 28q0 3 47 30q26 15 26 45q0 29 -64 37z" />
<glyph unicode="d" horiz-adv-x="1148" d="M207 548l35 -7l7 7l-10 52q20 13 26 16q4 2 57 57l27 19q20 17 31 17q9 0 35 -5l14 -11q19 14 45 23v26q8 7 46 20l46 16l34 3q24 8 28 8q8 0 24 -11q29 -20 38 -25l20 25q30 -9 40 -10q65 -11 70 -14l24 -15q4 -3 11 -3q15 0 37 17q-14 18 -15 22l-6 62l-5 20 q61 42 61 47q0 8 -36 44q-23 25 -23 86l25 13q-9 14 -12 38q-15 46 -16 63l-3 28q1 30 2 77q0 16 8 48l-11 57q0 5 6 19l18 11q-8 17 -11 15q-4 6 -27 6l-6 3l-3 2l81 53l-21 25l-7 47q-2 17 -33 27q-48 17 -48 24q0 6 11 16q8 7 74 20q19 27 96 37q7 -14 8 -46l2 -19v-1 q0 -1 -7 -44v-29l-2 -17v-42v-29v-42q0 -8 -4 -20q-9 -29 -9 -31l4 -74l-20 -37q9 -33 25 -59l-9 -37l4 -29q-7 -23 -7 -27q0 -17 7 -44q2 -11 2 -19q0 -7 -6 -17l-22 -4q-11 -23 -11 -34q0 -6 1 -15q34 -21 36 -39q0 -3 -5 -59q-1 -5 -1 -9q0 -27 4 -57q2 -11 2 -18 q0 -2 -1 -6l-2 -18l1 -24q-13 -23 -13 -26l2 -53l1 -17l2 -59l7 -67l1 -21l4 -47l-3 -49l15 -87l-1 -39q14 -56 15 -73q1 -23 2 -43q17 -16 17 -33v-13q-12 -6 -71 -12q-45 -10 -74 -13l-14 12q-26 -18 -47 -24q-9 -3 -84 -17q-108 -27 -154 -27q-72 -11 -90 -11 q-92 0 -144 13l-18 29q-29 -16 -37 -16q-6 0 -11 12q-1 3 -4 18q-1 6 -11 16q-19 -9 -30 -9q-14 0 -25 10q-40 34 -58 46q3 15 3 26q0 20 -18 36q-23 20 -24 23l-3 19q-15 73 -15 79q0 17 6 40q5 16 5 47l17 31q38 96 46 105q10 10 32 25zM263 222q21 -12 24 -19l9 -22 q26 -35 33 -45q7 -9 39 -35l25 -25l27 -14q33 -25 36 -25q18 0 29 51q36 -21 64 -21l86 3h41l88 20q51 9 61 18q24 36 40 53q-8 16 -7 20l5 27v78l1 64q-6 27 -8 48l34 13q-6 17 -6 28q0 8 1 20l-22 6l61 50l-60 69l1 20q0 3 -7 12v34q-17 7 -23 7q-4 0 -30 -11 q-1 -1 -11 -1q-31 0 -42 10l-35 32l-68 21l-39 26q-41 -52 -44 -53h-4h-7q-16 0 -50 -15l-27 2q-24 0 -57 -37l-33 5q-16 -20 -23 -24l-33 -19q-39 -34 -37 -62q-29 -20 -47 -47l-27 -41q-5 -13 -5 -49q0 -15 7 -39l4 -22l9 -25l9 -26q19 -31 19 -40t-1 -20z" />
<glyph unicode="e" horiz-adv-x="1054" d="M706 744l32 20q15 -18 21 -23q2 -2 21 -10q10 -5 86 -84q24 -25 33 -47q8 -19 17 -46q6 -14 14 -36l-7 -7q-11 2 -30 9l-38 -14l-34 6l-30 -8q-62 44 -65 44q-6 0 -47 -41q-64 12 -68 12q-16 0 -38 -3l-5 4q-16 -2 -87 -2l-37 -4l-46 -4l-47 -8l-42 1q-58 -18 -79 -21 q-5 -34 -10 -47q-6 -15 -24 -33q32 -22 34 -31q10 -64 19 -86l18 -10l-5 -37l31 -8q10 -41 26 -55q15 -13 50 -18q5 -31 16 -37q8 -6 36 -8l17 -26q11 2 19 2q6 0 60 -25q12 -6 26 -6q13 0 51 12l64 7l49 14q35 2 47 6q17 7 62 35q44 27 51 37q18 21 34 48q8 12 28 12 q9 0 26 -13q-7 -36 -13 -47q-42 -71 -53 -94q-13 6 -22 6q-6 0 -33 -20q-18 -12 -45 -14q-62 -17 -86 -20q-41 -4 -52 -7q-31 -10 -32 -10l-59 9l-35 -6l-17 -1q-24 -3 -37 -3t-73 7l-19 2l-21 13q-75 23 -83 27q-5 3 -34 30q-2 2 -35 22q-28 17 -30 26l-18 32q-4 8 -34 38 q10 16 10 24q0 3 -26 56q-7 14 -7 85q0 22 14 72q12 39 17 45l34 40l22 47q34 32 78 72l73 45l74 51l27 5l76 24l49 4q59 22 65 22q56 0 76 -53zM590 594l17 -21q20 4 27 5q27 4 54 14l57 -5q1 0 5 10q1 6 1 10q0 9 -12 22q-2 2 -10 12q-24 32 -30 30l-33 16q-6 3 -19 23 q-29 4 -99 4l-20 1l-34 -20q-2 -2 -55 -14q-42 -15 -74 -29q-7 -5 -39 -34q-6 -5 -23 -18v-6l2 -2l73 -29l22 -22l39 47q5 4 11 4q3 0 49 -13h2q13 0 57 10q10 3 32 5z" />
<glyph unicode="f" horiz-adv-x="713" d="M143 740l41 26q1 17 4 44l-1 100q0 27 20 65q-20 14 -26 25q-2 3 -3 103l-1 72l-1 49q0 19 15 42q27 43 27 50q0 6 -1 14l-15 7q6 65 66 144q20 31 44 52q44 37 64 53q17 12 94 53l21 15l30 4q53 13 55 13q3 0 32 -9q6 -2 13 -2t16 2q19 3 24 3q39 0 68 -32h25 q-1 -17 -7 -23q-1 -2 -22 -26q-16 -23 -20 -26q-17 -13 -54 -27q-22 12 -67 38q-37 22 -68 22q-29 0 -90 -31q-25 -13 -37 -33q-28 -44 -54 -126l-11 -22l-14 -55q-18 -31 -18 -38q0 -11 20 -17q-7 -19 -7 -40q0 -9 -1 -47l1 -74q-1 -8 -19 -45q-2 -4 -2 -19q0 -16 17 -47 q5 -9 5 -149q0 -17 -30 -45v-8q9 -9 23 -13q18 -6 22 -54q26 -26 36 -29l44 -12l58 -16l70 27l74 16q40 27 53 29q8 2 38 5q20 -22 21 -39q-57 -34 -70 -43.5t-30 -30.5q-6 -7 -13 -7q-11 0 -34 8q-18 6 -38 6q-15 0 -55 -7q-19 -3 -33 -3q-24 0 -58 7q-41 9 -48 9 q-10 0 -21 -11.5t-9 -20.5l9 -44l6 -98q0 -5 -5 -14q-21 -7 -21 -22q0 -19 22 -35q2 -27 3 -35q7 -96 15 -130l-10 -10l-17 4l-17 -16q12 -16 17 -21q18 -21 17 -28v-1l-3 -32v-3q0 -10 7 -48l-15 -8v-23q-29 -10 -76 -33q-6 -4 -39 -9v6q-13 -8 -20 -8t-21 10q5 14 8 37 l4 23l5 29q15 46 15 65q0 10 -1 57q22 16 22 32t-8 46q-10 39 -10 53l1 32v172q1 34 10 37q27 9 37 16v14l-9 9q-10 -3 -18 -3q-11 0 -14 4l-34 46l-49 8q-22 6 -24 6q-25 0 -76 -55q-5 7 -5 14t36 57q23 30 44 30q11 0 51 -7z" />
<glyph unicode="g" horiz-adv-x="1059" d="M-6 -329q24 4 39 22q21 26 38 34q62 25 83 36q11 -13 11 -23q0 -11 -9 -20q-2 -3 -35 -27q-6 -4 -16 -20q-18 -27 -18 -52q0 -6 2 -19q-25 -11 -25 -25q0 -13 10 -17q2 -1 8 -1q8 -1 22 -6q7 -23 35 -43q38 -28 60 -35l16 -26q56 -14 73 -14q7 0 20 3q5 1 9 1q6 0 45 -47 l9 19q4 21 9 21l141 -5q3 0 13 4t32 8q99 18 126 28q62 24 68 26q10 2 40 3q8 8 18 25q3 4 58 37q21 16 35 23q4 13 15 23q17 14 16 21l-5 37q13 32 14 54q1 12 3 17q9 24 9 28q0 10 -21 17q-12 49 -28 69q-14 17 -14 26t2 20q-54 36 -141 49h-1h-17l-5 -1q-5 0 -37 8 q-10 2 -18 2q-14 0 -33 -3q-15 -3 -26 -3q-6 0 -36 18q-2 1 -4 1q-6 0 -43 -18l-24 -4l-39 -7l-52 53l-33 -51l-19 8q-8 4 -17 4q-8 0 -18 -1q-16 -23 -36 -23q-10 0 -49 10q-33 8 -63 25q-46 28 -51 44q-2 6 -6 31q-8 32 -8 35q0 22 31 53q34 34 44 42t37 22l26 16 q40 5 47 8t28 19v4q-13 6 -22 6q-14 0 -31 -2q-10 -2 -17 -2q-20 0 -62 23q-10 6 -12 12q-1 1 -8 28q-3 12 -20 18q-26 7 -26 8l-14 23q-19 26 -19 36q0 2 6 45q1 47 4 54q2 4 17 26q6 8 6 18t-9 32q18 16 52 59q12 14 50 37l50 48q9 8 22 10q16 4 19.5 6t8.5 12 q22 3 112 28l34 4q34 7 46 7q10 0 72 -9q44 0 66 -2q21 21 56 34q18 7 23 7q12 0 37 -5q18 -4 34 -4q25 0 67 5h1q9 0 35 -22q19 3 19 23q0 6 -1 14q32 17 65 33q3 1 17 2q9 1 25 6q7 -9 7 -15q0 -48 -75 -79q-2 -18 -7 -25.5t-25 -21.5q-22 -17 -39 -20q-28 -5 -41 -5 q-7 0 -8 2l-32 44q-3 4 -7 4q-19 0 -36 -48q14 -15 19 -19q26 -23 31 -29q4 -6 9 -25l17 -14v-31l3 -4l-32 -16v-13q19 -13 19 -24q0 -26 -44 -72l-25 -29l-52 -41l-15 -25q-4 -5 -26 -19l-18 -12q-40 -26 -79 -37q-54 -17 -67 -18q-24 -3 -46 -10q1 -12 1 -21 q0 -14 -12 -28q-46 0 -60.5 -3t-63.5 -22q-70 -15 -83 -22q-39 -21 -51 -47q-5 -10 -5 -11q6 -13 74 -25q20 -12 29 -32q26 7 41 7l58 -8h1q17 0 28 3q12 2 13 2q9 -2 43 -49q9 -13 19 -13q5 0 9 7q20 42 26 47q38 26 69 26l35 -3h1l47 3v0q11 -1 23 -27h14l15 25q16 1 29 1 q8 0 44 -7l29 -2l29 -14q69 -22 88 -32q-1 -8 -1 -14q0 -8 20 -33l33 7q28 -14 33 -27q1 -3 6 -23l14 -39l6 -42l8 -36q0 -1 -9 -47q-6 -33 -26 -77q-8 -17 -35 -46l-20 -36q-12 -20 -16 -25q-2 -6 -16 -7q-11 -16 -19 -21q-3 -3 -34 -20q-24 -28 -36 -33q-21 -9 -63 -33 l-59 -24l-28 -16l-38 -10l-33 -15l-15 -1l-30 -6l-75 -6q-77 -25 -91 -25l-56 4h-1q-27 0 -28 2q-1 1 -19 44l-22 -43l-42 39l-39 -41l-3 2l-16 8q-26 19 -31 21q-6 1 -49 3q-18 1 -23 6l-23 15l-29 18l-22 19q-35 16 -39 19q-9 5 -27 42q-17 36 -17 67q0 19 21 64 q10 22 20 32zM271 430q-2 -14 -2 -24q0 -19 12 -28q6 -4 34 -9q35 -33 41 -36q29 -16 98 -16q15 0 49 10l24 1l72 30q6 2 29 2q18 22 55 47q8 6 12 12q1 1 9 29q13 31 13 39q0 31 -4 69q-3 36 -43 65q-16 12 -33 39q-7 11 -20 16q-5 2 -40 10l-16 9l-27 9l-9 3l-47 -14 q-31 5 -36 5q-13 0 -55 -15l-29 -5q-7 -1 -23 -14q-13 -2 -20 -9q-17 -17 -34 -35q-24 -26 -29 -33t-9 -40q-6 -34 -6 -67q0 -16 4 -23q7 -11 30 -27z" />
<glyph unicode="h" horiz-adv-x="1049" d="M118 1602q9 17 41 33l66 34q27 13 53 13q9 0 24 -9q-48 -20 -54 -27l-38 -40l77 -73q5 -5 5 -20q0 -8 -11 -33l-9 -19l-17 -8q-3 -2 -8 -13t-5 -17q0 -10 4 -24q11 0 25 9q10 5 20 7l-10 -175q0 -8 2 -26q1 -14 1 -23q0 -21 -23 -45q0 -22 5 -27l18 -21q6 -7 6 -24 q0 -8 -11 -50l6 -39q5 -55 5 -57q0 -3 -11 -34l7 -42l-2 -20q6 -31 6 -32q0 -5 -2 -12q-12 -54 -12 -105q0 -21 10 -44q54 30 129 103l42 -8q23 15 51 21q46 9 56 9q11 0 26 -15l6 -22h24q7 7 16 24q4 9 12 8l60 -4q89 -6 97 -11q1 -1 33 -37q11 -14 43 -28l-15 -30 q13 -9 35 -9q21 -27 21 -54q0 -32 -3 -69q-3 -34 -14 -46l-12 -12l15 -39l-20 -24l-3 -9l27 -28q-5 -14 -5 -18l1 -25l3 -60l1 -11q-18 -30 -18 -36t13 -69l-2 -86q0 -1 1 -12q-23 -15 -56 -19q-17 -13 -35 -20q-22 -8 -38 -16l-35 31q7 25 21 55q17 38 17 77q0 9 -14 47 l3 13l6 37q12 32 19 84l-17 10q0 34 11 118q1 7 1 12v7q-7 47 -7 48t4 9q4 9 4 14v1q0 5 -14 33q-8 18 -24 28q-5 4 -34 11q-40 20 -47 22q-5 1 -42 1q-56 8 -66 8q-8 0 -20 -1q-43 -3 -49 -3q-37 -1 -81 -11l-13 -3l-58 -30l-35 -12q-73 -65 -73 -73q0 -25 66 -39 q-4 -21 -5 -27q-6 -30 -10 -110q-21 0 -29 -8v-6q26 -30 32 -51q8 -27 10 -86l5 -32l-9 -44l5 -27v-17l1 -18q0 -7 -11 -20q-1 -2 -63 -22q-16 -5 -48 -35l-23 20q1 30 14 75v29q0 2 14 28q7 12 7 24q0 7 -5 16q-12 21 -12 25v1l3 51v-22v69q0 5 1 16q1 10 1 12l-2 37l5 75 l-3 58q2 10 4 19q1 4 26 26q6 5 6 16q0 14 -3 32l-24 -7q-12 47 -12 108q0 76 5 170l34 4q-12 22 -17 47l-23 16q4 29 4 43q0 15 -3 33q-10 70 -10 99q0 24 19 39q47 35 47 39v1q-21 21 -71 24q4 15 6 37q12 35 12 40q0 15 -21 31q1 26 1 40q0 20 -1 36q-2 34 -2 45 q0 6 6 43q-24 76 -24 86t1 23z" />
<glyph unicode="i" horiz-adv-x="435" d="M128 689q0 14 30 38q66 51 114 67l30 -31q-10 -25 -16 -70q-6 -37 -6 -45v-37l-17 -24q0 -25 22 -48q-6 -11 -6 -13l2 -49l-1 -11q-1 -7 -1 -23l-5 -191q1 -15 13 -69l2 -42q6 -30 6 -35q0 -21 -18 -38q-5 -5 -38 -26q-50 -39 -57 -42q-10 -4 -18 -4q-12 0 -24 12 q4 25 5 33q1 12 11 44l1 49l7 98l-1 18q1 16 16 16q4 0 10 -1q5 16 5 22q0 8 -6 31q-3 10 -6 28l-17 13q3 22 3 33q0 5 -1 15v14q0 13 10 29q-10 12 -10 25v8v7l-2 23q65 12 65 21q0 1 -2 3q-15 13 -37 13q-16 0 -39 -2q3 15 3 20q0 2 -8 99q-1 12 -19 22zM146 1092v1 q-2 35 51 76q12 9 26 26q1 1 20 16q37 55 46 61q15 11 25 11q4 0 23 -15q19 -14 19 -34q0 -16 -18 -28q-46 -33 -88 -72l-28 -18l-35 -24q-28 -15 -32 -15q-9 0 -9 15z" />
<glyph unicode="j" horiz-adv-x="435" d="M-464 -976q25 16 37 16q5 0 111 -38q31 1 58 1q17 -24 30 -24q12 0 27 20q24 5 36 5q8 0 24 -2q21 17 85 46q26 9 85 93q30 42 31 51l29 76q30 32 30 40q0 5 -11 70q-1 6 71 83l1 1l-54 76l2 3q26 29 26 42q0 7 -1 16q-23 18 -22 30v1l4 30l1 51l3 28q-3 40 -3 50 q0 47 14 67l21 -4q5 15 5 23q0 4 -2 13q-14 -3 -24 -3q-18 0 -18 18q0 7 3 23q2 13 2 36q0 32 -2 54q-2 14 -2 22t8 23l22 -7q6 13 6 19q0 10 -13 38q-7 16 -31 30q5 27 5 53q0 27 -2 83h29q6 19 6 30q0 5 -2 17h-32l-8 26v1q1 6 9 40q22 32 22 39q0 2 -10 37l-4 29l-21 29 q-9 139 -11 143q-7 11 -27 26q12 21 19 24l29 11q13 12 88 59q9 6 18 6q7 0 16 -1q10 -15 9 -19l-6 -38l4 -32l-3 -61v-56q-21 -47 -21 -53v-9q1 -11 1 -15q0 -6 -3 -19q33 -9 33 -23q0 -8 -8 -37q-5 -12 -4 -33l5 -143l1 -2v-2q0 -2 -2 -6q-7 -16 -7 -38q0 -4 5 -34v-7v-14 q-1 -35 -1 -38q0 -9 4 -36q4 -23 4 -51l4 -137l-1 -19q-1 -13 -13 -47q-3 -8 -3 -21q0 -8 17 -59l-2 -33q-4 -105 -7 -122q-3 -18 -10 -49l-26 -11q0 -17 5 -27q9 -17 9 -23q0 -2 -6 -21q-4 -27 -14 -71q-15 -62 -27 -89q-7 -15 -30 -64q-16 -3 -17 -7l-5 -13q-1 -2 -7 -9 t-16 -24q-39 -66 -52 -79l-43 -42l-30 -35q-47 -24 -54 -31q-8 -7 -22 -27q-13 5 -16 5q-7 0 -69 -20q-12 -5 -45 -7q-24 -2 -88 -12l-35 -1h-17q-30 0 -63 32q-39 37 -40 52zM60 1100q17 48 72 84q5 17 8 20l23 28q47 57 65 57q11 0 15 -25q19 -12 20 -17q5 -4 5 -30 l-49 -35l-136 -96z" />
<glyph unicode="k" horiz-adv-x="976" d="M114 1602q22 10 96 61q36 11 57 23q10 -3 10 -12q0 -3 -13 -49q-1 -2 -1 -7v-7v-7l4 -132q2 -8 -49 -30q-29 -13 -29 -34q0 -29 81 -86l-31 -9l2 -88q9 -5 12 -5q19 -5 19 -12q0 -8 -4 -32q-1 -6 -1 -10q0 -5 7 -55v-278q0 -15 -8 -45q-2 -7 -2 -18q0 -31 24 -59 q0 -9 -2 -20q-3 -15 -3 -26v-1q0 -50 4 -59l5 -11l-62 -79l58 -37q-9 -55 -9 -57q0 -15 14 -41q10 4 47 35l61 43l94 98l37 36l24 25l61 62q52 64 66 77q46 40 78 54q14 -15 39 -26q2 -13 2 -20q0 -31 -25 -55q-14 -14 -44 -18q-21 -29 -34 -30q-27 -3 -37 -10q4 -17 4 -29 q0 -19 -42 -46q-19 -12 -27 -20q-15 -14 -20 -17q-2 -3 -25 -4q-4 -19 -10 -28q-3 -3 -39 -25q-62 -52 -72 -61q-11 -10 -16 -27q43 -47 69 -63q74 -47 75 -53q5 -18 18 -29q-1 -5 -1 -9q0 -8 11 -18q32 -27 34 -28q20 6 31 13q88 -40 122 -49l-3 -24q19 -16 30 -16 q4 0 28 9l28 -12q18 -6 24 -15q15 3 26 3q3 0 7 -1q17 -4 18 -4l32 11l5 -5q1 -3 1 -4q0 -3 -16 -46q-12 -32 -50 -51q-11 -4 -48 -6q-30 -12 -34 -12q-7 0 -43 14q-61 16 -77 24q-31 15 -40 20q3 13 3 22q0 7 -4 12q-9 12 -21 12h-3q-35 -6 -36 -6q-7 0 -22 14 q-21 18 -55 41l-53 45l-33 11q-32 33 -98 86q-40 27 -45 27q-13 0 -13 -16q0 -8 4 -22q4 -18 4 -98l11 -92l-2 -16q-1 -9 -2 -27q-14 -11 -16 -12t-44 -11q-40 -10 -74 -27l-10 28v1q14 73 19 140l5 143l21 -3l12 29q-27 19 -27 33q0 20 24 60l-29 16q54 20 54 38 q0 10 -19 22q-37 23 -39 30l1 9q2 7 2 20v1q0 3 -3 33q-2 14 -2 36q0 11 1 34l28 22v7l-27 19l-9 167l-9 65q31 27 31 44q0 14 -30 34q4 13 4 14q-19 119 -19 127q0 9 12 77l-3 17q-1 13 -21 24q1 8 1 13t-8 25l2 34q-9 77 -9 82q0 8 1 22q1 24 1 51q0 22 -6 31l-1 2l9 36 l-1 2q-5 9 -5 31z" />
<glyph unicode="l" horiz-adv-x="410" d="M129 1620q15 4 25 11q24 16 37 21q27 12 50 39h9q23 0 23 -27v-2q0 -6 -1 -13q-1 -5 -1 -6l10 -35l-4 -84q-1 -81 -2 -85q-2 -10 -17 -27l-6 -32l21 -3q6 -25 6 -36q0 -19 -21 -40q-2 -28 -2 -36q0 -11 13 -22q1 -19 1 -28l-5 -125v-127q0 -10 -18 -39q-6 -11 -6 -20 q0 -2 14 -50v-5q0 -15 -21 -34l22 -48l11 -8v-62l3 -225l-18 -11q3 -22 3 -36q0 -4 -6 -48v-27l31 -4l-3 -7l18 -163l-2 -42l6 -30q-20 -32 -20 -35q0 -5 5 -13q-20 -8 -56 -30q-21 -12 -23.5 -13t-19.5 -1q-24 -19 -39 -19q-4 0 -14 4q1 15 1 25t-4 31q-2 9 -2 16q0 3 8 31 l2 22l4 30l-3 19l84 54l-81 56l2 13l7 36l9 25q0 2 -18 36q-3 6 -3 11q0 3 15 42q11 29 12 54l-23 12v34q-2 23 -2 30q0 3 11 44q1 4 1 16q0 35 -4 78q-2 16 -2 28q0 10 16 45q1 31 6 49l-21 25v220q13 10 17 20q6 17 16 39q-21 8 -34 18q7 28 7 35q0 10 -18 20q-3 14 -3 36 l-1 41q0 8 14 31q3 4 3 8q0 2 -5.5 19.5t-6.5 18.5l-3 6l75 53l-51 69q-39 52 -39 61q0 8 6 33q3 11 5 33z" />
<glyph unicode="m" horiz-adv-x="1310" d="M123 684q6 22 20 34q24 22 77 52q18 10 20 10q4 0 15 -11q5 -6 16 -12q4 -24 5 -31q5 -26 5 -31q0 -19 -4 -45l3 -3q30 6 36 11q8 3 27 30q21 2 28 9q2 2 15 18q42 23 69 29q42 11 66 23q1 1 5 1q21 0 21 -39h29v28q22 12 46 13q24 5 26 5q28 0 51 -32q5 -7 24 -65 q3 -11 15 -11q5 0 26 27q11 13 42 25q67 40 78 40q1 0 33 -5l32 9l53 2l31 3l37 -13l33 -10q36 -19 44 -29l3 -24q-15 -3 -15 -15q0 -6 5 -16h21q5 -19 6 -60l8 -30v-105v-15q0 -10 -18 -41q-4 -6 -4 -17q0 -9 13 -52q2 -7 2 -16q0 -5 -3 -26v-3q0 -8 7 -74l-20 -16v-21 q5 1 9 1q6 0 11 -8q-1 -26 -2 -34q-1 -13 -1 -21q0 -20 15 -52q-22 -19 -64 -36q-52 -37 -60 -37q-11 0 -26 3q-2 23 -2 42q0 15 10 59q2 9 2 17q0 4 -6 47q-1 4 -1 8t9 71l2 39q19 36 19 46q0 7 -20 33q-2 2 -2 3l37 21l18 11l-55 43q16 25 22 64q-21 18 -22 23 q-12 80 -20 101q-19 20 -55 71q-11 15 -56 15q-25 0 -41 -7l-37 -19l-17 -5l-18 -18q-28 -14 -40 -30q-18 -27 -29 -43v-70q-26 -10 -26 -23q0 -11 23 -23q3 -44 4 -58q4 -48 4 -79q0 -12 -3 -34l-27 4l-6 -5q2 -9 22 -37q6 -9 6 -18v-20q-1 -25 -2 -31h2q16 -58 16 -122 q0 -14 -18 -27q-6 -4 -39 -25q-61 -23 -65 -23q-1 0 -5 1q-8 15 -8 27v1q-1 14 2 41q2 28 2 87q0 38 5 60h3l17 17q0 17 -5 27l-13 36l-11 25l1 16q2 43 4 52q31 22 31 40q0 19 -32 23q-4 23 -4 109q-12 56 -19 69q-12 18 -37 17h-3l-28 -7v5l-20 24q-19 -14 -24 -15 l-48 -11q-51 -19 -57 -20q-10 -1 -35 -4q-24 -35 -40 -74q-8 -21 -8 -26v-44l-6 -35l6 -36v-1q-3 -29 -4 -55l-26 -15q26 -31 27 -39q2 -9 2 -55l-2 -33q0 -2 1 -11q3 -39 4 -71q1 -50 7 -81q-22 -8 -82 -44q-10 -6 -24 -6q-10 0 -26 4q-1 7 -1 8l2 37l-1 54v52l-2 21 q0 5 20 32q1 1 1 3q0 8 -21 17q-2 16 -2 29q0 11 26 52q2 2 2 27h-17q-9 29 -9 46q0 19 6 82h8l5 5q-1 22 -2 30q-1 34 -15 57q-3 6 -7 63q-2 23 -14 61q-13 1 -24 8z" />
<glyph unicode="n" horiz-adv-x="1047" d="M135 679q8 35 51 54q46 37 68 37q23 0 29 -12q2 -3 3 -58q0 -14 23 -54q40 51 47 50l35 22q40 33 51 33q13 0 26 -22q55 40 109 40q11 0 19 -3l20 -6q39 14 47 14q11 0 56 -11q27 -6 50 -8q14 -17 20 -18l23 -4q26 -4 61 -56q21 -33 22 -146q-24 0 -49 -9t-25 -17 q0 -1 67 -37q8 -4 8 -20q0 -17 -19 -61q-1 -2 -1 -6q0 -12 21 -32q-3 -21 -3 -36q0 -10 15 -51l2 -55l3 -48l-3 -42q0 -10 10 -37q-27 -20 -38 -26q-5 -3 -45 -19q-8 -4 -44 -28q-28 29 -28 49q0 7 18 78q1 5 2 23q1 9 1 15l20 7q50 7 51 12l-11 7q-24 15 -75 26q6 43 15 52 l30 28q24 23 24 42q0 4 -66 29l3 36l-5 53q0 1 3 8q4 10 8 29q-16 18 -16 24l1 50q0 10 -16 27t-16 34l-5 6q-24 7 -27 11l-28 48q-8 13 -18 13q-17 0 -41 -20q-37 -32 -66 -32q-5 0 -41 8l-19 -19v-5q-21 50 -42 50q-1 0 -11 -4q-14 -7 -31 -11q-21 -6 -54 -27 q-49 -27 -57 -41q-16 -24 -16 -47q0 -1 2 -64v-3v-1q0 -18 -8 -23l-45 -33q-7 -5 -7 -10q0 -10 18 -20q40 -21 46 -27q5 -6 5 -19q0 -3 -2 -20l2 -74q0 -6 -18 -30q-2 -3 -2 -11q0 -18 21 -38l-3 -3q2 -24 2 -32q4 -59 16 -91q-10 -21 -20 -25q-4 -2 -33 -6q-5 0 -14 -5 q-12 -5 -16 -6q-7 -1 -15 -14q-8 -12 -23 -12q-6 0 -18 14q-8 8 -8 17q0 8 2 18q7 30 7 35l1 76q9 29 9 34q0 10 -4 24q-5 20 -5 27q0 4 2 20q1 10 1 17q0 13 -1 38q-1 12 -1 24q0 13 7 33l28 13q-2 9 -7 14q-6 3 -32 5q-1 19 -1 31q0 9 4 30q1 5 1 12q0 23 -11 85l23 13 q-19 28 -21 33q-2 3 -4 23q-1 16 -24 44z" />
<glyph unicode="o" horiz-adv-x="1160" d="M101 284q0 66 8 96q8 26 28 79q41 76 47 86q6 9 46 35q1 1 15 30q9 16 15 19q11 9 77 41q21 10 48 38q4 4 120 47q60 23 175 23q23 0 60 -8l4 -21q14 -6 24 -14q15 5 24 26q55 -12 96 -40q31 -19 35 -24q2 -3 20 -35q20 -31 68 -32q24 -40 30.5 -59t12.5 -64q6 -46 9 -72 h-16v-12l-20 -23q4 -17 28 -32q-3 -44 -6 -60q-2 -7 -15 -35q-37 -87 -52 -111q-53 -64 -97 -78l-54 -27l-51 -24q-40 -22 -47 -23.5t-97 -6.5l-70 -15h-71l-32 -4q-88 15 -110 16q-14 16 -21 19q-2 1 -39 7q-20 4 -79 43l-36 20q-6 18 -8 25q-4 11 -8 15q-1 0 -21 14 q-1 0 -7 9q-22 35 -22 70q0 17 21 32q-9 16 -31 26zM211 304v-10l9 -9q10 9 20 10q8 -34 14 -52q5 -11 52 -87q1 -2 1 -6q0 -9 -10 -29q4 -14 27 -15q10 10 17 10q6 0 88 -42q35 -17 71 -17h59l30 -7q19 -5 33 -5q23 0 52 7q19 5 55 12q10 3 68 43q39 13 44 18q7 8 38 59 l25 50q25 24 29 30q4 7 4 19q-16 24 -15 32v1l4 20q2 46 12 75q-8 19 -19 60l-16 52q-2 10 -3 41l-4 4h-24q-11 21 -45 63q-20 25 -22.5 27.5t-19.5 9.5q-14 6 -50 20q-10 35 -32 35q-6 0 -31 -10q-31 8 -35 8q-52 0 -68 -2q-17 -1 -52 -23l-21 15q-15 -20 -23 -24l-43 -22 l-7 -8l-120 -101l-9 -7q-2 -28 -6 -35l-20 -35q-10 -28 -25 -47q1 -8 1 -14q0 -23 -35 -37q0 -3 8 -23q27 -19 27 -25q0 -11 -33 -29z" />
<glyph unicode="p" d="M128 645q4 16 6 19t18 15q10 9 50 42q54 31 61 31q16 0 37 -27q-7 -15 -7 -23q0 -7 7 -23q19 9 88 47l26 7q33 11 43 11q33 0 57 -15q15 30 93 34l126 -3q18 -1 21 0q12 1 16 1q18 0 38 -23q21 -3 48 -16q57 -21 79 -46q3 -3 9 -22q3 -9 12 -22l41 8q34 -37 47 -69 q17 -52 29 -129v-1v-17q-1 -10 -1 -11q0 -16 5 -40v-2q0 -5 -16 -43q-10 -23 -30 -49l-29 -50q-20 -16 -32 -37l-39 9q-13 -54 -46 -69q-3 -1 -26 -2q-16 0 -26 -4q4 -53 -139 -101q-38 -15 -53 -16h-69q-4 0 -12 -4q-23 -11 -29 -11q-3 0 -23 8q-39 6 -80 11l3 18 q-14 45 -19 45l-10 -20q-12 -29 -16 -34.5t-16 -5.5h-7h-10q-6 0 -15 -1h-9q-9 0 -24 8q-9 -22 -9 -35q0 -16 3 -73q2 -13 2 -21q0 -14 -7 -18l-31 -17q-4 -2 -7 -20t-8 -22l-15 -11q50 -29 51.5 -30.5t5.5 -12.5q2 -7 9 -44q4 -65 6 -88l-24 -6q-2 -12 -2 -21q0 -4 11 -45 q1 -4 1 -11q0 -8 -1 -18l18 3q2 -46 4 -60q1 -16 2 -72l6 -25q0 -5 -5 -18q-18 -2 -28 -8l31 -18q-1 -10 -1 -18q0 -9 4 -28q5 -21 6 -47q-24 -16 -30 -24q-4 -4 -15 -27l-23 -9q-36 -22 -70 -25h-1l-26 7q32 13 36.5 19.5t6.5 41.5l39 64l-76 85l3 3q6 7 17 22l-8 56 q7 10 10 13q16 17 16 24t-12 15q-15 10 -18 13q59 25 59 35q0 5 -51 22l-3 2q49 29 49 38q0 6 -38 68q-15 23 -15 46q0 5 13 126l15 9l-3 63q-31 8 -31 38q0 7 5 81l3 49v155q0 7 11 29l-2 40l1 12q0 11 -21 21q-1 25 -1 35v26q1 26 1 34v5q-2 42 -2 43t2 10q3 9 3 14v2 q-10 78 -14 97q-3 10 -29 28zM276 510l8 -8h11q1 -24 1 -42q0 -12 -1 -21q-2 -19 -2 -24q0 -1 4 -33v-1q0 -9 -17 -42q14 -28 15 -36l1 -46l4 -55q0 -1 -2 -12q-1 -9 -3 -26q18 -11 25 -14q54 -26 62 -34q3 -1 10 -12q14 11 20 11t22 -6q11 -4 35 -5q30 0 34 -2l66 -22 q4 -1 10 -1q1 0 71 10l38 -42l31 15q35 18 46 26q7 6 28 27l37 26l32 35q43 36 50 43q11 13 33 81q14 41 14 59q0 11 -2 23q-3 21 -3 31q0 7 7 22q-24 16 -32 32q-7 12 -14 45q-23 18 -39 41q-11 14 -11 18q0 8 4 19q-14 20 -31 20q-7 0 -38 -5q-22 14 -29 20q-36 28 -46 29 q-2 1 -40 1l-21 12q-13 6 -53 6q-101 0 -138 -6q-8 -2 -76 -22l-27 -4q-9 -2 -30 -16q-28 -4 -35 -16t-7 -32q0 -8 1 -23q-47 -6 -80 -24l56 -15z" />
<glyph unicode="q" horiz-adv-x="1106" d="M169 495l32 2q-1 27 4 34q4 9 36 45l28 27l12 13q38 26 59 47q19 20 42 23q24 28 33 30l64 13q5 1 27 17q20 16 30 15l52 -3h39q7 -1 26 -13q21 2 35 2q6 0 35 -4q22 -3 24 -4q10 -4 27 -19q23 3 42 25q10 -3 13 -3t58 18q33 11 60 21q7 -26 7 -43t-3 -38q-2 -22 -6 -76 q-5 -27 -5 -29q0 -8 3 -36v-8q0 -9 -7 -17h-9q-12 0 -12 -13q0 -17 31 -37l2 -10v-178q0 -3 1 -5q1 -4 1 -5q0 -8 -22 -8q0 -22 14 -40h6l3 -2q-3 -13 -3 -22q0 -5 13 -39q-13 -36 -13 -51q0 -39 7 -84q2 -15 2 -25q0 -3 -5 -32v-200l-2 -2q-20 -3 -20 -28q0 -16 18 -30 q-2 -17 -2 -30q0 -8 13 -58q-6 -35 -6 -44q0 -17 2 -40q4 -41 5 -51q1 -22 9 -74q-9 -52 -9 -58q0 -7 11 -55q3 -11 3 -41q0 -25 -12 -45q-10 -15 -53 -28q-31 -9 -51 -19q-14 -7 -22 -7t-26 12q2 13 3 51l22 41l4 34q0 4 -5 27q-2 6 -2 10q0 5 3 39q1 11 1 34q22 22 22 33 t-23 27v58v62q1 16 12 32q-1 9 -6 26q-5 12 -5 25l36 23q-3 11 -9 20q-21 36 -22 50q0 5 -1 106l-1 37q2 16 21 40q-19 21 -29 57q42 3 64 22q4 4 4 10q0 26 -42 26q-31 0 -60 -13q-31 -14 -32.5 -14.5t-45.5 -8.5l-20 -5l-35 5l-6 -3l-6 -3q-26 -23 -38.5 -28.5t-41.5 -5.5 q-9 0 -101 5l-42 2l-42 6l-26 1l-80 37q-45 4 -62 15q-35 23 -55 60q-5 8 -5 11q0 4 7 19q3 7 3 12t-3 15l-22 -11q-23 24 -23 28q-13 54 -17 72l38 31q-39 4 -39 26q0 37 3 47q10 39 63 120zM280 187q18 -15 56 -24q-95 -21 -95 -29l8 -2q40 -11 92 -15q23 9 29 8 q54 -13 55 -13q19 -6 39 -33q22 12 33 15h34l47 1l27 -57l22 13l59 20l27 19q52 15 59 19q16 10 41 39l6 25q6 -1 12 -1q8 0 22 4q-1 6 -16 37q8 25 16 43q7 16 26 32l22 18l-20 25l-15 26l-24 31q-7 9 -7 93q-1 47 -10 81q-5 67 -9 77q-5 12 -20 26q-28 -6 -88 -24 q-4 -1 -10 -1q-7 0 -40 4q-19 2 -31 15l-66 -5q-15 12 -26 12h-4l-20 -1q-27 0 -65 -10q-13 -4 -65 -47q-41 -27 -46 -33q-71 -94 -77 -114q-3 -20 -6 -22q-3 -4 -16 -6l-5 -16v-1q0 -2 5 -15q3 -8 5 -63q17 -64 24 -91q3 -15 14 -32q2 -3 2 -11q0 -7 -1 -17z" />
<glyph unicode="r" horiz-adv-x="693" d="M128 688q6 18 19 33q10 11 52 31q43 27 49 27q18 0 27 -13l4 -17l8 -31q-3 -11 -3 -17q0 -9 11 -21q20 6 54 25l42 14l42 28l27 11q22 11 24 11l22 -4h3q5 0 68 21q7 2 30 2q17 0 24 -5q1 -1 21 -20q12 -3 14 -3t29 14q2 1 5 1q13 0 30 -15q16 -14 23 -43 q-15 -15 -60 -47q-22 -28 -32 -28q-16 0 -42 32q-18 -2 -30 -2q-13 0 -43 12q-24 9 -49 12q-10 -20 -33 -22q-28 -2 -35 -4l-40 -12q-4 0 -16 7q-20 -18 -70 -54q-32 -23 -31 -81v-3v-32q1 -18 1 -30q0 -11 -23 -33q17 -18 17 -31q0 -7 -2 -17l15 -4l3 -30l5 -179l-4 -11 l-26 -14q-56 -11 -56 -15t63 -13l17 4q10 -33 10 -45q0 -23 -23 -36q-9 -5 -51 -10q-8 -2 -43 -25q-6 -4 -14 -4q-24 0 -24 21q0 6 15 57q2 6 2 12q0 2 -5 45q0 3 4 17l24 7q1 9 1 16q0 13 -15 31v25q0 9 -6 47v0q3 33 3 56q37 13 37 32q0 6 -3 16q-12 -3 -20 -3q-7 0 -17 8 v44v21v27v8q0 8 -1 18v16q0 16 13 43q-13 11 -15 19q-1 3 -4 65q-1 12 -22 38z" />
<glyph unicode="s" horiz-adv-x="914" d="M631 383l-26 -19q-39 11 -62 11q-27 0 -65 -4q-11 23 -30 35l-19 -25q-21 -3 -50 -11q-12 -3 -21 -3q-2 0 -6 1l-38 8q-1 0 -3 -3l-19 20q-16 -7 -27 -7q-4 0 -25 10q-5 2 -18 7q-77 27 -77 88q0 53 41 105q11 15 56 53l20 19l47 28q72 44 106 58q78 32 125 32 q8 0 90 -21l52 9q49 -3 57 -7q20 -10 20 -20t-10 -20q-3 -2 -49 -30q-48 -29 -54 -29q-65 0 -95 9q-10 21 -21 34h-6l-19 -20q-17 -1 -25 -1q-9 0 -17 1q-11 1 -16 1q-2 0 -26 -6q-8 6 -30 6q-20 -15 -66 -40q-24 -13 -41.5 -39t-17.5 -49q0 -11 19 -28q3 -3 35 -16 q19 -9 39 -22q-1 -8 -1 -13q0 -21 17 -21q16 0 36 26q23 -3 39 -3q6 0 57 9l32 -3q44 6 48 6q7 0 51 -14l36 4l36 -25q58 -27 79 -51q16 -20 18 -32l7 -33q14 -60 14 -69q0 -6 -4 -35q-5 -64 -37 -64q-10 0 -23 3q-12 -50 -20 -57q-45 -52 -58 -70q-51 -7 -84 -31 q-15 -12 -18 -13t-25 -3l-81 -22q-40 7 -44 7q-6 0 -60 -16l-24 3q-48 3 -72 8q-52 13 -55 19l-32 21q-59 36 -73 52q-30 35 -30 68q0 7 22 24l27 25q38 28 44 28q4 0 7 -3q23 -22 23 -48l-4 -32v-1q-1 -9 5 -14q4 -4 36 -22q7 -4 18 -13q25 -22 26 -22l37 -15l34 -18h38 l24 -5q37 11 66 12q28 1 41 8l39 19q32 11 37 15q19 15 50 66q32 53 32 121q0 15 -9 28q-39 59 -50 81z" />
<glyph unicode="t" horiz-adv-x="713" d="M89 710q8 39 27 39h1l49 -3h2q56 8 64 9v24q0 94 -4 154q-2 26 -12 47l-10 21q-4 8 -4 17q0 15 24 36q37 34 94 45q13 27 28 27q6 0 10 -5q14 -15 14 -39q0 -1 -9 -158q-12 -41 -15 -48q-4 -14 -23 -29q0 -20 6 -39h23l-6 -51q25 -2 104 -24q5 -1 34 -1q18 0 59 12l66 6 q51 20 60 20q13 0 32 -3q-2 -28 -6 -40q-4 -15 -63 -51q-14 -8 -20 -15q-15 -18 -16 -18q-5 -4 -24 -4q-15 0 -22 4l-41 22l-25 6l-30 22l-51 -39l-44 6q-5 0 -20 -10q8 -48 8 -81q0 -16 -1 -47q-37 -6 -37 -30q0 -9 4 -22q22 -2 37 -6l-2 -125q-15 4 -25 4q-18 0 -18 -15 q0 -12 9 -29q14 9 24 9q15 0 15 -19l-3 -40v-2q2 -41 3 -59q2 -19 12 -38l12 -21q2 -4 2 -12q0 -9 -2 -23q31 -18 69 -18q32 0 64 16q26 14 28 16l55 50q41 34 50 34t25 -9q-3 -19 -4 -26q-7 -52 -14 -60.5t-61 -25.5q-41 -21 -124 -49l-34 -11q-34 -19 -39 -19q-9 0 -20 18 l-18 5l-11 -25q-14 -2 -24 -2q-26 0 -62 34q-16 16 -26 33q-1 1 -8 26q-11 33 -11 38q0 9 2 29q2 16 2 67q1 33 18 50q-6 19 -6 46q-5 46 -6 175q24 15 24 29q0 8 -2 19l-29 7l-2 9v1q0 5 3 21q6 26 6 90q-41 9 -60 9q-6 0 -52 -6l-21 -2q-28 -9 -30 -9q-14 0 -14 13 q0 20 42 43z" />
<glyph unicode="u" horiz-adv-x="1067" d="M300 432l-30 -17q6 -26 8 -34q2 -10 2 -13q0 -6 -5 -26q-5 -23 -5 -78q0 -8 13 -35l-3 -33l3 -39q3 -52 36 -73q13 -8 101 -34q35 -10 53 -10q52 0 66 14l41 39q4 5 25 14q17 -14 30 -14q6 0 13 1q10 21 17 28q2 2 28 17q4 4 37 54q30 25 31 27q4 6 16 40q9 26 10 42v2 q-2 21 -2 29v2q0 6 8 35l-16 9l-6 14v145q0 23 -10 80v5q0 13 20 32q-3 12 -8 14l-13 5q-3 2 -3 28q0 3 2 13q4 18 6 36q17 -6 23 -6q10 0 59 21q13 6 40 13q17 -50 16 -65l-7 -113v-66q-8 -76 -13 -94l-20 7q-10 -22 -10 -32q0 -6 1 -15l32 3q3 -18 3 -27l-1 -26v-10v-32 v-15q0 -36 -9 -74q14 -15 17 -21q2 -8 4 -50q1 -26 12 -42q7 -9 28 -19q-6 -15 -16 -23q-5 -3 -54 -23q-46 -27 -55 -27q-10 0 -19 11q-13 17 -13 44q0 12 1 30q-19 4 -33 4q-7 0 -14 -3q-2 -1 -26 -24l-20 -9l-33 -19l-31 -11q-63 -31 -134 -34q-35 -10 -42 -10 q-6 0 -39 13q-3 1 -6 1q-9 0 -36 -14l-29 35l-2 1q-2 0 -42 -13q-7 -2 -14 -2q-14 0 -61 26q-21 12 -36 37q-21 38 -21 69q0 10 14 28l-22 10v114q20 20 20 33q0 4 -15 33v69l-3 49q1 12 17 28v14l-25 -8q6 57 6 83q0 16 -1 30l-2 22q-1 28 -4 34l-11 28q2 10 30 19 q18 6 68 24l9 3q19 13 25 13q11 0 18 -7q4 -5 15 -39q0 -2 -8 -23q-8 -23 -8 -78q0 -10 6 -45q-17 -58 -17 -70q0 -30 23 -79z" />
<glyph unicode="v" horiz-adv-x="833" d="M34 675q13 21 16.5 24t37.5 20q25 13 31 20l13 15q36 -1 43 -11q5 -9 33 -81l1 -26l11 -35q5 -24 7 -26q6 -9 28 -16q9 -33 14 -42q17 -37 18 -56q0 -12 5 -26q17 -12 19 -17l13 -34l14 -20q16 -36 33 -59l-10 -33q23 -13 31 -21q3 -3 15 -23l24 -37q10 -25 14 -29 q6 -5 13 -5q15 0 24 27q8 23 44 81l9 22l16 29q18 48 28 71q26 4 34 18q-8 32 -8 41q0 16 41 95q4 7 4 22q0 11 -5 35q23 33 30 52q4 12 12 51q4 19 42 40q16 6 67 12l7 -7q-9 -19 -28 -72q-25 -43 -30 -64q-7 -25 -25 -54q-10 -16 -13 -24l-47 -127q-8 -22 -19 -36 q-14 -19 -15 -21l-8 -27l-11 -20q-52 -95 -65 -119l-26 -64q-2 -5 -26 -18l13 -35q-22 -13 -29 -16q-32 -16 -58 -38q-16 -13 -18 -14t-16 -2q-10 9 -14 25q-4 22 -8 36q-20 15 -23 22l-10 30l-23 44l-27 57l-12 21q-2 6 -3 37q-1 12 -5 19q-5 9 -29 15v5q14 13 14 22 q0 22 -26 40q-8 6 -32 6q-8 31 -14 42q-17 36 -17 49q0 1 2 8q2 10 6 29q-18 15 -24 19q-28 19 -46 51q-38 75 -57 103z" />
<glyph unicode="w" horiz-adv-x="1251" d="M116 760q27 30 47 30q18 0 24 -10q12 -18 51 -164q0 -6 -18 -34q-2 -3 -2 -8q0 -24 23 -24q9 0 42 9l24 -43q-9 -34 -9 -43q0 -3 17 -46q10 -38 11 -42q2 -3 19 -20q4 -6 23 -55l7 -28l21 -62q33 -38 38 -38q8 0 17 25q7 18 11 25q13 25 13 26l6 53l22 48q8 42 28 86 q11 18 11 19v24l5 30q5 38 7 43q5 10 34 22q-3 15 -28 41q4 26 4 45q0 10 -8 43q-2 7 -2 14q0 6 2 11q1 1 20 11l21 14q59 17 70 17t29 -12q12 -9 13 -9q1 -2 23 -107q6 -28 6 -29t-12 -22q-1 -2 -1 -10q0 -20 34 -39l46 -126l31 -79q47 -121 52 -129q8 -12 25 -28l31 37 q-8 20 -8 29q0 14 13 40q15 30 25 74l26 60l2 23l22 73l4 59l11 61q7 74 11 80q16 23 47 42q28 17 51 17q5 0 15 -9q-4 -53 -8 -74q-3 -11 -23 -80l-4 -24l-15 -38q-8 -33 -10 -37q-6 -10 -25 -23q3 -20 3 -34q0 -9 -22 -76l-8 -18l-43 -137l-17 -41l-5 -56q-3 -35 -7 -44 q-1 -2 -64 -51q-10 -7 -32 -38q-4 -1 -7 -1q-4 0 -7 4q-28 29 -46 40q-4 38 -13 50q1 2 -18 20l16 22q-11 20 -17 24l-25 14q-13 8 -19 22q-2 5 -9 38q2 0 -10 32q-11 28 -16 36q-21 32 -21 38q0 7 2 16l23 -3l5 6q-6 26 -16 36q-9 10 -38 21q-9 20 -18 41q-7 16 -21 41 q-12 -19 -12 -21q-16 -54 -32 -107l-21 -50l-3 -24l-50 -131l-9 -46l-11 -33q-9 -36 -12 -40q-4 -5 -28 -16l-22 -14q-33 -8 -60 -25q-11 23 -15 30q-29 58 -32 70l-15 64l-11 30l-8 27l-22 27q-17 36 -32 54q9 35 9 54q0 14 -7 29q-26 3 -33 11q-4 4 -22 45l-17 20 q-6 8 -11 36q-4 20 -9 26l-24 25l-70 152q-2 5 -2 9q0 43 69 57z" />
<glyph unicode="x" horiz-adv-x="885" d="M307 440l6 36q-14 0 -23 2q-9 1 -27 21q-37 35 -75 59q-5 42 -5 44q-1 6 -9 13l-33 -5q-19 20 -26 26q-54 46 -62 59q24 29 60 55q14 8 80 25q9 -21 13 -25l29 -31l32 -42l20 -25q15 -35 22 -43q11 -9 33 -10q13 -17 37 -40q43 -48 43 -54q0 -11 -4 -26q15 -19 35 -22 q27 29 45 58q52 0 52 39q0 8 -1 19l62 64v11q0 8 3 17q1 2 25 32q5 6 14 23q10 19 15 24.5t25 19.5q43 32 59 32q23 0 23 -22q0 -11 -7 -25q-2 -4 -43 -55l-28 -44l-39 -39l-39 -54l-27 -25l-25 -28q-81 -75 -79 -103l35 -3l17 -24h19q35 -39 90 -92q34 -33 66 -53l-5 -30 q18 0 36 -17l16 6q37 -39 52 -49q47 -34 56 -45q4 -6 12 -28q-28 -35 -49 -46q-27 -15 -32 -19q-26 -18 -35 -18q-10 0 -21 13l-113 125l-33 69l-24 -4q-34 29 -43 41q-30 36 -46 46q-16 9 -31 19q-3 27 -24 55h-17q-8 -10 -12 -24q-5 -16 -7 -18.5t-37 -31.5 q-49 -67 -90 -90q-29 -23 -49 -70q-31 -48 -46 -65q-16 -18 -51 -38l-7 -23q-10 -9 -20 -9q-53 0 -53 38q0 13 17 33q56 65 117 110q21 16 22.5 18t58.5 76q19 17 25 22q15 13 28 28q25 31 27 32q27 27 27 38t-22 31q-26 24 -35 36z" />
<glyph unicode="y" horiz-adv-x="1035" d="M38 -457q10 -19 28 -61l28 -38q36 -57 45 -66q27 -3 34 -6l72 -27q6 -2 25 -2q13 0 29 1q16 -12 24 -12t24 13q15 -3 26 -3q7 0 82 23l37 23q56 32 64 39q5 5 38 44q9 10 40 26q33 21 50 76q23 70 27 76q5 9 27 30q-5 37 -5 43q0 4 20 100q2 9 2 18q0 2 -5 35q5 23 14 64 q13 39 13 47q0 7 -9 45q-1 6 -8 103q-1 15 -1 30q0 19 6 32q7 15 7 19q0 6 -2 15q-6 3 -8 3q-6 0 -51 -27l-24 -25l-27 -19l-31 -22l-31 -17l-43 -41l-19 -12q-76 -52 -83 -55.5t-56 -10.5q-33 -10 -75 -15q-22 0 -89 24q-45 17 -75 61q-1 1 -18 42q-8 19 -8 29q0 13 25 31 q-22 25 -22 61q0 25 39 84l-8 29v2l3 28q4 40 27 127v37q19 76 19 82q0 7 -8 20h-24l-8 9v10q16 14 30 34l58 20q78 48 84 48q12 0 21 -11q11 -12 11 -25q0 -4 -18 -41q-10 -21 -17 -75l-28 -103q-4 -49 -10 -59q-8 -12 -36 -13q-13 -18 -13 -27q0 -12 36 -18q-5 -19 -6 -50 l-13 -64q-1 -25 -7 -66q-6 -26 -6 -28q0 -9 16 -35q17 -30 21 -34q3 -3 57 -28q20 -27 32 -27q15 0 34 21q51 6 71 18q15 9 109 77l57 54l51 33l44 86q3 5 16 20q-2 23 -4 30q-3 10 -3 16q0 2 7 16l-4 29l2 24l-12 33l4 71l-6 24l-8 37q-25 45 -25 48q0 21 39 23l28 27h8 q18 1 32 4q15 3 36 6q18 -29 18 -30l-88 -38l68 -22q18 -9 18 -24q0 -13 -22 -38q-20 -22 -44 -37l-5 -4q1 -8 55 -30q22 -21 25 -37v-20l6 -59q-14 -35 -14 -43q0 -32 27 -59q-6 -35 -6 -55l5 -51v-1q0 -2 -14 -52q-14 -27 -15 -38v-15l21 -17q-8 -39 -8 -57q0 -7 1 -14 q4 -31 4 -36q0 -2 -11 -31v-22l-3 -29l5 -40l-13 -34l-7 -38q-16 -27 -16 -35q0 -5 1 -11q3 -17 3 -25q0 -6 -17 -35q-6 -11 -20 -52q-3 -8 -29 -25q-3 -3 -28 -37l-17 -24l-16 -18q-47 -69 -65 -88q-11 -10 -42 -28l-21 -24l-28 -18l-15 -12l-35 -10l-25 -14l-24 -8 l-65 -25l-32 -8q-52 -15 -62 -15q-8 0 -63 12q-90 0 -158 60l-29 2q-8 22 -16 31q-2 1 -38 18q-8 4 -15 16q-11 21 -11 38q0 22 14 60q10 29 33 29h8z" />
<glyph unicode="z" horiz-adv-x="799" d="M22 36l12 11l92 128q15 21 41 44q27 23 34 32t18 32q12 -2 20 -2q16 0 39 36l-8 23q20 23 31 35q13 14 35 43q27 33 48 64l23 3q9 7 13 25q6 24 10 30t42 51q38 67 54 89q-20 30 -41 47q-10 9 -13 8l-116 -41l-70 37l-43 8l-25 12l-32 -18l-69 -9q-13 -4 -37 -34 q-11 11 -11 18q0 11 39 39q13 10 45 49q27 -1 37 -3q12 -3 17 -3q6 0 23 7q22 -64 48 -64q9 0 13 8l23 38l27 -4l27 3l19 -3l27 -3l38 -15l19 1l37 2l39 8l32 -3l32 6q35 1 49 4q18 4 38 7q18 -18 18 -30q0 -10 -30 -50q-46 -55 -59 -75l-38 -3q0 -21 -3 -27t-25 -31 q-27 -30 -40 -49l-27 -10v-8q-1 -21 -3.5 -25t-32.5 -33q-35 -47 -38 -51q-9 -8 -29 -21v-23q0 -3 -15 -20q-61 -85 -72 -93q-13 -9 -39 -9q-11 -20 -11 -32q0 -5 4 -18q-19 -27 -40 -66q26 -3 34 -3q75 -6 107 -20q20 13 23 13l103 3l125 8q4 1 27 -7q20 -7 62 -12l5 5 l2 20q52 14 83 18q4 -14 4 -24q0 -7 -11 -24q-13 -18 -20 -33h-12q-13 -33 -24 -38q-3 -1 -26.5 -5t-29.5 -4t-54 14l-98 -1l-62 21l-32 -6l-41 -5q-21 -3 -28 -3q-3 0 -51 6q-39 -14 -73 -15h-43h-20q-10 0 -55 -2h-30q-19 0 -26 -1q-6 -1 -10 -1q-8 0 -16 8q-9 8 -9 12v4z " />
<glyph unicode="{" horiz-adv-x="833" d="M329 808v40l23 23q-2 11 -19 41q-2 3 -2 8q0 14 7 44q3 12 3 22q0 5 -6 39v39l-3 20l6 38q0 3 -7 19l-2 4q0 18 50 67q12 12 12 22q0 23 -60 45q5 9 23 12l-6 20q-16 6 -16 15l1 31v41l2 15q1 32 10 53l-6 6l6 40l11 3q5 42 9 53q1 4 22 24l10 17l33 20q20 12 23 13t38 5 q50 10 55 10q23 0 33 -11q29 -30 29 -46q0 -24 -14 -36q-4 -4 -84 -33q-5 -3 -16 -26l-35 -47l-5 -29q-2 -8 -19 -23q13 -24 13 -42q0 -33 -5 -86q-1 -9 -1 -15q0 -4 4 -27q1 -5 1 -13q0 -6 -2 -43q-44 -7 -67 -18q71 -43 71 -51q0 -12 -61 -41l50 -26q10 -5 10 -16 q0 -5 -13 -38q13 -19 14 -33q0 -5 1 -48l-10 -29l1 -37l1 -24q0 -3 -7 -45q-18 -52 -23 -60q-32 -30 -34.5 -33.5t-7.5 -23.5q28 -11 34 -18q3 -4 14 -31l11 -19l7 -26q12 -39 13 -49q1 -20 1 -74l-21 -21q14 -16 25 -39l3 -6l-54 -52l54 -49l-5 -32l4 -30l-55 -22l63 -37 l-5 -37l8 -46l-2 -35q-4 -52 -4 -58q0 -4 11 -45l4 -31q17 -65 25 -71h12l16 -16q21 -5 43 -21q28 -20 32 -27q12 -24 12 -52q0 -14 -24 -29q-17 5 -22 5l-42 -2l-26 10q-40 10 -50 16q-33 21 -36 27q-6 9 -9 35l-5 5l-19 4q-7 23 -15 59l-8 29q0 28 -5 40q-8 19 -8 44 q0 14 10 34q-17 14 -17 23q0 3 8 43q1 6 1 12q0 5 -8 47q12 41 12 48q0 6 -8 44l3 44q0 35 1 39.5t13 23.5q-14 16 -15 24q0 1 8 33q1 6 1 11q0 6 -8 43l-2 25l-3 41q0 8 7 30q-20 12 -23 19l-12 23q-6 10 -73 53q-3 2 -8 26.5t-5 36.5q0 34 20 54q4 5 29 17q7 3 10 8 q20 33 41 50z" />
<glyph unicode="|" d="M545 169q-25 31 -25 50q0 7 21 66q1 3 1 7q0 12 -19 38q2 14 13 30q6 9 6 12q0 6 -8 22q-8 19 -8 102q0 5 14 57q2 9 2 17t-15 57v1q0 2 14 37q4 9 4 18q0 15 -21 41q28 25 35 36l24 39l14 21l-78 48q19 40 19 43q0 8 -4 23q-6 17 -6 31q0 3 1 8l8 46q0 1 -6 12 q-6 12 -6 21v1q0 4 9 19q11 19 19 37l-36 23l25 49q-23 31 -22 41l4 29l4 95q7 30 7 33l-2 39v2v15q-1 33 -17 61l29 41q-29 35 -29 48q0 10 13 58q40 -9 55 -9q4 0 9 1q30 3 36 3q15 0 19 -15q7 -18 7 -22q0 -5 -12 -52q-2 -11 -2 -28q0 -21 21 -61l-26 -49l9 -47 q0 -5 -12 -20q17 -25 17 -34q0 -1 -9 -36q8 -9 16 -28q-28 -20 -26 -32l5 -34l1 -34q1 -8 16 -28l-22 -34q12 -22 17 -28q11 -18 13 -27q-84 -30 -84 -54q0 -11 50 -45l-8 -3l-47 -8l79 -52l-5 -53q0 -7 9 -24l-22 -26q0 -12 5 -29q3 -12 3 -21q0 -4 -2 -9q-12 -40 -12 -41 l7 -7q13 -14 18 -53l-28 -16l24 -74q-39 -8 -64 -26q-9 -7 -9 -15q0 -21 87 -58q-13 -20 -18 -26q-24 -31 -24 -42q0 -17 34 -37q6 -17 6 -28q0 -19 -33 -57l29 -49l-26 -32l29 -44l-8 -31v-47q2 -13 -20 -67l28 -15l-24 -83l29 -16l-38 -74q22 -33 22 -60q0 -24 -21 -54 q16 -15 21 -20q15 -13 15 -25q0 -34 -36 -34q-12 0 -43 23q-5 4 -8 4q-4 0 -11 -5q-10 -8 -31 -15q3 21 5 28q3 11 3 18q0 3 -18 54q-1 4 -1 9q0 17 23 46q-17 41 -17 49t13 32l-21 32q18 23 18 32l-2 38q14 41 14 45q0 24 -34 42l27 55q-30 37 -30 66q0 22 31 42z" />
<glyph unicode="}" horiz-adv-x="836" d="M221 1627q13 12 20 31q25 -2 33 -2q57 -3 75 -12l27 -14q30 -9 34 -12q11 -10 34 -44q27 -43 27 -60l4 -36l11 -28l2 -82q10 -42 10 -47q0 -9 -7 -47q-11 -10 -15 -25l20 -14v-21v-18q1 -12 1 -19q0 -16 -19 -38q15 -27 15 -49l-1 -39v-167l-6 -25q17 -15 19 -20 q5 -5 8 -32q10 -10 24 -32q7 -9 40 -25q8 -4 14 -16q15 -27 15 -65q0 -27 -12 -45q-2 -3 -28 -26q-30 -30 -50 -45q-26 -43 -66 -92q-4 -5 -4 -8q0 -4 54 -37q6 -4 6 -17q0 -9 -5 -42q-1 -10 -1 -21q0 -18 3 -28q3 -12 3 -13t-8 -31q-1 -2 -1 -3q0 -2 14 -27q4 -6 4 -11 l-5 -38q-2 -13 -2 -48q0 -23 2 -35q3 -24 3 -31q0 -1 -6 -31l3 -46l-6 -39l4 -45l-10 -30l2 -32q0 -5 -7 -24q-3 -9 -8 -28l-26 -8v-34q-22 -19 -32 -34q-14 -6 -19 -10q-19 -12 -24 -12q-9 0 -25 17q-3 -7 -4 -9q-8 -20 -30 -20q-1 0 -27 5h-3q-1 0 -32 -5l-2 2l-3 7 q-7 23 -26 49q23 42 65 51l20 15q52 29 61 40t9 22q0 8 -4 22q14 21 14 36q0 4 -4 56l3 42l-6 27v79l-6 54q13 45 13 47q0 3 -11 31l65 56l-41 26q-20 96 -20 97q0 2 12 38q1 5 1 8q0 1 -6 26q-5 25 -5 49q0 17 13 33q4 5 33 31l16 25q14 14 14 19q0 2 -17 21q-11 12 -27 34 q-41 54 -41 77q0 5 11 45q-10 28 -10 30q0 5 5 34q2 9 2 18l-9 95v1q0 11 29 30q29 18 29 26q0 13 -60 21l21 21q-20 26 -20 37q0 8 5 12l53 41q4 4 4 8q0 5 -62 37l6 41q-17 48 -17 56q0 10 1 22h26q2 8 2 13q0 8 -10 19l-20 3q-5 24 -6 32q-6 36 -14 56l-21 4l-15 25 q-21 2 -37 18q-32 -1 -40 8q-15 16 -17 41z" />
<glyph unicode="~" d="M44 477v9l59 32v45l40 6l-17 26l24 16q17 13 34 27l39 20q11 5 32 42l52 -2l17 38l70 -31q31 19 51 19q23 0 37 -27q22 10 29 15q15 9 24 9q8 0 45 -51l39 10q34 -37 58 -37q10 0 56 9l14 -41l76 15q21 -14 26 -13l52 7q42 1 52 4l9 37l44 -4q13 21 31 61q4 10 23 26.5 t27 16.5t41 -31q-22 -23 -29 -37q-6 -14 -8 -42q-17 -11 -22 -15q-35 -22 -44 -36q-10 -13 -28 -50l-40 10l-26 -29q-9 1 -13 1q-11 0 -23 -4q-7 -3 -34 -31q-10 -10 -17 -10q-10 0 -38 20q-7 -7 -8 -7l-74 4q-1 0 -8 -11l-17 28l-59 -18q-10 26 -25 86q-3 12 -32 33 q-21 16 -38 29l-30 -74q-5 -12 -16 -12q-9 0 -39 19q-13 10 -59 18q-38 6 -70 18q-36 -24 -52 -24q-10 0 -31 10q-17 -29 -23 -33q-2 -1 -41 -14q-16 -6 -25 -34q-7 -28 -14 -44l-34 14q-19 -29 -33 -29t-34 11z" />
<glyph unicode="&#xa1;" horiz-adv-x="437" d="M206 874q15 -15 39 -45l29 -27q4 0 22 -35q27 -1 36 -10q-13 -19 -17 -22l-46 -28l-28 -25q-5 -5 -25 -12q-22 19 -84 62q-19 13 -26 47l13 20l13 23l13 8q42 32 61 44zM145 391q16 19 30 52q4 10 29 31q6 -6 7 -6l56 3q33 -19 35 -26v-1q1 -3 -13 -21q-6 -9 -8 -14 q-1 -4 -15 -18l-3 -31q-10 -77 -10 -97h-22q-9 -18 -9 -28q0 -5 4 -17l30 4q4 -17 4 -26l-1 -38v-17v-9q0 -8 -15 -45l15 -39l-2 -11q2 -86 3 -94q0 -7 8 -15v-16h-34q1 -23 37 -31q-7 -22 -7 -39q0 -15 3 -26q10 -32 10 -36q0 -1 -1 -4q-3 -13 -3 -15q0 -5 4 -14 q34 -27 34 -63q0 -28 -55 -66q-16 -10 -58 -17q-23 -4 -43 -13q-7 16 -7 25q0 54 17 88q-10 16 -10 24t13 25q-4 19 -6 25q-9 41 -9 64q0 1 4 42v3q0 3 -1 14v7q0 12 12 29q-7 35 -7 44v1l3 25v32l2 22l2 42q9 31 9 41q0 25 -17 40q2 21 2 28q0 39 1.5 46t11.5 26 q-15 25 -19 41q-2 7 -7 48l-3 17z" />
<glyph unicode="&#xa2;" d="M265 349q1 9 14 36q2 24 3 28q3 14 3 19v2l-5 15q17 20 65 98l35 30l22 22l35 28q29 27 51 40q23 14 45 23q24 19 40 24q23 6 39 11q-4 44 -4 59q0 30 -2 31q0 4 -15 21q17 29 33 30q9 2 15 3l1 -1l26 3q5 -7 5 -8l-7 -115l6 -8q23 -8 30 -12l5 -2l44 10q1 0 62 -10 q5 -1 9 -1q5 0 51 9h2q9 0 21 -15l-19 -28l-25 -8l-6 -22q-46 -23 -53 -25h-1q-9 23 -18 45q-16 -34 -20.5 -40t-16.5 -6q-15 0 -24 11l-33 41l-15 -44q5 -12 5 -14l-3 -67q-1 -29 -14 -55l12 -7q-4 -12 -4 -19q0 -5 2 -11q7 -19 7 -26q0 -1 -10 -34l7 -19l1 -42 q5 -27 5 -29q0 -3 -10 -35q10 -28 10 -32l-1 -23l-3 -41l-6 -24v-1l7 -14q22 4 58 16l21 3l45 25q27 6 31 7q2 1 14 15l17 11q33 29 50 37q10 -10 9 -12l-8 -25q-6 -27 -12 -36q-17 -20 -46 -34q-49 -28 -78 -41q-20 4 -28 4q-34 0 -67 -19q-14 -8 -13 -21l2 -28v-38l3 -47 q-1 -12 -15 -23t-27 -11q-11 0 -32 17q1 26 1 34q0 38 11 77q1 4 1 8q0 8 -9 26q-21 0 -27 -1l-5 -1l-40 13l-34 4l-22 7l-27 5l-24 6q-31 8 -34.5 9.5t-17.5 17.5q-12 13 -21 24l-10 12l9 18q-8 2 -11 2q-8 0 -23 -7q-8 27 -29 58q-2 3 -2 22q0 23 8 50zM372 305 q20 -8 27 -13q14 -14 37 -63h16q15 -22 22 -25l33 -17q36 -29 73 -29q11 0 26 3q2 21 7 64v0q0 9 -1 13v5q0 9 8 24q-8 14 -8 17l-2 32v6q9 27 9 31q0 3 -9 42q-1 3 -1 8q0 4 3 31l1 30l2 32v28l1 23l-1 32l4 30q-5 25 -5 32v6q-26 -3 -58 -8q-27 -4 -36 -9q-12 -6 -31 -30 l-27 -8l-14 -29l-25 -4q-3 -21 -13 -34q-18 -21 -18 -22t-10 -51q-11 -43 -11 -54q0 -10 3 -20q10 -29 10 -34q0 -3 -3 -9q-10 -20 -10 -26z" />
<glyph unicode="&#xa3;" d="M86 567v6q22 12 29 16q48 31 62 36q13 4 31 18q38 -15 52 -15l43 -7l25 -11q3 -1 6 -1q8 0 10 12q-26 23 -37 53q-24 64 -24 82q0 3 1 11l-13 6l-7 42l26 16v7h-19l-4 29l24 17q0 41 6 62q14 45 38 45q4 0 13 -2q5 -1 10 -1q9 0 16 13l-14 14q43 38 79 59l31 23l41 14 l20 10l17 7q8 7 18 7h16q19 0 40 7q30 10 62 14l6 1q6 0 61 -28q19 -9 24 -17l8 -14q-14 -16 -31 -26q-12 -7 -29 -24l-24 -4q-39 -11 -49 -12q-12 9 -21 18q-7 6 -9 6l-44 2l-39 5q-22 0 -55 -32q-40 -30 -56 -56q-10 -17 -16 -67q-1 -4 -6 -37q-1 -7 -1 -12q0 -4 11 -44 q1 -3 1 -7t-1 -10q-3 -12 -3 -17q0 -3 2 -10q14 -15 19 -19q22 -19 23 -20l36 -102q6 -15 35 -27l14 -7l19 -4q36 -10 49 -10q11 0 24 1q13 -34 28 -34q20 0 25 28q25 1 71 10l86 4l21 11l24 13q28 17 35 17q17 0 17 -18q0 -13 -22 -30l-8 -29q-23 -14 -61 -31 q-47 -22 -56 -22h-2q-40 7 -41 7l-69 -6l-35 10q-53 2 -79 9q-20 6 -33 6q-18 0 -18 -18q0 -8 5 -27q-3 -7 -10 -17q-1 -1 -1 -3q0 -1 2 -21q12 -23 12 -28q0 -8 -10 -45q-21 -6 -32 -16q16 -31 16 -43q0 -7 -4 -17q-17 -46 -51 -82q-23 -24 -23 -37q0 -8 4 -20q10 -7 22 -9 q18 -2 40 -8q21 -64 30 -64q2 0 20 39q2 4 9 4q3 0 8 -1q23 -7 62 -6q65 3 85 -7l15 -7q1 -1 41 -7q14 -2 21 -2q10 0 28 5l1 2q15 -1 22 -1h7q24 1 25 1q51 -7 57 -7t49 7l66 -3l54 5q34 -47 36 -47q11 0 24 19q8 12 12 41q26 1 30 2t49 18q36 14 57 20q-1 -9 -1 -15t1 -13 q3 -16 3 -22q0 -15 -23 -35q-28 -23 -56 -23q-2 0 -31 6h-2q-23 0 -39 -34l-6 -3l-118 42q-31 -44 -36 -44q-4 0 -45 46q0 1 -1 1t-28 -44l-6 2q-11 3 -48 5l-113 14l-30 2q-16 4 -20 4l-11 -1h-125q-2 0 -25 -1q-9 -1 -17 -1q-16 0 -27 3q-46 15 -47 15q-7 -1 -22 -16 q-2 -16 -18 -16q-3 0 -32 3h-22l-42 6l-32 -13h-69q-35 -6 -38 -6q-24 0 -24 17q0 5 38 31l27 25l35 15l18 11q28 15 49 28q7 24 30 64q16 46 27 69q23 2 34 5q1 26 10 42l-33 9q1 26 7 101l-1 29v20q0 11 2 38l-25 4v4q-9 8 -23 10l-40 5h-34l-49 5q-65 5 -85 11 q-13 3 -44 14z" />
<glyph unicode="&#xa4;" d="M265 861v20l-4 4h-22l-77 80q6 26 22 60q11 38 15 44q6 7 20 14q20 -26 29 -60q18 -10 22 -14l15 -23l17 -22l9 -20q3 -7 23 -16l13 -20q20 10 58 42q5 4 144 52q2 0 34 5q49 6 86 6q27 0 78 -8l4 -21q12 -5 15 -7q9 -5 12 -5q11 0 19 24l74 -20l65 66q28 -5 63 -23 q33 -8 56 -23q-13 -25 -32 -30q-20 -6 -21 -7t-16 -22q-5 -3 -44 -28q17 -28 30 -34q13 -7 43 -9q41 -50 54 -195h-16v-16q-17 -15 -20 -26l27 -26q-2 -59 -20 -94q-28 -70 -35.5 -84.5t-29.5 -39.5t-55 -53v-4q19 -13 50 -44q4 -4 11 -4q15 0 33 5q1 -11 1 -18 q0 -18 -6 -30q-18 -43 -18 -47q0 -1 3 -9l-22 -31h-6q-11 16 -57 63q-43 48 -62 67l-4 16q-21 -10 -28 -14q-67 -35 -86 -39q-11 -1 -89 -3q-77 -18 -96 -18h-10q-31 2 -32 2t-29 -4q-86 13 -111 13q-19 21 -39 24q-17 3 -35 9q-13 -17 -19 -22q-16 -17 -16 -29q0 -10 2 -23 q-8 -5 -12 -5q-27 0 -70 27l-15 -6l-38 27l85 76q-18 14 -31 39q-8 16 -15 21l-16 9q-24 60 -24 77q0 10 9 24l12 9q-13 18 -30 24v2q0 1 -1 5q-1 2 -1 5q0 65 11 102q18 58 42 97l36 64q40 24 47 36q2 3 6 18q2 7 15 18zM252 568l-34 -30v-8l9 -9l18 10q11 -36 16 -52 q5 -12 52 -87q1 -2 1 -6q0 -9 -11 -30q5 -15 17 -15q5 0 25 9q3 1 5 1q10 0 24 -8q69 -41 102 -49q17 -3 95 -6l67 -11q4 0 19 4q34 8 49 10q27 3 38 8q6 3 56 40q46 18 49 21q8 9 34 54l28 55l22 22q6 6 10 28q-15 23 -15 31q0 5 4 22q1 4 2 34q1 17 11 41q-9 19 -20 60 l-15 52q-3 10 -3 40l-5 5l-23 -3q-11 22 -39 56q-25 33 -27.5 35t-25.5 13l-21 8q-6 3 -25 11l-15 30q-13 4 -21 4q-3 0 -31 -8q-32 8 -43 8q-59 0 -81 -11q-24 -12 -27 -12q-7 0 -22 13q-17 -25 -24 -28l-47 -25q-109 -96 -129 -110q0 -21 -4 -31q-1 -3 -17 -31 q-16 -35 -30 -55q2 -11 2 -19q0 -15 -39 -34l2 -4q9 -18 19 -24q14 -9 18 -19z" />
<glyph unicode="&#xa5;" d="M127 1128q5 16 28 30q26 15 39 15q14 0 14 -12q0 -8 -7 -28q14 -8 23 -24q11 -20 26 -38l-5 -29q42 -16 42 -45q0 -3 -7 -23q-1 -1 -1 -11h32q12 -19 34 -46q38 -58 55 -77q-5 -17 -5 -26q0 -6 3 -20l32 6q10 -31 20 -35q17 -7 24 -17q23 0 56 -1q21 0 34 -17l3 3l20 4 l3 13q9 -4 10 -4l132 6l7 -2l15 -22h12q12 26 42 67q11 14 20 33q12 23 39 62l14 32l29 45q5 28 9 37q3 6 27 36q29 70 33 76q11 11 41 22l5 -5l52 25q9 -12 11 -30q-12 -5 -19 -11q-2 -3 -38 -56l-27 -29l-11 -23q-61 -94 -71 -108q-13 -20 -43 -41l6 -33q-29 -13 -33 -22 q-4 -5 -8 -24q-2 -8 -9 -31q21 1 36 1q24 0 50 -11q21 12 23 12q11 0 32 -34q13 -20 21 -20q13 0 24 52q14 -26 21 -60q13 -28 16 -51l-11 -10q-17 3 -37 20q-15 -6 -22 -6q-1 0 -64 20q-10 -10 -18 -10q-14 0 -25 1q-1 0 -3 1h-4h-4h-34v0q-2 -1 -3 -1q-6 0 -53 23l-29 -35 q-26 -2 -26 -20q0 -8 3 -19q-31 -30 -49 -65q8 4 12 4q2 0 13 -3q6 -2 12 -2q9 0 23 3l15 -23h11l19 23h119l15 -12q11 8 14 11l2 2l73 -54l14 52q14 -26 22 -64l16 -45q0 -3 -6 -13q-25 5 -42 22q-16 -7 -23 -7q-9 0 -34 9q-10 4 -32 9q-13 -7 -21 -7l-27 1h-6h-17 q-9 -1 -13 -1q-7 0 -73 26q-45 -12 -50 -12q-10 0 -37 6q-4 -13 -4 -20t5 -21q-19 -17 -26 -37q17 -12 24 -24l1 -1l-52 -56l53 -43q-9 -56 -9 -61q0 -17 3 -42q11 -10 10 -18l-2 -22q2 -65 2 -92l-22 3q-16 -15 -22 -17l-37 -14q-1 1 -10 -6q-16 -11 -27 -12q-3 6 -3 7 l3 19l-2 25l8 69l2 39q2 12 18 41h10l13 19l-32 5l-3 3l-1 1l52 47l-53 53q0 2 16 7h-10l-3 -4q-4 6 -4 7l49 106l-48 4q0 22 -5 35q-7 -9 -9 -10l-46 13q-7 2 -14 2h-13l-9 -13q-46 5 -61 5q-7 0 -16 -1q-45 -4 -57 -4q-11 0 -38 22h-13l-4 -3v-25q-17 24 -28 42 q-6 8 -10 8q-2 0 -30 -42q-6 -10 -25 -10q-5 0 -12 1l-19 -28q-17 25 -20 32q-2 3 -13 42q-13 13 -13 27q0 8 1 24q18 -3 82 -4l37 -3q4 0 15 3q14 -10 42 -13l4 13q18 -2 24 -2q29 -2 54 -12l11 11q28 0 68 -16l12 15l48 -4l-2 2q4 30 4 31q0 5 -5 11q-1 1 -37 2 q-7 1 -15 19q-25 35 -32 53q-19 3 -29 21q-28 -3 -37 -4q-11 -2 -19 -2q-10 0 -47 25l-9 -9v-23q-35 7 -43 7q-3 0 -27 -6q-8 -1 -32 -1l-22 -27q-16 23 -19 30q-2 4 -13 42q-11 11 -12 16q-1 18 -3 35l117 -7h3l14 1l4 3q14 -14 40 -14l4 13l40 -2q-27 33 -46 85 q-15 5 -23 11q-3 3 -30 42q-19 16 -19 28q0 8 1 18q-22 6 -22 9q0 1 -13 22q-26 33 -51 59q15 23 15 39l-7 7l-31 -12q-5 7 -6 9q-23 27 -23 31q0 8 39 31zM533 667l5 -7q26 -14 52 -42l19 -19q5 -6 13 -33q35 24 41.5 29.5t23.5 29.5q7 8 8 11q2 11 19 32l-13 3l-172 2z " />
<glyph unicode="&#xa6;" d="M514 1067q1 3 8 10q36 43 36 52q0 7 -3 17q-39 32 -39 51q0 23 35 61l-29 49l26 32l-30 45q6 23 9 84q0 9 20 60l-27 20q6 20 10 27q10 23 10 33q0 4 -4 11q-7 14 -7 17t4 10l37 -11h69q5 0 12 -12q7 -11 7 -22q0 -3 -14 -72q-1 -6 -1 -12q0 -8 18 -56l-22 -48l8 -38 l-10 -32l14 -35l-7 -42q0 -7 16 -24q-19 -20 -19 -32l1 -34l-2 -29q0 -11 18 -35q-24 -23 -24 -33q0 -4 7 -15q18 -32 23 -40q-28 -21 -31 -35q-2 -6 -3 -52l-1 -26q1 -13 11 -26q14 -17 14 -24q0 -11 -5 -31q-2 -9 -4 -27q-31 24 -37 24q-4 0 -37 -7q-8 -1 -24 -1 q-16 25 -16 42q0 18 21 42q-7 17 -10 26q-8 20 -13 38q19 24 19 38q0 22 -34 62zM519 191q15 24 15 42q0 10 -2 51q-1 10 -1 20q0 31 10 44q7 9 29 17l-40 20q20 -2 73 -13h2q7 0 36 5l7 -7v-5l-18 -21q30 -17 29 -29l-5 -41q-2 -27 -3.5 -32t-15.5 -26l23 -48 q-21 -27 -21 -41q0 -4 18 -77q1 -3 1 -9q0 -15 -25 -39q8 -20 12 -26q7 -15 7 -24q0 -1 -10 -34l15 -33l-18 -32l5 -38q-15 -49 -15 -52q0 -8 34 -39q-12 -26 -18 -35q-6 -10 -6 -13q0 -6 14 -24q9 -12 9 -26q0 -15 -7 -50l-43 27q-29 -23 -46 -23q-13 0 -31 4l11 29v0 q0 10 -22 43l24 37q-11 22 -14 34q-1 3 -3 55l-3 37q65 61 65 69q0 16 -66 66q24 31 24 50q0 16 -24 44q12 34 25 100z" />
<glyph unicode="&#xa7;" d="M165 64h17q18 -19 18 -24l2 -61q0 -14 13 -45q17 -3 28 -10q6 -40 24 -59q43 -54 131 -81l16 -6q25 -7 53 -22q37 -19 82 -19l24 15q42 -13 53 -13q3 0 31 8q29 7 48 23q23 1 31 3q2 1 18 21q2 2 18 11q13 6 28 19l-5 24l9 10q24 4 29 12q3 3 12 30l21 29v33l10 17v32 l15 28l7 32v1l-9 42l9 39q-14 48 -15 54q-27 27 -36 48q-48 54 -71 70q-13 9 -72 17q-17 2 -37 19l-3 3q-10 -3 -23 -57q-16 46 -34 65l-66 -50q-26 16 -45 16q-8 0 -21 -1l-13 19q-27 3 -95 22q-33 9 -34 9l-33 22q-2 1 -30 10q-82 31 -116 90q-18 28 -28 62l-1 35 q-5 24 -5 27q0 9 9 22v15q0 41 19 67q31 41 41 53q12 16 49 45q23 20 33 25q105 45 131 55v9q-24 10 -86 42q-39 14 -79 39q-45 27 -77 88q-10 19 -11.5 27t-1.5 44l-5 29l5 16q9 57 16 73q6 11 28 38q25 36 42 50q8 6 62 47q75 39 103 51q70 36 92 45q16 5 88 24 q46 16 128 20q23 1 56 8q8 1 13 1q39 0 119 -19q32 -8 65 -24q-1 -19 -15 -36q-25 -30 -42 -30q-4 0 -49 12l-25 9h-16q-62 16 -80 16q-8 0 -29 -4q-31 12 -34 12t-47 -11q-50 -10 -57 -13q-5 -2 -35 -17q-36 8 -37 8q-9 0 -22 -4q-5 -23 -14 -27q-1 -1 -34 -12 q-11 -2 -26 -20q-29 -4 -62 -35q-18 0 -28 -11q-2 -2 -13 -10q-36 -30 -48 -52q-12 -25 -12 -78q0 -41 33 -73q26 -25 30 -27l29 -11q29 -11 40 -37q9 -20 17 -20l28 1q14 -10 48 -18l34 -10l34 3q8 0 28 -12q6 -27 14 -32q5 -3 36 -5q119 -5 134 -8v-33q22 13 36 13 q3 0 12 -2q14 11 21 11q13 0 58 -16q52 -19 63 -33q8 -10 12 -33q5 -5 18 -9l19 -16q43 -35 44 -36q4 -5 4 -12q0 -12 -6 -29q21 -8 26 -17q11 -20 11 -49q0 -2 -6 -28q-1 -4 -1 -10q0 -13 3 -32q-21 -15 -21 -25q0 -1 9 -39q1 -5 1 -12q0 -12 -6 -22q-9 -16 -9 -32l-17 -17 q-9 -11 -11 -49q-2 -7 -62 -85q-8 -11 -8 -19q0 -9 43 -47l7 -16l15 -17q16 -34 21 -45q0 -2 2 -22l6 -37l-9 -34l2 -42l-6 -30l-4 -24l-10 -28v-26l-11 -30q-7 -41 -11 -49q-8 -14 -32 -43l-24 -7q0 -33 -6 -44q-5 -11 -17 -19q-28 -17 -57 -33q-4 -3 -18 -23 q-7 -11 -17 -16q-3 -1 -62 -13l-33 -13q-4 -2 -29 -3l-17 -1q-20 -2 -39 -2q-34 0 -67 14q-13 -3 -24 -17q-17 5 -30 5h-11q-15 27 -24 27q-6 0 -20 -17q-18 14 -28 19q-2 1 -33 10q-17 7 -45 20l-3 17q-14 8 -22 21q-5 8 -12 15l-5 -25q-14 2 -17 5l-10 8l-8 -1l-20 14 q-42 25 -50 34q-6 8 -22 37l-21 29l-26 44q-12 17 -12 20q0 4 16 30l8 25l20 27q3 1 8 27zM361 493l34 7q21 -16 29 -17l31 -7l20 -5q49 -2 73 -9q10 -24 20 -30q16 -10 46 -10h8h25q3 0 29 -3l18 1h12q15 0 31 -24q13 -2 19 -2q7 0 21 2l3 -3l14 12q49 -12 69 -12 q15 12 22 32q5 19 27 62q3 6 3 40l74 35l-57 24l51 27l-51 25q7 36 8 44v2q0 8 -1 14v8q0 6 2 19q-20 3 -26 8q-7 5 -24 33q-6 9 -12 15q-4 3 -17 24q-4 7 -9 9q-2 1 -54 17l-59 23l-19 -3q-26 11 -32 11q-7 0 -20 -1q-9 -1 -28 -1q-10 14 -17 17q-7 4 -51 6q-26 0 -60 13 q-8 3 -11 3q-6 0 -17 -7l-21 15l-3 -20q-24 -8 -33 -10q-20 -7 -37 -26l-27 -9q-50 -26 -70 -30q-10 -17 -33 -27q-20 -10 -35 -41.5t-15 -63.5q0 -34 4.5 -48t22.5 -34q21 -23 36 -34q2 -1 56 -25q6 -7 31 -46z" />
<glyph unicode="&#xa8;" horiz-adv-x="836" d="M91 1025q2 14 15 24q40 29 46 36q32 40 41 40q5 0 36 -20q1 -3 29 -15q38 -16 51 -31q8 -10 14 -33q-8 -12 -20 -36q-4 -10 -37 -35q-14 -12 -24 -29q-22 7 -26 10l-32 31q-39 30 -53 50q-14 3 -19 3q-14 0 -21 5zM524 1038q12 14 67 56q19 19 40 30q26 -19 78 -48 q21 -12 34 -32q4 -7 4 -10q0 -8 -13 -29.5t-24 -30.5q-28 -25 -59 -44q-34 37 -46 46q-22 17 -26 24q-17 22 -22 24q-5 3 -33 14z" />
<glyph unicode="&#xa9;" horiz-adv-x="1435" d="M730 1199q158 0 298 -82q142 -84 224 -224q82 -142 82 -305q0 -162 -80 -301q-82 -143 -226 -226t-311 -83q-228 0 -400 147q-172 146 -208 365q-8 48 -8 97q0 269 202 453q176 159 427 159zM156 585v-7q0 -142 76 -270q76 -127 205 -201q131 -74 281 -74q151 0 281 75 q130 74 205 203q74 128 74 277t-75 278q-74 128 -203 203q-131 75 -283 75q-151 0 -280 -74q-130 -75 -205 -205q-76 -131 -76 -280zM438 765q16 16 43 50q63 46 104 70q25 12 42 20q4 2 72 20q52 15 99 15q34 0 103 -12q64 -10 72 -12q11 -3 32 -15q-1 -12 -7 -16 q-23 -20 -34 -20q-3 0 -18 9q-36 16 -67 23q-33 10 -51 11h-63q-84 -16 -97 -23q-8 -4 -79 -44q-34 -19 -81 -78q-72 -91 -72 -196q0 -46 10 -71l23 -60q10 -30 20 -40q56 -45 83 -63q35 -21 89 -32q30 -6 64 -7q10 0 24 -1h4q8 0 34 4q29 3 66 6l58 15l46 9q58 24 65 27 q22 11 45 22h1l17 -9q-8 -35 -18 -45q-7 -9 -33 -13q-19 -3 -116 -25q-28 -6 -64 -9l-51 -11q-31 -2 -62 -7q-13 -2 -23 -2q-6 0 -34 7l-29 -6l-22 7q-93 13 -147 64q-39 26 -47 34q-59 68 -64 124q-12 46 -12 59q0 7 3 35q2 37 7 53q4 9 13 32q23 67 36 78q14 10 16 23z " />
<glyph unicode="&#xaa;" horiz-adv-x="673" d="M57 587l2 3q27 -1 49 -1q10 0 18 1q13 1 18 1t30 -10l22 5l52 1l59 1q27 -10 28 -10l37 9h4q35 -1 57 -3q27 -2 29 -2l54 4q59 3 85 7l7 -7v-55l-2 -3q-16 1 -28 1q-10 0 -20 -1q-14 -2 -17 -2l-80 10h-5q-17 0 -28 -1h-50q-26 -3 -40 -3q-16 0 -49 1l-44 1q-34 1 -42 1 q-10 0 -49 -5q-10 -1 -17 -1q-4 0 -35 5l-34 -5q-11 0 -11 17v41zM471 1032q-18 12 -55 44q-7 8 -66 9q-19 1 -40 10q-16 -13 -61 -31q-44 -34 -55 -34q-15 0 -66 33v3q21 17 54 25q65 27 109 32q65 10 70 10q13 0 31 -4q45 -8 55 -10q40 -4 40 -24q0 -5 -1 -12l25 9 q18 -22 23 -31q2 -4 8 -34q18 -46 18 -69q0 -21 -9 -44l15 -20q-5 -25 -5 -40q0 -9 1 -17q3 -22 3 -28v-1q-4 -38 -4 -39q2 -6 16 -18q-10 -18 -15 -22t-53 -23q-18 -7 -32 -8q-11 -1 -11 15v4l4 22q-29 -11 -94 -23q-2 -1 -23 -6q-41 -10 -78 -11l-44 -3l-30 6 q-43 6 -61 15q-10 6 -31 27q-16 14 -17 20q-9 28 -9 37q0 3 14 25q13 25 13.5 25.5t13.5 10.5q20 15 42 31l53 21q52 27 115 36l25 5l45 3q64 7 68 10q7 4 6 7q-10 30 -10 33q0 11 3 24zM179 766q7 3 9 3q9 0 22 -12q21 -3 57 -22l35 8h39l39 12q50 13 62 21q7 5 30 23 q4 10 12 26l-7 8q2 18 2 27q0 15 -8 50h-53q-7 0 -19 -1l-38 8l-38 -6q-32 -4 -81 -27q-19 -9 -41 -27l-26 -22l14 -64q0 -1 -10 -5z" />
<glyph unicode="&#xab;" horiz-adv-x="912" d="M59 359q20 38 29 44l50 31l64 44q59 31 78 48q16 15 30 25l4 21l9 3l12 20q14 26 22 30q3 2 38 18q45 23 53 23q15 0 37 -19q-24 -16 -37 -34q-10 -15 -32 -33q-5 -20 -9 -19q-2 -2 -16 -5q-12 -2 -34 -18q-10 -8 -20 -15q-15 -11 -34 -31q-34 -21 -52 -35q1 -21 1 -29 q1 -8 5 -12l26 -6l-4 -39l36 -20q2 -20 15 -41q32 -15 40 -23l33 -36q4 -4 25 -14q2 -24 8 -41q24 5 31 9q24 12 34 13q9 -11 9 -16q0 -1 -11 -28q-7 -18 -42 -45q-9 -7 -48 -18q-5 -1 -23 -13q-13 -9 -31 -11q-9 51 -23 70q-39 59 -66 89l-25 -4q-18 28 -65 70 q-57 24 -59 25q-5 4 -21 34l-32 -17zM378 365q14 28 24 37q38 25 115 76q97 51 119 97q23 30 31 51q29 12 40 19q47 28 61 28q8 0 31 -14l-2 -13q-21 -13 -26 -20l-15 -25q-22 -21 -34 -38q-24 -5 -32.5 -9.5t-30.5 -25.5q-26 -24 -31 -27q-40 -27 -58 -39l5 -42l28 -6 l-4 -43l36 -17q4 -27 12 -35q3 -4 42 -27q35 -37 56 -48l9 -44q17 2 45 16q7 3 14 3q6 0 16 -2q-7 -38 -16 -54q-2 -2 -16 -12l-21 -20l-42 -13l-23 -11q-15 5 -20 5q-9 0 -20 -2q-1 24 -12 41q-26 38 -44 64q-29 33 -32 33q-5 0 -13 -3q-26 25 -34 34q-35 35 -49 41l-54 23 q-6 3 -17 32l-30 -17z" />
<glyph unicode="&#xac;" d="M62 646q6 -4 10 -4q3 0 8 4l40 27l35 -9q48 0 64 -4q9 -2 52 -16l15 27l84 -25l17 32q28 -15 37 -20q34 -19 40 -19q1 0 24 13q13 7 35 7q24 0 55 -17l33 29q19 -4 26 -4q39 -3 41 -4l29 -16q3 -1 6 -1q1 0 42 20q44 -20 49 -20q7 0 17 3q49 16 64 16q18 0 41 -24 q20 7 26 11q15 8 24 8l47 -13q9 7 18 13q10 8 21 8h7l5 -6q1 -3 1 -4q0 -7 -6 -21q-8 -18 -8 -37q0 -18 32 -39l-25 -54q29 -37 29 -65q0 -23 -31 -45q25 -32 25 -51q0 -8 -21 -60q-1 -2 -1 -12q0 -8 18 -40l-1 -4q-6 -20 -20 -37q13 -27 14 -35l3 -57l3 -31 q-11 -45 -13 -65q-22 0 -55 -11l-50 14q-6 0 -20 -14q12 29 12 37v56l1 37l-19 50v2q16 45 16 66q0 27 -22 59l28 52q-11 23 -11 31q0 3 10 32v2q0 9 -16 28q1 9 12 34l-16 42q0 1 12 16q3 5 8 15l-29 -2h-42q-10 0 -34 -16l-32 25l-56 -31q-16 23 -21 23q-8 7 -42 9 q-20 0 -24 1q-13 1 -19 1q-5 0 -55 -23l-50 5q-7 0 -27 -10q-17 69 -34 69q-1 0 -42 -53q-1 -1 -4 -1t-7 2q-26 11 -31 11q-4 0 -17 -6q-17 -9 -51 -19l-16 28l-74 -24q-26 19 -40 19q-24 0 -58 -35q-17 28 -21 38q-26 54 -42 54q-20 0 -52 -80h-4q-2 21 -4 37q-1 5 -1 7 q0 10 12 31q9 15 16 33z" />
<glyph unicode="&#xad;" horiz-adv-x="693" d="M277 436q-2 -7 -2 -12q0 -3 3 -6q15 -15 32 -15q6 0 14 7l3 15q19 3 37 12q19 -11 36 -12l46 -4l43 3q7 0 23 -4q34 -10 44 -10q27 0 55 13q16 7 22 7q4 0 10 -1l4 -4q24 35 45 35q-7 -33 -15 -48q-5 -9 -35 -35q-14 -15 -57 -46q-40 -28 -66 -28q-11 0 -24 3 q-21 4 -23 4l-71 -1l-20 11l-39 18l-32 26l-90 -44l-22 11q-10 7 -25 12q-23 -10 -35 -10q-9 0 -22 2q-15 -13 -24 -13q-11 0 -34 11q-17 -32 -33 -32q-9 0 -21 3l-1 2q-3 11 -3 16q0 9 14 26q4 4 61 45l18 16l24 14q29 19 34 20q3 1 46 3l27 2q33 -12 53 -12z" />
<glyph unicode="&#xae;" horiz-adv-x="1435" d="M729 1199q159 0 299 -82q142 -84 224 -225q82 -142 82 -304q0 -160 -80 -300q-83 -144 -226 -227q-143 -82 -309 -82q-229 0 -403 147q-171 145 -207 365q-8 47 -8 96q0 269 203 453q174 159 425 159zM156 585v-7q0 -142 76 -270q76 -127 205 -200q131 -74 280 -74 q151 0 283 75q130 75 204 203q74 127 74 276q0 150 -75 279q-75 128 -203 202q-131 75 -282 75t-282 -75q-130 -74 -204 -204q-76 -131 -76 -280zM494 850l-20 13v15q11 7 17 7q4 0 9 -1q8 16 10 16l58 -4h13h37l22 2l93 -5l45 1q78 -7 95 -10q22 -5 63 -33q1 -20 3 -32 q1 -6 1 -11q0 -4 -18.5 -23.5t-31.5 -27.5q-23 -15 -31 -26l-26 -10l-25 -17l-40 -21q-33 -19 -58 -27q0 -9 1 -17q1 -11 25 -32q1 1 27 -29q7 -9 16 -19q19 -21 46 -60q1 -2 37 -41q12 -14 15 -28q1 -7 6 -12q40 -16 68 -72q21 -6 35 -19q9 -9 14 -8h2q23 2 31 2l7 -15 q-15 -11 -51 -23q-40 -13 -43 -13q-10 0 -20 6q-2 2 -29 41q-19 21 -28 38q-7 16 -29 37q-19 19 -41 54q-60 58 -74 80q-13 4 -14 5l-42 51q-9 11 -42 35q-22 -7 -29 -9q-21 -6 -34 -23q2 -15 2 -36l2 -54l1 -34v-11v-7q0 -3 -5 -29l6 -98q0 -30 -47 -48q-28 -10 -30 -10 q-8 0 -19 3v7l12 29l4 21l7 30q-8 44 -8 50t10 25l-2 33l7 34l-4 26l3 38l-3 25v103q-5 61 -5 69q0 13 2 42v12q0 4 -4 18q-1 3 -1 7q0 8 2 20zM563 646q24 0 35 1q24 3 41 11l102 51l40 16q69 50 73 53q13 11 13 22q0 26 -23 38q-37 21 -117 21h-4h-24h-8h-9l-27 2l-30 -5 q-43 -2 -62 -8q0 -26 -1 -33v-5t4 -34q-6 -28 -6 -31t5 -15q1 -4 1 -9q0 -8 -1 -20q-2 -18 -2 -55z" />
<glyph unicode="&#xaf;" d="M22 1858l22 69l-17 42q28 -10 38 -10l49 2l46 -2l50 17q42 -14 58 -14q32 0 40 4l29 14h2q2 0 53 -72l31 57l35 -8l32 13q32 -8 33 -8q9 0 36 16q20 -23 31 -22h1l29 4l40 1q8 1 27 13q23 -21 34 -21q4 0 18 8q25 14 38 21q26 -36 74 -36q18 0 38 3q5 1 57 22 q31 -5 35 -5q5 0 30 7h2q11 0 34 -23q31 12 42 12q3 0 61 -12q-10 -33 -16 -51l-18 17q-2 3 -16 -14q-9 -11 -38 -65q-21 31 -26 40q-28 50 -41 50q-9 0 -19 -24l-27 -61q-33 0 -40 5q-10 1 -37 27l-50 -31l-33 27l-43 -30q-25 7 -81 9q-17 1 -68 19l-13 -28l-83 25l-17 -30 l-74 40q-33 -22 -61 -22q-24 0 -55 18l-29 -28q-21 3 -28 3q-37 3 -41 4q-5 -2 -31 18l-51 -24q-18 18 -30 18q-7 0 -36 -3q-9 -1 -26 -1z" />
<glyph unicode="&#xb0;" horiz-adv-x="882" d="M155 921q33 26 45 31q22 11 45 21q5 2 5 3q0 9 -64 33q42 77 86 91q26 28 35 34q34 18 99 30q8 1 65 20h1q3 0 43 -51l49 40l17 -6l21 -6l32 -16l34 -13l12 -25l20 -33l2 -18q0 -1 15 -30q8 -15 8 -82q0 -29 -10 -48q-1 -3 -25 -33q-34 -50 -49 -61q-11 -8 -100 -41 l-36 -15l-39 -6q-56 -13 -77 -13q-18 0 -41 1q-5 7 -18 18q-13 -1 -29 -11q-10 2 -19 8q-2 2 -17 12q-5 3 -22 23q-34 17 -39 23q-9 14 -9 33q0 9 1 22l-40 30q4 11 4 17t-5 18zM346 890q6 -28 19 -43l25 -25q39 -5 46 -7q11 -5 36 -22q21 10 27 13q59 32 64 34q30 11 29 22 l-2 36l7 49q0 5 -19 44q-15 31 -17 33l-23 23q-21 34 -39 48q-8 -1 -13 -1q-24 0 -37 26q-46 -7 -88 -40q-31 -26 -35 -29q-27 -18 -27 -37q0 -56 12 -87q5 -14 35 -37z" />
<glyph unicode="&#xb1;" d="M166 123q26 1 34 1q37 1 57 1q35 0 68 -23l23 17q14 -2 24 -2q3 0 7 1q17 2 20 2q5 0 12 -8l5 5l3 3l66 -50l75 50l17 -10q8 -4 25 -7q8 11 10.5 11.5t27.5 2.5l12 2h21l20 1l36 -10q22 5 105 7v0q14 -1 31 -17l15 18q25 1 32 2q76 10 78 10l5 -1q6 -12 6 -23v-12 q-1 -43 -3 -72q-6 -2 -22 -3l-22 -3l-12 3h-20l-20 7l-31 -4l-15 5l-30 1l-27 6l-33 -6l-1 1l-10 9l-34 33l-30 -43q-26 9 -28 9t-14 -8q-8 -6 -19 -6q-4 0 -50 8q-33 -6 -54 -6q1 9 1 16q0 13 -5.5 25.5t-11.5 12.5t-22 -55q-26 7 -30 7t-38 -5q-33 52 -38 52q-3 0 -89 -52 q-4 -3 -13 -3q-11 0 -33 15l-14 -18q-7 -2 -10 -2q-6 0 -18 4q-8 2 -35 2q-13 0 -13 17q0 4 1 9q3 17 3 23l-2 24v2zM159 575q3 8 4 11q2 7 2 11v2q-5 38 -5 40q1 4 8 15q19 4 20 4q9 0 32 -14q8 -5 34 -43l39 51l27 -10l37 7l20 -1l28 2l10 -24l10 -21l3 3l25 44l33 -8 q27 4 30 4q10 0 24 -2q5 30 4 39l-2 29q-1 21 -4 44v14q0 6 11 27q1 1 1 3q0 3 -8 28q-2 7 -2 46q0 27 6 56l-14 6q-2 3 -2 4q0 9 9 10l38 8l11 5l-56 34l2 4q37 2 49 3q15 1 24 1q10 0 31 -5q3 -14 3 -24q0 -4 -7 -25l4 -28l-6 -24l2 -44l-2 -28l3 -56l-5 -20l2 -14l1 -13 l1 -12l1 -25l1 -14q0 -21 2 -26h31q14 1 22 1q5 0 42 -7l25 5l14 -43l22 42l70 -45l21 50l15 -15h5q23 18 49 20q36 2 46 3q4 -14 4 -21l-1 -21v0q2 -26 2 -34q0 -9 -1 -27q-27 -8 -46 -8q-15 0 -23 3l-23 8l-29 -4l-22 27h-27q-6 0 -20 15q-9 10 -15 10q-7 0 -36 -49 q-34 14 -35 14q-2 0 -27 -11l-37 42l-28 -50l-2 -10l4 -196q0 -6 -4 -16q-5 -10 -5 -12q0 -8 15 -21q-3 -14 -4 -69q-1 -10 -17.5 -18t-35.5 -8q-7 0 -51 7q-2 20 -2 26q-1 7 -1 11q0 6 11 43v4q0 1 -7 23l8 41l-6 18q-3 8 -3 16q0 14 10 31q-5 17 -5 21l2 26l-2 58 q0 7 6 29l-5 31l-3 20q-39 -50 -40 -50h-1q-8 0 -27 31q-8 15 -16 15q-6 0 -34 -46q-37 50 -43 50q-8 0 -39 -50l-34 3q-24 -7 -26 -7q-12 0 -34 18q-21 -16 -45 -17q-23 -1 -26 -1q-6 0 -12 9z" />
<glyph unicode="&#xb2;" horiz-adv-x="777" d="M101 477q4 25 48 48q28 26 36 27h11q8 30 13 33l52 42l42 44q51 45 59 58q14 19 35 63l16 18l36 46q33 38 40 53q11 24 13 48l6 31q0 17 -64 21q-4 14 -20 27q-14 11 -17 28l-22 -7q-56 34 -112 34q-28 0 -82 -40q-17 6 -34 21l22 44q26 7 34 12l34 22q15 10 55 15 q12 2 19 2q14 0 34 -2q20 -16 31 -16q6 0 19 7l16 -18q11 4 16 4q21 0 64 -34q45 -34 49 -40q11 -18 11 -47q0 -24 -14 -56q-9 -31 -18 -42q-15 -18 -27 -35l-96 -141q-36 -43 -63 -80q-9 -11 -18 -23q-18 -25 -24 -37q-13 -23 -27 -30v-5l10 -10q27 9 38 9q6 0 12 -1 q39 -8 41 -8l33 2h2q3 0 30 -3q12 -2 47 -2q12 0 32 -2h37l15 -3l24 1l27 -43l31 33q9 13 27 32q14 -16 14 -24q0 -16 -24 -40l-6 -17q-20 -3 -71 -30l-23 4l-17 3l-22 9l-52 -4l-54 6l-78 1l-22 7l-51 -10q-31 4 -35 4q-10 0 -52 -11q-22 -5 -52 -5q-14 0 -34 7z" />
<glyph unicode="&#xb3;" horiz-adv-x="777" d="M366 951q1 -42 16 -52l12 23l9 22h1l20 -3l38 -3l28 -13l23 -6l34 -16q24 -8 26 -10q12 -9 31 -38q9 -14 9 -21q0 -1 -7 -26l1 -1q9 -16 9 -37q0 -6 -4.5 -47t-5.5 -46q-2 -7 -37 -51l-11 -21q-20 -36 -29 -56q-17 -7 -25 -23q-6 -13 -44 -52q-28 -30 -79 -65 q-48 -34 -55 -38q-10 -6 -33 -10q-4 -2 -11 -17q-3 -4 -17 -9q-15 -6 -25 -11q-12 -6 -20 -6q-15 0 -49 9q-17 5 -17 19q0 8 6 14q5 4 81 28l20 9q49 13 106 53q62 57 65.5 61t24.5 49q28 37 37 56q8 17 17 56l4 17q-5 16 -6 19v0l6 20q-8 18 -12 25q-8 13 -8 20q0 6 4 8 l48 19q3 1 3 4q0 14 -46 14q-16 0 -39 -2q-24 20 -33 24q-11 7 -22 19q-13 -6 -16 -6l-37 6l-37 -3l-24 3l-56 -33q-47 -17 -52 -17q-6 0 -18 6q6 29 12 37q4 4 31 20l20 19q32 18 44 35q10 14 11.5 18t7.5 39q44 63 56 94q-10 12 -15 12q-2 0 -17 -3q-2 -1 -4 -1t-45 8 l-37 2l-42 4q-5 0 -44 -17q-4 -2 -9 -2q-19 0 -19 20q0 7 7 11q86 50 90 51q1 0 25 -4h2l50 1q47 -6 58 -6h3q7 0 17 1h8l49 -1q2 0 9 3q29 15 34 15q12 0 12 -16q0 -5 -13 -46q-9 -29 -54 -82q-17 -23 -51 -76z" />
<glyph unicode="&#xb4;" horiz-adv-x="836" d="M488 1127l3 3l-13 10q7 25 16 32q6 5 25 5q75 6 88 9q25 6 33 6q11 0 18 -16q-15 -22 -55 -91q-8 -12 -42 -46l-22 -48l-20 -28l-10 -15q-30 -28 -43 -43v-6l-54 3q0 9 -2 15v3q0 5 9 26q5 10 9 22q18 56 30 68l16 16q23 22 23 59q0 7 -9 16z" />
<glyph unicode="&#xb5;" d="M52 -392q14 44 13 59q1 34 2 37q8 18 16 37l2 24q7 44 7 52q0 15 -10 41l32 35q-21 37 -23 50q11 15 22 28q9 13 15 25q-20 19 -19 32v0l5 40q1 34 3 40q4 11 18 29q-20 36 -20 50q0 18 37 43l-18 36q16 21 16 33q0 4 -20 48q27 29 26 43l-6 63l3 50q0 10 -7 40l21 29 l-23 35q48 20 73 27q27 8 27 9q0 9 -99 43l22 37q-26 31 -26 49q0 13 27 40q-5 17 -26 44l27 34q-12 19 -18 24l-6 7l100 108l-23 31l-22 41l-54 25q-1 1 -7 9q9 5 14 5t12 -1q17 -2 46 -3q21 1 50 -14q17 6 22 9q19 10 28 10q7 0 14 -9q9 -10 9 -23q0 -15 -5 -51 q-2 -14 -2 -26q0 -10 2 -18l8 -34l-110 -65l33 -27l30 -44q43 -25 43 -28q0 -5 -5 -15q-5 -11 -10 -32l22 -28l-22 -40q26 -28 26 -44q0 -6 -27 -57l8 -61l-10 -47q25 -63 25 -67q0 -13 -22 -40q11 -26 16 -33q9 -15 9 -19q0 -5 -6 -21q-3 -9 -3 -18q0 -20 5 -47 q22 -18 22 -31q0 -12 -5 -30q28 -29 36 -63q14 -8 38 -9l13 -17q16 3 21 3q28 0 102 -27q19 10 25 14q16 9 37 13q16 3 32 17h39q23 39 43 52q15 10 56 26l5 40q17 12 44 21l-7 10q91 56 91 61q0 6 -81 45q-2 1 -2 6q0 2 1 4q2 10 4 30q-17 15 -21 30l-3 9q20 51 20 55 q0 2 -22 97q16 21 28 49l-31 27q14 34 22 43l4 6l-9 41q0 9 7 26q3 10 7 32q-18 11 -18 14l2 74l-14 36q0 6 98 44l5 4q-21 15 -104 40q27 41 27 64q0 10 -7 32q21 4 30 4q19 0 58 -17q13 8 29 30q16 -11 21 -15q22 -18 30 -20l12 11q-11 -24 -11 -34l2 -43l-5 -37l19 -60 q-14 -44 -14 -61q0 -29 6 -40l15 -29l-113 -49l57 -18q38 -12 39 -13v-4q0 -3 -2 -8q-7 -16 -8 -28q15 -23 15 -26q0 -5 -4 -6l-101 -27l109 -38l-4 -4q-8 -7 -18 -23q6 -21 6 -49q0 -23 15 -52l-23 -30l31 -56q-23 -19 -28 -33q-4 -11 -4 -42l-81 -36l48 -28 q39 -22 48.5 -32t9.5 -29q0 -7 -10 -40l47 -65q33 19 47 19q12 0 28 -19l33 29l25 -46l-72 14q-8 -46 -21 -64q-9 -13 -34 -13h-9q-28 2 -32 2q-6 0 -15 -5l-15 -42l-23 18l-49 -24q-18 33 -50 63l3 43l-33 14l13 57q-24 9 -24 16q-1 29 -3 37q-13 -23 -20 -56l-53 -20 q0 -64 -31 -64q-4 0 -7 3q-17 11 -25 12q-16 -15 -27 -50l-65 -6q-28 -41 -55 -41q-15 0 -39 18l-36 -23q-23 14 -33 14q-8 0 -34 -12l-23 27q-34 3 -43 13q-10 9 -21 43l-41 -23l-8 47q-43 27 -65 50l18 42l-15 13q5 -14 5 -23q0 -4 -16 -39v-3t17 -37l-15 -45 q13 -28 15 -32q0 -2 4 -43l7 -34q-11 -46 -11 -54q0 -29 28 -69q-25 -13 -25 -27q0 -16 37 -51q-7 -23 -9 -30q-11 -29 -11 -45q0 -15 24 -55q-23 -16 -27 -23q-19 -34 -30 -47l-42 -4l-9 -12l-28 30q-16 -7 -24 -7q-6 0 -19 5v17v13q1 7 1 11q0 3 -31 38z" />
<glyph unicode="&#xb6;" d="M79 1057q20 0 39 15q26 1 45 12q13 7 17 9l153 29l38 15q16 -21 28 -21q14 0 24 30q29 1 69 11l61 7q48 12 77 13h6q71 -2 107 -17q6 23 21 23q4 0 48 -16q36 10 51 10q5 0 37 -1q44 -1 77 -16l9 23q22 -3 46 -13l18 -7l20 -13q65 -25 69 -32q5 -8 5 -14q0 -4 -5 -13 l-34 4l-10 -10l9 -35l-17 -17q7 -22 7 -35q0 -24 -34 -70q4 -16 19 -27q-13 -17 -13 -24q0 -9 16 -27l-6 -43h-2l-9 -10q2 -18 2 -23q0 -18 -8 -82q-1 -11 -1 -21q0 -6 10 -49q-10 -24 -10 -68v-7v-17l1 -4q0 -9 -14 -37q-5 -11 -5 -20v0l2 -35v-44l2 -15q0 -9 -11 -27 q5 -10 7 -13q10 -15 11 -24q0 -5 1 -21l-3 -45q0 -17 -10 -30l-4 -36l22 -24q-7 -18 -6 -23l4 -24q2 -90 6 -114l-20 -24q11 -26 16 -64l5 -34q0 -13 -12 -39q25 -38 25 -49q0 -7 -3 -9l-72 -36l85 -35q3 -2 3 -7t-11 -24q-50 20 -69 22q-20 3 -31 34q-50 4 -50 32 q0 11 4 24q13 42 13 45q-3 51 -3 85q0 7 3 19h15q9 18 10 39l-19 12q0 41 -5 73l9 9l18 6q1 5 1 9q0 5 -7 14h-10l-9 9l3 17v174q0 9 -1 20q-2 18 -2 27q0 4 8 30q0 1 1 49q0 9 4 42q2 9 5 38h-4l-2 -2q-13 22 -13 40l1 43l-1 33l-1 22q0 10 13 16l-16 81l16 5l-5 70l4 4h12 l-2 3l50 95q-35 23 -53 37h12q1 20 -10 38q-13 107 -14 115q-15 2 -27 2q-15 0 -32 -12q-15 46 -20 46q-4 0 -16 -55l11 -33l-15 -15q5 -21 5 -35q0 -27 -34 -75q8 -13 19 -24l-13 -32q17 -13 17 -22l-2 -8q0 -1 -1 -17q-2 -14 -14 -29q1 -17 1 -27q0 -6 -7 -86v-4 q0 -9 3 -20q5 -19 5 -25q0 -2 -1 -7q-9 -45 -9 -78q0 -15 4 -37q-22 -21 -22 -38v-5q3 -30 3 -42t-2 -37l9 -11q-12 -19 -12 -26q0 -2 15 -37l-3 -30v-53l-8 -13q-6 -35 -6 -36q0 -10 21 -23l-5 -21v-3l7 -45v-7l-2 -58v-3l6 -26l-19 -24q8 -27 13 -63q6 -35 6 -38 q0 -14 -11 -39q18 -24 22 -39q1 -8 1 -51q13 -41 13 -44q0 -8 -10 -24q-32 12 -44 14q-35 9 -51 23l-3 17q-56 7 -56 32q0 10 5 24q16 44 16 59q0 2 -6 52q-1 8 -1 14q0 9 3 26h15q12 18 15 42l-24 9v20v15q1 8 1 12q0 2 -6 27l1 1l5 5l26 5q1 5 1 8q0 6 -5 18l-23 3 q-2 12 -2 16t4 34v145l-3 49q0 10 5 35q2 63 5 75q5 19 9 46l-3 3l-8 -2q-6 16 -6 18l-1 76l-1 42q1 7 7 25q-20 4 -27 5q-49 5 -53 7l-22 12q-11 4 -87 9l-32 10l-23 -3q-10 0 -38 9q-10 3 -30 7l-7 13q-20 1 -26 1q-19 0 -53 11l-33 7l-48 23q-7 2 -28 5q-18 25 -25 27 q-5 5 -33 9l-38 37l12 27q-7 6 -23 11q-12 3 -24 15q-7 -7 -13 -7t-16 32l-16 40l-1 14q-3 13 -3 14q0 19 27 37q17 11 22 24zM633 729v-6q11 -4 17 -4q3 0 10 2l-3 14l4 3l54 -3l3 2v74l16 5l-2 36v64l-6 33h19q2 8 2 12q0 7 -7 17l-8 14q-17 106 -20 112q-22 -1 -29 -1 q-34 -1 -54 -6q-25 16 -42 16q-1 0 -5 -1q-5 -18 -16 -22q-43 -15 -57 -15q-18 0 -49 13q-28 -25 -43 -25l-34 -2q-7 -1 -29 -11q-22 19 -33 19q-6 0 -15 -3l-3 -26q-92 -27 -123 -53q-23 -21 -23 -45q0 -3 12 -28q10 -32 15 -41q24 -39 46 -53q17 -11 68 -25l61 -25l19 1 l23 -6l24 -2q29 -12 56 -15l133 -15z" />
<glyph unicode="&#xb7;" horiz-adv-x="437" d="M211 491q17 -13 90 -54q16 -9 26 -28q6 -10 6 -14q0 -7 -11.5 -28t-18.5 -27q-28 -27 -65 -52q-17 16 -21 22q-20 21 -51 43l-24 28q-6 6 -32 7l-5 5q-2 2 -2 4q0 15 42 39q24 15 39 34q3 5 27 21z" />
<glyph unicode="&#xb8;" horiz-adv-x="836" d="M445 -199l-17 9l-10 20q-34 -1 -63 -12q-13 27 -13 42q0 7 8 53l-1 21q4 48 9 58q4 9 20 9t33 -18q1 -2 -6 -48v-3q0 -11 4 -26q26 -16 39 -16q10 0 23 2q17 -20 49 -37q18 -9 16 -25l-3 -30l11 -43q0 -7 -17 -38q-24 -42 -91 -69l-26 12l-11 -21q-15 2 -19 2l-55 -2 q-35 0 -35 22q0 29 37 29q3 0 31 -3h5q36 0 57 28q16 23 25 84z" />
<glyph unicode="&#xb9;" horiz-adv-x="777" d="M279 1045v18q10 8 24 13q30 10 49 27q16 15 33 30q19 17 38 17q9 0 24 -7v-31v-18q-1 -20 -11 -48q-1 -3 -1 -7q0 -10 11 -41l-21 -24l26 -27q-17 -19 -17 -29l1 -25l-46 -34l54 -50l-3 -37q0 -2 1 -9q2 -13 2 -44q0 -55 -2 -69q-1 -13 -14 -38l13 -13l4 -88 q-48 -36 -92 -36q-19 0 -19 30q0 16 11 44q1 2 1 4q0 10 -6 24l7 10q-3 13 -3 23q0 24 3 30l14 28q-9 34 -9 38q0 14 20 34q-13 20 -15 31v42q-16 48 -16 55q0 17 10 109q2 15 2 26q0 12 -7 32h-62z" />
<glyph unicode="&#xba;" horiz-adv-x="673" d="M447 1113q16 9 21 9q4 0 33 -11l30 -18l12 -5q14 -24 18 -28q7 -8 33 -10q22 -34 27 -60q2 -11 6 -48l-15 -19q9 -24 9 -35q0 -19 -18.5 -56.5t-39.5 -61.5q-12 -15 -81 -47q-53 -24 -56 -24l-29 -1l-74 -11q-56 0 -96 5l-21 3l-23 13q-33 8 -82 38l-12 20q-18 16 -21 22 q-8 16 -8 28v1q0 13 1 14v4q0 4 -6 20q-3 10 -3 15q0 40 42 116l10 21l23 13q4 2 17 22q8 12 27 21q24 10 61 33q10 7 62 25q32 11 111 11q24 0 42 -19zM68 535v48h18h59q7 0 11 1l3 1l27 -10q22 5 28 5h34h75l25 -1h37l46 -2l36 2l26 -3h1q3 0 13 1q14 1 50 4q27 1 53 5 l7 -7v-58q-31 1 -41 0q-32 0 -144 10q-2 0 -23 -4q-20 -4 -42 -3q-23 1 -28 1l-179 -5q-48 7 -51 7q-4 0 -10 -2q-15 -5 -20 -5q-2 0 -8 2zM131 900l13 -13q-1 -9 -1 -12q0 -31 31 -73q12 -16 17 -32q21 -13 40 -42q39 -65 65 -65l29 -1l65 -6q19 0 31 11l42 37q27 21 37 42 q2 5 18 56q4 17 26 45q-10 19 -10 28q0 10 12 29q-7 29 -23 84l-3 11l-27 27l-26 29q-41 18 -60 37q-8 -6 -13 -6q-6 0 -14 1q-15 3 -29 3q-21 0 -47 -13q-8 1 -14 1q-8 0 -22 -12q-4 -3 -19 -13q-9 -6 -34 -26q-19 -15 -25 -19q-11 -8 -17 -27l-24 -46q-8 -23 -18 -35z" />
<glyph unicode="&#xbb;" horiz-adv-x="904" d="M84 550q5 33 28 58q26 30 30 26l40 12q7 2 23 12q15 10 30 12q7 -21 8 -28q5 -22 9 -29q29 -43 72 -99l27 4q7 -17 36 -43q17 -17 26 -24q7 -6 59 -27q7 -3 27 -34l32 15l4 -4q-13 -27 -24 -37q-3 -3 -39 -27l-85 -59q-39 -21 -51.5 -30t-49.5 -44v-14q-15 -11 -27 -35 q-8 -16 -22 -25q-3 -3 -34 -17q-46 -25 -56 -25q-17 0 -35 24q22 11 26 17l20 32q4 6 23 18l5 17q32 12 46 19q6 3 58 49q13 11 51 34v43l-34 12l7 35q-9 11 -33 17q-5 27 -13 38q-2 3 -44 30q-37 37 -56 48q-4 23 -14 44q-25 -12 -33 -15q-15 -7 -30 -7zM394 550 q11 44 28 63q15 17 23 22q2 1 40 14q9 3 29 16q11 8 27 12q11 -22 13 -30l7 -25l20 -26q29 -43 59 -73l24 5q13 -21 41 -46q18 -18 26 -24q6 -4 54 -20q11 -3 30 -36q18 15 31 16l3 -3q-10 -26 -20 -38q-4 -4 -41 -30l-71 -53q-54 -32 -72 -47q-13 -11 -37 -36 q-1 -13 -11 -25q-32 -48 -33 -49q-1 0 -32 -16l-20 -12l-12 -7l-18 -11q-43 11 -46 17q14 18 31 28l14 35l22 14l3 15q29 12 44 21q7 5 56 48q50 36 52 39q4 4 4 15q0 16 -7 31l-33 6l10 36l-38 23q-3 16 -10 27q-6 8 -45 32l-32 31l-23 16q-10 9 -18 44q-20 -8 -27 -13 q-21 -13 -29 -13q-4 0 -16 7z" />
<glyph unicode="&#xbc;" horiz-adv-x="1673" d="M355 1045v18q10 8 24 13q30 10 49 27q16 15 33 30q19 17 38 17q9 0 24 -7v-31v-18q-1 -20 -11 -48q-1 -3 -1 -7q0 -10 11 -41l-21 -24l26 -27q-17 -19 -17 -29l1 -25l-46 -34l54 -50l-3 -37q0 -2 1 -9q2 -13 2 -44q0 -55 -2 -69q-1 -13 -14 -38l13 -13l4 -88 q-48 -36 -92 -36q-19 0 -19 30q0 16 11 44q1 2 1 4q0 10 -6 24l7 10q-3 13 -3 23q0 24 3 30l14 28q-9 34 -9 38q0 14 20 34q-13 20 -15 31v42q-16 48 -16 55q0 17 10 109q2 15 2 26q0 12 -7 32h-62zM499 -20q9 36 12 42q21 36 30 57q29 1 41 15q4 6 4 32l2 4q16 30 34 52 q-7 11 -7 16q0 12 16 41q9 15 29 28v24l27 12q3 40 24 73q43 65 47 79q2 4 2 16v16q22 11 26 17q10 8 21 38q8 20 28 60q14 27 15 36l2 16l28 -3q-12 19 -12 30q0 17 13 31q2 2 28 20q6 3 9 14q1 3 1 46l29 58l2 28q33 57 33 66q0 23 1 46l30 24q-6 15 -6 24q0 13 14 36 t32 37q16 13 44 14q39 26 55 26q26 0 26 -26q0 -9 -5 -17q-29 -47 -40 -68q-8 -3 -12 -3q-20 -1 -22 -7q-1 -3 -3 -35l-12 -19q-15 -26 -25 -36q5 -13 5 -22q0 -8 -25 -42q-14 -20 -15 -28q-1 -9 -2 -17l-32 -21q2 -13 2 -23t-49 -84q-10 -18 -21 -56l-23 -44l-11 -27 q-53 -90 -64 -113l-16 -4l2 -11v0q-1 -9 -14 -51q-27 -14 -30 -19q-6 -9 -6 -22q0 -14 2 -35q-17 -18 -18 -22l-18 -73q-3 -11 -29 -37q0 -41 -3 -54q-5 -21 -34 -32q7 -17 7 -25q0 -16 -15 -42q-12 -20 -28 -28q-2 -1 -50 -19q-35 -19 -49 -19q-7 0 -27 10zM1398 703 q11 -50 11 -73q0 -3 -2 -24v-32l-6 -53q0 -2 4 -23q2 -14 2 -27q0 -21 -11 -76q16 -9 20 -9l33 3l31 -3q2 0 8 1q31 5 44 5q28 1 33 2t55 18q19 6 32 6q18 0 18 -19q0 -8 -5 -12q-3 -3 -28 -18q-18 -10 -40 -45q-15 -1 -28 -1q-12 0 -56 8l-84 -8q-5 0 -23 5q-6 -25 -8 -89 q-1 -41 -5 -49l-6 -14q14 -23 17 -46q7 -58 7 -71t-5 -21q-7 -10 -44 -27q-14 -6 -22 -13q-27 -20 -34 -20q-6 0 -15 3q-4 14 -4 24q0 4 16 42l4 24q15 26 15 39v1q0 9 -3 32q-4 31 -4 65q0 32 16 78q-17 9 -21 31q-22 -1 -29 -1q-12 0 -34 -2l-56 6l-69 -7l-52 8l-37 -10 l-45 3q-2 0 -19 -3q-13 -3 -25 -3q-25 0 -25 17t39 43q65 44 84 54q79 41 90 52q17 16 38 23l19 16l25 17l12 16l16 12l21 33q17 24 18.5 25.5t22.5 13.5q5 4 23 32q30 45 44 45q12 0 27 -4zM1100 384h19q31 0 79 -9l32 5q42 -9 45 -9q16 0 56 16q1 24 0 34q-2 19 -2 25 t12 27q1 2 1 4t-19 36q0 29 -2 43l-7 7q-11 -18 -14.5 -20.5t-35.5 -20.5q-2 -2 -22 -20q-36 -30 -97 -69q-51 -28 -51 -41q0 -3 2 -5z" />
<glyph unicode="&#xbd;" horiz-adv-x="1674" d="M301 1045v18q10 8 24 13q30 10 49 27q16 15 33 30q19 17 38 17q9 0 24 -7v-31v-18q-1 -20 -11 -48q-1 -3 -1 -7q0 -10 11 -41l-21 -24l26 -27q-17 -19 -17 -29l1 -25l-46 -34l54 -50l-3 -37q0 -2 1 -9q2 -13 2 -44q0 -55 -2 -69q-1 -13 -14 -38l13 -13l4 -88 q-48 -36 -92 -36q-19 0 -19 30q0 16 11 44q1 2 1 4q0 10 -6 24l7 10q-3 13 -3 23q0 24 3 30l14 28q-9 34 -9 38q0 14 20 34q-13 20 -15 31v42q-16 48 -16 55q0 17 10 109q2 15 2 26q0 12 -7 32h-62zM499 -19q8 35 20 57q9 17 19 42q47 -1 47 22q0 9 -5 22q8 7 19 27 q8 16 22 29q-6 14 -6 24q0 3 8 18q13 28 36 45v24l29 16q-2 7 -2 8q0 32 55 108q19 27 19 53v14q25 12 27 17l27 55l32 63q3 4 6 29l28 -3q-11 18 -11 29q0 27 20 39q18 12 26 20l4 19v1q0 3 -1 14v9q0 14 16 37q16 26 17 63l29 48q4 7 4 20t-4 39l34 26q-6 17 -6 29 q0 19 54 77q25 2 34 5q3 1 20 13q2 1 24 9q9 4 11 4q12 0 29 -19q-6 -22 -29 -60q-14 -28 -17 -31q-7 -5 -19 -5q-5 0 -13 1q-2 -12 -3 -44q-11 -11 -22 -29q-7 -14 -20 -27l9 -6l-39 -74q-4 -6 -6 -30l-34 -17q6 -13 6 -16q0 -17 -51 -95q-10 -17 -20 -52l-22 -41 q-18 -45 -44 -85q-16 -24 -19 -33q-9 -22 -15 -25q-5 -3 -16 -4v-4l5 -5q-5 -20 -6 -27q-5 -22 -10 -31q-36 -3 -36 -50q0 -8 1 -25q-15 -16 -16 -20l-20 -74q-3 -12 -27 -34q0 -36 -2 -49q-1 -19 -35 -41q7 -16 7 -24q0 -15 -17 -42q-15 -22 -33 -30q-2 -1 -44 -16 q-33 -16 -46 -19h-2zM1026 6q1 10 4 14q-1 3 40 34q8 5 30 26q16 1 23 5q6 29 10 30q5 7 31 23q19 13 64 63q50 45 59 57q6 8 35 64l17 17l33 44q32 35 44 56q6 13 13 53l4 19q-1 7 -9 15q-24 26 -60 39q-22 8 -34 29l-21 -8q-33 41 -67 55t-43 14q-12 0 -31.5 -14 t-28.5 -28q-13 -22 -16.5 -25.5t-16.5 -7.5l-26 22q11 30 22 40q2 2 34 14l44 27q19 11 75 11q22 0 48 -17l26 9l14 -18q11 4 18 4q1 0 42 -17l21 -17q49 -38 52 -42q3 -7 7 -38l3 -28l-14 -35q-8 -30 -8.5 -31t-13.5 -18q-13 -16 -29 -39l-93 -135q-3 -5 -16 -21 q-42 -48 -59 -75q-39 -61 -53 -75l6 -9q18 4 24 6q8 2 13 2q9 0 12 -4l30 -46l56 42l42 -4l41 1l28 -5l24 2q25 -5 38 -5h28q15 0 23 4q2 1 25 16q2 2 4 2q8 0 23 -8q1 -7 1 -12q0 -18 -23 -40q-4 -18 -20 -22q-18 -4 -44 -21q-6 -4 -10 -4q-12 0 -38 6q-20 5 -75 7l-119 3 q-3 0 -7 -1h-3l-32 50q-22 -38 -27.5 -44.5t-18.5 -6.5q-5 0 -12 1q-16 3 -20 3q-13 0 -54 -8q-29 -6 -59 -6q-14 0 -30 6z" />
<glyph unicode="&#xbe;" horiz-adv-x="1674" d="M376 951q1 -42 16 -52l12 23l9 22h1l20 -3l38 -3l28 -13l23 -6l34 -16q24 -8 26 -10q12 -9 31 -38q9 -14 9 -21q0 -1 -7 -26l1 -1q9 -16 9 -37q0 -6 -4.5 -47t-5.5 -46q-2 -7 -37 -51l-11 -21q-20 -36 -29 -56q-17 -7 -25 -23q-6 -13 -44 -52q-28 -30 -79 -65 q-48 -34 -55 -38q-10 -6 -33 -10q-4 -2 -11 -17q-3 -4 -17 -9q-15 -6 -25 -11q-12 -6 -20 -6q-15 0 -49 9q-17 5 -17 19q0 8 6 14q5 4 81 28l20 9q49 13 106 53q62 57 65.5 61t24.5 49q28 37 37 56q8 17 17 56l4 17q-5 16 -6 19v0l6 20q-8 18 -12 25q-8 13 -8 20q0 6 4 8 l48 19q3 1 3 4q0 14 -46 14q-16 0 -39 -2q-24 20 -33 24q-11 7 -22 19q-13 -6 -16 -6l-37 6l-37 -3l-24 3l-56 -33q-47 -17 -52 -17q-6 0 -18 6q6 29 12 37q4 4 31 20l20 19q32 18 44 35q10 14 11.5 18t7.5 39q44 63 56 94q-10 12 -15 12q-2 0 -17 -3q-2 -1 -4 -1t-45 8 l-37 2l-42 4q-5 0 -44 -17q-4 -2 -9 -2q-19 0 -19 20q0 7 7 11q86 50 90 51q1 0 25 -4h2l50 1q47 -6 58 -6h3q7 0 17 1h8l49 -1q2 0 9 3q29 15 34 15q12 0 12 -16q0 -5 -13 -46q-9 -29 -54 -82q-17 -23 -51 -76zM498 -20q11 46 17 54q18 27 25 45q30 1 36 11t10 40 q3 14 35 51q-7 12 -7 18q0 5 14 35q8 17 30 33v24q20 6 26 13q3 4 4 26q0 12 15 34q56 78 56 108v14q23 14 28 21q6 8 29 60q3 9 9 19q19 33 22 43q2 7 3 25l30 -4q-14 20 -14 32q0 24 42 50q4 1 9 17q1 3 3 46q0 4 14 24q14 22 16 61q8 24 20 37q15 16 15 24t-2 19 q-1 9 -3 28q10 12 35 26l-7 27v0q-2 19 37 65q11 11 17 13q17 4 37 8q2 0 14 9q22 15 38 15q27 0 27 -25q0 -10 -26 -50q-13 -28 -16 -31q-7 -6 -32 -8q-8 -10 -8 -14l1 -28q0 -1 -9 -12q-5 -5 -11 -19q-6 -13 -18 -24l3 -34l-18 -22q-19 -23 -22 -53l-33 -19q2 -12 2 -22 q0 -9 -29 -60l-26 -40l-14 -42l-18 -34l-15 -33q-54 -95 -66 -119l-18 -3q5 -8 5 -11q0 -8 -5 -24q-3 -9 -7 -28q-39 -9 -39 -39q0 -15 3 -35q-20 -23 -21 -30l-18 -71q-2 -8 -26 -32q0 -47 -6 -64q-5 -12 -31 -22l8 -34q-9 -15 -15 -31q-5 -13 -41 -37q-39 -13 -60 -23 q-15 -8 -26 -8q-9 0 -28 10zM920 317q-1 6 -1 11q0 28 155 110q48 26 57 37q17 15 32 20q9 3 16 13q22 12 46 39q20 13 34 39q13 23 46 49l11 15l8 10q29 40 35 43q11 5 19 5q9 0 20 -9l6 -36q3 -20 3 -27l-1 -30v-30l-8 -54l6 -27q3 -11 3 -22t-6 -39q-4 -19 -6 -39 q15 -11 19 -10l32 5q26 -3 29 -3q5 0 57 6q31 1 32.5 1.5l40.5 13.5q31 10 47 10q18 0 18 -17q0 -11 -30 -29q-22 -14 -43 -48q-19 -2 -33 -2q-9 0 -52 10q-65 -10 -66 -10q-7 0 -43 6q-8 -23 -8 -28l1 -98q0 -4 -10 -27q24 -42 24 -120q0 -20 -47 -44q-20 -10 -48 -29 q-6 -5 -13 -5q-18 0 -18 22q0 5 19 48l3 24q15 26 16 37v1q-4 45 -4 92q0 10 -1 24v8q0 6 13 53l-8 7q-9 7 -12 24h-24q-13 0 -41 -4l-54 6l-69 -6l-52 9l-48 -11l-7 1q-8 1 -19 1v0q-42 -4 -60 -4q-12 0 -16 8zM1094 389l5 -5q9 1 10 1q60 -5 87 -11l27 5l61 -7q5 0 48 15 l-3 3l-3 68l14 21q-15 21 -16 30l-3 30q0 6 -11 22l-7 -19q-36 -16 -91 -62q-36 -31 -65 -44q-36 -17 -45 -28q-3 -4 -8 -19z" />
<glyph unicode="&#xbf;" horiz-adv-x="806" d="M88 -103v26q17 13 43 49l20 16q20 20 57 51q17 -13 25 -13t25 13l-10 26q21 19 40 46l28 32q20 23 21 28q1 6 1 12q0 29 -29 54v5l13 6q-3 24 -21 42q22 31 48 31q18 0 35 -6q13 -5 32 -7q9 0 16 -16q10 -31 23 -50l-3 -10l-14 -11q1 -8 1 -13q0 -17 -32 -39l-20 -32 l-21 -28q-24 -32 -44 -50q-15 -13 -74 -59q-27 -23 -57 -44q-3 -24 -22 -70q-2 -5 -2 -10q0 -28 56 -97l20 5q24 -25 101 -36v-5q-7 -11 -7 -18q0 -12 14 -12q10 0 31 26q3 4 6 4q1 0 31 -34q6 -8 13 -8l54 44h2q31 1 58 9q24 9 93 45q-6 19 -8 25q-4 16 -11 30q15 14 45 55 l21 10q32 19 44 19q10 0 29 -7q6 -22 6 -34q0 -18 -11 -44q-2 -4 -26 -31l-20 -29q-1 -1 -22 -12q-44 -36 -49 -41q-24 -19 -71 -38q-38 -19 -52 -19q-7 0 -15 1q-25 -22 -58 -22h-15q-8 1 -12 1q-10 0 -30 -8q-10 11 -16 11q-2 0 -10 -4q-9 -4 -17 -4q-5 0 -35 6l-57 -3 q-7 0 -52 16q-10 3 -32 22q-12 3 -74 22q-10 26 -23 43q-7 9 -12 20q-22 31 -22 50q0 14 11 36q8 15 14 17q21 7 29 10zM263 692q9 9 22 33q4 5 30 24q22 15 41 33q13 -3 24 -16q19 -25 56 -62l19 -26q3 -6 34 -11v-12q-16 -12 -74 -47q-20 -21 -40 -30q-19 16 -76 55 q-38 27 -36 55v4z" />
<glyph unicode="&#xc0;" horiz-adv-x="1993" d="M927 2026q18 14 28 13l41 -5q68 -3 84 -6q18 -5 40 -23l-17 -22q6 -19 8 -25q7 -27 9 -31l41 -66q2 -4 2 -10q0 -9 -6 -27q24 -8 36 -16l-21 -34h-16q-17 0 -41 6q-13 38 -23 53q-5 6 -28 30q-25 36 -30 41q-3 3 -40 22l-25 42q-30 33 -42 58zM0 -274q7 13 9 15l29 18 q11 8 40 48q3 4 23 19q11 8 19 23q-1 9 -1 16q0 21 27 45q38 36 46 48l55 100q1 1 19 6l4 4q-1 11 -1 19q0 12 2 15l25 33l99 154l2 10q-8 6 -12 6q-2 0 -11 -2q-4 -1 -10 -1q-8 0 -19 1q-6 19 -6 28q0 5 13 23q8 26 17 40q15 21 24 34q20 0 28 -3l44 -15l3 2q3 11 3 16 q0 8 -5 23q18 12 20 17l20 38q7 14 39 43q3 24 6.5 29t38.5 36q3 4 23 54q6 13 55 86l66 128l27 29q2 18 4 21t28 41q2 3 2 7q0 7 -2 16q9 8 19 28q9 19 19 34l20 -29q5 12 5 17q0 8 -8 24q10 24 15 30q19 28 19 33q1 1 1 22q0 3 11 22q4 6 20 49q2 6 11 27l43 4l-4 13 l-26 12v16q15 12 22 27l-11 10v4q15 14 29 39q13 24 23 40q-8 14 -8 23v7v10v21l81 56l19 -14q10 19 12 25q7 17 14 17t16 -4q5 21 20 31q20 15 36 15q30 0 33 -73q11 -48 12 -66q4 -31 26 -70q13 -52 13 -68v-24l-40 -21q9 -20 17 -25q5 -2 45 -14q19 -6 40 -59 q15 -37 15 -45q0 -6 -12 -25q16 -16 21 -20q25 -22 27 -27l12 -31l20 -50q3 -6 5 -33q31 -32 35 -66q3 -27 3 -28l22 -34l42 -84l-23 -14q6 -19 16 -28l15 -3l-3 -22q102 -97 105 -189q4 -22 43 -93q54 -102 60 -119q8 -22 22 -43l62 -137l-2 -29q60 -32 60 -61 q0 -14 -29 -28q8 -17 16 -21q2 -2 20 -8q14 -5 30 -37q8 -15 26 -72q43 -66 54 -86q-19 -15 -19 -32q0 -6 1 -15q-34 -15 -48 -18q-5 -2 -35 -3q-14 -1 -70 -24q-26 59 -31 84q-4 21 -19 45q-27 74 -27 83q0 7 1 16q-18 17 -21 30q-1 3 -2 31q-2 11 -2 15q0 12 10 33l-30 27 q12 15 17 20q10 8 10 14t-2 14l-48 -4q-24 32 -33 51q-5 12 -16 63l-15 35q-12 64 -18 76q-17 36 -56 36q-35 0 -39 -75q-8 -3 -10 -3q-11 0 -28 14q-29 20 -60 26q-15 2 -42 15q-36 17 -58 17q-9 0 -55 -10l-29 5l-32 -3h-27l-27 -4l-47 -1q-30 -1 -40 -1l-15 -1l-62 14 l-30 -6q-32 9 -35 9q-6 0 -48 -11q-31 -7 -55 -9l-28 32q-32 -6 -64 -23q-3 -2 -44 -8q-15 -2 -16 -2q-12 0 -30 3q-25 5 -44 5q-14 0 -50 -9q-21 -6 -44 -8q-11 -18 -14 -24q-15 -31 -39 -60q-17 -27 -47 -79l-18 4q-8 -8 -8 -15q0 -6 3 -21q1 -6 2 -17q-19 -22 -21 -27 l-48 -97q-13 -21 -28 -46l-9 -14l-55 -35q-4 -3 -4 -11q0 -11 23 -30l-15 -47q-24 -9 -33 -16q-14 -10 -29 -44q-29 -12 -37 -18q-14 -10 -21 -10q-3 0 -20 10q-4 3 -13 3q-6 0 -14 -1q-19 19 -42 26zM552 418q22 12 27 12q7 0 21 -13l31 4l12 -21q21 7 57 7h89 q25 -1 67 -15q44 -3 65 -7q21 -31 49 -31l63 31v0l34 -7h57l22 -6l29 4l27 -3l27 2l25 -7l59 10l46 3l89 9l74 -6q16 0 16 12q0 5 -9 34q-2 8 -3 24q-19 13 -28 30q-35 71 -40 71q-10 14 -15 33q-4 17 -16 36q5 26 5 44q0 10 -8 33l-35 -5q-11 23 -13 30l-7 25l-22 31 l-25 44l-11 19q-7 41 -26 74q-14 25 -13 44l20 9q-10 16 -25 16q-6 0 -14 -1q-10 21 -14 27q-23 34 -24 37l-6 39l-15 26l-15 35l-33 41l-18 58l-17 30q-13 27 -29 50q-25 -15 -34 -32q-17 -33 -16 -60h-6q-17 -29 -44 -67l-58 -110q-16 -28 -21 -48q-18 -11 -23 -28 q-19 -43 -54 -55l5 -28l-15 -7h-1q-19 2 -33 3l-8 -13l26 -16q-12 -39 -35 -79q-47 -90 -89 -116q-10 -6 -12 -32q-1 -19 -9 -36l-27 -50l-23 -25l-12 -28q-23 -37 -28 -50q-6 -18 -13 -35z" />
</font>
</defs>
</svg>
