<?xml version="1.0" standalone="no"?>
<!DOCTYPE svg PUBLIC "-//W3C//DTD SVG 1.1//EN" "http://www.w3.org/Graphics/SVG/1.1/DTD/svg11.dtd" >
<svg xmlns="http://www.w3.org/2000/svg">
<metadata></metadata>
<defs>
<font id="thaisans_neueregular" horiz-adv-x="0" >
<font-face units-per-em="2048" ascent="1542" descent="-506" />
<missing-glyph horiz-adv-x="659" />
<glyph unicode="&#x3b;&#x3b;arm&#x3b;&#x3b;" horiz-adv-x="2138" d="M76 1270v82h327v164q-47 0 -84.5 49t-37.5 114q0 70 49.5 117t113.5 47q78 0 121 -43t43 -121q0 -60 -33 -109.5t-90 -53.5v-164h328v-82h-328v-246l220 -492h-82l-179 410l-178 -410h-82l219 492v246h-327zM158 0q0 54 36.5 98.5t106.5 44.5q61 0 102 -40.5t41 -102.5 q0 -76 -55 -115l45 -209l113 226h41l112 -226l72 426h102l-32 -170l22 41l133 29q0 211 48.5 299t156.5 88q59 0 91 -39.5t32 -103.5h-41q0 33 -16 57.5t-45 24.5q-77 0 -110.5 -74t-33.5 -231l150 36l18 -73l-168 -43v-82q0 -92 -2.5 -156t-10 -132.5t-23 -112t-40 -81 t-62 -54.5t-87.5 -17q-64 0 -103.5 32t-39.5 91h41q0 -29 24.5 -45.5t57.5 -16.5q24 0 44 5.5t35.5 19t27.5 27t20.5 40t14.5 46.5t10 57.5t6.5 63t3.5 73t1 76.5v84v61l-163 -41l-70 -368h-53l-144 307l-143 -307h-53l-66 327l37 25q-2 -2 -12 -2q-6 -2 -29 -2 q-49 0 -96 34.5t-47 104.5zM240 0q0 -25 16 -41t45 -16q61 0 61 57q0 61 -61 61q-29 0 -45 -17.5t-16 -43.5zM362 1679q0 -35 19 -58.5t63 -23.5t63 23.5t19 58.5q0 44 -23.5 63t-58.5 19t-58.5 -19t-23.5 -63zM834 532l466 1270h353l409 -1270h-327l-125 390h-551 l-144 -390h-81zM1100 1024h475l-223 696zM1364 41l41 205h61l-61 -205h-41zM1421 1741l27 -80l47 80h-74zM1462 1624l17 -57l106 174h-51zM1466 41l41 205h62l-62 -205h-41zM1493 1528l23 -74l114 193l-22 69zM1536 1393l12 -41l115 190l-12 41zM1565 1303l12 -41l115 190 l-13 41zM1591 -201q0 100 31.5 188.5t89 143.5t125.5 55q108 0 166.5 -74t58.5 -210q0 -196 -69.5 -292.5t-196.5 -96.5q-86 0 -145.5 71t-59.5 215zM1595 1208l13 -41l114 189l-14 43zM1622 1126l14 -49l115 191l-14 49zM1651 1032l14 -41l113 191l-11 41zM1673 -160 l287 123q-3 37 -16 70q-32 69 -107 69q-89 0 -135 -131q-20 -55 -29 -131zM1673 -262q0 -53 32.5 -98.5t90.5 -45.5q98 0 143 134q18 59 21 133zM1679 940l13 -33l114 187l-10 39zM1706 860l12 -33l115 189l-12 35zM1733 778l12 -39l117 187l-13 43zM1759 696l15 -47 l114 193l-14 45zM1786 614l6 -20h27l96 162l-14 49zM1851 594h41l50 84l-15 41zM1925 594h41l-14 45z" />
<glyph unicode=" "  horiz-adv-x="659" />
<glyph unicode="&#x09;" horiz-adv-x="659" />
<glyph unicode="&#xa0;" horiz-adv-x="659" />
<glyph unicode="!" horiz-adv-x="274" d="M76 0v123h123v-123h-123zM76 246v819h123v-819h-123z" />
<glyph unicode="&#x22;" horiz-adv-x="499" d="M76 737v328h123v-328h-123zM301 737v328h123v-328h-123z" />
<glyph unicode="#" horiz-adv-x="1118" d="M76 301l26 100h156l57 215h-155l24 101h158l78 287h119l-78 -287h287l77 287h119l-78 -287h176l-26 -101h-176l-58 -215h176l-28 -100h-174l-80 -301h-119l80 301h-287l-80 -301h-118l79 301h-155zM377 401h287l57 215h-287z" />
<glyph unicode="$" horiz-adv-x="806" d="M76 61v103q53 -28 90 -41q98 -41 209 -41q112 0 172.5 54t60.5 151q0 57 -29.5 97t-76.5 63t-103.5 41.5t-113 40t-103.5 49.5t-76.5 79t-29.5 121q0 102 81.5 165.5t196.5 76.5v156h117v-156q93 -8 164 -33q34 -9 55 -24v-103q-56 24 -74 31q-108 31 -213 31 q-76 0 -140 -41t-64 -103q0 -47 29.5 -80.5t76.5 -54t103.5 -39t113 -42.5t103.5 -56t76.5 -88t29.5 -131q0 -268 -260 -297v-158h-117v152q-108 2 -209 41q-43 16 -69 36z" />
<glyph unicode="%" horiz-adv-x="1173" d="M76 854q0 142 55 219.5t145 77.5q87 0 139 -73.5t52 -211.5q0 -136 -56.5 -212t-144.5 -76q-87 0 -138.5 72t-51.5 204zM195 858q0 -74 11 -115.5t26.5 -53t39.5 -11.5q37 0 58.5 38.5t21.5 143.5q0 191 -80 191q-36 0 -56.5 -42t-20.5 -151zM215 0l688 1233h129 l-688 -1233h-129zM707 248q0 142 55 219.5t145 77.5q87 0 139 -73.5t52 -211.5q0 -136 -56.5 -210.5t-144.5 -74.5q-85 0 -137.5 71t-52.5 202zM825 252q0 -107 20 -143.5t58 -36.5t59 38t21 144q0 108 -21.5 149t-58.5 41t-57.5 -42t-20.5 -150z" />
<glyph unicode="&#x26;" horiz-adv-x="1134" d="M76 260q0 112 55.5 189t173.5 131q-53 35 -90 89.5t-37 125.5q0 107 78 168t199 61q104 0 180 -58.5t76 -150.5q0 -90 -50.5 -146t-156.5 -100q52 -29 95 -61.5t78 -72t55.5 -66.5t51.5 -72q62 89 96.5 196t34.5 189v35h123q-6 -122 -56 -257.5t-132 -250.5 q43 -53 90 -80t119 -27v-102q-98 0 -164.5 32t-118.5 91q-145 -139 -364 -139q-336 0 -336 276zM199 260q0 -95 55 -136.5t158 -41.5q179 0 297 121q-9 13 -38.5 56t-43 61t-43.5 53.5t-54 55t-60.5 42t-76.5 37.5q-106 -43 -150 -93.5t-44 -154.5zM301 795q0 -115 111 -177 q92 35 134 82.5t42 114.5q0 49 -44 76t-89 27q-72 0 -113 -35.5t-41 -87.5z" />
<glyph unicode="'" horiz-adv-x="274" d="M76 737v328h123v-328h-123z" />
<glyph unicode="(" horiz-adv-x="417" d="M45 383q0 401 246 690h112q-243 -295 -243 -690q0 -383 243 -668h-112q-246 273 -246 668z" />
<glyph unicode=")" horiz-adv-x="417" d="M14 -285q244 286 244 668q0 393 -244 690h113q246 -289 246 -690q0 -395 -246 -668h-113z" />
<glyph unicode="*" horiz-adv-x="591" d="M76 788l166 86l-166 87l67 92l117 -111l-22 162h114l-24 -164l121 113l67 -92l-168 -87l168 -86l-67 -92l-121 113l24 -164h-114l22 162l-117 -111z" />
<glyph unicode="+" horiz-adv-x="765" d="M76 369v102h256v270h102v-270h256v-102h-256v-246h-102v246h-256z" />
<glyph unicode="," horiz-adv-x="274" d="M-43 -221q26 29 59 74q60 83 60 147v123h123v-123q0 -72 -72 -156q-40 -44 -72 -65h-98z" />
<glyph unicode="-" horiz-adv-x="550" d="M76 389v103h399v-103h-399z" />
<glyph unicode="." horiz-adv-x="274" d="M76 0v123h123v-123h-123z" />
<glyph unicode="/" horiz-adv-x="473" d="M14 0l330 1233h115l-330 -1233h-115z" />
<glyph unicode="0" horiz-adv-x="847" d="M45 481q0 259 104 401t275 142q167 0 273 -133.5t106 -386.5q0 -125 -32 -225.5t-87.5 -164t-126.5 -97t-151 -33.5q-163 0 -262 127.5t-99 369.5zM168 487q0 -201 68.5 -303t179.5 -102q117 0 190.5 105t73.5 307q0 207 -74 317.5t-190 110.5q-110 0 -179 -111.5 t-69 -323.5z" />
<glyph unicode="1" horiz-adv-x="468" d="M45 737v103q80 32 160 100q37 30 67 64h121v-1004h-123v840q-125 -83 -225 -103z" />
<glyph unicode="2" horiz-adv-x="694" d="M45 0v94q0 49 26 98.5t67.5 93.5t92 88.5t100.5 89t91.5 88.5t67.5 94t26 99q0 92 -47 134.5t-127 42.5q-72 0 -142 -22t-114 -66v102q85 88 256 88q133 0 215 -70t82 -196q0 -83 -46 -162.5t-112.5 -142t-134 -120t-118.5 -118t-58 -113.5h510v-102h-635z" />
<glyph unicode="3" horiz-adv-x="714" d="M76 41v109q82 -68 233 -68q103 0 170.5 47t67.5 135q0 105 -84.5 154t-284.5 49v96q87 0 164 23q71 20 117.5 60.5t46.5 105.5q0 89 -44 129.5t-118 40.5q-144 0 -227 -62v103q94 61 227 61q118 0 201.5 -69.5t83.5 -170.5q0 -199 -205 -262q101 -12 173.5 -81.5 t72.5 -166.5q0 -136 -100 -213t-261 -77q-135 0 -233 57z" />
<glyph unicode="4" horiz-adv-x="737" d="M14 244v104l461 656h123v-656h125v-104h-125v-244h-123v244h-461zM147 348h328v473z" />
<glyph unicode="5" horiz-adv-x="673" d="M76 20v107q17 -12 53 -23q55 -22 141 -22q116 0 176 53t60 156q0 102 -64 161.5t-170 59.5q-90 0 -145 -10q-34 -8 -51 -10v512h483v-103h-360v-297h73q169 0 263 -83t94 -222q0 -152 -95.5 -233.5t-263.5 -81.5q-127 0 -194 36z" />
<glyph unicode="6" horiz-adv-x="743" d="M45 442q0 283 110.5 432.5t305.5 149.5h26h29t25 -0.5t28 -2t23.5 -3.5t25.5 -5.5t21 -8.5v-103q-11 2 -49 10q-57 11 -129 11q-137 0 -215 -104.5t-78 -289.5q33 57 94 80t125 23q130 0 220.5 -90.5t90.5 -229.5q0 -142 -92 -234.5t-233 -92.5q-150 0 -239 122t-89 336z M176 332q0 -117 52 -183.5t145 -66.5q82 0 143.5 68t61.5 161q0 107 -53.5 163t-151.5 56q-64 0 -111 -36t-66.5 -79.5t-19.5 -82.5z" />
<glyph unicode="7" horiz-adv-x="684" d="M14 901v103h656v-62l-359 -942h-123l338 901h-512z" />
<glyph unicode="8" horiz-adv-x="724" d="M45 266q0 90 45 162.5t131 114.5q-64 36 -99.5 94t-35.5 129q0 111 77 184.5t199 73.5q114 0 195.5 -77t81.5 -181q0 -72 -35 -130t-98 -93q85 -40 129.5 -114.5t44.5 -162.5q0 -136 -87 -209t-231 -73q-150 0 -233.5 72t-83.5 210zM168 287q0 -94 51 -149.5t143 -55.5 q91 0 143 56t52 149q0 83 -53.5 144t-141.5 61q-86 0 -140 -56.5t-54 -148.5zM209 754q0 -69 40.5 -114.5t112.5 -45.5q66 0 111 47t45 113q0 72 -45 120t-111 48q-75 0 -114 -46.5t-39 -121.5z" />
<glyph unicode="9" horiz-adv-x="743" d="M45 692q0 143 92.5 237.5t233.5 94.5q149 0 238 -124t89 -339q0 -282 -109.5 -429.5t-305.5 -147.5q-130 0 -179 16v102q25 -7 50 -10q58 -10 129 -10q137 0 214.5 104t77.5 289q-33 -57 -94 -79.5t-125 -22.5q-130 0 -220.5 90t-90.5 229zM166 692q0 -107 53.5 -163 t151.5 -56q48 0 87.5 21t62 52.5t34.5 64.5t12 61q0 118 -51.5 184t-144.5 66q-82 0 -143.5 -68.5t-61.5 -161.5z" />
<glyph unicode=":" horiz-adv-x="274" d="M76 0v123h123v-123h-123zM76 594v123h123v-123h-123z" />
<glyph unicode=";" horiz-adv-x="274" d="M-43 -221q26 29 59 74q60 83 60 147v123h123v-123q0 -72 -72 -156q-40 -44 -72 -65h-98zM76 594v123h123v-123h-123z" />
<glyph unicode="&#x3c;" horiz-adv-x="739" d="M45 311v54l680 380v-114l-516 -293l516 -252v-111z" />
<glyph unicode="=" horiz-adv-x="765" d="M76 246v102h614v-102h-614zM76 471v102h614v-102h-614z" />
<glyph unicode="&#x3e;" horiz-adv-x="739" d="M14 -25v111l516 252l-516 293v114l680 -380v-54z" />
<glyph unicode="?" horiz-adv-x="643" d="M76 840v102q22 26 51 41q70 41 176 41q108 0 186 -59.5t78 -165.5q0 -50 -18 -92t-45.5 -69t-59 -53.5t-59 -45.5t-45.5 -44.5t-18 -52.5v-196h-123v196q0 43 25 80t61 64.5t72.5 55t61.5 64.5t25 80q0 68 -39.5 102t-101.5 34q-98 0 -168 -41q-30 -16 -59 -41zM199 0 v123h123v-123h-123z" />
<glyph unicode="@" horiz-adv-x="1339" d="M76 383q0 118 50 226t133.5 185t196.5 123t234 46q157 0 288.5 -65t208.5 -180t77 -255q0 -79 -27 -148t-71 -115t-98.5 -72t-109.5 -26q-84 0 -119.5 36t-41.5 122q-37 -85 -84.5 -121.5t-122.5 -36.5q-102 0 -175 70t-73 205q0 132 99 225.5t227 93.5q109 0 149 -82 l17 82h114l-57 -336q0 -46 8 -77q16 -78 59 -78q56 0 100 45t63.5 102.5t19.5 110.5q0 48 -18.5 101.5t-56.5 106.5t-90 95t-127 68t-159 26q-107 0 -201.5 -45.5t-156 -116t-97.5 -154t-36 -161.5q0 -83 31.5 -161t89.5 -140.5t148.5 -100.5t199.5 -38q144 0 295 57v-104 q-166 -56 -295 -56q-162 0 -297 69t-215 194t-80 280zM465 377q0 -87 37 -129.5t88 -42.5q89 0 134.5 66.5t45.5 215.5q0 53 -27 80t-75 27q-87 0 -145 -56.5t-58 -160.5z" />
<glyph unicode="A" horiz-adv-x="888" d="M14 0l369 1004h123l368 -1004h-122l-99 266h-422l-100 -266h-117zM266 369h352l-174 501z" />
<glyph unicode="B" horiz-adv-x="786" d="M76 0v1004h286q133 0 210 -65.5t77 -170.5q0 -81 -48 -147t-128 -89q104 -18 171 -82.5t67 -162.5q0 -126 -97 -206.5t-247 -80.5h-291zM199 102h155q102 0 168 53t66 132q0 91 -67 142.5t-189 51.5h-133v-379zM199 584h120q96 0 151.5 42t55.5 122q0 73 -48.5 113 t-145.5 40h-133v-317z" />
<glyph unicode="C" horiz-adv-x="837" d="M45 492q0 244 139 388t365 144q187 0 274 -41l-41 -102q-55 27 -104.5 34t-128.5 7q-172 0 -276.5 -118t-104.5 -312q0 -191 103 -300.5t278 -109.5q73 0 119.5 13.5t113.5 47.5l41 -102q-106 -57 -288 -57q-222 0 -356 138t-134 370z" />
<glyph unicode="D" horiz-adv-x="940" d="M76 0v1004h280q266 0 402.5 -123t136.5 -369q0 -229 -152 -370.5t-399 -141.5h-268zM199 102h145q197 0 312.5 109.5t115.5 300.5q0 194 -108 291.5t-314 97.5h-151v-799z" />
<glyph unicode="E" horiz-adv-x="684" d="M76 0v1004h532v-103h-409v-348h368v-102h-368v-349h409v-102h-532z" />
<glyph unicode="F" horiz-adv-x="622" d="M76 0v1004h532v-103h-409v-348h368v-102h-368v-451h-123z" />
<glyph unicode="G" horiz-adv-x="960" d="M45 481q0 237 153 390t384 153q113 0 217 -31q33 -12 65 -30v-103q-33 19 -67 31q-104 31 -228 31q-176 0 -288.5 -124t-112.5 -317q0 -192 103.5 -295.5t283.5 -103.5q121 0 207 45v283h-225v102h348v-459q-130 -69 -344 -69q-221 0 -358.5 134t-137.5 363z" />
<glyph unicode="H" horiz-adv-x="909" d="M76 0v1004h123v-431h512v431h123v-1004h-123v471h-512v-471h-123z" />
<glyph unicode="I" horiz-adv-x="274" d="M76 0v1004h123v-1004h-123z" />
<glyph unicode="J" horiz-adv-x="520" d="M14 6l41 92q3 -1 13 -4t16 -4q24 -8 74 -8q164 0 164 270v652h122v-652q0 -177 -76.5 -272.5t-209.5 -95.5q-69 0 -111 10q-21 6 -33 12z" />
<glyph unicode="K" horiz-adv-x="796" d="M76 0v1004h123v-508l407 508h144l-275 -342l307 -662h-127l-260 561l-196 -248v-313h-123z" />
<glyph unicode="L" horiz-adv-x="622" d="M76 0v1004h123v-902h409v-102h-532z" />
<glyph unicode="M" horiz-adv-x="1196" d="M76 0v1004h164l348 -820l368 820h164v-1004h-123v829l-379 -829h-61l-358 825v-825h-123z" />
<glyph unicode="N" horiz-adv-x="970" d="M76 0v1004h153l543 -844v844h123v-1004h-154l-542 834v-834h-123z" />
<glyph unicode="O" horiz-adv-x="1052" d="M45 487q0 251 130.5 394t359.5 143q214 0 343.5 -141t129.5 -373q0 -250 -132 -388t-362 -138q-216 0 -342.5 135t-126.5 368zM168 487q0 -186 93 -295.5t253 -109.5q173 0 272 112.5t99 315.5q0 185 -97 298.5t-253 113.5q-173 0 -270 -116t-97 -319z" />
<glyph unicode="P" horiz-adv-x="735" d="M76 0v1004h278q161 0 248.5 -79.5t87.5 -228.5t-97 -238t-267 -89h-127v-369h-123zM199 471h127q118 0 179.5 60.5t61.5 162.5q0 105 -48 156t-165 51h-155v-430z" />
<glyph unicode="Q" horiz-adv-x="1052" d="M45 487q0 251 130.5 394t359.5 143q214 0 343.5 -141t129.5 -373q0 -167 -62 -286.5t-174 -182.5q66 -28 107 -68.5t41 -111.5h-115q0 50 -49 86t-103 53q-75 -16 -139 -16q-216 0 -342.5 135t-126.5 368zM168 487q0 -186 93 -295.5t253 -109.5q173 0 272 112.5t99 315.5 q0 185 -97 298.5t-253 113.5q-173 0 -270 -116t-97 -319z" />
<glyph unicode="R" horiz-adv-x="817" d="M76 0v1004h307q131 0 219 -72.5t88 -202.5q0 -99 -62.5 -161t-168.5 -87q18 -7 34.5 -19t34 -35.5t27 -36.5t30.5 -47.5t27 -43.5l191 -299h-139l-175 279q-49 80 -90.5 115.5t-103.5 35.5h-96v-430h-123zM199 532h159q94 0 151.5 51t57.5 146q0 79 -56 125.5t-153 46.5 h-159v-369z" />
<glyph unicode="S" horiz-adv-x="806" d="M76 61v103q53 -28 90 -41q98 -41 209 -41q112 0 172.5 54t60.5 151q0 57 -29.5 97t-76.5 63t-103.5 41.5t-113 40t-103.5 49.5t-76.5 79t-29.5 121q0 112 99 179t228 67q114 0 218 -31q45 -17 69 -30v-103q-56 24 -74 31q-108 31 -213 31q-76 0 -140 -41t-64 -103 q0 -47 29.5 -80.5t76.5 -54t103.5 -39t113 -42.5t103.5 -56t76.5 -88t29.5 -131q0 -51 -9 -93t-33.5 -82t-64 -67.5t-102.5 -44t-147 -16.5q-140 0 -223 39q-40 13 -76 38z" />
<glyph unicode="T" horiz-adv-x="714" d="M14 901v103h686v-103h-276v-901h-123v901h-287z" />
<glyph unicode="U" horiz-adv-x="909" d="M76 381v623h123v-615q0 -157 57 -232t188 -75q267 0 267 295v627h123v-609q0 -211 -97.5 -311t-292.5 -100q-186 0 -277 97t-91 300z" />
<glyph unicode="V" horiz-adv-x="888" d="M14 1004h123l307 -861l308 861h122l-368 -1004h-123z" />
<glyph unicode="W" horiz-adv-x="1318" d="M14 1004h123l236 -861l256 861h82l215 -861l256 861h123l-308 -1004h-143l-184 799l-226 -799h-143z" />
<glyph unicode="X" horiz-adv-x="827" d="M14 0l328 502l-307 502h143l236 -400l256 400h143l-328 -502l328 -502h-143l-256 399l-256 -399h-144z" />
<glyph unicode="Y" horiz-adv-x="786" d="M14 1004h123l246 -515l266 515h123l-328 -637v-367h-122v360z" />
<glyph unicode="Z" horiz-adv-x="786" d="M14 0v31l574 870h-533v103h717v-31l-573 -871h551l2 -102h-738z" />
<glyph unicode="[" horiz-adv-x="401" d="M76 -285v1360h311v-100h-201v-1159h201v-101h-311z" />
<glyph unicode="\" horiz-adv-x="473" d="M14 1233h115l330 -1233h-115z" />
<glyph unicode="]" horiz-adv-x="401" d="M14 -184h201v1159h-201v100h312v-1360h-312v101z" />
<glyph unicode="^" horiz-adv-x="925" d="M76 395l340 680h53l381 -680h-115l-293 516l-252 -516h-114z" />
<glyph unicode="_" horiz-adv-x="765" d="M76 0h614v-98h-614v98z" />
<glyph unicode="`" horiz-adv-x="434" d="M76 1128h123l159 -227h-102z" />
<glyph unicode="a" horiz-adv-x="724" d="M76 195q2 52 20.5 91.5t46 62t64 37t69 19.5t66.5 5q98 0 152 14q37 12 43 16q0 215 -191 215q-99 0 -178 -67q-31 -24 -51 -66l-41 92q23 42 57 66q84 68 213 68q56 0 107.5 -15t96.5 -46t72 -87t27 -129v-471h-112v82q-89 -98 -215 -98q-114 0 -182 54q-64 51 -64 146 v11zM188 195q0 -123 154 -123q57 0 112.5 31.5t82.5 70.5v174q-9 -3 -29 -8t-29 -8q-62 -15 -117 -15q-69 0 -121.5 -31.5t-52.5 -90.5z" />
<glyph unicode="b" horiz-adv-x="827" d="M76 0v1065h112v-430q25 31 62 55q77 58 184 58q56 0 115 -22.5t112 -65t87 -115.5t34 -164q0 -100 -31 -177.5t-82 -121.5t-111 -66t-124 -22q-104 0 -184 53q-39 22 -62 55v-102h-112zM188 195q37 -37 70 -58q76 -55 176 -55q41 0 80.5 17t75.5 50.5t58 94t22 137.5 q0 120 -75.5 197t-160.5 77q-97 0 -176 -57q-26 -16 -70 -55v-348z" />
<glyph unicode="c" horiz-adv-x="622" d="M45 348q0 179 105 289.5t270 110.5q66 0 133 -27q25 -8 55 -25l-41 -92q-18 15 -41 25q-50 26 -106 26q-108 0 -185 -85t-77 -222q0 -132 74.5 -199t187.5 -67q60 0 106 24q18 8 41 27l41 -92q-26 -16 -55 -25q-55 -22 -143 -22q-164 0 -264.5 93.5t-100.5 260.5z" />
<glyph unicode="d" horiz-adv-x="827" d="M45 381q0 91 34 164t87 115.5t112 65t115 22.5q108 0 185 -58q35 -22 61 -55v430h113v-1065h-113v102q-24 -34 -61 -55q-80 -53 -185 -53q-64 0 -124 22t-111 66t-82 121.5t-31 177.5zM158 381q0 -77 22 -137.5t57.5 -94t75 -50.5t80.5 -17q100 0 176 55q33 21 70 58v348 q-44 39 -70 55q-79 57 -176 57q-39 0 -80 -19t-75.5 -53t-57 -87t-22.5 -115z" />
<glyph unicode="e" horiz-adv-x="722" d="M45 356q0 168 93.5 280t234.5 112q142 0 223.5 -93.5t81.5 -263.5v-53h-520q0 -125 66 -190.5t171 -65.5q92 0 152 35q26 16 41 37l41 -93q-21 -16 -62 -34q-85 -33 -172 -33q-162 0 -256 89t-94 273zM158 430h403q-5 105 -54 165t-134 60q-84 0 -142.5 -62.5 t-72.5 -162.5z" />
<glyph unicode="f" horiz-adv-x="479" d="M14 625v92h133v110q0 258 201 258q46 0 94 -6q4 -1 12 -2t11 -2v-92q-3 1 -9.5 2t-9.5 2q-42 6 -59 6q-66 0 -96.5 -39.5t-30.5 -126.5v-110h205v-92h-205v-625h-113v625h-133z" />
<glyph unicode="g" horiz-adv-x="827" d="M45 356q0 100 31 178t82 123t111 68t124 23q108 0 185 -58q35 -22 61 -55v102h113v-714q0 -197 -94 -287t-296 -90q-104 0 -184 35q-37 15 -61 36l41 93q22 -22 49 -37q64 -35 155 -35q139 0 208 63t69 201v100q-24 -34 -61 -55q-80 -53 -185 -53q-57 0 -115.5 21.5 t-111.5 63.5t-87 114.5t-34 162.5zM158 356q0 -62 22.5 -115t57 -87t75.5 -53t80 -19q100 0 176 55q33 21 70 58v348q-44 39 -70 55q-79 57 -176 57q-41 0 -80.5 -17t-75 -50.5t-57.5 -94t-22 -137.5z" />
<glyph unicode="h" horiz-adv-x="765" d="M76 0v1065h112v-451q19 41 52 66q80 68 174 68q142 0 209 -73.5t67 -197.5v-477h-112v483q0 72 -53 117t-132 45q-90 0 -155 -61q-31 -31 -50 -62v-522h-112z" />
<glyph unicode="i" horiz-adv-x="264" d="M76 0v737h112v-737h-112zM76 852v111h112v-111h-112z" />
<glyph unicode="j" horiz-adv-x="264" d="M-207 -324l41 93q4 -3 12.5 -8.5t12.5 -8.5q22 -14 53 -14q79 0 121.5 64t42.5 190v745h112v-725q0 -173 -72.5 -269.5t-203.5 -96.5q-58 0 -90 14q-4 2 -14 7.5t-15 8.5zM76 852v111h112v-111h-112z" />
<glyph unicode="k" horiz-adv-x="673" d="M76 0v1065h112v-739l314 391h125l-191 -238l223 -479h-106l-182 397l-183 -229v-168h-112z" />
<glyph unicode="l" horiz-adv-x="264" d="M76 0v1065h112v-1065h-112z" />
<glyph unicode="m" horiz-adv-x="1267" d="M76 0v737h112v-123q0 3 8 17t27 34t44 38.5t64 31.5t83 13q186 0 252 -142q10 14 21 28t35 36t50 38t64.5 28t78.5 12q142 0 209.5 -74t67.5 -197v-477h-113v483q0 72 -52.5 117t-131.5 45q-91 0 -156 -61q-29 -29 -49 -62v-522h-112v483q0 72 -53 117t-132 45 q-90 0 -155 -61q-31 -31 -50 -62v-522h-112z" />
<glyph unicode="n" horiz-adv-x="765" d="M76 0v737h112v-123q19 41 52 66q80 68 174 68q142 0 209 -73.5t67 -197.5v-477h-112v483q0 72 -53 117t-132 45q-90 0 -155 -61q-31 -31 -50 -62v-522h-112z" />
<glyph unicode="o" horiz-adv-x="804" d="M45 358q0 185 97 287.5t268 102.5q160 0 255 -100t95 -273q0 -184 -96.5 -282.5t-268.5 -98.5q-161 0 -255.5 96t-94.5 268zM158 358q0 -130 63.5 -203t173.5 -73q118 0 185 76.5t67 216.5q0 129 -64 204.5t-173 75.5q-118 0 -185 -78.5t-67 -218.5z" />
<glyph unicode="p" horiz-adv-x="827" d="M76 -324v1061h112v-102q25 31 62 55q77 58 184 58q64 0 124 -23t111 -68t82 -123t31 -178q0 -90 -34 -162.5t-87 -114.5t-111.5 -63.5t-115.5 -21.5q-104 0 -184 53q-39 22 -62 55v-426h-112zM188 195q37 -37 70 -58q76 -55 176 -55q85 0 160.5 77t75.5 197 q0 77 -22 137.5t-58 94t-75.5 50.5t-80.5 17q-97 0 -176 -57q-26 -16 -70 -55v-348z" />
<glyph unicode="q" horiz-adv-x="827" d="M45 356q0 100 31 178t82 123t111 68t124 23q108 0 185 -58q35 -22 61 -55v102h113v-1061h-113v426q-24 -34 -61 -55q-80 -53 -185 -53q-57 0 -115.5 21.5t-111.5 63.5t-87 114.5t-34 162.5zM158 356q0 -62 22.5 -115t57 -87t75.5 -53t80 -19q100 0 176 55q33 21 70 58 v348q-44 39 -70 55q-79 57 -176 57q-41 0 -80.5 -17t-75 -50.5t-57.5 -94t-22 -137.5z" />
<glyph unicode="r" horiz-adv-x="462" d="M76 0v737h112v-194q16 52 45 102q63 103 140 103q4 0 53 -7q4 -1 12 -2t11 -2v-112q-3 1 -11 2t-12 2q-42 6 -53 6q-52 0 -123 -100q-37 -50 -62 -101v-434h-112z" />
<glyph unicode="s" horiz-adv-x="643" d="M76 31v92q28 -20 55 -27q60 -24 150 -24q174 0 174 133q0 42 -21 71t-54.5 44.5t-73.5 27.5t-80.5 26t-74 33.5t-54.5 56.5t-21 89q0 82 78 143.5t168 61.5q91 0 155 -27q29 -10 49 -24v-93q-23 17 -51 25q-67 27 -153 27q-52 0 -93 -33.5t-41 -79.5q0 -34 21 -56 t54.5 -34.5t73.5 -22.5t80.5 -25.5t74 -38.5t54.5 -66.5t21 -104.5q0 -95 -69.5 -158t-216.5 -63q-95 0 -150 22q-32 8 -55 25z" />
<glyph unicode="t" horiz-adv-x="479" d="M14 625v92h133v348h113v-348h205v-92h-205v-377q0 -87 30.5 -126.5t96.5 -39.5q31 0 59 4l19 6v-92q-3 -1 -11 -2t-12 -2q-16 -2 -94 -2q-201 0 -201 254v377h-133z" />
<glyph unicode="u" horiz-adv-x="765" d="M76 260v477h112v-483q0 -72 53 -117t132 -45q89 0 155 62q33 33 50 61v522h112v-737h-112v123q-19 -41 -52 -66q-74 -63 -174 -63q-142 0 -209 72t-67 194z" />
<glyph unicode="v" horiz-adv-x="704" d="M14 737h133l215 -604l216 604h112l-256 -737h-143z" />
<glyph unicode="w" horiz-adv-x="1062" d="M14 737h133l154 -604l195 604h82l174 -604l174 604h123l-226 -737h-123l-163 584l-185 -584h-133z" />
<glyph unicode="x" horiz-adv-x="643" d="M14 0l246 369l-246 368h123l185 -276l184 276h123l-246 -379l246 -358h-123l-184 266l-185 -266h-123z" />
<glyph unicode="y" horiz-adv-x="753" d="M14 -324l41 93q4 -3 12.5 -8.5t12.5 -8.5q22 -14 57 -14q47 0 79 21t54 75l70 166l-317 737h122l256 -583l215 583h123l-344 -878q-25 -62 -44.5 -97.5t-49 -64.5t-68.5 -40t-96 -11q-52 0 -92 14q-29 15 -31 16z" />
<glyph unicode="z" horiz-adv-x="679" d="M76 0v33l420 612h-381v92h551v-39l-416 -606h409v-92h-583z" />
<glyph unicode="{" horiz-adv-x="428" d="M45 315v88q127 12 127 172v240q0 128 59 191t183 69v-100q-127 -10 -127 -164v-246q0 -174 -133 -211q133 -34 133 -211v-233q0 -89 28 -126.5t99 -37.5v-100q-242 0 -242 250v241q0 163 -127 178z" />
<glyph unicode="|" horiz-adv-x="266" d="M76 -254v1430h114v-1430h-114z" />
<glyph unicode="}" horiz-adv-x="428" d="M14 -254q71 0 99 37.5t28 126.5v233q0 177 133 211q-133 37 -133 211v246q0 154 -127 164v100q124 -6 183 -69t59 -191v-240q0 -160 127 -172v-88q-127 -15 -127 -178v-241q0 -250 -242 -250v100z" />
<glyph unicode="~" horiz-adv-x="763" d="M76 338q0 86 46 139t126 53q42 0 89.5 -27l95 -54t89.5 -27q33 0 54.5 27.5t25.5 80.5h86q-9 -192 -174 -192q-46 0 -94 26.5t-92 53t-80 26.5q-88 0 -88 -106h-84z" />
<glyph unicode="&#xa9;" horiz-adv-x="1345" d="M76 496q0 123 47 233.5t127 190t191 126t233 46.5q164 0 301 -79t216 -216t79 -301q0 -163 -79 -299.5t-216 -214.5t-301 -78q-123 0 -233.5 46t-190.5 125t-127 189t-47 232zM137 496q0 -146 72 -268.5t195.5 -192.5t269.5 -70t269 70.5t194 192.5t71 268t-71 269 t-194 194t-269 71t-269.5 -71t-195.5 -194t-72 -269zM344 485q0 174 101 276.5t266 102.5q115 0 186 -26l-25 -54q-58 27 -161 27q-134 0 -215.5 -90t-81.5 -236q0 -148 80.5 -232.5t216.5 -84.5q53 0 86 8.5t75 32.5l25 -57q-69 -39 -197 -39q-162 0 -259 100t-97 272z" />
<glyph unicode="&#xad;" horiz-adv-x="550" d="M76 389v103h399v-103h-399z" />
<glyph unicode="&#xae;" horiz-adv-x="1345" d="M76 496q0 123 47 233.5t127 190t191 126t233 46.5q164 0 301 -79t216 -216t79 -301q0 -163 -79 -299.5t-216 -214.5t-301 -78q-123 0 -233.5 46t-190.5 125t-127 189t-47 232zM137 496q0 -146 72 -268.5t195.5 -192.5t269.5 -70t269 70.5t194 192.5t71 268t-71 269 t-194 194t-269 71t-269.5 -71t-195.5 -194t-72 -269zM465 143v731h219q95 0 156 -50.5t61 -143.5q0 -169 -178 -199q71 -39 115 -114l143 -224h-84l-123 203q-31 51 -78 85t-78 34h-83v-322h-70zM535 520h108q77 0 132.5 42.5t55.5 117.5q0 62 -44 99.5t-121 37.5h-131v-297 z" />
<glyph unicode="&#xbc;" horiz-adv-x="1415" d="M90 1061v57q36 15 88 56q21 15 37 34h66v-553h-68v463q-72 -46 -123 -57zM322 0l739 1233h115l-740 -1233h-114zM979 176v57l252 361h67v-361h70v-57h-70v-135h-67v135h-252zM1053 233h178v261z" />
<glyph unicode="&#xbd;" horiz-adv-x="1441" d="M90 1061v57q36 15 88 56q21 15 37 34h66v-553h-68v463q-72 -46 -123 -57zM322 0l739 1233h115l-740 -1233h-114zM1024 41v53q0 37 27 76t66 72.5t78 67.5t66 73t27 76q0 98 -98 98q-94 0 -143 -49v57q49 49 143 49q74 0 120 -39.5t46 -109.5q0 -46 -25.5 -90.5 t-62.5 -79.5t-74.5 -67.5t-66.5 -66t-33 -63.5h284v-57h-354z" />
<glyph unicode="&#xbe;" horiz-adv-x="1413" d="M76 688v60q47 -37 129 -37q57 0 93 25.5t36 74.5q0 57 -45.5 84t-155.5 27v53q47 3 88 12q90 27 90 90q0 94 -88 94q-80 0 -125 -32v55q53 35 125 35q66 0 111 -38t45 -95q0 -110 -113 -144q57 -8 96 -45t39 -90q0 -76 -54 -119t-142 -43q-69 0 -129 33zM319 0l740 1233 h115l-740 -1233h-115zM977 176v57l252 361h67v-361h70v-57h-70v-135h-67v135h-252zM1051 233h178v261z" />
<glyph unicode="&#xe01;" horiz-adv-x="878" d="M45 676q36 64 84 112q117 113 274 113q72 0 140.5 -16.5t128 -49.5t95.5 -90.5t36 -130.5v-491q0 -47 -41 -88q-13 -15 -41 -35h-41v573q0 54 -17.5 95t-44.5 65t-65 39.5t-74 21t-76 5.5q-98 0 -176 -62q-36 -28 -59 -61l123 -103q-12 -15 -21 -36q-20 -54 -20 -127 v-410h-123v410q0 58 20 120q10 26 21 43q-12 9 -32.5 27t-29.5 25q-61 49 -61 51z" />
<glyph unicode="&#xe02;" horiz-adv-x="735" d="M45 778v103h123q95 0 150 -47.5t55 -137.5q0 -82 -82 -164q-62 -62 -62 -163v-82q0 -43 6.5 -76.5t22 -64.5t47.5 -47.5t78 -16.5q44 0 75.5 19t48 50.5t23.5 65t7 70.5v594h122v-594q0 -303 -276 -303q-77 0 -132.5 23.5t-86 67t-44.5 95.5t-14 117v82q0 20 2 39.5 t4 34.5t8 31.5t9.5 26.5t12.5 24.5t12 20.5t14 20t13.5 17t14.5 16.5t13 14.5q41 59 41 82q0 35 -19 58.5t-63 23.5h-123z" />
<glyph unicode="&#xe03;" horiz-adv-x="735" d="M45 780v101q21 0 61 -31l31 -31q21 21 33 31q51 31 80 31q63 0 103 -44t40 -120q0 -38 -13.5 -71t-27.5 -49.5t-41 -43.5q-82 -82 -82 -164v-102q0 -43 6.5 -76.5t22 -64.5t47.5 -47.5t78 -16.5q44 0 75.5 19.5t48 52.5t23.5 67.5t7 71.5v588h122v-580q0 -317 -276 -317 q-77 0 -132.5 23.5t-86 67t-44.5 95.5t-14 117v102q0 122 103 225q3 3 18 16t22 21t14 26t7 40q0 29 -18 45t-43 16q-19 0 -53 -30q-5 -5 -14.5 -15.5t-14.5 -15.5q-16 20 -27 31q-32 32 -55 32z" />
<glyph unicode="&#xe04;" horiz-adv-x="888" d="M76 0v614q0 89 54.5 156t136.5 99t177 32t177.5 -32t137 -99t54.5 -156v-614h-123v614q0 87 -73 136t-173 49t-172.5 -49t-72.5 -136v-245q28 36 63 61q82 62 162 62v-123q-77 0 -162 -52q-27 -15 -63 -51v-266h-123z" />
<glyph unicode="&#xe05;" horiz-adv-x="888" d="M76 0v614q0 111 71.5 199t174.5 88q37 0 84 -51q12 -12 38 -51q24 36 39 51q47 51 84 51q103 0 174.5 -88t71.5 -199v-614h-123v614q0 69 -33.5 127t-89.5 58q-28 0 -78 -62q-36 -47 -45 -61q-4 5 -47 61q-43 49 -59 58q-9 4 -16 4q-58 0 -90.5 -57.5t-32.5 -127.5v-245 q28 36 63 61q82 62 162 62v-123q-77 0 -162 -52q-27 -15 -63 -51v-266h-123z" />
<glyph unicode="&#xe06;" horiz-adv-x="899" d="M45 780v101q21 0 61 -31l31 -31q21 21 33 31q51 31 80 31q63 0 103 -44t40 -120q0 -51 -17 -91t-41 -65t-48 -48t-41 -54t-17 -70v-164q38 -38 70 -61q86 -62 176 -62q120 0 172.5 60t52.5 186v533h123v-594q0 -73 -31.5 -141t-99 -115t-155.5 -47q-131 0 -232 69 q-46 30 -76 70v-123h-123v401q0 52 17 91t41 62t48 44t41 50.5t17 68.5q0 29 -18 45t-43 16q-19 0 -53 -30q-5 -5 -14.5 -15.5t-14.5 -15.5q-11 11 -27 31q-32 32 -55 32z" />
<glyph unicode="&#xe07;" horiz-adv-x="745" d="M45 594h123l123 -492q114 0 200.5 95t86.5 243q0 149 -90.5 243.5t-217.5 94.5v103q187 0 308.5 -122t121.5 -319q0 -96 -35.5 -180t-93.5 -140t-131 -88t-149 -32h-103z" />
<glyph unicode="&#xe08;" horiz-adv-x="847" d="M45 717q21 52 64 92q96 92 264 92q130 0 229.5 -61t150 -160.5t50.5 -218.5q0 -198 -105 -329.5t-284 -131.5h-103l-82 328q-2 5 -3.5 8.5t-4.5 5.5t-4 3.5t-6 2t-6 0.5h-8h-9h-41v103h82q45 0 67.5 -14.5t35.5 -47.5l82 -287q86 0 148 54.5t90 134t28 170.5 q0 85 -27.5 152t-72.5 106t-98 59.5t-109 20.5q-129 0 -221 -92q-43 -43 -66 -93z" />
<glyph unicode="&#xe09;" horiz-adv-x="878" d="M45 389v103h82q60 0 91.5 -40t31.5 -108v-57q0 -101 31.5 -143t132.5 -42q88 0 186 62q42 26 80 61v307q0 126 -62 196.5t-184 70.5q-103 0 -205 -62q-43 -25 -82 -61l-41 102q36 36 87 62q108 61 241 61q183 0 276 -94t93 -254v-553h-123v123q-36 -39 -84 -70 q-108 -69 -223 -69q-121 0 -183.5 80t-62.5 223v41q0 61 -25 61h-57z" />
<glyph unicode="&#xe0a;" horiz-adv-x="786" d="M45 778v103h123q95 0 150 -47.5t55 -137.5q0 -82 -82 -164q-62 -62 -62 -163v-105q0 -31 3.5 -54.5t14.5 -48.5t30 -41.5t52.5 -27t78.5 -10.5q61 0 106.5 41.5t64.5 93t19 98.5q0 114 -48 191.5t-136 77.5v102q90 0 147 110.5t57 268.5h123q0 -98 -20.5 -178t-46 -123 t-59.5 -75.5t-49.5 -40.5t-28.5 -13l2 -1q14 -6 28 -13.5t44.5 -33.5t52.5 -58t39.5 -89t17.5 -125q0 -50 -8.5 -95t-31 -89.5t-57 -76t-90 -51t-126.5 -19.5q-89 0 -150.5 22t-93.5 63.5t-45 90t-13 112.5v97q0 20 2 39.5t4 34.5t8 31.5t9.5 26.5t12.5 24.5t12 20.5t14 20 t13.5 17t14.5 16.5t13 14.5q41 59 41 82q0 35 -19 58.5t-63 23.5h-123z" />
<glyph unicode="&#xe0b;" horiz-adv-x="786" d="M45 780v101q21 0 61 -31l31 -31q21 21 33 31q51 31 80 31q63 0 103 -44t40 -120q0 -38 -13.5 -71t-27.5 -49.5t-41 -43.5q-82 -82 -82 -164v-125q0 -31 3.5 -54.5t14.5 -48.5t30 -41.5t52.5 -27t78.5 -10.5q61 0 106.5 41.5t64.5 93t19 98.5q0 114 -48 191.5t-136 77.5 v102q90 0 147 110.5t57 268.5h123q0 -98 -20.5 -178t-46 -123t-59.5 -75.5t-49.5 -40.5t-28.5 -13l2 -1q14 -6 28 -13.5t44.5 -33.5t52.5 -58t39.5 -89t17.5 -125q0 -50 -8.5 -95t-31 -89.5t-57 -76t-90 -51t-126.5 -19.5q-89 0 -150.5 22t-93.5 63.5t-45 90t-13 112.5v117 q0 122 103 225q3 3 18 16t22 21t14 26t7 40q0 29 -18 45t-43 16q-19 0 -53 -30q-5 -5 -14.5 -15.5t-14.5 -15.5q-16 20 -27 31q-32 32 -55 32z" />
<glyph unicode="&#xe0c;" horiz-adv-x="1411" d="M45 676q36 64 84 112q117 113 274 113q72 0 140.5 -16.5t128 -49.5t95.5 -90.5t36 -130.5v-389q23 -33 59 -61q78 -62 166 -62q61 0 98 14.5t55.5 48.5t24.5 74.5t6 108.5v533h123v-594q0 -57 -12.5 -107.5t-39.5 -96t-76.5 -72.5t-116.5 -27q-129 0 -222 69 q-42 31 -65 70v-123h-123v573q0 54 -17.5 95t-44.5 65t-65 39.5t-74 21t-76 5.5q-98 0 -176 -62q-36 -28 -59 -61l123 -103q-12 -15 -21 -36q-20 -54 -20 -127v-267v-8v-8t0.5 -6.5t1 -6t2 -4.5t3.5 -4t5.5 -2.5t7.5 -1.5h62v-102h-82q-63 0 -93 33.5t-30 109.5v267 q0 58 20 120q10 26 21 43q-12 9 -32.5 27t-29.5 25q-61 49 -61 51z" />
<glyph unicode="&#xe0d;" horiz-adv-x="1411" d="M45 676q36 64 84 112q117 113 274 113q72 0 140.5 -16.5t128 -49.5t95.5 -90.5t36 -130.5v-321q0 -96 41.5 -143.5t136.5 -47.5q94 0 172 62q36 28 59 61v656h123v-797q0 -97 -56 -178.5t-136.5 -124.5t-161.5 -43q-101 0 -190 51q-31 16 -70 51l41 103q34 -38 57 -52 q74 -51 162 -51q101 0 166 74t65 199v10q-27 -40 -67 -70q-93 -69 -199 -69q-146 0 -206 82.5t-60 234.5v272q0 54 -17.5 95t-44.5 65t-65 39.5t-74 21t-76 5.5q-98 0 -176 -62q-36 -28 -59 -61l123 -103q-12 -15 -21 -36q-20 -54 -20 -127v-267v-8v-8t0.5 -6.5t1 -6t2 -4.5 t3.5 -4t5.5 -2.5t7.5 -1.5h62v-102h-82q-63 0 -93 33.5t-30 109.5v267q0 58 20 120q10 26 21 43q-12 9 -32.5 27t-29.5 25q-61 49 -61 51z" />
<glyph unicode="&#xe0e;" horiz-adv-x="878" d="M45 0v102h61q10 1 15 6.5t5.5 11t0.5 18.5v5v267q0 58 20 120q10 26 21 43q-12 9 -32.5 27t-29.5 25q-61 49 -61 51q36 64 84 112q117 113 274 113q72 0 140.5 -16.5t128 -49.5t95.5 -90.5t36 -130.5v-751q0 -205 -217 -205q-85 0 -162 51q-34 19 -66 51q-49 -39 -75 -51 q-93 -51 -217 -51v102q123 0 217 52q26 12 75 51q55 -43 68 -51q75 -52 141 -52q64 0 88.5 29t24.5 94v690q0 54 -17.5 95t-44.5 65t-65 39.5t-74 21t-76 5.5q-98 0 -176 -62q-36 -28 -59 -61l123 -103q-12 -15 -21 -36q-20 -54 -20 -127v-267q0 -76 -30 -109.5t-93 -33.5 h-82z" />
<glyph unicode="&#xe0f;" horiz-adv-x="878" d="M45 0v102h61q10 1 15 6.5t5.5 11t0.5 18.5v5v267q0 58 20 120q10 26 21 43q-12 9 -32.5 27t-29.5 25q-61 49 -61 51q36 64 84 112q117 113 274 113q72 0 140.5 -16.5t128 -49.5t95.5 -90.5t36 -130.5v-731q0 -23 -1 -38t-6 -45.5t-18.5 -52t-35 -43.5t-58.5 -34t-86 -12 q-56 0 -115 51q-18 14 -51 51l-72 -102l-77 102q-48 -38 -72 -51q-80 -49 -145 -49v100q66 0 145 52q24 13 72 51l77 -103l72 103q6 -9 15 -21t28.5 -33t47 -35t55.5 -14q56 0 79 32t23 73v708q0 54 -17.5 95t-44.5 65t-65 39.5t-74 21t-76 5.5q-98 0 -176 -62 q-36 -28 -59 -61l123 -103q-12 -15 -21 -36q-20 -54 -20 -127v-267q0 -76 -30 -109.5t-93 -33.5h-82z" />
<glyph unicode="&#xe10;" horiz-adv-x="847" d="M45 717q21 52 64 92q96 92 264 92q82 0 164 -29q33 9 63 24.5t55 44.5t25 63h123q0 -74 -51 -120.5t-119 -64.5q81 -61 125.5 -155t44.5 -203q0 -198 -105 -329.5t-284 -131.5h-103l-82 328q-2 5 -3.5 8.5t-4.5 5.5t-4 3.5t-6 2t-6 0.5h-8h-9h-41v103h82q45 0 67.5 -14.5 t35.5 -47.5l82 -287q86 0 148 54.5t90 134t28 170.5q0 85 -27.5 152t-72.5 106t-98 59.5t-109 20.5q-129 0 -221 -92q-43 -43 -66 -93zM66 -324q91 0 155 52q24 18 49 51l72 -103l72 103q0 -5 18 -29t53.5 -49t71.5 -25q82 0 82 82v103h123v-103q0 -15 -1 -29t-11 -45 t-27.5 -52.5t-55 -39.5t-89.5 -18q-76 0 -127 51q-19 19 -37 51l-72 -102l-72 102q-25 -33 -49 -51q-62 -51 -155 -51v102z" />
<glyph unicode="&#xe11;" horiz-adv-x="899" d="M45 801v100q21 0 61 -31l31 -30q15 15 33 30q51 31 80 31q50 0 90.5 -33t40.5 -90q22 36 51 62q65 61 146 61q101 0 173 -97t72 -210v-594h-123v532q0 119 -39.5 182.5t-103.5 63.5q-60 0 -115 -42t-92.5 -104t-65.5 -134t-41.5 -133t-13.5 -99v-33v-233h-123v217 q0 82 17 158.5t41 130t48 97.5t41 78.5t17 55.5q0 29 -18 45.5t-43 16.5q-18 0 -53 -31q-5 -5 -14.5 -15.5t-14.5 -15.5q-11 11 -27 31q-33 33 -55 33z" />
<glyph unicode="&#xe12;" horiz-adv-x="1411" d="M45 451q0 228 75 339t191 111q21 0 70 -45l6 -6q15 -15 47 -51q21 27 45 51q51 51 78 51q104 0 175 -81t71 -189v-406q23 -33 59 -61q78 -62 166 -62q61 0 98 14.5t55.5 48.5t24.5 74.5t6 108.5v533h123v-594q0 -57 -12.5 -107.5t-39.5 -96t-76.5 -72.5t-116.5 -27 q-129 0 -222 69q-42 31 -65 70v-123h-123v631q0 69 -34 118.5t-89 49.5q-28 0 -78 -62q-36 -47 -45 -61q-4 5 -47 61q-19 22 -27.5 31.5t-23 20t-25.5 10.5q-56 0 -99.5 -83.5t-43.5 -264.5q0 -166 54.5 -267.5t170.5 -101.5q39 0 62 10q10 3 20 10v-102q-3 -1 -10 -4 t-10 -4q-19 -8 -62 -8q-164 0 -256 130.5t-92 336.5z" />
<glyph unicode="&#xe13;" horiz-adv-x="1411" d="M45 676q36 64 84 112q117 113 274 113q72 0 140.5 -16.5t128 -49.5t95.5 -90.5t36 -130.5v-266q0 -54 3.5 -89t14 -67.5t30.5 -50.5t53.5 -28.5t82.5 -10.5q88 0 166 62q36 28 59 61v656h123v-881h-123v123q-27 -40 -67 -70q-93 -69 -219 -69q-67 0 -116.5 27t-76.5 72.5 t-40 96.5t-13 107v286q0 54 -17.5 95t-44.5 65t-65 39.5t-74 21t-76 5.5q-98 0 -176 -62q-36 -28 -59 -61l123 -103q-12 -15 -21 -36q-20 -54 -20 -127v-267v-8v-8t0.5 -6.5t1 -6t2 -4.5t3.5 -4t5.5 -2.5t7.5 -1.5h62v-102h-82q-63 0 -93 33.5t-30 109.5v267q0 58 20 120 q10 26 21 43q-12 9 -32.5 27t-29.5 25q-61 49 -61 51z" />
<glyph unicode="&#xe14;" horiz-adv-x="878" d="M45 451q0 118 34 208t91.5 141t124 76t139.5 25q72 0 136 -16.5t117 -49.5t84.5 -90t31.5 -131v-614h-123v614q0 87 -73 136t-173 49q-48 0 -94 -21.5t-85 -62t-63 -109.5t-24 -155q0 -166 54.5 -267.5t170.5 -101.5q41 0 64 10q6 2 18 10v-102q-3 -1 -9 -4t-9 -4 q-19 -8 -64 -8q-155 0 -251.5 127t-96.5 340z" />
<glyph unicode="&#xe15;" horiz-adv-x="878" d="M45 451q0 228 75 339t191 111q37 0 84 -51q15 -15 39 -51q24 36 39 51q47 51 84 51q93 0 169.5 -82.5t76.5 -187.5v-631h-123v631q0 64 -38.5 116t-84.5 52q-28 0 -78 -62q-36 -47 -45 -61q-4 5 -47 61q-19 22 -27.5 31.5t-23 20t-25.5 10.5q-23 0 -46.5 -18t-46 -55.5 t-36.5 -109t-14 -165.5q0 -166 54.5 -267.5t170.5 -101.5q39 0 62 10q10 3 20 10v-102q-3 -1 -10 -4t-10 -4q-19 -8 -62 -8q-164 0 -256 130.5t-92 336.5z" />
<glyph unicode="&#xe16;" horiz-adv-x="878" d="M45 676q36 64 84 112q117 113 274 113q72 0 140.5 -16.5t128 -49.5t95.5 -90.5t36 -130.5v-491q0 -47 -41 -88q-13 -15 -41 -35h-41v573q0 54 -17.5 95t-44.5 65t-65 39.5t-74 21t-76 5.5q-98 0 -176 -62q-36 -28 -59 -61l123 -103q-12 -15 -21 -36q-20 -54 -20 -127 v-267v-8v-8t0.5 -6.5t1 -6t2 -4.5t3.5 -4t5.5 -2.5t7.5 -1.5h62v-102h-82q-63 0 -93 33.5t-30 109.5v267q0 58 20 120q10 26 21 43q-12 9 -32.5 27t-29.5 25q-61 49 -61 51z" />
<glyph unicode="&#xe17;" horiz-adv-x="868" d="M76 0v881h123v-123q25 34 75 71q105 72 232 72q88 0 155.5 -47.5t99.5 -116.5t32 -143v-594h-123v532q0 126 -53 186t-173 60q-91 0 -176 -61q-25 -18 -69 -62v-655h-123z" />
<glyph unicode="&#xe18;" horiz-adv-x="868" d="M76 676q0 53 25 94.5t63.5 66t89.5 40t97 21t93 5.5q114 0 226 -41q28 -10 102 -41v-102q-74 31 -102 41q-112 41 -226 41q-28 0 -47.5 -1t-52 -4t-54.5 -11.5t-45 -21.5t-34.5 -35.5t-11.5 -51.5q0 -45 33 -69.5t85 -32t115.5 -12.5t127 -18.5t115.5 -41.5t85 -90 t33 -156q0 -52 -19 -99t-58.5 -86.5t-109.5 -63t-162 -23.5q-29 0 -49.5 1t-60 6.5t-68 15.5t-62.5 31t-56 50t-37 75t-15 103v144h123v-144q0 -51 17.5 -88t39.5 -55t57.5 -28t57.5 -11.5t53 -1.5q101 0 163.5 51t62.5 123q0 58 -20.5 97.5t-54.5 60.5t-79 33t-94 17.5 t-98 10.5t-94 16.5t-79 31.5t-54.5 58.5t-20.5 94.5z" />
<glyph unicode="&#xe19;" horiz-adv-x="868" d="M76 287v594h123v-533q0 -126 52.5 -186t172.5 -60q90 0 176 62q32 23 70 61v656h123v-881h-123v123q-37 -44 -78 -70q-101 -69 -230 -69q-88 0 -155.5 47t-99 115t-31.5 141z" />
<glyph unicode="&#xe1a;" horiz-adv-x="847" d="M76 301v580h123v-588q0 -80 44.5 -145.5t133.5 -65.5h86q61 0 105 35t62.5 81.5t18.5 94.5v588h123v-580q0 -60 -18 -116t-52 -101.5t-88.5 -72.5t-121.5 -27h-144q-67 0 -120.5 27t-85.5 72.5t-49 101t-17 116.5z" />
<glyph unicode="&#xe1b;" horiz-adv-x="847" d="M76 301v580h123v-588q0 -80 44.5 -145.5t133.5 -65.5h86q61 0 105 35t62.5 81.5t18.5 94.5v854h123v-846q0 -60 -18 -116t-52 -101.5t-88.5 -72.5t-121.5 -27h-144q-67 0 -120.5 27t-85.5 72.5t-49 101t-17 116.5z" />
<glyph unicode="&#xe1c;" horiz-adv-x="1024" d="M76 674q0 207 133 207h86v-103h-57q-45 0 -45 -106q0 -152 49 -324q14 -49 51 -143l174 430h61l174 -430q29 56 52 147q53 205 71 529h123q-23 -355 -104 -652q-38 -133 -80 -229h-82l-184 440l-185 -440h-82q-42 96 -77 211q-78 258 -78 463z" />
<glyph unicode="&#xe1d;" horiz-adv-x="1024" d="M76 674q0 207 133 207h86v-103h-57q-45 0 -45 -106q0 -152 49 -324q14 -49 51 -143l174 430h61l174 -430q35 91 62 227q61 307 61 735h123q0 -482 -92 -868q-42 -179 -92 -299h-82l-184 440l-185 -440h-82q-42 96 -77 211q-78 258 -78 463z" />
<glyph unicode="&#xe1e;" horiz-adv-x="1069" d="M14 881h117l178 -629l189 629h73l187 -629l180 629h117l-250 -881h-76l-194 664l-193 -664h-76z" />
<glyph unicode="&#xe1f;" horiz-adv-x="1150" d="M14 881h117l178 -629l189 629h73l187 -629l262 915h117l-332 -1167h-76l-194 664l-193 -664h-76z" />
<glyph unicode="&#xe20;" horiz-adv-x="878" d="M45 0v102h61q10 1 15 6.5t5.5 11t0.5 18.5v5v267q0 58 20 120q10 26 21 43q-12 9 -32.5 27t-29.5 25q-61 49 -61 51q36 64 84 112q117 113 274 113q72 0 140.5 -16.5t128 -49.5t95.5 -90.5t36 -130.5v-491q0 -47 -41 -88q-13 -15 -41 -35h-41v573q0 54 -17.5 95t-44.5 65 t-65 39.5t-74 21t-76 5.5q-98 0 -176 -62q-36 -28 -59 -61l123 -103q-12 -15 -21 -36q-20 -54 -20 -127v-267q0 -76 -30 -109.5t-93 -33.5h-82z" />
<glyph unicode="&#xe21;" horiz-adv-x="868" d="M76 0v881h123v-656q40 -40 69 -61q86 -62 176 -62q120 0 173 60t53 186v533h123v-594q0 -73 -32 -141t-99.5 -115t-155.5 -47q-131 0 -232 69q-44 29 -75 70v-123h-123z" />
<glyph unicode="&#xe22;" horiz-adv-x="817" d="M45 256q0 119 102 197q47 35 103 49q-46 8 -92 35q-92 61 -92 159q0 55 20 96.5t52 64t65.5 33.5t66.5 11q73 0 111 -10q7 -2 18 -5.5t15 -4.5v-103q-4 1 -31 10q-42 11 -92 11q-46 0 -74.5 -30t-28.5 -73q0 -65 63 -104t163 -39v-102q-61 0 -110.5 -20t-77.5 -50.5 t-43 -63t-15 -61.5q0 -82 50 -128t171 -46q61 0 107.5 20t72 52.5t37.5 67.5t12 71v588h123v-580q0 -62 -19.5 -116.5t-59.5 -100.5t-110 -73t-163 -27q-344 0 -344 272z" />
<glyph unicode="&#xe23;" horiz-adv-x="724" d="M76 61v103q54 -30 80 -41q87 -41 186 -41q96 0 140 49t44 125q0 48 -25 79t-64.5 47t-87.5 28.5t-96 29t-87.5 42t-64.5 74.5t-25 120q0 101 86 163t200 62q112 0 185 -41q31 -15 61 -41v-102q-30 26 -61 41q-73 41 -185 41q-66 0 -114.5 -32.5t-48.5 -90.5 q0 -45 25 -75.5t64.5 -47t87.5 -30t96 -31t87.5 -44t64.5 -75t25 -117.5q0 -56 -12.5 -100t-43.5 -85t-95 -64t-156 -23q-115 0 -195 39q-35 13 -71 38z" />
<glyph unicode="&#xe24;" horiz-adv-x="878" d="M45 676q36 64 84 112q117 113 274 113q72 0 140.5 -16.5t128 -49.5t95.5 -90.5t36 -130.5v-917q0 -47 -41 -88q-13 -15 -41 -35h-41v999q0 54 -17.5 95t-44.5 65t-65 39.5t-74 21t-76 5.5q-98 0 -176 -62q-36 -28 -59 -61l123 -103q-12 -15 -21 -36q-20 -54 -20 -127 v-267v-8v-8t0.5 -6.5t1 -6t2 -4.5t3.5 -4t5.5 -2.5t7.5 -1.5h62v-102h-82q-63 0 -93 33.5t-30 109.5v267q0 58 20 120q10 26 21 43q-12 9 -32.5 27t-29.5 25q-61 49 -61 51z" />
<glyph unicode="&#xe25;" horiz-adv-x="796" d="M45 225q0 59 20.5 105.5t54.5 76.5t80 49.5t93.5 27.5t99.5 8q110 0 172 20q25 9 33 20v54q0 91 -51 152t-154 61q-117 0 -213 -92q-45 -41 -74 -93l-40 103q28 55 71 92q100 92 256 92q168 0 248 -87.5t80 -260.5v-553h-123v430q-14 -11 -41 -20q-65 -21 -164 -21 q-34 0 -70.5 -9t-72.5 -26.5t-59 -51t-23 -77.5q0 -71 48 -107t116 -36q41 0 74 10q13 3 28 10v-102q-3 -1 -12.5 -4t-15.5 -4q-24 -8 -74 -8q-287 0 -287 241z" />
<glyph unicode="&#xe26;" horiz-adv-x="878" d="M45 0v102h61q10 1 15 6.5t5.5 11t0.5 18.5v5v267q0 58 20 120q10 26 21 43q-12 9 -32.5 27t-29.5 25q-61 49 -61 51q36 64 84 112q117 113 274 113q72 0 140.5 -16.5t128 -49.5t95.5 -90.5t36 -130.5v-917q0 -47 -41 -88q-13 -15 -41 -35h-41v999q0 54 -17.5 95t-44.5 65 t-65 39.5t-74 21t-76 5.5q-98 0 -176 -62q-36 -28 -59 -61l123 -103q-12 -15 -21 -36q-20 -54 -20 -127v-267q0 -76 -30 -109.5t-93 -33.5h-82z" />
<glyph unicode="&#xe27;" horiz-adv-x="786" d="M45 82l41 102q30 -34 61 -51q77 -51 185 -51q124 0 205 99t81 259q0 158 -80 248t-206 90q-112 0 -185 -41q-31 -15 -61 -41l-41 103q25 32 59 51q88 51 228 51q174 0 291.5 -123.5t117.5 -337.5t-117 -335t-292 -121q-144 0 -228 49q-37 21 -59 49z" />
<glyph unicode="&#xe28;" horiz-adv-x="888" d="M76 0v614q0 89 54.5 156t136.5 99t177 32q70 0 131 -18q115 48 115 121h123q0 -108 -127 -170q59 -36 93 -93t34 -127v-614h-123v614q0 87 -73 136t-173 49t-172.5 -49t-72.5 -136v-245q28 36 63 61q82 62 162 62v-123q-77 0 -162 -52q-27 -15 -63 -51v-266h-123z" />
<glyph unicode="&#xe29;" horiz-adv-x="847" d="M76 301v580h123v-588q0 -80 44.5 -145.5t133.5 -65.5h86q61 0 105 35t62.5 81.5t18.5 94.5v137h-184v102h184v347h123v-347h62v-102h-62v-129q0 -60 -18 -116t-52 -101.5t-88.5 -72.5t-121.5 -27h-144q-67 0 -120.5 27t-85.5 72.5t-49 101t-17 116.5z" />
<glyph unicode="&#xe2a;" horiz-adv-x="796" d="M45 225q0 59 20.5 105.5t54.5 76.5t80 49.5t93.5 27.5t99.5 8q110 0 172 20q25 9 33 20v54q0 91 -51 152t-154 61q-117 0 -213 -92q-45 -41 -74 -93l-40 103q28 55 71 92q100 92 256 92q57 0 107 -12q98 46 98 115h123q0 -103 -113 -162q113 -85 113 -289v-553h-123v430 q-14 -11 -41 -20q-65 -21 -164 -21q-34 0 -70.5 -9t-72.5 -26.5t-59 -51t-23 -77.5q0 -71 48 -107t116 -36q41 0 74 10q13 3 28 10v-102q-3 -1 -12.5 -4t-15.5 -4q-24 -8 -74 -8q-287 0 -287 241z" />
<glyph unicode="&#xe2b;" horiz-adv-x="827" d="M76 0v881h123v-389l389 389h162l-295 -295q39 -8 73.5 -20t77.5 -38.5t73.5 -61.5t51.5 -92t21 -128v-246h-123v217q0 65 -19.5 119t-47.5 85.5t-63.5 55t-61.5 32.5t-48 13l-190 -194v-328h-123z" />
<glyph unicode="&#xe2c;" horiz-adv-x="1150" d="M14 881h117l178 -629l189 629h73l187 -629l141 491q8 21 8 50q0 65 -65 114q-30 23 -64 35q73 19 121 51q121 72 121 174h117q0 -125 -119 -188q-55 -28 -117 -37q27 -12 62 -39q61 -53 61 -117q0 -20 -6 -41l-213 -745h-76l-194 664l-193 -664h-76z" />
<glyph unicode="&#xe2d;" horiz-adv-x="868" d="M45 317q0 71 21.5 102.5t80.5 31.5h185v-103h-133q-31 0 -31 -31q0 -46 13 -85.5t41 -74.5t79.5 -55t122.5 -20q141 0 208.5 94.5t67.5 263.5q0 159 -74 259t-202 100q-133 0 -209 -92q-34 -40 -49 -93h-121q15 80 61 144q42 62 120.5 102.5t197.5 40.5q86 0 155.5 -28.5 t114 -74t74.5 -107t42.5 -124t12.5 -127.5q0 -115 -32 -204.5t-87.5 -143t-126 -81t-153.5 -27.5q-167 0 -273 88t-106 245z" />
<glyph unicode="&#xe2e;" horiz-adv-x="868" d="M45 317q0 71 21.5 102.5t80.5 31.5h185v-103h-133q-31 0 -31 -31q0 -46 13 -85.5t41 -74.5t79.5 -55t122.5 -20q141 0 208.5 94.5t67.5 263.5q0 159 -74 259t-202 100q-133 0 -209 -92q-34 -40 -49 -93h-121q15 80 61 144q42 62 120.5 102.5t197.5 40.5q60 0 119 -16 q50 15 87.5 45t37.5 74h114q0 -64 -40.5 -107.5t-94.5 -60.5q89 -62 132.5 -170t43.5 -226q0 -115 -32 -204.5t-87.5 -143t-126 -81t-153.5 -27.5q-167 0 -273 88t-106 245z" />
<glyph unicode="&#xe2f;" horiz-adv-x="796" d="M45 881h123q26 -96 64.5 -140.5t119.5 -44.5q89 0 156 48.5t90 136.5h123v-580q0 -79 -7.5 -130.5t-29 -92.5t-62.5 -59.5t-104 -18.5v102q21 0 31 2t21.5 12t16 32t8 60.5t3.5 98.5v430q-24 -41 -59 -71q-84 -72 -187 -72q-127 0 -205 75t-102 212z" />
<glyph unicode="&#xe30;" horiz-adv-x="520" d="M76 287v61h114v-76q0 -28 17 -38.5t69 -10.5h168l-41 -100h-155q-90 0 -131 36.5t-41 127.5zM76 737v62h114v-76q0 -28 17 -38.5t69 -10.5h168l-41 -101h-155q-90 0 -131 36.5t-41 127.5z" />
<glyph unicode="&#xe31;" d="M-498 1198v62h115v-76q0 -28 17 -38.5t69 -10.5h358l-41 -101h-346q-90 0 -131 36.5t-41 127.5z" />
<glyph unicode="&#xe32;" horiz-adv-x="694" d="M45 717v102q29 25 59 41q70 41 166 41q62 0 121.5 -20t111 -58.5t83.5 -103.5t32 -146v-573h-122v553q0 122 -70.5 184t-175.5 62q-88 0 -150 -41q-29 -15 -55 -41z" />
<glyph unicode="&#xe33;" horiz-adv-x="694" d="M-399 1198q0 68 48 116t115 48q68 0 116 -48t48 -116t-48 -116t-116 -48q-67 0 -115 48t-48 116zM-297 1198q0 -26 17.5 -43.5t43.5 -17.5q25 0 43.5 17.5t18.5 43.5q0 25 -18.5 43.5t-43.5 18.5q-26 0 -43.5 -18.5t-17.5 -43.5zM45 717v102q29 25 59 41q70 41 166 41 q62 0 121.5 -20t111 -58.5t83.5 -103.5t32 -146v-573h-122v553q0 122 -70.5 184t-175.5 62q-88 0 -150 -41q-29 -15 -55 -41z" />
<glyph unicode="&#xe34;" d="M-690 1034l41 103h532v-103h-573z" />
<glyph unicode="&#xe35;" d="M-690 1034l41 103h409v123h123v-226h-573z" />
<glyph unicode="&#xe36;" d="M-690 1034l41 103h270q-4 28 -4 30q0 55 38.5 94t94.5 39t94.5 -39t38.5 -94t-38.5 -94t-94.5 -39h-440zM-281 1167q0 -12 9.5 -21t21.5 -9t21.5 9t9.5 21t-9.5 21.5t-21.5 9.5t-21.5 -9.5t-9.5 -21.5z" />
<glyph unicode="&#xe37;" d="M-690 1034l41 103h246v123h102v-123h61v123h123v-226h-573z" />
<glyph unicode="&#xe38;" d="M-297 -150h86q66 0 102.5 -38.5t36.5 -104.5v-143h-123v135q0 20 -12.5 34.5t-32.5 14.5h-57v102z" />
<glyph unicode="&#xe39;" d="M-543 -150h86q66 0 103 -38.5t37 -104.5q0 -61 61 -61t61 61v143h123v-151q0 -33 -7 -58t-25.5 -48.5t-56.5 -36.5t-95 -13t-95 13t-56.5 36.5t-25.5 48.5t-7 58q0 20 -12.5 34.5t-32.5 14.5h-58v102z" />
<glyph unicode="&#xe3a;" d="M-195 -150h123v-122h-123v122z" />
<glyph unicode="&#xe3f;" horiz-adv-x="786" d="M76 0v1004h196v172h117v-175q121 -6 190.5 -70t69.5 -163q0 -81 -48 -147t-128 -89q104 -18 171 -82.5t67 -162.5q0 -121 -90.5 -201.5t-231.5 -85.5v-168h-117v168h-196zM199 102h155q102 0 168 53t66 132q0 91 -67 142.5t-189 51.5h-133v-379zM199 584h120 q96 0 151.5 42t55.5 122q0 73 -48.5 113t-145.5 40h-133v-317z" />
<glyph unicode="&#xe40;" horiz-adv-x="325" d="M76 143v738h123v-738v-8v-8t0.5 -6.5t1 -6t2 -4.5t3.5 -4t5.5 -2.5t7.5 -1.5h62v-102h-82q-63 0 -93 33.5t-30 109.5z" />
<glyph unicode="&#xe41;" horiz-adv-x="673" d="M76 143v738h123v-738v-8v-8t0.5 -6.5t1 -6t2 -4.5t3.5 -4t5.5 -2.5t7.5 -1.5h62v-102h-82q-63 0 -93 33.5t-30 109.5zM424 143v738h123v-738v-8v-8t0.5 -6.5t1 -6t2 -4.5t3.5 -4t5.5 -2.5t7.5 -1.5h62v-102h-82q-63 0 -93 33.5t-30 109.5z" />
<glyph unicode="&#xe42;" horiz-adv-x="434" d="M143 1153q0 93 67 135.5t218 42.5h186v-102h-157q-109 0 -150 -17.5t-41 -64.5q0 -23 20.5 -120t20.5 -196v-688v-5q0 -13 0.5 -18.5t5.5 -11t15 -6.5h61v-102h-82q-63 0 -93 33.5t-30 109.5v688q0 98 -20.5 197t-20.5 125z" />
<glyph unicode="&#xe43;" horiz-adv-x="557" d="M0 1249q17 31 43 51q64 52 160 52q128 0 198 -66t70 -199q0 -54 -20.5 -132t-20.5 -175v-637v-5q0 -13 0.5 -18.5t5.5 -11t15 -6.5h61v-102h-82q-63 0 -93 33.5t-30 109.5v637q0 91 20.5 183t20.5 124q0 88 -39.5 125t-111.5 37q-68 0 -119 -51q-20 -20 -37 -51z" />
<glyph unicode="&#xe44;" horiz-adv-x="557" d="M0 1229v102q13 0 26.5 -2t24.5 -5.5t22.5 -8t20.5 -9.5t18 -11.5t15 -11t13 -10.5t10 -9.5t8 -7.5l4 -5q13 19 37 39q45 41 108 41q26 0 45.5 -8.5t32.5 -20.5t22 -36.5t13.5 -43t6.5 -55t2.5 -58t0.5 -65.5v-901v-5q0 -13 0.5 -18.5t5.5 -11t15 -6.5h61v-102h-82 q-63 0 -93 33.5t-30 109.5v901q0 7 0.5 29t0.5 37t-1 37.5t-4.5 37t-9.5 27.5t-17 17.5t-26 -0.5q-28 -10 -55 -58q-7 -12 -21 -45q-27 35 -49 52q-63 51 -125 51z" />
<glyph unicode="&#xe45;" horiz-adv-x="694" d="M45 717v102q29 25 59 41q70 41 166 41q62 0 121.5 -20t111 -58.5t83.5 -103.5t32 -146v-876q0 -48 -40 -88q-13 -15 -41 -35h-41v979q0 122 -70.5 184t-175.5 62q-88 0 -150 -41q-29 -15 -55 -41z" />
<glyph unicode="&#xe46;" horiz-adv-x="817" d="M45 655q0 109 56.5 177.5t148.5 68.5q31 0 94 -51q16 -14 49 -51q33 37 49 51q63 51 95 51q99 0 151.5 -72.5t52.5 -173.5v-958q0 -47 -41 -88q-13 -15 -41 -35h-41v1040q0 87 -22.5 136t-79.5 49q-28 0 -78 -62q-36 -47 -45 -61q-4 5 -47 61q-19 22 -27.5 31.5t-23 20 t-25.5 10.5q-46 0 -74 -40.5t-28 -103.5q0 -65 31 -110q12 -21 30 -33l-41 -102q-43 13 -71 45q-72 65 -72 200z" />
<glyph unicode="&#xe47;" d="M-672 1178q0 41 14 72t34 47.5t47 27t48 13.5t42 3h163q75 0 127 31q21 12 37 31v-103q-11 -9 -37 -20q-54 -20 -127 -20h-143q-102 0 -102 -82q0 -22 16.5 -42t44.5 -20q43 0 70 31q11 15 14 31h39q3 -19 12 -31q15 -31 49 -31q28 0 45 20.5t17 41.5h102q0 -62 -41 -103 t-102 -41q-36 0 -74 21q-22 13 -29 20q-10 -10 -30 -20q-48 -21 -92 -21q-24 0 -47 6.5t-46 22t-37 45t-14 70.5z" />
<glyph unicode="&#xe48;" d="M-195 1034v226h123v-226h-123z" />
<glyph unicode="&#xe49;" d="M-549 1157v103h143q31 0 56.5 -25.5t25.5 -56.5q0 -17 12 -29t29 -12h283l-37 -103h-307q-45 0 -73.5 25t-28.5 57q0 41 -37 41h-66z" />
<glyph unicode="&#xe4a;" d="M-590 1116q0 62 41 103t103 41q35 0 69 -21q18 -14 23 -20q9 12 22 20q29 21 70 21q58 0 90.5 -30.5t32.5 -72.5q0 -4 0.5 -7.5t1 -5.5t2 -3.5l2 -2t3 -1t4 -0.5h5h4.5h117l-37 -103h-108q-97 0 -97 82q0 25 -11 43.5t-30 18.5q-25 0 -38 -18.5t-13 -43.5h-41 q0 62 -51 62q-17 0 -29 -19t-12 -43q0 -34 21 -63q16 -16 20 -19h-123q-4 3 -20 19q-21 29 -21 63z" />
<glyph unicode="&#xe4b;" d="M-297 1096v102h102v62h123v-62h99v-102h-99v-62h-123v62h-102z" />
<glyph unicode="&#xe4c;" d="M-385 1034v43q0 78 48.5 130.5t131.5 52.5h107l-41 -103h-37q-41 0 -63.5 -24t-22.5 -64v-35h-123z" />
<glyph unicode="&#xe4d;" d="M-399 1198q0 68 48 116t115 48q68 0 116 -48t48 -116t-48 -116t-116 -48q-67 0 -115 48t-48 116zM-297 1198q0 -26 17.5 -43.5t43.5 -17.5q25 0 43.5 17.5t18.5 43.5q0 25 -18.5 43.5t-43.5 18.5q-26 0 -43.5 -18.5t-17.5 -43.5z" />
<glyph unicode="&#xe4e;" d="M-469 1112q0 68 48.5 110t121.5 42q0 66 48.5 97.5t152.5 31.5v-72q-27 0 -39.5 -0.5t-32.5 -4.5t-29.5 -13t-20 -24.5t-14.5 -40.5t-4 -60q-116 0 -116 -78q0 -32 14 -49l16 -17h-122q-23 44 -23 78z" />
<glyph unicode="&#xe4f;" horiz-adv-x="929" d="M76 369q0 162 113.5 275.5t275.5 113.5q163 0 276 -113t113 -276q0 -161 -113 -273t-276 -112q-162 0 -275.5 112t-113.5 273zM190 369q0 -113 81 -194t194 -81q115 0 194.5 81t79.5 194q0 115 -79.5 194.5t-194.5 79.5q-113 0 -194 -79.5t-81 -194.5zM279 369 q0 78 54 132t132 54t132 -54t54 -132t-54 -132.5t-132 -54.5t-132 54.5t-54 132.5z" />
<glyph unicode="&#xe50;" horiz-adv-x="870" d="M45 369q0 161 114 275t275 114t276 -114t115 -275t-114.5 -273t-276.5 -112t-275.5 112t-113.5 273zM168 369q0 -119 78 -203t188 -84t189 84.5t79 202.5t-79 202t-189 84t-188 -83.5t-78 -202.5z" />
<glyph unicode="&#xe51;" horiz-adv-x="868" d="M45 442q0 59 28 116t76.5 101.5t120 71.5t152.5 27t152.5 -27.5t127.5 -78.5t88.5 -132.5t32.5 -181.5q0 -89 -39 -167.5t-103 -132.5t-148 -85t-173 -31q-22 0 -36 2l28 96h8q58 0 118 24t109.5 65t81 101.5t31.5 127.5q0 154 -78.5 235.5t-199.5 81.5q-69 0 -122 -24 t-79.5 -59.5t-39.5 -69t-13 -60.5q0 -68 38 -122t83 -54q84 0 84 80v39h123v-43q0 -31 -9.5 -59.5t-31 -56.5t-64.5 -45t-102 -17q-94 0 -169 76t-75 202z" />
<glyph unicode="&#xe52;" horiz-adv-x="1083" d="M14 1065v100h31q58 0 103.5 -19.5t73.5 -50t46.5 -71t25.5 -79t7 -77.5v-616q0 -48 18 -83.5t46.5 -53t56 -25.5t53.5 -8h268q31 0 58.5 7.5t54.5 25.5t43 53t16 84v227q0 40 -10 78t-37 68t-65 30q-37 0 -66 -41q-6 -7 -15.5 -21.5t-12.5 -19.5q-16 27 -27 41 q-29 41 -64 41q-41 0 -66.5 -26.5t-25.5 -63.5q0 -135 164 -135v-102q-37 0 -71 4.5t-75 19.5t-71 39.5t-50 69.5t-20 104q0 29 11 61t32 62.5t58.5 50t83.5 19.5q44 0 92 -29q17 -11 31 -29q15 19 30 29q48 29 93 29q53 0 93.5 -25t64 -66.5t35 -89t11.5 -98.5v-221 q0 -73 -23 -128t-62 -85.5t-84.5 -45.5t-96.5 -15h-326q-48 0 -93 15t-85.5 45.5t-65 85.5t-24.5 128v616q0 38 -6 68t-22 60t-50.5 46.5t-85.5 16.5z" />
<glyph unicode="&#xe53;" horiz-adv-x="1073" d="M45 373q0 188 69.5 286.5t194.5 98.5q100 0 176 -92q34 -40 52 -93q19 55 51 93q69 92 174 92q121 0 193.5 -98t72.5 -287q0 -144 -51 -273q-15 -42 -51 -100h-123q36 58 51 100q51 129 51 273q0 121 -43.5 201.5t-120.5 80.5q-64 0 -108.5 -80.5t-44.5 -226.5h-103 q0 136 -45.5 221.5t-107.5 85.5q-68 0 -116 -72t-48 -210q0 -122 54.5 -206.5t152.5 -84.5q30 0 57 10q13 3 23 10v-102q-1 0 -9.5 -3.5t-13.5 -4.5q-19 -8 -59 -8q-133 0 -230.5 109t-97.5 280z" />
<glyph unicode="&#xe54;" horiz-adv-x="1042" d="M45 358q0 96 32 180.5t99.5 141.5t157.5 57h344q28 0 50.5 3.5t45 13.5t37 27.5t24 46.5t9.5 69v270h123v-264q0 -142 -71.5 -205t-188.5 -63h-373q-41 0 -74 -24.5t-52.5 -65t-29.5 -88.5t-10 -99q0 -107 42.5 -181.5t123.5 -74.5h364q-55 28 -104 74q-102 98 -102 225 h126q0 -62 24.5 -119t61.5 -95.5t80 -61.5t80 -23h103v-102h-633q-90 0 -157.5 51.5t-99.5 131.5t-32 175z" />
<glyph unicode="&#xe55;" horiz-adv-x="1042" d="M45 358q0 96 32 180.5t99.5 141.5t157.5 57h92q-12 27 -12 62q0 67 48 115.5t116 48.5q67 0 115 -48t48 -116q0 -27 -10 -60q54 12 83.5 47t29.5 111v270h123v-264q0 -142 -71.5 -205t-188.5 -63h-373q-41 0 -74 -24.5t-52.5 -65t-29.5 -88.5t-10 -99q0 -107 42.5 -181.5 t123.5 -74.5h364q-55 28 -104 74q-102 98 -102 225h126q0 -62 24.5 -119t61.5 -95.5t80 -61.5t80 -23h103v-102h-633q-90 0 -157.5 51.5t-99.5 131.5t-32 175zM516 799q0 -26 18 -44t44 -18h6q24 5 39.5 21.5t15.5 40.5q0 25 -18 43t-43 18q-26 0 -44 -18t-18 -43z" />
<glyph unicode="&#xe56;" horiz-adv-x="1185" d="M14 1065v102h43q40 0 76 -9.5t64 -23.5t54 -40t44.5 -50t37.5 -62.5t31.5 -68t28 -76.5t24.5 -78.5t24 -83t24 -81.5q19 42 59 82q86 82 228 82q179 0 284 -105t105 -264q0 -173 -105 -289t-284 -116q-122 0 -214.5 65t-134.5 176h123q28 -65 94 -104t132 -39 q109 0 187.5 86.5t78.5 220.5q0 110 -73.5 188t-192.5 78q-101 0 -162.5 -63t-83.5 -162h-123q-27 104 -41 156t-36.5 129t-37 112.5t-37 85t-42.5 70.5t-47.5 44t-58.5 30.5t-69 7.5z" />
<glyph unicode="&#xe57;" horiz-adv-x="1390" d="M45 373q0 177 72 270.5t172 93.5q44 0 83.5 -18.5t63 -41t43.5 -53.5t26 -45t11 -26q0 4 8 22t26 46t43 53.5t64.5 44t83.5 18.5q102 0 174 -91.5t72 -272.5q0 -146 -51 -271q58 5 106 50t48 127v618q0 49 12.5 94t40.5 86t80.5 65.5t124.5 24.5h28v-102 q-51 0 -85.5 -12.5t-50.5 -37t-22 -50.5t-6 -62v-616q0 -73 -24 -130t-64 -90t-85.5 -50t-92.5 -17h-184q36 58 51 100q51 129 51 273q0 262 -143 262q-64 0 -114 -65.5t-50 -180.5h-82q0 102 -51.5 174t-112.5 72q-143 0 -143 -262q0 -122 54.5 -206.5t152.5 -84.5 q30 0 57 10q13 3 23 10v-102q-1 0 -9.5 -3.5t-13.5 -4.5q-19 -8 -59 -8q-133 0 -230.5 109t-97.5 280z" />
<glyph unicode="&#xe58;" horiz-adv-x="1042" d="M45 373q0 69 22.5 133t64 116t109 83.5t150.5 31.5h287q28 0 50.5 3.5t45 13.5t37 27.5t24 46.5t9.5 69v270h123v-264q0 -142 -71.5 -205t-188.5 -63h-316q-101 0 -162 -83t-61 -185q0 -121 43.5 -203t122.5 -82q64 0 106 72q18 26 35 71q22 -42 51 -71q65 -72 164 -72 q62 0 108 35t46 116v54h123v-54q0 -125 -75.5 -187t-201.5 -62q-95 0 -164 49q-28 20 -51 49q-15 -27 -37 -49q-53 -49 -127 -49q-47 0 -93 25.5t-85 72.5t-63.5 123t-24.5 168z" />
<glyph unicode="&#xe59;" horiz-adv-x="1267" d="M45 373q0 90 27.5 165.5t70.5 122t93 72t98 25.5q45 0 83 -14.5t58.5 -31t50.5 -46.5q24 73 68.5 113t105.5 40q33 0 66 -15t59.5 -36t51 -42.5t51 -36.5t49.5 -15q46 0 69 66.5t23 177.5v249h123v-249q0 -68 -10 -126t-32 -109.5t-64 -80.5t-99 -29q-54 0 -100.5 22.5 t-72.5 49.5t-56.5 49.5t-57.5 22.5q-51 0 -81.5 -34t-30.5 -75q0 -16 2 -20l33 -113q2 -6 133 -475h-115l-143 512q-16 56 -56.5 101.5t-107.5 45.5q-61 0 -113.5 -75t-52.5 -211q0 -79 19 -142.5t64.5 -106t110.5 -42.5q31 0 54 10q6 2 18 10v-102q-3 -1 -9 -4t-9 -4 q-19 -8 -54 -8q-128 0 -222.5 109t-94.5 280z" />
<glyph unicode="&#xe5a;" horiz-adv-x="1042" d="M45 881h123q26 -96 64.5 -140.5t119.5 -44.5q89 0 156 48.5t90 136.5h123v-580q0 -79 -7.5 -130.5t-29 -92.5t-62.5 -59.5t-104 -18.5v102q21 0 31 2t21.5 12t16 32t8 60.5t3.5 98.5v430q-24 -41 -59 -71q-84 -72 -187 -72q-127 0 -205 75t-102 212zM844 0v881h123v-881 h-123z" />
<glyph unicode="&#xe5b;" horiz-adv-x="1462" d="M76 356q0 169 101.5 285.5t264.5 116.5q190 0 285 -137q37 -56 53 -138h-118q-12 48 -39 86q-62 86 -181 86q-104 0 -173.5 -87t-69.5 -212q0 -118 70 -195.5t182 -78.5q85 0 159 51q31 19 56 51l106 -102l80 102l94 -102l84 102q21 -27 45 -51q51 -51 99 -51t69 25 t21 51q0 41 -21 75q-11 18 -20 25h123q12 -9 20 -22q20 -32 20 -78q0 -23 -6.5 -47.5t-23.5 -55.5t-57 -51t-97 -20q-64 0 -125 49q-22 17 -47 49l-84 -98l-94 98l-80 -98l-106 98q-27 -30 -58 -49q-76 -49 -157 -49q-157 0 -266 109.5t-109 262.5z" />
<glyph unicode="&#x2000;" horiz-adv-x="921" />
<glyph unicode="&#x2001;" horiz-adv-x="1843" />
<glyph unicode="&#x2002;" horiz-adv-x="921" />
<glyph unicode="&#x2003;" horiz-adv-x="1843" />
<glyph unicode="&#x2004;" horiz-adv-x="614" />
<glyph unicode="&#x2005;" horiz-adv-x="460" />
<glyph unicode="&#x2006;" horiz-adv-x="307" />
<glyph unicode="&#x2007;" horiz-adv-x="307" />
<glyph unicode="&#x2008;" horiz-adv-x="230" />
<glyph unicode="&#x2009;" horiz-adv-x="368" />
<glyph unicode="&#x200a;" horiz-adv-x="102" />
<glyph unicode="&#x2010;" horiz-adv-x="550" d="M76 389v103h399v-103h-399z" />
<glyph unicode="&#x2011;" horiz-adv-x="550" d="M76 389v103h399v-103h-399z" />
<glyph unicode="&#x2012;" horiz-adv-x="550" d="M76 389v103h399v-103h-399z" />
<glyph unicode="&#x2013;" horiz-adv-x="765" d="M76 389v103h614v-103h-614z" />
<glyph unicode="&#x2014;" horiz-adv-x="1155" d="M76 389v103h1003v-103h-1003z" />
<glyph unicode="&#x2018;" horiz-adv-x="274" d="M76 737v123q0 83 71 158q27 34 72 67h103q-43 -47 -62 -73q-61 -85 -61 -152v-123h-123z" />
<glyph unicode="&#x2019;" horiz-adv-x="274" d="M-43 737q26 29 59 74q60 83 60 152v122h123v-122q0 -76 -72 -160q-43 -47 -72 -66h-98z" />
<glyph unicode="&#x201c;" horiz-adv-x="499" d="M76 737v123q0 83 71 158q27 34 72 67h103q-43 -47 -62 -73q-61 -85 -61 -152v-123h-123zM301 737v123q0 82 72 158q28 35 71 67h103q-43 -47 -62 -73q-61 -85 -61 -152v-123h-123z" />
<glyph unicode="&#x201d;" horiz-adv-x="499" d="M-43 737q26 29 59 74q60 83 60 152v122h123v-122q0 -76 -72 -160q-43 -47 -72 -66h-98zM178 737q40 44 62 74q61 85 61 152v122h123v-122q0 -76 -72 -160q-44 -48 -71 -66h-103z" />
<glyph unicode="&#x2022;" horiz-adv-x="524" d="M76 444q0 78 54 132.5t132 54.5t132.5 -54.5t54.5 -132.5t-54.5 -132t-132.5 -54t-132 54t-54 132z" />
<glyph unicode="&#x2026;" horiz-adv-x="1134" d="M76 0v123h123v-123h-123zM506 0v123h123v-123h-123zM936 0v123h123v-123h-123z" />
<glyph unicode="&#x202f;" horiz-adv-x="368" />
<glyph unicode="&#x205f;" horiz-adv-x="460" />
<glyph unicode="&#x20ac;" horiz-adv-x="1032" d="M76 338v102h102v52q0 38 2 61h-104v102h121q43 173 171 271t314 98q187 0 274 -41l-41 -102q-55 27 -104.5 34t-128.5 7q-132 0 -225.5 -71t-132.5 -196h407v-102h-428q-2 -23 -2 -61q0 -36 2 -52h387v-102h-368q37 -123 131 -189.5t229 -66.5q73 0 119.5 13.5 t113.5 47.5l41 -102q-106 -57 -288 -57q-183 0 -307.5 93.5t-165.5 260.5h-119z" />
<glyph unicode="&#x2122;" horiz-adv-x="792" d="M76 969v35h239v-35h-96v-314h-43v314h-100zM362 655v349h56l121 -283l129 283h49v-349h-35v287l-133 -287h-21l-125 287v-287h-41z" />
<glyph unicode="&#x25fc;" horiz-adv-x="737" d="M0 0v737h737v-737h-737z" />
<glyph horiz-adv-x="659" />
<glyph horiz-adv-x="847" d="M45 717q21 52 64 92q96 92 264 92q82 0 164 -29q33 9 63 24.5t55 44.5t25 63h123q0 -74 -51 -120.5t-119 -64.5q81 -61 125.5 -155t44.5 -203q0 -198 -105 -329.5t-284 -131.5h-103l-82 328q-2 5 -3.5 8.5t-4.5 5.5t-4 3.5t-6 2t-6 0.5h-8h-9h-41v103h82q45 0 67.5 -14.5 t35.5 -47.5l82 -287q86 0 148 54.5t90 134t28 170.5q0 85 -27.5 152t-72.5 106t-98 59.5t-109 20.5q-129 0 -221 -92q-43 -43 -66 -93z" />
<glyph horiz-adv-x="1411" d="M45 676q36 64 84 112q117 113 274 113q72 0 140.5 -16.5t128 -49.5t95.5 -90.5t36 -130.5v-321q0 -38 6.5 -71.5t23 -67t49 -53t79.5 -19.5h86q46 0 80 20t51.5 52.5t25.5 67t8 71.5v588h123v-580q0 -62 -15 -117t-45 -100.5t-81.5 -72.5t-118.5 -27h-164 q-231 0 -231 317v272q0 54 -17.5 95t-44.5 65t-65 39.5t-74 21t-76 5.5q-98 0 -176 -62q-36 -28 -59 -61l123 -103q-12 -15 -21 -36q-20 -54 -20 -127v-267v-8v-8t0.5 -6.5t1 -6t2 -4.5t3.5 -4t5.5 -2.5t7.5 -1.5h62v-102h-82q-63 0 -93 33.5t-30 109.5v267q0 58 20 120 q10 26 21 43q-12 9 -32.5 27t-29.5 25q-61 49 -61 51z" />
<glyph d="M-733 1178q0 50 19.5 85t51 50.5t58.5 21.5t55 6h123q75 0 127 31q21 12 37 31v-103q-11 -9 -37 -20q-54 -20 -127 -20h-102q-56 0 -79.5 -23.5t-23.5 -58.5q0 -23 10 -42.5t31 -19.5q40 0 55 31q9 12 9 31h39q3 -19 12 -31q15 -31 49 -31q28 0 44.5 20.5t16.5 41.5h103 q0 -62 -41 -103t-103 -41q-35 0 -73 21q-23 13 -29 20q-9 -11 -20 -20q-34 -21 -82 -21q-44 0 -83.5 34t-39.5 110z" />
<glyph d="M-406 1475v102h144q31 0 56.5 -25.5t25.5 -56.5q0 -17 12 -29t29 -12h180l-41 -102h-201q-45 0 -73.5 25t-28.5 57q0 41 -37 41h-66z" />
<glyph d="M-487 1434q0 62 40.5 102.5t102.5 40.5q38 0 59 -21q11 -11 13 -20q3 11 12 20q21 21 59 21q58 0 90.5 -30.5t32.5 -71.5q0 -11 3.5 -15.5t6.5 -5t13 -0.5h96l-41 -102h-84q-96 0 -96 82q0 25 -11 43t-30 18q-31 0 -31 -61h-41q0 24 -7.5 42.5t-23.5 18.5 q-17 0 -29 -18.5t-12 -42.5q0 -35 21 -64q12 -12 20 -18h-122q-12 9 -21 18q-20 28 -20 64z" />
<glyph horiz-adv-x="1452" d="M45 676q36 64 84 112q117 113 274 113q107 0 203 -36t152 -107q11 21 29 42t49.5 45.5t81.5 40t110 15.5q62 0 121.5 -20t111 -58.5t83.5 -103.5t32 -146v-876q0 -47 -41 -88q-13 -15 -41 -35h-41v979q0 122 -70 184t-175 62q-57 0 -99.5 -19t-61.5 -43t-30.5 -55.5 t-12.5 -44.5t-1 -23v-917q0 -47 -41 -88q-13 -15 -41 -35h-41v999q0 54 -17.5 95t-44.5 65t-65 39.5t-74 21t-76 5.5q-98 0 -176 -62q-36 -28 -59 -61l123 -103q-12 -15 -21 -36q-20 -54 -20 -127v-267q0 -13 3.5 -22t8.5 -13t14.5 -6t16.5 -1.5t19.5 1t19.5 0.5v-102h-82 q-63 0 -93 33.5t-30 109.5v267q0 58 20 120q10 26 21 43q-12 9 -32.5 27t-29.5 25q-61 49 -61 51z" />
<glyph horiz-adv-x="1452" d="M45 0v102h61q9 1 14 10t6.5 25.5t2 30t-0.5 34.5t-1 29v179q0 58 20 120q10 26 21 43q-12 9 -32.5 27t-29.5 25q-61 49 -61 51q36 64 84 112q117 113 274 113q107 0 203 -36t152 -107q11 21 29 42t49.5 45.5t81.5 40t110 15.5q62 0 121.5 -20t111 -58.5t83.5 -103.5 t32 -146v-876q0 -47 -41 -88q-13 -15 -41 -35h-41v979q0 122 -70 184t-175 62q-175 0 -207 -144q-14 -59 2 -143v-815q0 -47 -41 -88q-13 -15 -41 -35h-41v999q0 54 -17.5 95t-44.5 65t-65 39.5t-74 21t-76 5.5q-98 0 -176 -62q-36 -28 -59 -61l123 -103q-12 -15 -21 -36 q-20 -54 -20 -127v-267q0 -76 -30 -109.5t-93 -33.5h-82z" />
</font>
</defs>
</svg>
