<?xml version="1.0" standalone="no"?>
<!DOCTYPE svg PUBLIC "-//W3C//DTD SVG 1.1//EN" "http://www.w3.org/Graphics/SVG/1.1/DTD/svg11.dtd" >
<svg xmlns="http://www.w3.org/2000/svg">
<metadata></metadata>
<defs>
<font id="verdanaregular" horiz-adv-x="1302" >
<font-face units-per-em="2048" ascent="1638" descent="-410" />
<missing-glyph horiz-adv-x="720" />
<glyph unicode="&#xd;" horiz-adv-x="720" />
<glyph unicode=" "  horiz-adv-x="720" />
<glyph unicode="&#x09;" horiz-adv-x="720" />
<glyph unicode="&#xa0;" horiz-adv-x="720" />
<glyph unicode="!" horiz-adv-x="806" d="M291 1489h224l-26 -1079h-170zM301 0v211h204v-211h-204z" />
<glyph unicode="&#x22;" horiz-adv-x="940" d="M168 1556h218l-43 -579h-132zM554 1556h218l-43 -579h-132z" />
<glyph unicode="#" horiz-adv-x="1676" d="M195 421v135h333l92 376h-308v135h343l105 422h129l-105 -422h270l105 422h129l-105 -422h298v-135h-333l-92 -376h308v-135h-343l-104 -421h-129l104 421h-270l-104 -421h-129l104 421h-298zM654 554h274l94 380h-274z" />
<glyph unicode="$" d="M155 85v198h16q19 -14 68 -40.5t95 -43.5q52 -19 121.5 -35.5t148.5 -19.5v433q-40 8 -74 15.5t-63 15.5q-163 41 -234 123.5t-71 203.5q0 148 116.5 250t325.5 119v272h118v-270q101 -2 207 -24t178 -51v-196h-14q-75 46 -156.5 81.5t-214.5 44.5v-431q30 -5 65 -13.5 t61 -13.5q149 -32 230.5 -110t81.5 -213q0 -155 -121 -257.5t-317 -121.5v-362h-118v357q-132 1 -248 25.5t-201 63.5zM351 961q0 -91 54 -137t199 -77v413q-107 -8 -180 -58.5t-73 -140.5zM722 146q120 12 184.5 61t64.5 147q0 94 -58.5 137.5t-190.5 68.5v-414z" />
<glyph unicode="%" horiz-adv-x="2204" d="M149 1075q0 224 95 333t273 109q181 0 274 -110t93 -331q0 -224 -94.5 -333t-272.5 -109q-182 0 -275 109t-93 332zM327 1075q0 -173 44 -240.5t146 -67.5q100 0 144.5 67.5t44.5 241.5q0 172 -44.5 240t-144.5 68q-102 0 -146 -68t-44 -241zM630 0l780 1489h165 l-780 -1489h-165zM1320 412q0 224 94.5 333t272.5 109q182 0 275 -109t93 -332q0 -224 -95 -333t-273 -109q-181 0 -274 110t-93 331zM1498 412q0 -173 44 -240.5t146 -67.5q100 0 144.5 67.5t44.5 241.5q0 172 -44.5 240t-144.5 68q-102 0 -146 -68t-44 -241z" />
<glyph unicode="&#x26;" horiz-adv-x="1488" d="M115 409q0 92 26 159t61 116q35 47 87 88.5t105 72.5q-110 72 -158.5 145t-48.5 184q0 67 26.5 127.5t79.5 110.5q50 48 130.5 78t177.5 30q173 0 280 -87.5t107 -221.5q0 -44 -12 -99.5t-41 -99.5q-32 -49 -91 -94t-153 -77l371 -362q14 40 21 88t8 100q2 56 1.5 125 t-0.5 117h195v-96q0 -96 -25 -216t-85 -229l378 -368h-246l-229 224q-115 -142 -235 -198.5t-247 -56.5q-208 0 -345.5 121.5t-137.5 318.5zM320 457q0 -146 85.5 -235.5t242.5 -89.5q93 0 184.5 45.5t153.5 137.5l-478 466q-31 -15 -62 -39.5t-62 -66.5q-28 -39 -46 -94 t-18 -124zM383 1183q0 -75 39.5 -133t170.5 -137q98 35 148.5 102.5t50.5 175.5q0 95 -56.5 149.5t-144.5 54.5q-92 0 -150 -61.5t-58 -150.5z" />
<glyph unicode="'" horiz-adv-x="550" d="M164 1556h222l-43 -579h-136z" />
<glyph unicode="(" horiz-adv-x="930" d="M181 572q0 301 98 541t275 443h229v-10q-81 -73 -154.5 -168.5t-136.5 -222.5q-60 -123 -97.5 -271t-37.5 -312q0 -171 36.5 -313t98.5 -270q60 -123 137 -222.5t154 -168.5v-10h-229q-177 203 -275 443t-98 541z" />
<glyph unicode=")" horiz-adv-x="930" d="M147 -402q77 69 154.5 168.5t136.5 222.5q62 128 98.5 270t36.5 313q0 164 -37 312t-98 271q-63 127 -136.5 222.5t-154.5 168.5v10h229q177 -203 275 -443t98 -541t-98 -541t-275 -443h-229v10z" />
<glyph unicode="*" d="M167 886l381 207l-381 207l65 110l362 -213l-6 359h129l-7 -359l363 212l64 -110l-380 -205l380 -207l-64 -110l-362 213l6 -360h-129l5 360l-361 -214z" />
<glyph unicode="+" horiz-adv-x="1676" d="M210 572v160h545v545h166v-545h545v-160h-545v-545h-166v545h-545z" />
<glyph unicode="," horiz-adv-x="745" d="M147 -370l174 655h254l-282 -655h-146z" />
<glyph unicode="-" horiz-adv-x="930" d="M153 561v181h624v-181h-624z" />
<glyph unicode="." horiz-adv-x="745" d="M253 0v285h239v-285h-239z" />
<glyph unicode="/" horiz-adv-x="930" d="M-30 -304l714 1860h176l-717 -1860h-173z" />
<glyph unicode="0" d="M137 743q0 397 125 586.5t390 189.5q268 0 391.5 -192.5t123.5 -581.5q0 -401 -125.5 -588.5t-389.5 -187.5q-268 0 -391.5 190t-123.5 584zM340 743q0 -156 11 -261t47 -188q33 -78 93.5 -119t160.5 -41q94 0 156 39t96 118q35 81 47.5 190.5t12.5 263.5 q0 152 -12.5 264t-48.5 190q-35 77 -95.5 116t-155.5 39q-94 0 -155.5 -39t-97.5 -118q-34 -74 -46.5 -193t-12.5 -261z" />
<glyph unicode="1" d="M278 0v152h310v998h-310v136q63 0 135 10.5t109 30.5q46 25 72.5 63.5t30.5 103.5h155v-1342h304v-152h-806z" />
<glyph unicode="2" d="M161 0v209q105 90 210.5 180t196.5 179q192 186 263 295.5t71 236.5q0 116 -76.5 181.5t-213.5 65.5q-91 0 -197 -32t-207 -98h-10v210q71 35 189.5 64t229.5 29q229 0 359 -110.5t130 -299.5q0 -85 -21.5 -158.5t-63.5 -139.5q-39 -62 -91.5 -122t-127.5 -133 q-107 -105 -221 -203.5t-213 -182.5h801v-171h-1008z" />
<glyph unicode="3" d="M167 63v209h15q85 -56 200 -93t222 -37q63 0 134 21t115 62q46 44 68.5 97t22.5 134q0 80 -25.5 132.5t-70.5 82.5q-45 31 -109 42.5t-138 11.5h-90v166h70q152 0 242.5 63.5t90.5 185.5q0 54 -23 94.5t-64 66.5q-43 26 -92 36t-111 10q-95 0 -202 -34t-202 -96h-10v209 q71 35 189.5 64.5t229.5 29.5q109 0 192 -20t150 -64q72 -48 109 -116t37 -159q0 -124 -87.5 -216.5t-206.5 -116.5v-14q48 -8 110 -33.5t105 -63.5q48 -43 79 -108t31 -168q0 -102 -37 -187t-104 -148q-75 -70 -176.5 -103.5t-222.5 -33.5q-124 0 -244 29.5t-197 64.5z" />
<glyph unicode="4" d="M77 419v230l721 840h184v-910h221v-160h-221v-419h-192v419h-713zM213 579h577v672z" />
<glyph unicode="5" d="M187 56v211h14q82 -52 192 -88.5t216 -36.5q71 0 137.5 20t118.5 70q44 43 66.5 103t22.5 139q0 77 -26.5 130t-73.5 85q-52 38 -126.5 53.5t-166.5 15.5q-88 0 -169.5 -12t-140.5 -24v767h896v-175h-703v-396q43 4 88 6t78 2q121 0 212 -20.5t167 -72.5q80 -55 124 -142 t44 -218q0 -104 -38 -199t-104 -160q-72 -70 -171.5 -107.5t-230.5 -37.5q-122 0 -235 25.5t-191 61.5z" />
<glyph unicode="6" d="M137 654q0 198 42.5 351t135.5 272q88 113 227 176.5t324 63.5q59 0 99 -5t81 -18v-191h-10q-28 15 -84.5 28.5t-115.5 13.5q-215 0 -343 -134.5t-149 -363.5q84 51 165.5 77.5t188.5 26.5q95 0 167.5 -17.5t148.5 -70.5q88 -61 132.5 -154t44.5 -226 q0 -227 -149.5 -370.5t-366.5 -143.5q-110 0 -200 34t-159 101q-86 83 -132.5 220t-46.5 330zM339 611q0 -158 32.5 -249.5t89.5 -144.5q46 -44 99.5 -64.5t116.5 -20.5q145 0 228 88.5t83 254.5q0 93 -27.5 154t-90.5 106q-46 32 -102 42t-117 10q-85 0 -158 -20t-150 -62 q-2 -22 -3 -42.5t-1 -51.5z" />
<glyph unicode="7" d="M154 1314v175h1019v-223l-674 -1266h-214l717 1314h-848z" />
<glyph unicode="8" d="M122 411q0 124 72 224.5t203 159.5v6q-120 64 -177.5 140t-57.5 190q0 168 138 280t351 112q223 0 356 -107t133 -272q0 -101 -63 -198.5t-185 -152.5v-6q140 -60 214 -148t74 -224q0 -193 -150.5 -321t-378.5 -128q-242 0 -385.5 125t-143.5 320zM324 426 q0 -135 93 -223t236 -88q146 0 233.5 75t87.5 206q0 92 -40.5 147.5t-158.5 111.5q-47 22 -103 41t-149 53q-90 -49 -144.5 -133t-54.5 -190zM363 1154q0 -72 40.5 -124.5t122.5 -93.5q37 -18 106.5 -47t135.5 -48q99 66 137 137t38 164q0 107 -82.5 170.5t-210.5 63.5 q-126 0 -206.5 -60t-80.5 -162z" />
<glyph unicode="9" d="M113 1005q0 228 150 371t366 143q108 0 200 -33.5t161 -100.5q85 -83 131 -213.5t46 -337.5q0 -195 -44.5 -354t-134.5 -271q-91 -114 -228 -176t-322 -62q-52 0 -98 5.5t-82 17.5v191h10q29 -15 82 -28.5t118 -13.5q221 0 346.5 132.5t145.5 365.5q-93 -56 -175 -80 t-179 -24q-92 0 -166.5 18t-149.5 70q-88 61 -132.5 155t-44.5 225zM316 1013q0 -95 27 -155t91 -105q45 -31 99 -41.5t120 -10.5q78 0 158 21t150 61q1 21 2.5 41.5t1.5 52.5q0 155 -32 249t-88 146q-47 45 -101 64.5t-117 19.5q-144 0 -227.5 -90t-83.5 -253z" />
<glyph unicode=":" horiz-adv-x="930" d="M346 0v285h239v-285h-239zM346 832v285h239v-285h-239z" />
<glyph unicode=";" horiz-adv-x="930" d="M230 -370l174 655h254l-282 -655h-146zM346 832v285h239v-285h-239z" />
<glyph unicode="&#x3c;" horiz-adv-x="1676" d="M254 590v124l1154 513v-180l-910 -395l910 -395v-180z" />
<glyph unicode="=" horiz-adv-x="1676" d="M245 362v160h1186v-160h-1186zM245 782v160h1186v-160h-1186z" />
<glyph unicode="&#x3e;" horiz-adv-x="1676" d="M268 77v180l910 395l-910 395v180l1154 -513v-124z" />
<glyph unicode="?" horiz-adv-x="1117" d="M160 1245v204q70 27 177.5 48.5t203.5 21.5q215 0 339.5 -104.5t124.5 -275.5q0 -98 -35 -174.5t-92 -135.5q-56 -57 -129 -107t-155 -97v-225h-179v305q65 37 140.5 81t123.5 89q58 52 90 107.5t32 141.5q0 113 -76.5 168.5t-197.5 55.5q-108 0 -204.5 -34t-152.5 -69 h-10zM406 0v211h204v-211h-204z" />
<glyph unicode="@" horiz-adv-x="2048" d="M176 647q0 185 67 344.5t183 276.5t275 184t340 67q196 0 350 -62t260 -174t162.5 -269.5t56.5 -350.5q0 -139 -40.5 -269t-115.5 -237h-440l-27 116q-74 -60 -142 -92t-156 -32q-168 0 -268.5 127t-100.5 355q0 227 123 362t294 135q73 0 129 -16.5t121 -49.5v48h159 v-842h243q42 75 63.5 187.5t21.5 201.5q0 164 -45.5 298t-133.5 230t-218 147.5t-295 51.5q-160 0 -292.5 -58t-227.5 -156q-96 -98 -150.5 -234.5t-54.5 -290.5q0 -165 52 -301.5t147 -233.5q99 -101 232 -152.5t290 -51.5q86 0 177.5 11t175.5 35v-142q-97 -21 -181 -28.5 t-173 -7.5q-186 0 -345 63.5t-273 177.5q-115 115 -179 276t-64 356zM750 634q0 -163 58 -246.5t181 -83.5q67 0 134 31t122 73v518q-63 29 -113 41.5t-107 12.5q-129 0 -202 -90t-73 -256z" />
<glyph unicode="A" horiz-adv-x="1400" d="M26 0l542 1489h264l542 -1489h-211l-146 415h-644l-146 -415h-201zM433 585h523l-261 731z" />
<glyph unicode="B" horiz-adv-x="1404" d="M200 0v1489h441q163 0 244 -12t155 -50q82 -43 119 -110.5t37 -161.5q0 -106 -54 -180.5t-144 -119.5v-8q151 -31 238 -132.5t87 -256.5q0 -111 -42 -196t-113 -140q-84 -66 -184.5 -94t-255.5 -28h-528zM398 169h262q130 0 213 13.5t136 49.5q56 39 82 89t26 129 q0 90 -27 143t-98 90q-48 25 -116.5 32.5t-166.5 7.5h-311v-554zM398 890h256q93 0 148 9.5t102 39.5t66.5 77.5t19.5 112.5q0 54 -18 91t-58 60q-47 27 -114 33.5t-166 6.5h-236v-430z" />
<glyph unicode="C" horiz-adv-x="1430" d="M115 743q0 184 52 329t150 245q95 97 229.5 148t298.5 51q120 0 239.5 -29t265.5 -102v-235h-15q-123 103 -244 150t-259 47q-113 0 -203.5 -36.5t-161.5 -113.5q-69 -75 -107.5 -189.5t-38.5 -264.5q0 -157 42.5 -270t109.5 -184q70 -74 163.5 -109.5t197.5 -35.5 q143 0 268 49t234 147h14v-232q-55 -24 -99.5 -45t-116.5 -44q-61 -19 -132.5 -32.5t-157.5 -13.5q-162 0 -294.5 45.5t-230.5 142.5q-96 95 -150 241.5t-54 340.5z" />
<glyph unicode="D" horiz-adv-x="1578" d="M200 0v1489h372q218 0 346.5 -31.5t217.5 -86.5q152 -95 237 -253t85 -375q0 -203 -88.5 -368t-235.5 -256q-102 -63 -227.5 -91t-330.5 -28h-376zM398 170h186q143 0 249.5 21t195.5 78q111 71 166.5 187t55.5 290q0 175 -61 295t-182 189q-88 50 -187 69.5t-237 19.5 h-186v-1149z" />
<glyph unicode="E" horiz-adv-x="1295" d="M200 0v1489h981v-176h-783v-408h783v-176h-783v-553h783v-176h-981z" />
<glyph unicode="F" horiz-adv-x="1177" d="M200 0v1489h951v-176h-753v-420h647v-176h-647v-717h-198z" />
<glyph unicode="G" horiz-adv-x="1588" d="M115 746q0 357 208.5 563.5t572.5 206.5q127 0 259.5 -30.5t285.5 -103.5v-235h-18q-31 24 -90 63t-116 65q-69 31 -156.5 51.5t-198.5 20.5q-250 0 -395.5 -160.5t-145.5 -434.5q0 -289 152 -449.5t414 -160.5q96 0 191.5 19t167.5 49v365h-399v174h595v-639 q-122 -56 -266.5 -97.5t-279.5 -41.5q-174 0 -319 48t-247 144q-103 97 -159 242.5t-56 340.5z" />
<glyph unicode="H" horiz-adv-x="1539" d="M200 0v1489h198v-584h743v584h198v-1489h-198v729h-743v-729h-198z" />
<glyph unicode="I" horiz-adv-x="862" d="M137 0v152h195v1185h-195v152h588v-152h-195v-1185h195v-152h-588z" />
<glyph unicode="J" horiz-adv-x="931" d="M44 8v185h11q41 -14 101 -29t123 -15q92 0 146.5 21t80.5 60q27 40 34.5 98t7.5 134v869h-315v158h513v-1102q0 -196 -119.5 -302t-320.5 -106q-48 0 -128 8.5t-134 20.5z" />
<glyph unicode="K" horiz-adv-x="1419" d="M205 0v1489h198v-777l723 777h240l-665 -700l696 -789h-257l-589 663l-148 -158v-505h-198z" />
<glyph unicode="L" horiz-adv-x="1140" d="M200 0v1489h198v-1313h744v-176h-942z" />
<glyph unicode="M" horiz-adv-x="1726" d="M200 0v1489h270l397 -829l384 829h275v-1489h-198v1283l-414 -873h-118l-411 873v-1283h-185z" />
<glyph unicode="N" horiz-adv-x="1532" d="M200 0v1489h307l644 -1216v1216h185v-1489h-245l-706 1332v-1332h-185z" />
<glyph unicode="O" horiz-adv-x="1612" d="M115 744q0 182 48 326.5t140 247.5q88 98 218.5 150t284.5 52q160 0 287.5 -52.5t216.5 -149.5q91 -100 139.5 -245t48.5 -329t-49.5 -329.5t-138.5 -242.5q-92 -101 -217.5 -152t-286.5 -51q-157 0 -285.5 52t-218.5 151t-138.5 243t-48.5 329zM321 744 q0 -293 132 -448.5t354 -155.5t353.5 155.5t131.5 448.5q0 290 -130 447.5t-355 157.5q-227 0 -356.5 -157.5t-129.5 -447.5z" />
<glyph unicode="P" horiz-adv-x="1235" d="M200 0v1489h404q134 0 227 -22.5t165 -70.5q85 -57 131.5 -142t46.5 -215q0 -99 -34.5 -183.5t-96.5 -146.5q-77 -77 -182 -115.5t-265 -38.5h-198v-555h-198zM398 724h167q120 0 195 21.5t122 68.5q47 48 66.5 101t19.5 119q0 77 -27 134t-82 93q-48 31 -109.5 44.5 t-155.5 13.5h-196v-595z" />
<glyph unicode="Q" horiz-adv-x="1612" d="M115 744q0 182 48 326.5t140 247.5q88 98 218.5 150t284.5 52q160 0 287.5 -52.5t216.5 -149.5q91 -100 139.5 -245t48.5 -329q0 -273 -111.5 -460t-299.5 -262q4 -114 54 -177t182 -63q41 0 97.5 12.5t80.5 22.5h27v-182q-60 -15 -118.5 -21.5t-119.5 -6.5 q-174 0 -279.5 95.5t-114.5 273.5q-24 -4 -46.5 -5.5t-43.5 -1.5q-157 0 -285.5 52t-218.5 151t-138.5 243t-48.5 329zM321 744q0 -293 132 -448.5t354 -155.5t353.5 155.5t131.5 448.5q0 290 -130 447.5t-355 157.5q-227 0 -356.5 -157.5t-129.5 -447.5z" />
<glyph unicode="R" horiz-adv-x="1424" d="M200 0v1489h417q135 0 225 -17.5t162 -62.5q81 -51 126.5 -128.5t45.5 -196.5q0 -161 -81 -269.5t-223 -163.5l560 -651h-257l-498 592h-279v-592h-198zM398 757h200q94 0 164 16.5t119 61.5q45 42 66.5 96.5t21.5 138.5q0 64 -22.5 113.5t-74.5 83.5q-43 29 -102 40.5 t-139 11.5h-233v-562z" />
<glyph unicode="S" horiz-adv-x="1400" d="M134 92v248h14q113 -94 261 -145t278 -51q184 0 286.5 69t102.5 184q0 99 -48.5 146t-147.5 73q-75 20 -162.5 33t-185.5 33q-198 42 -293.5 143.5t-95.5 264.5q0 187 158 306.5t401 119.5q157 0 288 -30t232 -74v-234h-14q-85 72 -223.5 119.5t-283.5 47.5 q-159 0 -255.5 -66t-96.5 -170q0 -93 48 -146t169 -81q64 -14 182 -34t200 -41q166 -44 250 -133t84 -249q0 -87 -40.5 -172t-113.5 -144q-80 -64 -186.5 -100t-256.5 -36q-161 0 -289.5 30t-261.5 89z" />
<glyph unicode="T" horiz-adv-x="1262" d="M0 1313v176h1262v-176h-532v-1313h-198v1313h-532z" />
<glyph unicode="U" horiz-adv-x="1499" d="M178 598v891h198v-901q0 -121 16.5 -191t55.5 -127q44 -65 119.5 -98t181.5 -33q107 0 182 32.5t120 98.5q39 57 55.5 130.5t16.5 182.5v906h198v-891q0 -162 -35.5 -282.5t-116.5 -200.5q-77 -76 -180 -111t-240 -35q-140 0 -244 37t-175 109q-81 82 -116.5 198 t-35.5 285z" />
<glyph unicode="V" horiz-adv-x="1400" d="M26 1489h212l467 -1310l467 1310h202l-542 -1489h-264z" />
<glyph unicode="W" horiz-adv-x="2025" d="M92 1489h203l313 -1238l308 1238h201l311 -1250l311 1250h194l-387 -1489h-223l-313 1236l-306 -1236h-218z" />
<glyph unicode="X" horiz-adv-x="1403" d="M68 0l519 744l-507 745h228l401 -605l410 605h217l-514 -736l513 -753h-229l-406 613l-416 -613h-216z" />
<glyph unicode="Y" horiz-adv-x="1260" d="M6 1489h219l407 -666l411 666h211l-524 -836v-653h-198v632z" />
<glyph unicode="Z" horiz-adv-x="1403" d="M126 0v184l913 1129h-879v176h1106v-179l-922 -1134h944v-176h-1162z" />
<glyph unicode="[" horiz-adv-x="930" d="M239 -392v1948h520v-143h-346v-1662h346v-143h-520z" />
<glyph unicode="\" horiz-adv-x="930" d="M70 1556h176l714 -1860h-173z" />
<glyph unicode="]" horiz-adv-x="930" d="M171 -249h346v1662h-346v143h520v-1948h-520v143z" />
<glyph unicode="^" horiz-adv-x="1676" d="M186 682l589 807h126l589 -805h-198l-455 627l-454 -629h-197z" />
<glyph unicode="_" d="M-4 -180h1310v-120h-1310v120z" />
<glyph unicode="`" d="M340 1676h243l179 -374h-149z" />
<glyph unicode="a" horiz-adv-x="1230" d="M104 324q0 127 54.5 205.5t155.5 123.5q102 45 245 61t307 24v29q0 64 -22.5 106t-64.5 66q-40 23 -96 31t-117 8q-74 0 -165 -19.5t-188 -56.5h-10v191q55 15 159 33t205 18q118 0 205.5 -19.5t151.5 -66.5q63 -46 96 -119t33 -181v-758h-187v119q-25 -17 -67.5 -47.5 t-82.5 -48.5q-47 -23 -108 -38.5t-143 -15.5q-151 0 -256 100t-105 255zM298 337q0 -96 58 -144.5t177 -48.5q99 0 181 38.5t152 92.5v311q-86 -5 -202.5 -15t-184.5 -29q-81 -23 -131 -71.5t-50 -133.5z" />
<glyph unicode="b" horiz-adv-x="1276" d="M185 0v1556h188v-556q79 65 168 106.5t200 41.5q198 0 312.5 -152t114.5 -429q0 -140 -39.5 -252t-106.5 -188q-71 -79 -156 -118.5t-187 -39.5q-95 0 -166 22.5t-140 60.5l-12 -52h-176zM373 202q80 -36 137.5 -50t130.5 -14q156 0 244.5 102.5t88.5 321.5 q0 200 -66 303.5t-213 103.5q-82 0 -166 -35.5t-156 -91.5v-640z" />
<glyph unicode="c" horiz-adv-x="1067" d="M105 557q0 274 150.5 430t397.5 156q96 0 188.5 -27t169.5 -66v-209h-10q-86 67 -177.5 103t-178.5 36q-160 0 -252.5 -107.5t-92.5 -315.5q0 -202 90.5 -310.5t254.5 -108.5q57 0 116 15t106 39q41 21 77 44.5t57 40.5h10v-207q-94 -45 -178.5 -70t-179.5 -25 q-121 0 -222 35.5t-173 107.5q-73 72 -113 182t-40 257z" />
<glyph unicode="d" horiz-adv-x="1276" d="M108 550q0 142 40.5 253t109.5 189q68 76 158.5 116t187.5 40q88 0 156 -18.5t143 -57.5v484h188v-1556h-188v117q-81 -70 -169 -109t-191 -39q-200 0 -317.5 154t-117.5 427zM302 554q0 -199 68 -302.5t218 -103.5q80 0 162 35.5t153 91.5v641q-76 34 -136 47t-131 13 q-158 0 -246 -110t-88 -312z" />
<glyph unicode="e" horiz-adv-x="1220" d="M106 552q0 274 149.5 435t393.5 161q226 0 348.5 -132t122.5 -375v-102h-823q0 -103 31 -179.5t85 -125.5q52 -48 123.5 -72t157.5 -24q114 0 229.5 45.5t164.5 89.5h10v-205q-95 -40 -194 -67t-208 -27q-278 0 -434 150.5t-156 427.5zM297 683h640q-1 148 -74.5 229 t-223.5 81q-151 0 -240.5 -89t-101.5 -221z" />
<glyph unicode="f" horiz-adv-x="720" d="M68 959v158h127v37q0 199 99 305.5t286 106.5q63 0 113.5 -6t92.5 -14v-172h-10q-31 9 -81 18.5t-88 9.5q-121 0 -175.5 -53.5t-54.5 -193.5v-38h339v-158h-333v-959h-188v959h-127z" />
<glyph unicode="g" horiz-adv-x="1276" d="M108 569q0 144 40.5 248.5t110.5 180.5q65 71 158 110.5t185 39.5q97 0 162.5 -19.5t138.5 -59.5l12 48h176v-990q0 -284 -129 -417t-397 -133q-89 0 -173.5 12.5t-166.5 35.5v192h10q46 -18 146 -44.5t200 -26.5q96 0 159 23t98 64q35 39 50 94t15 123v102 q-85 -68 -162.5 -101.5t-197.5 -33.5q-200 0 -317.5 144.5t-117.5 407.5zM302 573q0 -188 66 -285t219 -97q82 0 164.5 31.5t151.5 84.5v609q-75 34 -139.5 48.5t-128.5 14.5q-155 0 -244 -104t-89 -302z" />
<glyph unicode="h" horiz-adv-x="1296" d="M185 0v1556h188v-563q88 73 182 114t193 41q181 0 276 -109t95 -314v-725h-188v636q0 77 -9 144.5t-33 105.5q-25 42 -72 62.5t-122 20.5q-77 0 -161 -38t-161 -97v-834h-188z" />
<glyph unicode="i" horiz-adv-x="562" d="M175 1304v195h212v-195h-212zM187 0v1117h188v-1117h-188z" />
<glyph unicode="j" horiz-adv-x="705" d="M-62 -216h10q28 -11 75.5 -25t92.5 -14q72 0 116 20t66 60t28.5 96.5t6.5 137.5v900h-233v158h421v-1144q0 -196 -100 -296t-268 -100q-40 0 -105.5 8t-109.5 20v179zM321 1304v195h212v-195h-212z" />
<glyph unicode="k" horiz-adv-x="1212" d="M193 0v1556h188v-998l543 559h237l-519 -516l557 -601h-248l-448 489l-122 -116v-373h-188z" />
<glyph unicode="l" horiz-adv-x="562" d="M187 0v1556h188v-1556h-188z" />
<glyph unicode="m" horiz-adv-x="1992" d="M185 0v1117h188v-124q88 73 175.5 114t186.5 41q114 0 193.5 -48t118.5 -133q114 96 208 138.5t201 42.5q184 0 271.5 -111.5t87.5 -311.5v-725h-188v636q0 72 -6.5 139t-27.5 107q-23 43 -66 65t-124 22q-79 0 -158 -39.5t-158 -100.5q3 -23 5 -53.5t2 -60.5v-715h-188 v636q0 74 -6.5 140.5t-27.5 106.5q-23 43 -66 64.5t-124 21.5q-77 0 -154.5 -38t-154.5 -97v-834h-188z" />
<glyph unicode="n" horiz-adv-x="1296" d="M185 0v1117h188v-124q88 73 182 114t193 41q181 0 276 -109t95 -314v-725h-188v636q0 77 -9 144.5t-33 105.5q-25 42 -72 62.5t-122 20.5q-77 0 -161 -38t-161 -97v-834h-188z" />
<glyph unicode="o" horiz-adv-x="1243" d="M106 558q0 273 139.5 431.5t376.5 158.5q235 0 375 -158.5t140 -431.5t-140 -431t-375 -158q-237 0 -376.5 158t-139.5 431zM300 558q0 -210 85 -318.5t237 -108.5q150 0 235.5 107.5t85.5 319.5q0 217 -85 322.5t-236 105.5q-153 0 -237.5 -105.5t-84.5 -322.5z" />
<glyph unicode="p" horiz-adv-x="1276" d="M185 -412v1529h188v-117q75 63 168.5 105.5t199.5 42.5q202 0 314.5 -152.5t112.5 -423.5q0 -136 -39 -248.5t-110 -190.5q-66 -74 -155.5 -114.5t-189.5 -40.5q-87 0 -157.5 19t-143.5 59v-468h-188zM373 209q80 -36 137.5 -49t130.5 -13q157 0 245 106t88 314 q0 202 -69 302t-212 100q-81 0 -163 -35t-157 -92v-633z" />
<glyph unicode="q" horiz-adv-x="1276" d="M108 555q0 144 41.5 254.5t109.5 185.5q66 73 155 113t188 40q90 0 159.5 -20t141.5 -59l12 48h176v-1529h-188v538q-87 -75 -173 -111.5t-186 -36.5q-199 0 -317.5 153.5t-118.5 423.5zM302 564q0 -196 68.5 -301.5t215.5 -105.5q82 0 164 35.5t153 91.5v632 q-78 35 -138 49t-130 14q-163 0 -248 -110.5t-85 -304.5z" />
<glyph unicode="r" horiz-adv-x="874" d="M185 0v1117h188v-165q112 90 197.5 127.5t174.5 37.5q49 0 71 -2.5t66 -9.5v-193h-10q-42 10 -81.5 14.5t-93.5 4.5q-87 0 -168 -38.5t-156 -99.5v-793h-188z" />
<glyph unicode="s" horiz-adv-x="1067" d="M110 67v211h10q89 -67 198 -106.5t209 -39.5q124 0 194 40t70 126q0 66 -38 100t-146 58q-40 9 -104.5 21t-117.5 26q-147 39 -208.5 114.5t-61.5 185.5q0 69 28.5 130t86.5 109q56 47 142.5 74.5t193.5 27.5q100 0 202.5 -24.5t170.5 -59.5v-201h-10q-72 53 -175 89.5 t-202 36.5q-103 0 -174 -39.5t-71 -117.5q0 -69 43 -104q42 -35 136 -57q52 -12 116.5 -24t107.5 -22q131 -30 202 -103q71 -74 71 -196q0 -153 -126.5 -251t-345.5 -98q-124 0 -227.5 29.5t-173.5 64.5z" />
<glyph unicode="t" horiz-adv-x="807" d="M62 959v158h127v321h188v-321h388v-158h-388v-509q0 -88 4 -137.5t28 -92.5q22 -40 60.5 -58.5t117.5 -18.5q46 0 96 13.5t72 22.5h10v-169q-53 -14 -115.5 -23t-111.5 -9q-171 0 -260 92t-89 295v594h-127z" />
<glyph unicode="u" horiz-adv-x="1296" d="M177 392v725h188v-636q0 -85 8 -145.5t34 -103.5q27 -44 70 -64t125 -20q73 0 159.5 38t161.5 97v834h188v-1117h-188v124q-95 -75 -182 -115t-192 -40q-176 0 -274 107.5t-98 315.5z" />
<glyph unicode="v" horiz-adv-x="1212" d="M61 1117h204l346 -889l343 889h197l-452 -1117h-189z" />
<glyph unicode="w" horiz-adv-x="1676" d="M86 1117h196l205 -865l279 865h155l286 -865l194 865h189l-291 -1117h-174l-287 861l-285 -861h-173z" />
<glyph unicode="x" horiz-adv-x="1212" d="M60 0l436 557l-432 560h237l315 -422l316 422h220l-439 -550l439 -567h-237l-317 429l-319 -429h-219z" />
<glyph unicode="y" horiz-adv-x="1212" d="M61 1117h204l343 -828l346 828h197l-652 -1529h-201l208 466z" />
<glyph unicode="z" horiz-adv-x="1076" d="M93 0v139l651 821h-637v157h871v-134l-654 -824h671v-159h-902z" />
<glyph unicode="{" horiz-adv-x="1300" d="M173 504v156h51q171 0 254 95.5t83 264.5v149q0 188 111.5 287.5t290.5 99.5h150v-138h-114q-136 0 -197.5 -63t-61.5 -203v-175q0 -139 -77 -233.5t-214 -149.5v-24q137 -55 214 -149.5t77 -233.5v-175q0 -140 61.5 -203t197.5 -63h114v-138h-150q-179 0 -290.5 99.5 t-111.5 287.5v149q0 169 -83 264.5t-254 95.5h-51z" />
<glyph unicode="|" horiz-adv-x="930" d="M378 -392v1948h174v-1948h-174z" />
<glyph unicode="}" horiz-adv-x="1300" d="M187 -254h114q136 0 197.5 63t61.5 203v175q0 139 77 233.5t214 149.5v24q-137 55 -214 149.5t-77 233.5v175q0 140 -61.5 203t-197.5 63h-114v138h150q179 0 290.5 -99.5t111.5 -287.5v-149q0 -169 83 -264.5t254 -95.5h51v-156h-51q-171 0 -254 -95.5t-83 -264.5v-149 q0 -188 -111.5 -287.5t-290.5 -99.5h-150v138z" />
<glyph unicode="~" horiz-adv-x="1676" d="M187 395q2 100 22.5 194.5t64.5 171.5q43 74 112 119.5t165 45.5q93 0 166.5 -38.5t158.5 -142.5q80 -98 131 -143.5t112 -45.5q103 0 151.5 101t51.5 270h167q-2 -99 -22.5 -195t-65.5 -171q-46 -77 -111 -121t-165 -44q-94 0 -167 39.5t-157 141.5q-102 125 -148 157 t-96 32q-94 0 -144 -87.5t-59 -283.5h-167z" />
<glyph unicode="&#xa1;" horiz-adv-x="806" d="M291 0l26 1079h170l28 -1079h-224zM301 1278v211h204v-211h-204z" />
<glyph unicode="&#xa2;" d="M159 557q0 242 133.5 391.5t354.5 171.5v355h118v-351q104 -3 197 -25t158 -53v-203h-11q-55 44 -142 85t-202 50v-839q120 10 206.5 52.5t137.5 83.5h11v-201q-71 -30 -161 -53.5t-194 -26.5v-355h-118v359q-227 21 -357.5 165t-130.5 394zM350 557q0 -181 76 -286 t221 -129v834q-135 -20 -216 -125t-81 -294z" />
<glyph unicode="&#xa3;" d="M137 0v207q118 32 169.5 126.5t51.5 279.5h-176v138h176v310q0 200 126.5 328.5t331.5 128.5q105 0 181 -17t140 -34v-206h-10q-62 42 -138 66t-162 24q-140 0 -209.5 -82.5t-69.5 -226.5v-291h415v-138h-415v-61q0 -126 -62 -219.5t-160 -150.5v-11h837v-171h-1026z" />
<glyph unicode="&#xa4;" d="M138 258l233 234q-23 37 -35 81.5t-12 87.5q0 52 11 88.5t37 79.5l-234 237l111 110l235 -235q36 23 79.5 35.5t88.5 12.5q44 0 88 -12t81 -35l234 234l113 -109l-235 -237q24 -38 36 -79.5t12 -89.5q0 -45 -12.5 -89t-35.5 -80l235 -235l-110 -110l-236 234 q-44 -26 -81 -37t-89 -11q-46 0 -89.5 12.5t-79.5 35.5l-236 -236zM472 661q0 -74 52.5 -129.5t127.5 -55.5q73 0 126.5 54.5t53.5 130.5q0 73 -52.5 129t-127.5 56q-73 0 -126.5 -55t-53.5 -130z" />
<glyph unicode="&#xa5;" d="M108 1489h212l332 -659l336 659h203l-448 -831v-94h372v-138h-370v-426h-188v426h-370v138h372v73z" />
<glyph unicode="&#xa6;" horiz-adv-x="930" d="M378 -392v798h174v-798h-174zM378 758v798h174v-798h-174z" />
<glyph unicode="&#xa7;" d="M172 533q0 98 57 182.5t159 141.5v7q-101 48 -143 121t-42 162q0 81 32 146.5t99 117.5q64 50 163.5 79t227.5 29q87 0 171 -14t175 -43v-194h-10q-58 27 -152.5 57t-215.5 30q-127 0 -211.5 -46t-84.5 -133q0 -57 21.5 -92.5t64.5 -58.5t109 -41.5t157 -39.5 q200 -46 290 -125q89 -79 89 -218q0 -106 -59 -187t-158 -136v-7q97 -46 141 -118.5t44 -162.5q0 -77 -33 -146t-98 -119q-72 -56 -169 -83t-221 -27q-87 0 -170.5 13.5t-175.5 44.5v194h10q79 -37 169 -62t198 -25q134 0 215 48.5t81 135.5q0 56 -19.5 88.5t-64.5 57.5 q-41 23 -113 41.5t-154 38.5q-214 52 -296 133q-83 81 -83 210zM361 579q0 -50 15.5 -85t44.5 -59q27 -23 67.5 -39t84.5 -27q38 -10 86 -22t115 -31q20 11 53 34.5t54 48.5q28 33 43 65.5t15 90.5q0 51 -16.5 86t-45.5 58q-28 24 -67 39.5t-83 27.5q-39 11 -85.5 21.5 t-116.5 30.5q-18 -9 -49 -31.5t-53 -46.5q-24 -26 -43 -69t-19 -92z" />
<glyph unicode="&#xa8;" d="M346 1304v195h199v-195h-199zM759 1304v195h199v-195h-199z" />
<glyph unicode="&#xa9;" horiz-adv-x="2048" d="M159 655q0 358 253.5 611.5t611.5 253.5t611.5 -253.5t253.5 -611.5t-253.5 -611.5t-611.5 -253.5t-611.5 253.5t-253.5 611.5zM275 655q0 -310 219.5 -532t529.5 -222t529.5 222t219.5 532t-219.5 532t-529.5 222t-529.5 -222t-219.5 -532zM561 660q0 225 134.5 354 t356.5 129q89 0 175 -24t148 -52v-181h-16q-54 40 -138.5 75t-173.5 35q-142 0 -221.5 -85.5t-79.5 -250.5q0 -159 76.5 -246t224.5 -87q83 0 161.5 29t150.5 81h16v-179q-86 -39 -165.5 -58.5t-157.5 -19.5q-227 0 -359 123t-132 357z" />
<glyph unicode="&#xaa;" horiz-adv-x="1117" d="M151 833q0 106 46.5 173.5t123.5 103.5q78 36 197.5 51.5t255.5 21.5v18q0 53 -18 85t-51 51q-34 18 -77.5 23t-91.5 5q-84 0 -168 -24t-123 -38h-14v172q45 13 137 29t169 16q217 0 312 -84.5t95 -243.5v-638h-170v94q-28 -20 -52.5 -38.5t-68.5 -37.5 q-45 -20 -85.5 -30.5t-113.5 -10.5q-128 0 -215.5 85t-87.5 217zM326 843q0 -76 45.5 -114t139.5 -38q82 0 147.5 33.5t115.5 71.5v245q-69 -4 -160.5 -12t-145.5 -23q-64 -18 -103 -56.5t-39 -106.5z" />
<glyph unicode="&#xab;" horiz-adv-x="1320" d="M166 608v89l550 445v-196l-371 -294l371 -294v-196zM618 610v85l528 418v-188l-357 -273l357 -273v-188z" />
<glyph unicode="&#xac;" horiz-adv-x="1676" d="M210 602v160h1246v-705h-171v545h-1075z" />
<glyph unicode="&#xad;" horiz-adv-x="930" d="M153 561v181h624v-181h-624z" />
<glyph unicode="&#xae;" horiz-adv-x="2048" d="M159 655q0 358 253.5 611.5t611.5 253.5t611.5 -253.5t253.5 -611.5t-253.5 -611.5t-611.5 -253.5t-611.5 253.5t-253.5 611.5zM275 655q0 -310 219.5 -532t529.5 -222t529.5 222t219.5 532t-219.5 532t-529.5 222t-529.5 -222t-219.5 -532zM700 215v915h312q94 0 155 -8 t120 -39q63 -34 92.5 -82.5t29.5 -121.5q0 -97 -56.5 -161.5t-155.5 -102.5l384 -400h-223l-331 355h-162v-355h-165zM865 696h127q62 0 107 9.5t74 32.5q31 25 43.5 55t12.5 75q0 36 -14 64t-47 46q-31 17 -66 22t-88 5h-149v-309z" />
<glyph unicode="&#xaf;" d="M-4 1788h1310v-120h-1305z" />
<glyph unicode="&#xb0;" horiz-adv-x="1110" d="M154 1116q0 168 116 284t285 116q170 0 285.5 -116t115.5 -284t-116 -284t-285 -116t-285 115.5t-116 284.5zM319 1116q0 -104 68.5 -172.5t167.5 -68.5q102 0 169 70t67 171q0 102 -67 171.5t-169 69.5t-169 -69.5t-67 -171.5z" />
<glyph unicode="&#xb1;" horiz-adv-x="1676" d="M215 179v158h540v422h-540v158h540v545h166v-545h540v-158h-540v-422h540v-158h-1246z" />
<glyph unicode="&#xb2;" horiz-adv-x="1110" d="M207 566v156q100 62 183.5 117t134.5 96q131 103 168 154.5t37 135.5q0 69 -53.5 107t-143.5 38q-89 0 -175 -30.5t-134 -61.5h-13v180q71 26 158.5 43.5t174.5 17.5q180 0 273.5 -78.5t93.5 -203.5q0 -99 -48.5 -174.5t-163.5 -165.5q-55 -43 -132.5 -94t-143.5 -92h544 v-145h-760z" />
<glyph unicode="&#xb3;" horiz-adv-x="1110" d="M207 585v179h14q41 -36 138.5 -65.5t190.5 -29.5q100 0 166.5 35.5t66.5 110.5q0 85 -59 115t-171 30h-143v141h128q112 0 165.5 38.5t53.5 106.5q0 61 -49.5 96.5t-153.5 35.5q-77 0 -174.5 -31t-141.5 -67h-14v178q74 27 160.5 44.5t176.5 17.5q175 0 271.5 -68 t96.5 -174q0 -89 -55 -146t-144 -83v-8q95 -17 160.5 -72.5t65.5 -151.5q0 -75 -33 -131.5t-89 -90.5q-57 -35 -131 -51.5t-163 -16.5q-94 0 -176.5 15t-156.5 43z" />
<glyph unicode="&#xb4;" d="M541 1302l179 374h243l-273 -374h-149z" />
<glyph unicode="&#xb5;" horiz-adv-x="1314" d="M190 -412v1529h188v-838q32 -39 109.5 -80t168.5 -41q93 0 159.5 33.5t120.5 93.5v832h188v-1117h-178l-10 118q-59 -65 -123.5 -102t-155.5 -37q-86 0 -149.5 35t-129.5 99v-525h-188z" />
<glyph unicode="&#xb6;" d="M137 1050q0 207 130 323t373 116h466v-1852h-148v1722h-214v-1722h-149v956q-206 5 -332 129t-126 328z" />
<glyph unicode="&#xb7;" horiz-adv-x="745" d="M253 511v283h239v-283h-239z" />
<glyph unicode="&#xb8;" d="M353 -237h9q26 -10 70 -23t94 -13q104 0 153 39t49 127q0 29 -3 65.5t-6 61.5h153q2 -19 5 -45t3 -64q0 -162 -91.5 -248t-237.5 -86q-37 0 -95 7t-103 19v160z" />
<glyph unicode="&#xb9;" horiz-adv-x="1110" d="M291 1256v112q45 0 99 6.5t84 18.5q37 16 59 38t25 62h135v-805h221v-122h-615v122h234v568h-242z" />
<glyph unicode="&#xba;" horiz-adv-x="1117" d="M121 1025q0 229 118.5 362t319.5 133q193 0 315 -130t122 -365t-122 -364.5t-315 -129.5q-201 0 -319.5 132.5t-118.5 361.5zM303 1025q0 -170 67 -256.5t189 -86.5q120 0 187.5 85.5t67.5 257.5t-67.5 258t-187.5 86q-122 0 -189 -87t-67 -257z" />
<glyph unicode="&#xbb;" horiz-adv-x="1320" d="M174 191v188l357 273l-357 273v188l528 -418v-85zM604 162v196l371 294l-371 294v196l550 -445v-89z" />
<glyph unicode="&#xbc;" horiz-adv-x="2048" d="M171 1246v117q102 0 165 22t72 108h137v-928h-165v681h-209zM465 0l780 1489h165l-780 -1489h-165zM1079 220v185l466 539h149v-591h163v-133h-163v-220h-150v220h-465zM1195 353h353v400z" />
<glyph unicode="&#xbd;" horiz-adv-x="2048" d="M171 1246v117q102 0 165 22t72 108h137v-928h-165v681h-209zM465 0l780 1489h165l-780 -1489h-165zM1267 0v148q91 69 158 121t106 89q109 103 141 157.5t32 136.5q0 70 -44 107t-120 37q-70 0 -141.5 -30t-112.5 -62h-15v179q65 27 140.5 44t152.5 17q157 0 241.5 -79 t84.5 -201q0 -93 -41 -167t-147 -168q-49 -43 -119.5 -96t-125.5 -94h498v-139h-688z" />
<glyph unicode="&#xbe;" horiz-adv-x="2048" d="M140 598v175h17q37 -35 114 -64.5t156 -29.5q84 0 139 36.5t55 108.5q0 83 -50 112.5t-141 29.5h-140v139h125q87 0 134.5 38t47.5 104q0 60 -41 95.5t-128 35.5q-66 0 -142.5 -31t-113.5 -66h-17v175q64 27 139 44t154 17q152 0 237 -70t85 -168q0 -87 -48.5 -143.5 t-125.5 -82.5v-8q80 -16 138.5 -70.5t58.5 -148.5q0 -71 -30 -127t-78 -90q-53 -37 -114.5 -53t-140.5 -16q-82 0 -153.5 15t-136.5 43zM555 0l780 1489h165l-780 -1489h-165zM1135 220v185l466 539h149v-591h163v-133h-163v-220h-150v220h-465zM1251 353h353v400z" />
<glyph unicode="&#xbf;" horiz-adv-x="1117" d="M113 350q0 98 34.5 173t93.5 137q58 62 136.5 112.5t146.5 91.5v225h179v-305q-60 -33 -139 -81.5t-125 -88.5q-54 -47 -88 -109t-34 -140q0 -113 76.5 -168.5t197.5 -55.5q103 0 201.5 33t155.5 70h10v-204q-83 -30 -176 -50t-205 -20q-215 0 -339.5 104.5t-124.5 275.5 zM508 1278v211h204v-211h-204z" />
<glyph unicode="&#xc0;" horiz-adv-x="1400" d="M26 0l542 1489h264l542 -1489h-211l-146 415h-644l-146 -415h-201zM433 585h523l-261 731zM440 2049h243l179 -374h-149z" />
<glyph unicode="&#xc1;" horiz-adv-x="1400" d="M26 0l542 1489h264l542 -1489h-211l-146 415h-644l-146 -415h-201zM433 585h523l-261 731zM533 1675l179 374h243l-273 -374h-149z" />
<glyph unicode="&#xc2;" horiz-adv-x="1400" d="M26 0l542 1489h264l542 -1489h-211l-146 415h-644l-146 -415h-201zM350 1670l228 379h227l228 -379h-159l-185 256l-184 -256h-155zM433 585h523l-261 731z" />
<glyph unicode="&#xc3;" horiz-adv-x="1400" d="M26 0l542 1489h264l542 -1489h-211l-146 415h-644l-146 -415h-201zM288 1682q8 151 79 228t174 77q50 0 96.5 -19.5t88.5 -55.5q47 -41 83.5 -61.5t69.5 -20.5q51 0 79.5 46t31.5 116h129q-11 -152 -77 -229t-177 -77q-54 0 -100 19.5t-87 56.5q-47 43 -79.5 64.5 t-71.5 21.5q-52 0 -78 -45t-30 -121h-131zM433 585h523l-261 731z" />
<glyph unicode="&#xc4;" horiz-adv-x="1400" d="M26 0l542 1489h264l542 -1489h-211l-146 415h-644l-146 -415h-201zM393 1677v195h199v-195h-199zM433 585h523l-261 731zM806 1677v195h199v-195h-199z" />
<glyph unicode="&#xc5;" horiz-adv-x="1400" d="M26 0l519 1407q-89 44 -142.5 123.5t-53.5 181.5q0 143 102 240t248 97q147 0 248.5 -97t101.5 -240q0 -100 -52.5 -181.5t-141.5 -123.5l519 -1407h-211l-148 415h-640l-148 -415h-201zM436 585h517l-258 715zM499 1710q0 -86 57.5 -143.5t142.5 -57.5q86 0 143 57.5 t57 143.5t-57 143.5t-143 57.5t-143 -58t-57 -143z" />
<glyph unicode="&#xc6;" horiz-adv-x="2016" d="M14 0l594 1489h1293v-176h-749v-408h749v-176h-749v-553h749v-176h-944v556h-524l-212 -556h-207zM499 723h458v601h-219z" />
<glyph unicode="&#xc7;" horiz-adv-x="1430" d="M115 743q0 184 52 329t150 245q95 97 229.5 148t298.5 51q120 0 239.5 -29t265.5 -102v-235h-15q-123 103 -244 150t-259 47q-113 0 -203.5 -36.5t-161.5 -113.5q-69 -75 -107.5 -189.5t-38.5 -264.5q0 -157 42.5 -270t109.5 -184q70 -74 163.5 -109.5t197.5 -35.5 q143 0 268 49t234 147h14v-232q-55 -24 -99.5 -45t-116.5 -44q-11 -3 -24 -7.5t-31 -7.5q2 -19 3.5 -44.5t1.5 -48.5q0 -162 -93.5 -248t-240.5 -86q-38 0 -97.5 7t-104.5 19v162h9q26 -10 71.5 -24t95.5 -14q106 0 155 40t49 126q0 19 -1 41.5t-3 42.5q-19 -2 -40.5 -3 t-39.5 -1q-162 0 -294.5 45.5t-230.5 142.5q-96 95 -150 241.5t-54 340.5z" />
<glyph unicode="&#xc8;" horiz-adv-x="1295" d="M200 0v1489h981v-176h-783v-408h783v-176h-783v-553h783v-176h-981zM400 2049h243l179 -374h-149z" />
<glyph unicode="&#xc9;" horiz-adv-x="1295" d="M200 0v1489h981v-176h-783v-408h783v-176h-783v-553h783v-176h-981zM571 1675l179 374h243l-273 -374h-149z" />
<glyph unicode="&#xca;" horiz-adv-x="1295" d="M200 0v1489h981v-176h-783v-408h783v-176h-783v-553h783v-176h-981zM348 1670l228 379h227l228 -379h-159l-185 256l-184 -256h-155z" />
<glyph unicode="&#xcb;" horiz-adv-x="1295" d="M200 0v1489h981v-176h-783v-408h783v-176h-783v-553h783v-176h-981zM426 1677v195h199v-195h-199zM839 1677v195h199v-195h-199z" />
<glyph unicode="&#xcc;" horiz-adv-x="862" d="M137 0v152h195v1185h-195v152h588v-152h-195v-1185h195v-152h-588zM146 2049h243l179 -374h-149z" />
<glyph unicode="&#xcd;" horiz-adv-x="862" d="M137 0v152h195v1185h-195v152h588v-152h-195v-1185h195v-152h-588zM303 1675l179 374h243l-273 -374h-149z" />
<glyph unicode="&#xce;" horiz-adv-x="862" d="M93 1670l228 379h227l228 -379h-159l-185 256l-184 -256h-155zM137 0v152h195v1185h-195v152h588v-152h-195v-1185h195v-152h-588z" />
<glyph unicode="&#xcf;" horiz-adv-x="862" d="M126 1677v195h199v-195h-199zM137 0v152h195v1185h-195v152h588v-152h-195v-1185h195v-152h-588zM539 1677v195h199v-195h-199z" />
<glyph unicode="&#xd0;" horiz-adv-x="1588" d="M14 740v143h196v606h372q218 0 347 -31.5t217 -86.5q152 -95 237 -253t85 -375q0 -203 -88.5 -368t-235.5 -256q-102 -63 -227.5 -91t-330.5 -28h-376v740h-196zM406 170h188q143 0 249.5 21t195.5 78q111 71 166.5 187t55.5 290q0 175 -61 295t-182 189 q-88 50 -187 69.5t-237 19.5h-188v-436h361v-143h-361v-570z" />
<glyph unicode="&#xd1;" horiz-adv-x="1532" d="M200 0v1489h307l644 -1216v1216h185v-1489h-245l-706 1332v-1332h-185zM377 1682q8 151 79 228t174 77q50 0 96.5 -19.5t88.5 -55.5q47 -41 83.5 -61.5t69.5 -20.5q51 0 79.5 46t31.5 116h129q-11 -152 -77 -229t-177 -77q-54 0 -100 19.5t-87 56.5q-47 43 -79.5 64.5 t-71.5 21.5q-52 0 -78 -45t-30 -121h-131z" />
<glyph unicode="&#xd2;" horiz-adv-x="1612" d="M115 744q0 182 48 326.5t140 247.5q88 98 218.5 150t284.5 52q160 0 287.5 -52.5t216.5 -149.5q91 -100 139.5 -245t48.5 -329t-49.5 -329.5t-138.5 -242.5q-92 -101 -217.5 -152t-286.5 -51q-157 0 -285.5 52t-218.5 151t-138.5 243t-48.5 329zM321 744 q0 -293 132 -448.5t354 -155.5t353.5 155.5t131.5 448.5q0 290 -130 447.5t-355 157.5q-227 0 -356.5 -157.5t-129.5 -447.5zM510 2049h243l179 -374h-149z" />
<glyph unicode="&#xd3;" horiz-adv-x="1612" d="M115 744q0 182 48 326.5t140 247.5q88 98 218.5 150t284.5 52q160 0 287.5 -52.5t216.5 -149.5q91 -100 139.5 -245t48.5 -329t-49.5 -329.5t-138.5 -242.5q-92 -101 -217.5 -152t-286.5 -51q-157 0 -285.5 52t-218.5 151t-138.5 243t-48.5 329zM321 744 q0 -293 132 -448.5t354 -155.5t353.5 155.5t131.5 448.5q0 290 -130 447.5t-355 157.5q-227 0 -356.5 -157.5t-129.5 -447.5zM661 1675l179 374h243l-273 -374h-149z" />
<glyph unicode="&#xd4;" horiz-adv-x="1612" d="M115 744q0 182 48 326.5t140 247.5q88 98 218.5 150t284.5 52q160 0 287.5 -52.5t216.5 -149.5q91 -100 139.5 -245t48.5 -329t-49.5 -329.5t-138.5 -242.5q-92 -101 -217.5 -152t-286.5 -51q-157 0 -285.5 52t-218.5 151t-138.5 243t-48.5 329zM321 744 q0 -293 132 -448.5t354 -155.5t353.5 155.5t131.5 448.5q0 290 -130 447.5t-355 157.5q-227 0 -356.5 -157.5t-129.5 -447.5zM453 1670l228 379h227l228 -379h-159l-185 256l-184 -256h-155z" />
<glyph unicode="&#xd5;" horiz-adv-x="1612" d="M115 744q0 182 48 326.5t140 247.5q88 98 218.5 150t284.5 52q160 0 287.5 -52.5t216.5 -149.5q91 -100 139.5 -245t48.5 -329t-49.5 -329.5t-138.5 -242.5q-92 -101 -217.5 -152t-286.5 -51q-157 0 -285.5 52t-218.5 151t-138.5 243t-48.5 329zM321 744 q0 -293 132 -448.5t354 -155.5t353.5 155.5t131.5 448.5q0 290 -130 447.5t-355 157.5q-227 0 -356.5 -157.5t-129.5 -447.5zM376 1682q8 151 79 228t174 77q50 0 96.5 -19.5t88.5 -55.5q47 -41 83.5 -61.5t69.5 -20.5q51 0 79.5 46t31.5 116h129q-11 -152 -77 -229 t-177 -77q-54 0 -100 19.5t-87 56.5q-47 43 -79.5 64.5t-71.5 21.5q-52 0 -78 -45t-30 -121h-131z" />
<glyph unicode="&#xd6;" horiz-adv-x="1612" d="M112 744q0 182 48 326.5t140 247.5q88 98 218.5 150t284.5 52q160 0 287.5 -52.5t216.5 -149.5q91 -100 139.5 -245t48.5 -329t-49.5 -329.5t-138.5 -242.5q-92 -101 -217.5 -152t-286.5 -51q-157 0 -285.5 52t-218.5 151t-138.5 243t-48.5 329zM318 744 q0 -293 132 -448.5t354 -155.5t353.5 155.5t131.5 448.5q0 290 -130 447.5t-355 157.5q-227 0 -356.5 -157.5t-129.5 -447.5zM496 1677v195h199v-195h-199zM909 1677v195h199v-195h-199z" />
<glyph unicode="&#xd7;" horiz-adv-x="1676" d="M291 216l440 436l-440 436l111 111l436 -440l436 440l111 -111l-440 -436l440 -436l-111 -111l-436 440l-436 -440z" />
<glyph unicode="&#xd8;" horiz-adv-x="1612" d="M115 744q0 182 48 326.5t140 247.5q88 98 218.5 150t284.5 52q118 0 215 -27.5t179 -82.5l142 201h132l-188 -268q101 -100 156.5 -248.5t55.5 -350.5q0 -184 -49.5 -329.5t-138.5 -242.5q-92 -101 -217.5 -152t-286.5 -51q-115 0 -215.5 29t-179.5 84l-159 -228h-132 l205 294q-101 100 -155.5 250t-54.5 346zM318 744q0 -140 29.5 -252t87.5 -188l662 956q-57 46 -129 68.5t-161 22.5q-110 0 -200 -38.5t-156 -116.5q-64 -76 -98.5 -190.5t-34.5 -261.5zM513 229q60 -45 132.5 -68t161.5 -23q110 0 201.5 40t153.5 116q67 82 100 194.5 t33 255.5q0 139 -30 253t-88 189z" />
<glyph unicode="&#xd9;" horiz-adv-x="1499" d="M178 598v891h198v-901q0 -121 16.5 -191t55.5 -127q44 -65 119.5 -98t181.5 -33q107 0 182 32.5t120 98.5q39 57 55.5 130.5t16.5 182.5v906h198v-891q0 -162 -35.5 -282.5t-116.5 -200.5q-77 -76 -180 -111t-240 -35q-140 0 -244 37t-175 109q-81 82 -116.5 198 t-35.5 285zM510 2049h243l179 -374h-149z" />
<glyph unicode="&#xda;" horiz-adv-x="1499" d="M178 598v891h198v-901q0 -121 16.5 -191t55.5 -127q44 -65 119.5 -98t181.5 -33q107 0 182 32.5t120 98.5q39 57 55.5 130.5t16.5 182.5v906h198v-891q0 -162 -35.5 -282.5t-116.5 -200.5q-77 -76 -180 -111t-240 -35q-140 0 -244 37t-175 109q-81 82 -116.5 198 t-35.5 285zM651 1675l179 374h243l-273 -374h-149z" />
<glyph unicode="&#xdb;" horiz-adv-x="1499" d="M178 598v891h198v-901q0 -121 16.5 -191t55.5 -127q44 -65 119.5 -98t181.5 -33q107 0 182 32.5t120 98.5q39 57 55.5 130.5t16.5 182.5v906h198v-891q0 -162 -35.5 -282.5t-116.5 -200.5q-77 -76 -180 -111t-240 -35q-140 0 -244 37t-175 109q-81 82 -116.5 198 t-35.5 285zM401 1670l228 379h227l228 -379h-159l-185 256l-184 -256h-155z" />
<glyph unicode="&#xdc;" horiz-adv-x="1499" d="M178 598v891h198v-901q0 -121 16.5 -191t55.5 -127q44 -65 119.5 -98t181.5 -33q107 0 182 32.5t120 98.5q39 57 55.5 130.5t16.5 182.5v906h198v-891q0 -162 -35.5 -282.5t-116.5 -200.5q-77 -76 -180 -111t-240 -35q-140 0 -244 37t-175 109q-81 82 -116.5 198 t-35.5 285zM444 1677v195h199v-195h-199zM857 1677v195h199v-195h-199z" />
<glyph unicode="&#xdd;" horiz-adv-x="1260" d="M6 1489h219l407 -666l411 666h211l-524 -836v-653h-198v632zM513 1675l179 374h243l-273 -374h-149z" />
<glyph unicode="&#xde;" horiz-adv-x="1240" d="M200 0v1489h198v-270h205q133 0 230 -22.5t164 -66.5q83 -53 130 -138t47 -205q0 -92 -35 -176.5t-95 -141.5q-78 -75 -187.5 -111t-260.5 -36h-198v-322h-198zM398 488h167q119 0 195 20.5t123 65.5q44 41 64.5 92t20.5 116q0 72 -26 125.5t-82 88.5q-48 30 -112 42.5 t-154 12.5h-196v-563z" />
<glyph unicode="&#xdf;" horiz-adv-x="1270" d="M185 0v1080q0 124 36 215.5t100 153.5q60 58 149.5 87.5t183.5 29.5q183 0 297.5 -87t114.5 -238q0 -112 -71 -201t-184 -121v-9q164 -37 259 -148.5t95 -280.5q0 -214 -135.5 -359.5t-354.5 -145.5q-44 0 -101.5 7.5t-93.5 20.5v165h10q42 -24 91.5 -33t105.5 -9 q74 0 129 29t88 78q35 52 50.5 115.5t15.5 139.5q0 166 -105.5 250.5t-303.5 84.5v150q157 0 234 59.5t77 188.5q0 35 -11 68t-41 64q-27 29 -71 46.5t-105 17.5q-57 0 -103 -14.5t-86 -53.5q-37 -36 -59.5 -102t-22.5 -161v-1087h-188z" />
<glyph unicode="&#xe0;" horiz-adv-x="1230" d="M104 324q0 127 54.5 205.5t155.5 123.5q102 45 245 61t307 24v29q0 64 -22.5 106t-64.5 66q-40 23 -96 31t-117 8q-74 0 -165 -19.5t-188 -56.5h-10v191q55 15 159 33t205 18q118 0 205.5 -19.5t151.5 -66.5q63 -46 96 -119t33 -181v-758h-187v119q-25 -17 -67.5 -47.5 t-82.5 -48.5q-47 -23 -108 -38.5t-143 -15.5q-151 0 -256 100t-105 255zM298 337q0 -96 58 -144.5t177 -48.5q99 0 181 38.5t152 92.5v311q-86 -5 -202.5 -15t-184.5 -29q-81 -23 -131 -71.5t-50 -133.5zM316 1676h243l179 -374h-149z" />
<glyph unicode="&#xe1;" horiz-adv-x="1230" d="M104 324q0 127 54.5 205.5t155.5 123.5q102 45 245 61t307 24v29q0 64 -22.5 106t-64.5 66q-40 23 -96 31t-117 8q-74 0 -165 -19.5t-188 -56.5h-10v191q55 15 159 33t205 18q118 0 205.5 -19.5t151.5 -66.5q63 -46 96 -119t33 -181v-758h-187v119q-25 -17 -67.5 -47.5 t-82.5 -48.5q-47 -23 -108 -38.5t-143 -15.5q-151 0 -256 100t-105 255zM298 337q0 -96 58 -144.5t177 -48.5q99 0 181 38.5t152 92.5v311q-86 -5 -202.5 -15t-184.5 -29q-81 -23 -131 -71.5t-50 -133.5zM512 1302l179 374h243l-273 -374h-149z" />
<glyph unicode="&#xe2;" horiz-adv-x="1230" d="M104 324q0 127 54.5 205.5t155.5 123.5q102 45 245 61t307 24v29q0 64 -22.5 106t-64.5 66q-40 23 -96 31t-117 8q-74 0 -165 -19.5t-188 -56.5h-10v191q55 15 159 33t205 18q118 0 205.5 -19.5t151.5 -66.5q63 -46 96 -119t33 -181v-758h-187v119q-25 -17 -67.5 -47.5 t-82.5 -48.5q-47 -23 -108 -38.5t-143 -15.5q-151 0 -256 100t-105 255zM278 1297l228 379h227l228 -379h-159l-185 256l-184 -256h-155zM298 337q0 -96 58 -144.5t177 -48.5q99 0 181 38.5t152 92.5v311q-86 -5 -202.5 -15t-184.5 -29q-81 -23 -131 -71.5t-50 -133.5z" />
<glyph unicode="&#xe3;" horiz-adv-x="1230" d="M104 324q0 127 54.5 205.5t155.5 123.5q102 45 245 61t307 24v29q0 64 -22.5 106t-64.5 66q-40 23 -96 31t-117 8q-74 0 -165 -19.5t-188 -56.5h-10v191q55 15 159 33t205 18q118 0 205.5 -19.5t151.5 -66.5q63 -46 96 -119t33 -181v-758h-187v119q-25 -17 -67.5 -47.5 t-82.5 -48.5q-47 -23 -108 -38.5t-143 -15.5q-151 0 -256 100t-105 255zM207 1309q8 151 79 228t174 77q50 0 96.5 -19.5t88.5 -55.5q47 -41 83.5 -61.5t69.5 -20.5q51 0 79.5 46t31.5 116h129q-11 -152 -77 -229t-177 -77q-54 0 -100 19.5t-87 56.5q-47 43 -79.5 64.5 t-71.5 21.5q-52 0 -78 -45t-30 -121h-131zM298 337q0 -96 58 -144.5t177 -48.5q99 0 181 38.5t152 92.5v311q-86 -5 -202.5 -15t-184.5 -29q-81 -23 -131 -71.5t-50 -133.5z" />
<glyph unicode="&#xe4;" horiz-adv-x="1230" d="M104 324q0 127 54.5 205.5t155.5 123.5q102 45 245 61t307 24v29q0 64 -22.5 106t-64.5 66q-40 23 -96 31t-117 8q-74 0 -165 -19.5t-188 -56.5h-10v191q55 15 159 33t205 18q118 0 205.5 -19.5t151.5 -66.5q63 -46 96 -119t33 -181v-758h-187v119q-25 -17 -67.5 -47.5 t-82.5 -48.5q-47 -23 -108 -38.5t-143 -15.5q-151 0 -256 100t-105 255zM298 337q0 -96 58 -144.5t177 -48.5q99 0 181 38.5t152 92.5v311q-86 -5 -202.5 -15t-184.5 -29q-81 -23 -131 -71.5t-50 -133.5zM314 1304v195h199v-195h-199zM727 1304v195h199v-195h-199z" />
<glyph unicode="&#xe5;" horiz-adv-x="1230" d="M104 324q0 127 54.5 205.5t155.5 123.5q102 45 245 61t307 24v29q0 64 -22.5 106t-64.5 66q-40 23 -96 31t-117 8q-74 0 -165 -19.5t-188 -56.5h-10v191q55 15 159 33t205 18q118 0 205.5 -19.5t151.5 -66.5q63 -46 96 -119t33 -181v-758h-187v119q-25 -17 -67.5 -47.5 t-82.5 -48.5q-47 -23 -108 -38.5t-143 -15.5q-151 0 -256 100t-105 255zM256 1630q0 143 102 241t248 98q147 0 248.5 -98t101.5 -241t-102 -242t-248 -99q-144 0 -247 98.5t-103 242.5zM298 337q0 -96 58 -144.5t177 -48.5q99 0 181 38.5t152 92.5v311q-86 -5 -202.5 -15 t-184.5 -29q-81 -23 -131 -71.5t-50 -133.5zM401 1630q0 -87 59 -146t146 -59q88 0 146.5 59t58.5 146q0 86 -58.5 145.5t-146.5 59.5t-146.5 -59t-58.5 -146z" />
<glyph unicode="&#xe6;" horiz-adv-x="1956" d="M104 317q0 124 54 200.5t155 118.5q95 39 241 53t308 17v61q0 65 -23 107.5t-64 65.5q-40 23 -96 31.5t-116 8.5q-79 0 -168.5 -21t-179.5 -57h-13v191q55 15 158 34t204 19q159 0 264.5 -46.5t162.5 -137.5q69 82 170 134t226 52q217 0 342.5 -128t125.5 -379v-82h-819 q0 -114 30 -195t85 -133q52 -48 123 -70.5t157 -22.5q111 0 217.5 41.5t172.5 93.5h12v-205q-78 -35 -184.5 -64.5t-215.5 -29.5q-166 0 -284.5 52t-194.5 155q-21 -19 -67 -59t-96 -68q-63 -36 -137 -59.5t-189 -23.5q-150 0 -255.5 97t-105.5 249zM298 331q0 -95 58 -141 t176 -46q99 0 195.5 43t166.5 111q-20 53 -30.5 119t-10.5 141q-105 -3 -201 -7.5t-178 -25.5q-79 -20 -127.5 -65.5t-48.5 -128.5zM1039 703h634q-5 68 -23.5 119t-50.5 88q-34 39 -88.5 61t-133.5 22q-133 0 -223 -75t-115 -215z" />
<glyph unicode="&#xe7;" horiz-adv-x="1067" d="M105 557q0 274 150.5 430t397.5 156q96 0 188.5 -27t169.5 -66v-209h-10q-86 67 -177.5 103t-178.5 36q-160 0 -252.5 -107.5t-92.5 -315.5q0 -202 90.5 -310.5t254.5 -108.5q57 0 116 15t106 39q41 21 77 44.5t57 40.5h10v-207q-33 -15 -71.5 -30.5t-67.5 -24.5 q3 -19 5.5 -47.5t2.5 -56.5q0 -162 -91.5 -248t-237.5 -86q-37 0 -95 7t-103 19v160h9q26 -10 70 -23t94 -13q104 0 153 39t49 127q0 22 -1.5 45t-3.5 43q-16 -2 -30.5 -4t-39.5 -2q-121 0 -222 35.5t-173 107.5q-73 72 -113 182t-40 257z" />
<glyph unicode="&#xe8;" horiz-adv-x="1220" d="M106 552q0 274 149.5 435t393.5 161q226 0 348.5 -132t122.5 -375v-102h-823q0 -103 31 -179.5t85 -125.5q52 -48 123.5 -72t157.5 -24q114 0 229.5 45.5t164.5 89.5h10v-205q-95 -40 -194 -67t-208 -27q-278 0 -434 150.5t-156 427.5zM297 683h640q-1 148 -74.5 229 t-223.5 81q-151 0 -240.5 -89t-101.5 -221zM337 1676h243l179 -374h-149z" />
<glyph unicode="&#xe9;" horiz-adv-x="1220" d="M106 552q0 274 149.5 435t393.5 161q226 0 348.5 -132t122.5 -375v-102h-823q0 -103 31 -179.5t85 -125.5q52 -48 123.5 -72t157.5 -24q114 0 229.5 45.5t164.5 89.5h10v-205q-95 -40 -194 -67t-208 -27q-278 0 -434 150.5t-156 427.5zM297 683h640q-1 148 -74.5 229 t-223.5 81q-151 0 -240.5 -89t-101.5 -221zM538 1302l179 374h243l-273 -374h-149z" />
<glyph unicode="&#xea;" horiz-adv-x="1220" d="M106 552q0 274 149.5 435t393.5 161q226 0 348.5 -132t122.5 -375v-102h-823q0 -103 31 -179.5t85 -125.5q52 -48 123.5 -72t157.5 -24q114 0 229.5 45.5t164.5 89.5h10v-205q-95 -40 -194 -67t-208 -27q-278 0 -434 150.5t-156 427.5zM297 683h640q-1 148 -74.5 229 t-223.5 81q-151 0 -240.5 -89t-101.5 -221zM303 1297l228 379h227l228 -379h-159l-185 256l-184 -256h-155z" />
<glyph unicode="&#xeb;" horiz-adv-x="1220" d="M106 552q0 274 149.5 435t393.5 161q226 0 348.5 -132t122.5 -375v-102h-823q0 -103 31 -179.5t85 -125.5q52 -48 123.5 -72t157.5 -24q114 0 229.5 45.5t164.5 89.5h10v-205q-95 -40 -194 -67t-208 -27q-278 0 -434 150.5t-156 427.5zM297 683h640q-1 148 -74.5 229 t-223.5 81q-151 0 -240.5 -89t-101.5 -221zM339 1304v195h199v-195h-199zM752 1304v195h199v-195h-199z" />
<glyph unicode="&#xec;" horiz-adv-x="562" d="M-21 1676h243l179 -374h-149zM187 0v1117h188v-1117h-188z" />
<glyph unicode="&#xed;" horiz-adv-x="562" d="M160 1302l179 374h243l-273 -374h-149zM187 0v1117h188v-1117h-188z" />
<glyph unicode="&#xee;" horiz-adv-x="562" d="M-11 1297l178 379h227l178 -379h-151l-143 267l-142 -267h-147zM187 0v1117h188v-1117h-188z" />
<glyph unicode="&#xef;" horiz-adv-x="562" d="M5 1304v195h189v-195h-189zM187 0v1117h188v-1117h-188zM368 1304v195h189v-195h-189z" />
<glyph unicode="&#xf0;" horiz-adv-x="1253" d="M106 484q0 226 137 358t339 132q108 0 185.5 -26.5t163.5 -79.5q-32 112 -99.5 219t-154.5 181l-264 -162l-66 97l237 142q-84 67 -156 107.5t-165 87.5v16h295q35 -25 84 -58.5t86 -59.5l210 128l66 -97l-186 -109q153 -147 236 -325.5t83 -397.5q0 -324 -142 -496 t-383 -172q-229 0 -367.5 135t-138.5 380zM301 482q0 -180 84.5 -267t227.5 -87q66 0 127.5 22t106.5 76q49 59 75 143.5t26 234.5q0 32 -1.5 59.5t-3.5 57.5q-75 45 -157.5 66.5t-168.5 21.5q-147 0 -231.5 -87.5t-84.5 -239.5z" />
<glyph unicode="&#xf1;" horiz-adv-x="1296" d="M185 0v1117h188v-124q88 73 182 114t193 41q181 0 276 -109t95 -314v-725h-188v636q0 77 -9 144.5t-33 105.5q-25 42 -72 62.5t-122 20.5q-77 0 -161 -38t-161 -97v-834h-188zM244 1309q8 151 79 228t174 77q50 0 96.5 -19.5t88.5 -55.5q47 -41 83.5 -61.5t69.5 -20.5 q51 0 79.5 46t31.5 116h129q-11 -152 -77 -229t-177 -77q-54 0 -100 19.5t-87 56.5q-47 43 -79.5 64.5t-71.5 21.5q-52 0 -78 -45t-30 -121h-131z" />
<glyph unicode="&#xf2;" horiz-adv-x="1243" d="M106 558q0 273 139.5 431.5t376.5 158.5q235 0 375 -158.5t140 -431.5t-140 -431t-375 -158q-237 0 -376.5 158t-139.5 431zM300 558q0 -210 85 -318.5t237 -108.5q150 0 235.5 107.5t85.5 319.5q0 217 -85 322.5t-236 105.5q-153 0 -237.5 -105.5t-84.5 -322.5z M310 1676h243l179 -374h-149z" />
<glyph unicode="&#xf3;" horiz-adv-x="1243" d="M106 558q0 273 139.5 431.5t376.5 158.5q235 0 375 -158.5t140 -431.5t-140 -431t-375 -158q-237 0 -376.5 158t-139.5 431zM300 558q0 -210 85 -318.5t237 -108.5q150 0 235.5 107.5t85.5 319.5q0 217 -85 322.5t-236 105.5q-153 0 -237.5 -105.5t-84.5 -322.5z M511 1302l179 374h243l-273 -374h-149z" />
<glyph unicode="&#xf4;" horiz-adv-x="1243" d="M106 558q0 273 139.5 431.5t376.5 158.5q235 0 375 -158.5t140 -431.5t-140 -431t-375 -158q-237 0 -376.5 158t-139.5 431zM280 1297l228 379h227l228 -379h-159l-185 256l-184 -256h-155zM300 558q0 -210 85 -318.5t237 -108.5q150 0 235.5 107.5t85.5 319.5 q0 217 -85 322.5t-236 105.5q-153 0 -237.5 -105.5t-84.5 -322.5z" />
<glyph unicode="&#xf5;" horiz-adv-x="1243" d="M106 558q0 273 139.5 431.5t376.5 158.5q235 0 375 -158.5t140 -431.5t-140 -431t-375 -158q-237 0 -376.5 158t-139.5 431zM207 1309q8 151 79 228t174 77q50 0 96.5 -19.5t88.5 -55.5q47 -41 83.5 -61.5t69.5 -20.5q51 0 79.5 46t31.5 116h129q-11 -152 -77 -229 t-177 -77q-54 0 -100 19.5t-87 56.5q-47 43 -79.5 64.5t-71.5 21.5q-52 0 -78 -45t-30 -121h-131zM300 558q0 -210 85 -318.5t237 -108.5q150 0 235.5 107.5t85.5 319.5q0 217 -85 322.5t-236 105.5q-153 0 -237.5 -105.5t-84.5 -322.5z" />
<glyph unicode="&#xf6;" horiz-adv-x="1243" d="M106 558q0 273 139.5 431.5t376.5 158.5q235 0 375 -158.5t140 -431.5t-140 -431t-375 -158q-237 0 -376.5 158t-139.5 431zM300 558q0 -210 85 -318.5t237 -108.5q150 0 235.5 107.5t85.5 319.5q0 217 -85 322.5t-236 105.5q-153 0 -237.5 -105.5t-84.5 -322.5z M316 1304v195h199v-195h-199zM729 1304v195h199v-195h-199z" />
<glyph unicode="&#xf7;" horiz-adv-x="1676" d="M210 572v160h1256v-160h-1256zM719 7v275h238v-275h-238zM719 1022v275h238v-275h-238z" />
<glyph unicode="&#xf8;" horiz-adv-x="1243" d="M93 -148l171 256q-75 77 -116.5 190t-41.5 260q0 273 139.5 431.5t376.5 158.5q87 0 158 -22t125 -57l116 172h111l-155 -231q76 -76 118 -188t42 -264q0 -273 -140 -431t-375 -158q-84 0 -155.5 21t-130.5 60l-133 -198h-110zM297 558q0 -97 17 -171t52 -128l447 671 q-37 29 -86.5 43.5t-104.5 14.5q-155 0 -240 -110t-85 -320zM429 190q39 -31 86.5 -46t106.5 -15q150 0 237 108.5t87 320.5q0 97 -17.5 173t-51.5 130z" />
<glyph unicode="&#xf9;" horiz-adv-x="1296" d="M177 392v725h188v-636q0 -85 8 -145.5t34 -103.5q27 -44 70 -64t125 -20q73 0 159.5 38t161.5 97v834h188v-1117h-188v124q-95 -75 -182 -115t-192 -40q-176 0 -274 107.5t-98 315.5zM342 1676h243l179 -374h-149z" />
<glyph unicode="&#xfa;" horiz-adv-x="1296" d="M177 392v725h188v-636q0 -85 8 -145.5t34 -103.5q27 -44 70 -64t125 -20q73 0 159.5 38t161.5 97v834h188v-1117h-188v124q-95 -75 -182 -115t-192 -40q-176 0 -274 107.5t-98 315.5zM523 1302l179 374h243l-273 -374h-149z" />
<glyph unicode="&#xfb;" horiz-adv-x="1296" d="M177 392v725h188v-636q0 -85 8 -145.5t34 -103.5q27 -44 70 -64t125 -20q73 0 159.5 38t161.5 97v834h188v-1117h-188v124q-95 -75 -182 -115t-192 -40q-176 0 -274 107.5t-98 315.5zM302 1297l228 379h227l228 -379h-159l-185 256l-184 -256h-155z" />
<glyph unicode="&#xfc;" horiz-adv-x="1296" d="M177 392v725h188v-636q0 -85 8 -145.5t34 -103.5q27 -44 70 -64t125 -20q73 0 159.5 38t161.5 97v834h188v-1117h-188v124q-95 -75 -182 -115t-192 -40q-176 0 -274 107.5t-98 315.5zM343 1304v195h199v-195h-199zM756 1304v195h199v-195h-199z" />
<glyph unicode="&#xfd;" horiz-adv-x="1212" d="M61 1117h204l343 -828l346 828h197l-652 -1529h-201l208 466zM506 1302l179 374h243l-273 -374h-149z" />
<glyph unicode="&#xfe;" horiz-adv-x="1276" d="M185 -412v1968h188v-556q75 63 168.5 105.5t199.5 42.5q202 0 314.5 -152.5t112.5 -423.5q0 -136 -39 -248.5t-110 -190.5q-66 -74 -155.5 -114.5t-189.5 -40.5q-87 0 -157.5 19t-143.5 59v-468h-188zM373 209q80 -36 137.5 -49t130.5 -13q157 0 245 106t88 314 q0 202 -69 302t-212 100q-81 0 -163 -35t-157 -92v-633z" />
<glyph unicode="&#xff;" horiz-adv-x="1212" d="M61 1117h204l343 -828l346 828h197l-652 -1529h-201l208 466zM311 1304v195h199v-195h-199zM724 1304v195h199v-195h-199z" />
<glyph unicode="&#x100;" horiz-adv-x="1400" d="M26 0l542 1489h264l542 -1489h-211l-146 415h-644l-146 -415h-201zM329 1698v154h742v-154h-742zM433 585h523l-261 731z" />
<glyph unicode="&#x101;" horiz-adv-x="1230" d="M104 324q0 127 54.5 205.5t155.5 123.5q102 45 245 61t307 24v29q0 64 -22.5 106t-64.5 66q-40 23 -96 31t-117 8q-74 0 -165 -19.5t-188 -56.5h-10v191q55 15 159 33t205 18q118 0 205.5 -19.5t151.5 -66.5q63 -46 96 -119t33 -181v-758h-187v119q-25 -17 -67.5 -47.5 t-82.5 -48.5q-47 -23 -108 -38.5t-143 -15.5q-151 0 -256 100t-105 255zM241 1335v154h742v-154h-742zM298 337q0 -96 58 -144.5t177 -48.5q99 0 181 38.5t152 92.5v311q-86 -5 -202.5 -15t-184.5 -29q-81 -23 -131 -71.5t-50 -133.5z" />
<glyph unicode="&#x102;" horiz-adv-x="1400" d="M26 0l542 1489h264l542 -1489h-211l-146 415h-644l-146 -415h-201zM324 2049h166q12 -132 65.5 -192t144.5 -60q89 0 142.5 60t67.5 192h165q-10 -168 -108.5 -275t-267.5 -107t-267.5 107t-107.5 275zM433 585h523l-261 731z" />
<glyph unicode="&#x103;" horiz-adv-x="1230" d="M104 324q0 127 54.5 205.5t155.5 123.5q102 45 245 61t307 24v29q0 64 -22.5 106t-64.5 66q-40 23 -96 31t-117 8q-74 0 -165 -19.5t-188 -56.5h-10v191q55 15 159 33t205 18q118 0 205.5 -19.5t151.5 -66.5q63 -46 96 -119t33 -181v-758h-187v119q-25 -17 -67.5 -47.5 t-82.5 -48.5q-47 -23 -108 -38.5t-143 -15.5q-151 0 -256 100t-105 255zM233 1676h166q12 -132 65.5 -192t144.5 -60q89 0 142.5 60t67.5 192h165q-10 -168 -108.5 -275t-267.5 -107t-267.5 107t-107.5 275zM298 337q0 -96 58 -144.5t177 -48.5q99 0 181 38.5t152 92.5v311 q-86 -5 -202.5 -15t-184.5 -29q-81 -23 -131 -71.5t-50 -133.5z" />
<glyph unicode="&#x104;" horiz-adv-x="1400" d="M26 0l542 1489h264l542 -1489h-97q-6 -27 -9.5 -53.5t-3.5 -53.5q0 -82 41.5 -121t131.5 -39q36 0 76.5 13.5t57.5 21.5h8v-159q-52 -14 -89.5 -20t-79.5 -6q-139 0 -223.5 78.5t-84.5 222.5q0 64 15 117t21 74l-121 340h-644l-146 -415h-201zM433 585h523l-261 731z" />
<glyph unicode="&#x105;" horiz-adv-x="1230" d="M104 324q0 127 54.5 205.5t155.5 123.5q102 45 245 61t307 24v29q0 64 -22.5 106t-64.5 66q-40 23 -96 31t-117 8q-74 0 -165 -19.5t-188 -56.5h-10v191q55 15 159 33t205 18q118 0 205.5 -19.5t151.5 -66.5q63 -46 96 -119t33 -181v-758h-29q-6 -27 -9.5 -52t-3.5 -55 q0 -82 41.5 -121t131.5 -39q36 0 76.5 13.5t57.5 21.5h8v-159q-52 -14 -89.5 -20t-79.5 -6q-139 0 -223.5 79t-84.5 222q0 38 6.5 67.5t10.5 48.5v119q-25 -17 -67.5 -47.5t-82.5 -48.5q-47 -23 -108 -38.5t-143 -15.5q-151 0 -256 100t-105 255zM298 337q0 -96 58 -144.5 t177 -48.5q99 0 181 38.5t152 92.5v311q-86 -5 -202.5 -15t-184.5 -29q-81 -23 -131 -71.5t-50 -133.5z" />
<glyph unicode="&#x106;" horiz-adv-x="1430" d="M115 743q0 184 52 329t150 245q95 97 229.5 148t298.5 51q120 0 239.5 -29t265.5 -102v-235h-15q-123 103 -244 150t-259 47q-113 0 -203.5 -36.5t-161.5 -113.5q-69 -75 -107.5 -189.5t-38.5 -264.5q0 -157 42.5 -270t109.5 -184q70 -74 163.5 -109.5t197.5 -35.5 q143 0 268 49t234 147h14v-232q-55 -24 -99.5 -45t-116.5 -44q-61 -19 -132.5 -32.5t-157.5 -13.5q-162 0 -294.5 45.5t-230.5 142.5q-96 95 -150 241.5t-54 340.5zM651 1675l179 374h243l-273 -374h-149z" />
<glyph unicode="&#x107;" horiz-adv-x="1067" d="M105 557q0 274 150.5 430t397.5 156q96 0 188.5 -27t169.5 -66v-209h-10q-86 67 -177.5 103t-178.5 36q-160 0 -252.5 -107.5t-92.5 -315.5q0 -202 90.5 -310.5t254.5 -108.5q57 0 116 15t106 39q41 21 77 44.5t57 40.5h10v-207q-94 -45 -178.5 -70t-179.5 -25 q-121 0 -222 35.5t-173 107.5q-73 72 -113 182t-40 257zM491 1302l179 374h243l-273 -374h-149z" />
<glyph unicode="&#x108;" horiz-adv-x="1430" d="M115 743q0 184 52 329t150 245q95 97 229.5 148t298.5 51q120 0 239.5 -29t265.5 -102v-235h-15q-123 103 -244 150t-259 47q-113 0 -203.5 -36.5t-161.5 -113.5q-69 -75 -107.5 -189.5t-38.5 -264.5q0 -157 42.5 -270t109.5 -184q70 -74 163.5 -109.5t197.5 -35.5 q143 0 268 49t234 147h14v-232q-55 -24 -99.5 -45t-116.5 -44q-61 -19 -132.5 -32.5t-157.5 -13.5q-162 0 -294.5 45.5t-230.5 142.5q-96 95 -150 241.5t-54 340.5zM479 1670l228 379h227l228 -379h-159l-185 256l-184 -256h-155z" />
<glyph unicode="&#x109;" horiz-adv-x="1067" d="M105 557q0 274 150.5 430t397.5 156q96 0 188.5 -27t169.5 -66v-209h-10q-86 67 -177.5 103t-178.5 36q-160 0 -252.5 -107.5t-92.5 -315.5q0 -202 90.5 -310.5t254.5 -108.5q57 0 116 15t106 39q41 21 77 44.5t57 40.5h10v-207q-94 -45 -178.5 -70t-179.5 -25 q-121 0 -222 35.5t-173 107.5q-73 72 -113 182t-40 257zM298 1297l228 379h227l228 -379h-159l-185 256l-184 -256h-155z" />
<glyph unicode="&#x10a;" horiz-adv-x="1430" d="M115 743q0 184 52 329t150 245q95 97 229.5 148t298.5 51q120 0 239.5 -29t265.5 -102v-235h-15q-123 103 -244 150t-259 47q-113 0 -203.5 -36.5t-161.5 -113.5q-69 -75 -107.5 -189.5t-38.5 -264.5q0 -157 42.5 -270t109.5 -184q70 -74 163.5 -109.5t197.5 -35.5 q143 0 268 49t234 147h14v-232q-55 -24 -99.5 -45t-116.5 -44q-61 -19 -132.5 -32.5t-157.5 -13.5q-162 0 -294.5 45.5t-230.5 142.5q-96 95 -150 241.5t-54 340.5zM713 1677v195h212v-195h-212z" />
<glyph unicode="&#x10b;" horiz-adv-x="1067" d="M105 557q0 274 150.5 430t397.5 156q96 0 188.5 -27t169.5 -66v-209h-10q-86 67 -177.5 103t-178.5 36q-160 0 -252.5 -107.5t-92.5 -315.5q0 -202 90.5 -310.5t254.5 -108.5q57 0 116 15t106 39q41 21 77 44.5t57 40.5h10v-207q-94 -45 -178.5 -70t-179.5 -25 q-121 0 -222 35.5t-173 107.5q-73 72 -113 182t-40 257zM534 1304v195h212v-195h-212z" />
<glyph unicode="&#x10c;" horiz-adv-x="1430" d="M115 743q0 184 52 329t150 245q95 97 229.5 148t298.5 51q120 0 239.5 -29t265.5 -102v-235h-15q-123 103 -244 150t-259 47q-113 0 -203.5 -36.5t-161.5 -113.5q-69 -75 -107.5 -189.5t-38.5 -264.5q0 -157 42.5 -270t109.5 -184q70 -74 163.5 -109.5t197.5 -35.5 q143 0 268 49t234 147h14v-232q-55 -24 -99.5 -45t-116.5 -44q-61 -19 -132.5 -32.5t-157.5 -13.5q-162 0 -294.5 45.5t-230.5 142.5q-96 95 -150 241.5t-54 340.5zM474 2049h159l185 -256l184 256h155l-228 -379h-227z" />
<glyph unicode="&#x10d;" horiz-adv-x="1067" d="M105 557q0 274 150.5 430t397.5 156q96 0 188.5 -27t169.5 -66v-209h-10q-86 67 -177.5 103t-178.5 36q-160 0 -252.5 -107.5t-92.5 -315.5q0 -202 90.5 -310.5t254.5 -108.5q57 0 116 15t106 39q41 21 77 44.5t57 40.5h10v-207q-94 -45 -178.5 -70t-179.5 -25 q-121 0 -222 35.5t-173 107.5q-73 72 -113 182t-40 257zM296 1676h159l185 -256l184 256h155l-228 -379h-227z" />
<glyph unicode="&#x10e;" horiz-adv-x="1578" d="M200 0v1489h372q218 0 346.5 -31.5t217.5 -86.5q152 -95 237 -253t85 -375q0 -203 -88.5 -368t-235.5 -256q-102 -63 -227.5 -91t-330.5 -28h-376zM346 2049h159l185 -256l184 256h155l-228 -379h-227zM398 170h186q143 0 249.5 21t195.5 78q111 71 166.5 187t55.5 290 q0 175 -61 295t-182 189q-88 50 -187 69.5t-237 19.5h-186v-1149z" />
<glyph unicode="&#x10f;" horiz-adv-x="1326" d="M108 550q0 142 40.5 253t109.5 189q68 76 158.5 116t187.5 40q88 0 156 -18.5t143 -57.5v484h188v-1556h-188v117q-81 -70 -169 -109t-191 -39q-200 0 -317.5 154t-117.5 427zM302 554q0 -199 68 -302.5t218 -103.5q80 0 162 35.5t153 91.5v641q-76 34 -136 47t-131 13 q-158 0 -246 -110t-88 -312zM1198 1051l152 505h225l-250 -505h-127z" />
<glyph unicode="&#x110;" horiz-adv-x="1588" d="M14 740v143h196v606h372q218 0 347 -31.5t217 -86.5q152 -95 237 -253t85 -375q0 -203 -88.5 -368t-235.5 -256q-102 -63 -227.5 -91t-330.5 -28h-376v740h-196zM406 170h188q143 0 249.5 21t195.5 78q111 71 166.5 187t55.5 290q0 175 -61 295t-182 189 q-88 50 -187 69.5t-237 19.5h-188v-436h361v-143h-361v-570z" />
<glyph unicode="&#x111;" horiz-adv-x="1276" d="M108 544q0 142 41 251.5t109 186.5q68 76 159 115.5t187 39.5q89 0 156 -18t143 -57v206h-363v134h363v154h188v-154h184v-134h-184v-1268h-188v117q-77 -66 -163.5 -107t-196.5 -41q-198 0 -316.5 151t-118.5 424zM302 548q0 -195 67.5 -297.5t218.5 -102.5 q80 0 162 35.5t153 91.5v633q-79 34 -136.5 46t-130.5 12q-156 0 -245 -107t-89 -311z" />
<glyph unicode="&#x112;" horiz-adv-x="1295" d="M200 0v1489h981v-176h-783v-408h783v-176h-783v-553h783v-176h-981zM331 1698v154h742v-154h-742z" />
<glyph unicode="&#x113;" horiz-adv-x="1220" d="M106 552q0 274 149.5 435t393.5 161q226 0 348.5 -132t122.5 -375v-102h-823q0 -103 31 -179.5t85 -125.5q52 -48 123.5 -72t157.5 -24q114 0 229.5 45.5t164.5 89.5h10v-205q-95 -40 -194 -67t-208 -27q-278 0 -434 150.5t-156 427.5zM271 1335v154h742v-154h-742z M297 683h640q-1 148 -74.5 229t-223.5 81q-151 0 -240.5 -89t-101.5 -221z" />
<glyph unicode="&#x114;" horiz-adv-x="1295" d="M200 0v1489h981v-176h-783v-408h783v-176h-783v-553h783v-176h-981zM339 2049h166q12 -132 65.5 -192t144.5 -60q89 0 142.5 60t67.5 192h165q-10 -168 -108.5 -275t-267.5 -107t-267.5 107t-107.5 275z" />
<glyph unicode="&#x115;" horiz-adv-x="1220" d="M106 552q0 274 149.5 435t393.5 161q226 0 348.5 -132t122.5 -375v-102h-823q0 -103 31 -179.5t85 -125.5q52 -48 123.5 -72t157.5 -24q114 0 229.5 45.5t164.5 89.5h10v-205q-95 -40 -194 -67t-208 -27q-278 0 -434 150.5t-156 427.5zM273 1676h166q12 -132 65.5 -192 t144.5 -60q89 0 142.5 60t67.5 192h165q-10 -168 -108.5 -275t-267.5 -107t-267.5 107t-107.5 275zM297 683h640q-1 148 -74.5 229t-223.5 81q-151 0 -240.5 -89t-101.5 -221z" />
<glyph unicode="&#x116;" horiz-adv-x="1295" d="M200 0v1489h981v-176h-783v-408h783v-176h-783v-553h783v-176h-981zM624 1677v195h212v-195h-212z" />
<glyph unicode="&#x117;" horiz-adv-x="1220" d="M106 552q0 274 149.5 435t393.5 161q226 0 348.5 -132t122.5 -375v-102h-823q0 -103 31 -179.5t85 -125.5q52 -48 123.5 -72t157.5 -24q114 0 229.5 45.5t164.5 89.5h10v-205q-95 -40 -194 -67t-208 -27q-278 0 -434 150.5t-156 427.5zM297 683h640q-1 148 -74.5 229 t-223.5 81q-151 0 -240.5 -89t-101.5 -221zM545 1304v195h212v-195h-212z" />
<glyph unicode="&#x118;" horiz-adv-x="1295" d="M200 0v1489h981v-176h-783v-408h783v-176h-783v-553h783v-176h-254q-6 -27 -9.5 -53.5t-3.5 -53.5q0 -82 41.5 -121t131.5 -39q36 0 76.5 13.5t57.5 21.5h8v-159q-52 -14 -89.5 -20t-79.5 -6q-139 0 -223.5 79t-84.5 222q0 36 5.5 61.5t11.5 54.5h-569z" />
<glyph unicode="&#x119;" horiz-adv-x="1220" d="M106 552q0 274 149.5 435t393.5 161q226 0 348.5 -132t122.5 -375v-102h-823q0 -103 31 -179.5t85 -125.5q52 -48 123.5 -72t157.5 -24q114 0 229.5 45.5t164.5 89.5h10v-205q-74 -31 -151.5 -55.5t-158.5 -33.5q-2 -20 -3.5 -44t-1.5 -42q0 -82 41.5 -121t131.5 -39 q36 0 76.5 13.5t57.5 21.5h8v-159q-52 -14 -89.5 -20t-79.5 -6q-139 0 -223.5 79t-84.5 222q0 24 3 49t7 43q-248 18 -386.5 167t-138.5 409zM297 683h640q-1 148 -74.5 229t-223.5 81q-151 0 -240.5 -89t-101.5 -221z" />
<glyph unicode="&#x11a;" horiz-adv-x="1295" d="M200 0v1489h981v-176h-783v-408h783v-176h-783v-553h783v-176h-981zM340 2049h159l185 -256l184 256h155l-228 -379h-227z" />
<glyph unicode="&#x11b;" horiz-adv-x="1220" d="M106 552q0 274 149.5 435t393.5 161q226 0 348.5 -132t122.5 -375v-102h-823q0 -103 31 -179.5t85 -125.5q52 -48 123.5 -72t157.5 -24q114 0 229.5 45.5t164.5 89.5h10v-205q-95 -40 -194 -67t-208 -27q-278 0 -434 150.5t-156 427.5zM297 683h640q-1 148 -74.5 229 t-223.5 81q-151 0 -240.5 -89t-101.5 -221zM303 1676h159l185 -256l184 256h155l-228 -379h-227z" />
<glyph unicode="&#x11c;" horiz-adv-x="1588" d="M115 746q0 357 208.5 563.5t572.5 206.5q127 0 259.5 -30.5t285.5 -103.5v-235h-18q-31 24 -90 63t-116 65q-69 31 -156.5 51.5t-198.5 20.5q-250 0 -395.5 -160.5t-145.5 -434.5q0 -289 152 -449.5t414 -160.5q96 0 191.5 19t167.5 49v365h-399v174h595v-639 q-122 -56 -266.5 -97.5t-279.5 -41.5q-174 0 -319 48t-247 144q-103 97 -159 242.5t-56 340.5zM518 1670l228 379h227l228 -379h-159l-185 256l-184 -256h-155z" />
<glyph unicode="&#x11d;" horiz-adv-x="1276" d="M108 569q0 144 40.5 248.5t110.5 180.5q65 71 158 110.5t185 39.5q97 0 162.5 -19.5t138.5 -59.5l12 48h176v-990q0 -284 -129 -417t-397 -133q-89 0 -173.5 12.5t-166.5 35.5v192h10q46 -18 146 -44.5t200 -26.5q96 0 159 23t98 64q35 39 50 94t15 123v102 q-85 -68 -162.5 -101.5t-197.5 -33.5q-200 0 -317.5 144.5t-117.5 407.5zM302 573q0 -188 66 -285t219 -97q82 0 164.5 31.5t151.5 84.5v609q-75 34 -139.5 48.5t-128.5 14.5q-155 0 -244 -104t-89 -302zM305 1297l228 379h227l228 -379h-159l-185 256l-184 -256h-155z" />
<glyph unicode="&#x11e;" horiz-adv-x="1588" d="M115 746q0 357 208.5 563.5t572.5 206.5q127 0 259.5 -30.5t285.5 -103.5v-235h-18q-31 24 -90 63t-116 65q-69 31 -156.5 51.5t-198.5 20.5q-250 0 -395.5 -160.5t-145.5 -434.5q0 -289 152 -449.5t414 -160.5q96 0 191.5 19t167.5 49v365h-399v174h595v-639 q-122 -56 -266.5 -97.5t-279.5 -41.5q-174 0 -319 48t-247 144q-103 97 -159 242.5t-56 340.5zM482 2049h166q12 -132 65.5 -192t144.5 -60q89 0 142.5 60t67.5 192h165q-10 -168 -108.5 -275t-267.5 -107t-267.5 107t-107.5 275z" />
<glyph unicode="&#x11f;" horiz-adv-x="1276" d="M108 569q0 144 40.5 248.5t110.5 180.5q65 71 158 110.5t185 39.5q97 0 162.5 -19.5t138.5 -59.5l12 48h176v-990q0 -284 -129 -417t-397 -133q-89 0 -173.5 12.5t-166.5 35.5v192h10q46 -18 146 -44.5t200 -26.5q96 0 159 23t98 64q35 39 50 94t15 123v102 q-85 -68 -162.5 -101.5t-197.5 -33.5q-200 0 -317.5 144.5t-117.5 407.5zM273 1676h166q12 -132 65.5 -192t144.5 -60q89 0 142.5 60t67.5 192h165q-10 -168 -108.5 -275t-267.5 -107t-267.5 107t-107.5 275zM302 573q0 -188 66 -285t219 -97q82 0 164.5 31.5t151.5 84.5 v609q-75 34 -139.5 48.5t-128.5 14.5q-155 0 -244 -104t-89 -302z" />
<glyph unicode="&#x120;" horiz-adv-x="1588" d="M115 746q0 357 208.5 563.5t572.5 206.5q127 0 259.5 -30.5t285.5 -103.5v-235h-18q-31 24 -90 63t-116 65q-69 31 -156.5 51.5t-198.5 20.5q-250 0 -395.5 -160.5t-145.5 -434.5q0 -289 152 -449.5t414 -160.5q96 0 191.5 19t167.5 49v365h-399v174h595v-639 q-122 -56 -266.5 -97.5t-279.5 -41.5q-174 0 -319 48t-247 144q-103 97 -159 242.5t-56 340.5zM751 1677v195h212v-195h-212z" />
<glyph unicode="&#x121;" horiz-adv-x="1276" d="M108 569q0 144 40.5 248.5t110.5 180.5q65 71 158 110.5t185 39.5q97 0 162.5 -19.5t138.5 -59.5l12 48h176v-990q0 -284 -129 -417t-397 -133q-89 0 -173.5 12.5t-166.5 35.5v192h10q46 -18 146 -44.5t200 -26.5q96 0 159 23t98 64q35 39 50 94t15 123v102 q-85 -68 -162.5 -101.5t-197.5 -33.5q-200 0 -317.5 144.5t-117.5 407.5zM302 573q0 -188 66 -285t219 -97q82 0 164.5 31.5t151.5 84.5v609q-75 34 -139.5 48.5t-128.5 14.5q-155 0 -244 -104t-89 -302zM534 1304v195h212v-195h-212z" />
<glyph unicode="&#x122;" horiz-adv-x="1588" d="M115 746q0 357 208.5 563.5t572.5 206.5q127 0 259.5 -30.5t285.5 -103.5v-235h-18q-31 24 -90 63t-116 65q-69 31 -156.5 51.5t-198.5 20.5q-250 0 -395.5 -160.5t-145.5 -434.5q0 -289 152 -449.5t414 -160.5q96 0 191.5 19t167.5 49v365h-399v174h595v-639 q-90 -41 -196 -76t-200 -50q1 -14 2.5 -32.5t1.5 -40.5q0 -162 -91.5 -248t-237.5 -86q-37 0 -95 7t-103 19v160h9q26 -10 70 -23t94 -13q104 0 153 39t49 127q0 21 -1.5 42.5t-3.5 36.5q-173 0 -317 47.5t-246 143.5q-103 97 -159 242.5t-56 340.5z" />
<glyph unicode="&#x123;" horiz-adv-x="1276" d="M108 569q0 144 40.5 248.5t110.5 180.5q65 71 158 110.5t185 39.5q97 0 162.5 -19.5t138.5 -59.5l12 48h176v-990q0 -284 -129 -417t-397 -133q-89 0 -173.5 12.5t-166.5 35.5v192h10q46 -18 146 -44.5t200 -26.5q96 0 159 23t98 64q35 39 50 94t15 123v102 q-85 -68 -162.5 -101.5t-197.5 -33.5q-200 0 -317.5 144.5t-117.5 407.5zM302 573q0 -188 66 -285t219 -97q82 0 164.5 31.5t151.5 84.5v609q-75 34 -139.5 48.5t-128.5 14.5q-155 0 -244 -104t-89 -302zM464 1302l273 374h149l-179 -374h-243z" />
<glyph unicode="&#x124;" horiz-adv-x="1539" d="M200 0v1489h198v-584h743v584h198v-1489h-198v729h-743v-729h-198zM428 1670l228 379h227l228 -379h-159l-185 256l-184 -256h-155z" />
<glyph unicode="&#x125;" horiz-adv-x="1296" d="M185 0v1556h188v-563q88 73 182 114t193 41q181 0 276 -109t95 -314v-725h-188v636q0 77 -9 144.5t-33 105.5q-25 42 -72 62.5t-122 20.5q-77 0 -161 -38t-161 -97v-834h-188zM344 1670l228 379h227l228 -379h-159l-185 256l-184 -256h-155z" />
<glyph unicode="&#x126;" horiz-adv-x="1539" d="M32 1109v140h168v240h198v-240h743v240h198v-240h168v-140h-168v-1109h-198v729h-743v-729h-198v1109h-168zM398 905h743v204h-743v-204z" />
<glyph unicode="&#x127;" horiz-adv-x="1296" d="M19 1268v134h166v154h188v-154h321v-134h-321v-275q88 73 182 114t193 41q181 0 276 -109t95 -314v-725h-188v636q0 77 -9 144.5t-33 105.5q-25 42 -72 62.5t-122 20.5q-77 0 -161 -38t-161 -97v-834h-188v1268h-166z" />
<glyph unicode="&#x128;" horiz-adv-x="862" d="M44 1682q3 136 66 219t167 83q51 0 91.5 -18t80.5 -55q42 -40 75.5 -60.5t62.5 -20.5q46 0 70.5 45.5t25.5 116.5h136q-7 -152 -69.5 -227.5t-164.5 -75.5q-52 0 -93.5 18t-79.5 56q-45 43 -75 64t-62 21q-48 0 -70.5 -45.5t-24.5 -120.5h-136zM137 0v152h195v1185h-195 v152h588v-152h-195v-1185h195v-152h-588z" />
<glyph unicode="&#x129;" horiz-adv-x="562" d="M-14 1330q0 129 52 194t130 65q47 0 72 -13.5t57 -44.5q33 -35 55 -52t44 -17q36 0 52.5 36t16.5 98h112q0 -129 -51.5 -194t-131.5 -65q-40 0 -69 13t-59 45q-32 35 -54.5 52t-45.5 17q-35 0 -51.5 -34.5t-16.5 -99.5h-112zM187 0v1117h188v-1117h-188z" />
<glyph unicode="&#x12a;" horiz-adv-x="862" d="M95 1698v154h672v-154h-672zM137 0v152h195v1185h-195v152h588v-152h-195v-1185h195v-152h-588z" />
<glyph unicode="&#x12b;" horiz-adv-x="562" d="M-4 1335v154h570v-154h-570zM187 0v1117h188v-1117h-188z" />
<glyph unicode="&#x12c;" horiz-adv-x="862" d="M128 2003h158q0 -134 34.5 -191t111.5 -57q73 0 109 55t36 193h158q0 -168 -73.5 -271.5t-229.5 -103.5q-153 0 -228.5 103.5t-75.5 271.5zM137 0v152h195v1185h-195v152h588v-152h-195v-1185h195v-152h-588z" />
<glyph unicode="&#x12d;" horiz-adv-x="562" d="M1 1640h146q0 -122 32.5 -175.5t101.5 -53.5q65 0 99 49t34 180h146q0 -154 -69.5 -250t-209.5 -96q-138 0 -209 95t-71 251zM187 0v1117h188v-1117h-188z" />
<glyph unicode="&#x12e;" horiz-adv-x="862" d="M137 0v152h195v1185h-195v152h588v-152h-195v-1185h195v-152h-194q-6 -28 -10.5 -48.5t-4.5 -58.5q0 -81 33 -121t121 -40q33 0 65.5 9.5t51.5 20.5h9v-158q-36 -10 -76.5 -15.5t-74.5 -5.5q-135 0 -212 80t-77 220q0 34 4.5 60.5t11.5 56.5h-235z" />
<glyph unicode="&#x12f;" horiz-adv-x="562" d="M142 -117q0 63 18.5 118.5t26.5 80.5v1035h188v-1117h-60q-6 -26 -9.5 -53t-3.5 -54q0 -81 33 -121t121 -40q33 0 65.5 9.5t51.5 20.5h9v-158q-36 -10 -76.5 -15.5t-74.5 -5.5q-133 0 -211 79t-78 221zM175 1304v195h212v-195h-212z" />
<glyph unicode="&#x130;" horiz-adv-x="862" d="M137 0v152h195v1185h-195v152h588v-152h-195v-1185h195v-152h-588zM325 1677v195h212v-195h-212z" />
<glyph unicode="&#x131;" horiz-adv-x="562" d="M187 0v1117h188v-1117h-188z" />
<glyph unicode="&#x132;" horiz-adv-x="1783" d="M137 0v152h195v1185h-195v152h588v-152h-195v-1185h195v-152h-588zM896 8v185h11q41 -14 101 -29t123 -15q92 0 146.5 21t80.5 60q27 40 34.5 98t7.5 134v869h-315v158h513v-1102q0 -196 -119.5 -302t-320.5 -106q-48 0 -128 8.5t-134 20.5z" />
<glyph unicode="&#x133;" horiz-adv-x="1257" d="M175 1304v195h212v-195h-212zM187 0v1117h188v-1117h-188zM490 -216h10q28 -11 75.5 -25t92.5 -14q72 0 116 20t66 60t28.5 96.5t6.5 137.5v900h-233v158h421v-1144q0 -196 -100 -296t-268 -100q-40 0 -105.5 8t-109.5 20v179zM873 1304v195h212v-195h-212z" />
<glyph unicode="&#x134;" horiz-adv-x="931" d="M44 8v185h11q41 -14 101 -29t123 -15q92 0 146.5 21t80.5 60q27 40 34.5 98t7.5 134v869h-315v158h513v-1102q0 -196 -119.5 -302t-320.5 -106q-48 0 -128 8.5t-134 20.5zM162 1670l228 379h227l228 -379h-159l-185 256l-184 -256h-155z" />
<glyph unicode="&#x135;" horiz-adv-x="705" d="M-62 -216h10q28 -11 75.5 -25t92.5 -14q72 0 116 20t66 60t28.5 96.5t6.5 137.5v900h-233v158h421v-1144q0 -196 -100 -296t-268 -100q-40 0 -105.5 8t-109.5 20v179zM4 1297l228 379h227l228 -379h-159l-185 256l-184 -256h-155z" />
<glyph unicode="&#x136;" horiz-adv-x="1419" d="M205 0v1489h198v-777l723 777h240l-665 -700l696 -789h-257l-589 663l-148 -158v-505h-198zM348 -237h9q26 -10 70 -23t94 -13q104 0 153 39t49 127q0 29 -3 65.5t-6 61.5h153q2 -19 5 -45t3 -64q0 -162 -91.5 -248t-237.5 -86q-37 0 -95 7t-103 19v160z" />
<glyph unicode="&#x137;" horiz-adv-x="1212" d="M193 0v1556h188v-998l543 559h237l-519 -516l557 -601h-248l-448 489l-122 -116v-373h-188zM221 -237h9q26 -10 70 -23t94 -13q104 0 153 39t49 127q0 29 -3 65.5t-6 61.5h153q2 -19 5 -45t3 -64q0 -162 -91.5 -248t-237.5 -86q-37 0 -95 7t-103 19v160z" />
<glyph unicode="&#x138;" horiz-adv-x="1212" d="M193 0v1117h188v-559l543 559h237l-519 -516l557 -601h-248l-448 489l-122 -116v-373h-188z" />
<glyph unicode="&#x139;" horiz-adv-x="1140" d="M200 0v1489h198v-1313h744v-176h-942zM221 1675l179 374h243l-273 -374h-149z" />
<glyph unicode="&#x13a;" horiz-adv-x="562" d="M171 1675l179 374h243l-273 -374h-149zM187 0v1556h188v-1556h-188z" />
<glyph unicode="&#x13b;" horiz-adv-x="1140" d="M200 0v1489h198v-1313h744v-176h-285q2 -18 4 -41.5t2 -47.5q0 -162 -91.5 -248t-237.5 -86q-37 0 -95 7t-103 19v160h9q26 -10 70 -23t94 -13q104 0 153 39t49 127q0 30 -3 61t-5 46h-503z" />
<glyph unicode="&#x13c;" horiz-adv-x="562" d="M5 -239h9q24 -11 63 -22.5t79 -11.5q94 0 135 39.5t41 126.5q0 21 -0.5 46.5t-2.5 60.5h-142v1556h188v-1536h108q1 -18 3.5 -45.5t2.5 -63.5q0 -162 -87 -248t-220 -86q-37 0 -87 6t-90 18v160z" />
<glyph unicode="&#x13d;" horiz-adv-x="1140" d="M200 0v1489h198v-1313h744v-176h-942zM570 1051l152 505h225l-250 -505h-127z" />
<glyph unicode="&#x13e;" horiz-adv-x="606" d="M187 0v1556h188v-1556h-188zM475 1051l152 505h225l-250 -505h-127z" />
<glyph unicode="&#x13f;" horiz-adv-x="1140" d="M200 0v1489h198v-1313h744v-176h-942zM753 519v267h233v-267h-233z" />
<glyph unicode="&#x140;" horiz-adv-x="939" d="M187 0v1556h188v-1556h-188zM635 520v265h231v-265h-231z" />
<glyph unicode="&#x141;" horiz-adv-x="1150" d="M24 383v163l186 149v794h198v-648l349 283v-163l-349 -280v-505h744v-176h-942v535z" />
<glyph unicode="&#x142;" horiz-adv-x="582" d="M24 467v159l173 138v792h188v-655l181 148v-159l-181 -145v-745h-188v608z" />
<glyph unicode="&#x143;" horiz-adv-x="1532" d="M200 0v1489h307l644 -1216v1216h185v-1489h-245l-706 1332v-1332h-185zM661 1675l179 374h243l-273 -374h-149z" />
<glyph unicode="&#x144;" horiz-adv-x="1296" d="M185 0v1117h188v-124q88 73 182 114t193 41q181 0 276 -109t95 -314v-725h-188v636q0 77 -9 144.5t-33 105.5q-25 42 -72 62.5t-122 20.5q-77 0 -161 -38t-161 -97v-834h-188zM541 1302l179 374h243l-273 -374h-149z" />
<glyph unicode="&#x145;" horiz-adv-x="1532" d="M200 0v1489h307l644 -1216v1216h185v-1489h-245l-706 1332v-1332h-185zM351 -237h9q26 -10 70 -23t94 -13q104 0 153 39t49 127q0 29 -3 65.5t-6 61.5h153q2 -19 5 -45t3 -64q0 -162 -91.5 -248t-237.5 -86q-37 0 -95 7t-103 19v160z" />
<glyph unicode="&#x146;" horiz-adv-x="1296" d="M185 0v1117h188v-124q88 73 182 114t193 41q181 0 276 -109t95 -314v-725h-188v636q0 77 -9 144.5t-33 105.5q-25 42 -72 62.5t-122 20.5q-77 0 -161 -38t-161 -97v-834h-188zM236 -237h9q26 -10 70 -23t94 -13q104 0 153 39t49 127q0 29 -3 65.5t-6 61.5h153 q2 -19 5 -45t3 -64q0 -162 -91.5 -248t-237.5 -86q-37 0 -95 7t-103 19v160z" />
<glyph unicode="&#x147;" horiz-adv-x="1532" d="M200 0v1489h307l644 -1216v1216h185v-1489h-245l-706 1332v-1332h-185zM468 2049h159l185 -256l184 256h155l-228 -379h-227z" />
<glyph unicode="&#x148;" horiz-adv-x="1296" d="M185 0v1117h188v-124q88 73 182 114t193 41q181 0 276 -109t95 -314v-725h-188v636q0 77 -9 144.5t-33 105.5q-25 42 -72 62.5t-122 20.5q-77 0 -161 -38t-161 -97v-834h-188zM334 1676h159l185 -256l184 256h155l-228 -379h-227z" />
<glyph unicode="&#x149;" horiz-adv-x="1496" d="M0 997l165 559h244l-271 -559h-138zM385 0v1117h188v-124q88 73 182 114t193 41q181 0 276 -109t95 -314v-725h-188v636q0 77 -9 144.5t-33 105.5q-25 42 -72 62.5t-122 20.5q-77 0 -161 -38t-161 -97v-834h-188z" />
<glyph unicode="&#x14a;" horiz-adv-x="1532" d="M200 0v1489h307l644 -1120v1120h185v-1512q0 -191 -103 -295.5t-283 -104.5q-39 0 -79.5 4t-77.5 10v168h11q22 -5 51 -10t59 -5q127 0 182.5 54t55.5 192l-767 1342v-1332h-185z" />
<glyph unicode="&#x14b;" horiz-adv-x="1296" d="M185 0v1117h188v-124q88 73 182 114t193 41q181 0 276 -109t95 -314v-753q0 -191 -102 -293t-282 -102q-39 0 -78 3.5t-77 9.5v168h11q22 -5 52 -10t56 -5q76 0 124.5 19t71.5 57q22 38 29 91t7 139v587q0 77 -9 144.5t-33 105.5q-25 42 -72 62.5t-122 20.5 q-77 0 -161 -38t-161 -97v-834h-188z" />
<glyph unicode="&#x14c;" horiz-adv-x="1612" d="M115 744q0 182 48 326.5t140 247.5q88 98 218.5 150t284.5 52q160 0 287.5 -52.5t216.5 -149.5q91 -100 139.5 -245t48.5 -329t-49.5 -329.5t-138.5 -242.5q-92 -101 -217.5 -152t-286.5 -51q-157 0 -285.5 52t-218.5 151t-138.5 243t-48.5 329zM321 744 q0 -293 132 -448.5t354 -155.5t353.5 155.5t131.5 448.5q0 290 -130 447.5t-355 157.5q-227 0 -356.5 -157.5t-129.5 -447.5zM435 1708v154h742v-154h-742z" />
<glyph unicode="&#x14d;" horiz-adv-x="1243" d="M106 558q0 273 139.5 431.5t376.5 158.5q235 0 375 -158.5t140 -431.5t-140 -431t-375 -158q-237 0 -376.5 158t-139.5 431zM251 1335v154h742v-154h-742zM300 558q0 -210 85 -318.5t237 -108.5q150 0 235.5 107.5t85.5 319.5q0 217 -85 322.5t-236 105.5 q-153 0 -237.5 -105.5t-84.5 -322.5z" />
<glyph unicode="&#x14e;" horiz-adv-x="1612" d="M115 744q0 182 48 326.5t140 247.5q88 98 218.5 150t284.5 52q160 0 287.5 -52.5t216.5 -149.5q91 -100 139.5 -245t48.5 -329t-49.5 -329.5t-138.5 -242.5q-92 -101 -217.5 -152t-286.5 -51q-157 0 -285.5 52t-218.5 151t-138.5 243t-48.5 329zM321 744 q0 -293 132 -448.5t354 -155.5t353.5 155.5t131.5 448.5q0 290 -130 447.5t-355 157.5q-227 0 -356.5 -157.5t-129.5 -447.5zM431 2049h166q12 -132 65.5 -192t144.5 -60q89 0 142.5 60t67.5 192h165q-10 -168 -108.5 -275t-267.5 -107t-267.5 107t-107.5 275z" />
<glyph unicode="&#x14f;" horiz-adv-x="1243" d="M106 558q0 273 139.5 431.5t376.5 158.5q235 0 375 -158.5t140 -431.5t-140 -431t-375 -158q-237 0 -376.5 158t-139.5 431zM247 1676h166q12 -132 65.5 -192t144.5 -60q89 0 142.5 60t67.5 192h165q-10 -168 -108.5 -275t-267.5 -107t-267.5 107t-107.5 275zM300 558 q0 -210 85 -318.5t237 -108.5q150 0 235.5 107.5t85.5 319.5q0 217 -85 322.5t-236 105.5q-153 0 -237.5 -105.5t-84.5 -322.5z" />
<glyph unicode="&#x150;" horiz-adv-x="1612" d="M115 744q0 182 48 326.5t140 247.5q88 98 218.5 150t284.5 52q160 0 287.5 -52.5t216.5 -149.5q91 -100 139.5 -245t48.5 -329t-49.5 -329.5t-138.5 -242.5q-92 -101 -217.5 -152t-286.5 -51q-157 0 -285.5 52t-218.5 151t-138.5 243t-48.5 329zM321 744 q0 -293 132 -448.5t354 -155.5t353.5 155.5t131.5 448.5q0 290 -130 447.5t-355 157.5q-227 0 -356.5 -157.5t-129.5 -447.5zM482 1675l169 374h228l-258 -374h-139zM886 1675l169 374h228l-258 -374h-139z" />
<glyph unicode="&#x151;" horiz-adv-x="1243" d="M106 558q0 273 139.5 431.5t376.5 158.5q235 0 375 -158.5t140 -431.5t-140 -431t-375 -158q-237 0 -376.5 158t-139.5 431zM300 558q0 -210 85 -318.5t237 -108.5q150 0 235.5 107.5t85.5 319.5q0 217 -85 322.5t-236 105.5q-153 0 -237.5 -105.5t-84.5 -322.5z M302 1302l169 374h228l-258 -374h-139zM706 1302l169 374h228l-258 -374h-139z" />
<glyph unicode="&#x152;" horiz-adv-x="2191" d="M120 743q0 215 87 373t239 254q79 51 203.5 85t356.5 34h1070v-176h-763v-408h763v-176h-763v-553h763v-176h-1074q-196 0 -325.5 27t-232.5 92q-145 91 -234.5 254t-89.5 370zM327 746q0 -171 56.5 -290t165.5 -187q91 -57 195 -77t250 -20h122v1145h-122 q-146 0 -236.5 -16t-185.5 -70q-116 -66 -180.5 -190t-64.5 -295z" />
<glyph unicode="&#x153;" horiz-adv-x="2010" d="M106 558q0 277 139.5 433.5t366.5 156.5q140 0 240 -60.5t168 -174.5q71 106 178.5 170.5t250.5 64.5q225 0 343 -134t118 -373v-102h-804q0 -104 30 -180t82 -125t122.5 -72.5t152.5 -23.5q109 0 211.5 39.5t172.5 95.5h12v-205q-98 -42 -193.5 -68t-200.5 -26 q-168 0 -284 61t-190 165q-69 -111 -173.5 -171t-235.5 -60q-233 0 -369.5 158t-136.5 431zM300 558q0 -212 83.5 -319.5t229.5 -107.5t228.5 106.5t82.5 320.5q0 215 -82 321.5t-229 106.5q-153 0 -233 -112t-80 -316zM1108 683h619q-3 155 -75.5 232.5t-213.5 77.5 q-139 0 -226.5 -82t-103.5 -228z" />
<glyph unicode="&#x154;" horiz-adv-x="1424" d="M200 0v1489h417q135 0 225 -17.5t162 -62.5q81 -51 126.5 -128.5t45.5 -196.5q0 -161 -81 -269.5t-223 -163.5l560 -651h-257l-498 592h-279v-592h-198zM398 757h200q94 0 164 16.5t119 61.5q45 42 66.5 96.5t21.5 138.5q0 64 -22.5 113.5t-74.5 83.5q-43 29 -102 40.5 t-139 11.5h-233v-562zM531 1675l179 374h243l-273 -374h-149z" />
<glyph unicode="&#x155;" horiz-adv-x="874" d="M185 0v1117h188v-165q112 90 197.5 127.5t174.5 37.5q49 0 71 -2.5t66 -9.5v-193h-10q-42 10 -81.5 14.5t-93.5 4.5q-87 0 -168 -38.5t-156 -99.5v-793h-188zM341 1302l179 374h243l-273 -374h-149z" />
<glyph unicode="&#x156;" horiz-adv-x="1424" d="M200 0v1489h417q135 0 225 -17.5t162 -62.5q81 -51 126.5 -128.5t45.5 -196.5q0 -161 -81 -269.5t-223 -163.5l560 -651h-257l-498 592h-279v-592h-198zM343 -237h9q26 -10 70 -23t94 -13q104 0 153 39t49 127q0 29 -3 65.5t-6 61.5h153q2 -19 5 -45t3 -64 q0 -162 -91.5 -248t-237.5 -86q-37 0 -95 7t-103 19v160zM398 757h200q94 0 164 16.5t119 61.5q45 42 66.5 96.5t21.5 138.5q0 64 -22.5 113.5t-74.5 83.5q-43 29 -102 40.5t-139 11.5h-233v-562z" />
<glyph unicode="&#x157;" horiz-adv-x="874" d="M27 -239h9q24 -11 63 -22.5t79 -11.5q94 0 135 39.5t41 126.5q0 21 -0.5 46.5t-2.5 60.5h-166v1117h188v-165q112 90 197.5 127.5t174.5 37.5q49 0 71 -2.5t66 -9.5v-193h-10q-42 10 -81.5 14.5t-93.5 4.5q-87 0 -168 -38.5t-156 -99.5v-773h132q1 -18 3.5 -45.5 t2.5 -63.5q0 -162 -87 -248t-220 -86q-37 0 -87 6t-90 18v160z" />
<glyph unicode="&#x158;" horiz-adv-x="1424" d="M200 0v1489h417q135 0 225 -17.5t162 -62.5q81 -51 126.5 -128.5t45.5 -196.5q0 -161 -81 -269.5t-223 -163.5l560 -651h-257l-498 592h-279v-592h-198zM316 2049h159l185 -256l184 256h155l-228 -379h-227zM398 757h200q94 0 164 16.5t119 61.5q45 42 66.5 96.5 t21.5 138.5q0 64 -22.5 113.5t-74.5 83.5q-43 29 -102 40.5t-139 11.5h-233v-562z" />
<glyph unicode="&#x159;" horiz-adv-x="874" d="M146 1676h159l185 -256l184 256h155l-228 -379h-227zM185 0v1117h188v-165q112 90 197.5 127.5t174.5 37.5q49 0 71 -2.5t66 -9.5v-193h-10q-42 10 -81.5 14.5t-93.5 4.5q-87 0 -168 -38.5t-156 -99.5v-793h-188z" />
<glyph unicode="&#x15a;" horiz-adv-x="1400" d="M134 92v248h14q113 -94 261 -145t278 -51q184 0 286.5 69t102.5 184q0 99 -48.5 146t-147.5 73q-75 20 -162.5 33t-185.5 33q-198 42 -293.5 143.5t-95.5 264.5q0 187 158 306.5t401 119.5q157 0 288 -30t232 -74v-234h-14q-85 72 -223.5 119.5t-283.5 47.5 q-159 0 -255.5 -66t-96.5 -170q0 -93 48 -146t169 -81q64 -14 182 -34t200 -41q166 -44 250 -133t84 -249q0 -87 -40.5 -172t-113.5 -144q-80 -64 -186.5 -100t-256.5 -36q-161 0 -289.5 30t-261.5 89zM561 1675l179 374h243l-273 -374h-149z" />
<glyph unicode="&#x15b;" horiz-adv-x="1067" d="M110 67v211h10q89 -67 198 -106.5t209 -39.5q124 0 194 40t70 126q0 66 -38 100t-146 58q-40 9 -104.5 21t-117.5 26q-147 39 -208.5 114.5t-61.5 185.5q0 69 28.5 130t86.5 109q56 47 142.5 74.5t193.5 27.5q100 0 202.5 -24.5t170.5 -59.5v-201h-10q-72 53 -175 89.5 t-202 36.5q-103 0 -174 -39.5t-71 -117.5q0 -69 43 -104q42 -35 136 -57q52 -12 116.5 -24t107.5 -22q131 -30 202 -103q71 -74 71 -196q0 -153 -126.5 -251t-345.5 -98q-124 0 -227.5 29.5t-173.5 64.5zM433 1302l179 374h243l-273 -374h-149z" />
<glyph unicode="&#x15c;" horiz-adv-x="1400" d="M134 92v248h14q113 -94 261 -145t278 -51q184 0 286.5 69t102.5 184q0 99 -48.5 146t-147.5 73q-75 20 -162.5 33t-185.5 33q-198 42 -293.5 143.5t-95.5 264.5q0 187 158 306.5t401 119.5q157 0 288 -30t232 -74v-234h-14q-85 72 -223.5 119.5t-283.5 47.5 q-159 0 -255.5 -66t-96.5 -170q0 -93 48 -146t169 -81q64 -14 182 -34t200 -41q166 -44 250 -133t84 -249q0 -87 -40.5 -172t-113.5 -144q-80 -64 -186.5 -100t-256.5 -36q-161 0 -289.5 30t-261.5 89zM384 1670l228 379h227l228 -379h-159l-185 256l-184 -256h-155z" />
<glyph unicode="&#x15d;" horiz-adv-x="1067" d="M110 67v211h10q89 -67 198 -106.5t209 -39.5q124 0 194 40t70 126q0 66 -38 100t-146 58q-40 9 -104.5 21t-117.5 26q-147 39 -208.5 114.5t-61.5 185.5q0 69 28.5 130t86.5 109q56 47 142.5 74.5t193.5 27.5q100 0 202.5 -24.5t170.5 -59.5v-201h-10q-72 53 -175 89.5 t-202 36.5q-103 0 -174 -39.5t-71 -117.5q0 -69 43 -104q42 -35 136 -57q52 -12 116.5 -24t107.5 -22q131 -30 202 -103q71 -74 71 -196q0 -153 -126.5 -251t-345.5 -98q-124 0 -227.5 29.5t-173.5 64.5zM229 1297l228 379h227l228 -379h-159l-185 256l-184 -256h-155z" />
<glyph unicode="&#x15e;" horiz-adv-x="1400" d="M134 92v248h14q113 -94 261 -145t278 -51q184 0 286.5 69t102.5 184q0 99 -48.5 146t-147.5 73q-75 20 -162.5 33t-185.5 33q-198 42 -293.5 143.5t-95.5 264.5q0 187 158 306.5t401 119.5q157 0 288 -30t232 -74v-234h-14q-85 72 -223.5 119.5t-283.5 47.5 q-159 0 -255.5 -66t-96.5 -170q0 -93 48 -146t169 -81q64 -14 182 -34t200 -41q166 -44 250 -133t84 -249q0 -87 -40.5 -172t-113.5 -144q-44 -35 -96 -62.5t-114 -44.5q3 -22 4.5 -44t1.5 -47q0 -157 -89.5 -245.5t-243.5 -88.5q-37 0 -95 7t-103 19v162h9q26 -10 67 -24 t97 -14q104 0 153 39t49 127q0 24 -1.5 44.5t-3.5 38.5q-20 -1 -38.5 -2t-39.5 -1q-161 0 -289.5 30t-261.5 89z" />
<glyph unicode="&#x15f;" horiz-adv-x="1067" d="M110 67v211h10q89 -67 198 -106.5t209 -39.5q124 0 194 40t70 126q0 66 -38 100t-146 58q-40 9 -104.5 21t-117.5 26q-147 39 -208.5 114.5t-61.5 185.5q0 69 28.5 130t86.5 109q56 47 142.5 74.5t193.5 27.5q100 0 202.5 -24.5t170.5 -59.5v-201h-10q-72 53 -175 89.5 t-202 36.5q-103 0 -174 -39.5t-71 -117.5q0 -69 43 -104q42 -35 136 -57q52 -12 116.5 -24t107.5 -22q131 -30 202 -103q71 -74 71 -196q0 -107 -63.5 -188.5t-174.5 -123.5q2 -19 4.5 -46t2.5 -53q0 -162 -91.5 -248t-237.5 -86q-37 0 -95 7t-103 19v160h9q26 -10 70 -23 t94 -13q104 0 153 39t49 127q0 24 -1.5 46.5t-3.5 37.5q-21 -2 -41 -3t-43 -1q-124 0 -227.5 29.5t-173.5 64.5z" />
<glyph unicode="&#x160;" horiz-adv-x="1400" d="M134 92v248h14q113 -94 261 -145t278 -51q184 0 286.5 69t102.5 184q0 99 -48.5 146t-147.5 73q-75 20 -162.5 33t-185.5 33q-198 42 -293.5 143.5t-95.5 264.5q0 187 158 306.5t401 119.5q157 0 288 -30t232 -74v-234h-14q-85 72 -223.5 119.5t-283.5 47.5 q-159 0 -255.5 -66t-96.5 -170q0 -93 48 -146t169 -81q64 -14 182 -34t200 -41q166 -44 250 -133t84 -249q0 -87 -40.5 -172t-113.5 -144q-80 -64 -186.5 -100t-256.5 -36q-161 0 -289.5 30t-261.5 89zM383 2049h159l185 -256l184 256h155l-228 -379h-227z" />
<glyph unicode="&#x161;" horiz-adv-x="1067" d="M110 67v211h10q89 -67 198 -106.5t209 -39.5q124 0 194 40t70 126q0 66 -38 100t-146 58q-40 9 -104.5 21t-117.5 26q-147 39 -208.5 114.5t-61.5 185.5q0 69 28.5 130t86.5 109q56 47 142.5 74.5t193.5 27.5q100 0 202.5 -24.5t170.5 -59.5v-201h-10q-72 53 -175 89.5 t-202 36.5q-103 0 -174 -39.5t-71 -117.5q0 -69 43 -104q42 -35 136 -57q52 -12 116.5 -24t107.5 -22q131 -30 202 -103q71 -74 71 -196q0 -153 -126.5 -251t-345.5 -98q-124 0 -227.5 29.5t-173.5 64.5zM224 1676h159l185 -256l184 256h155l-228 -379h-227z" />
<glyph unicode="&#x162;" horiz-adv-x="1262" d="M0 1313v176h1262v-176h-532v-1276q3 -20 7.5 -56t4.5 -70q0 -162 -91.5 -248t-237.5 -86q-37 0 -95 7t-103 19v160h9q26 -10 70 -23t94 -13q104 0 153 39t49 127q0 30 -2.5 57t-5.5 50h-50v1313h-532z" />
<glyph unicode="&#x163;" horiz-adv-x="807" d="M62 959v158h127v321h188v-321h388v-158h-388v-509q0 -88 4 -137.5t28 -92.5q22 -40 60.5 -58.5t117.5 -18.5q46 0 96 13.5t72 22.5h10v-169l-26 -6.5t-30 -6.5q2 -18 4 -40t2 -46q0 -162 -91.5 -248t-237.5 -86q-37 0 -95 7t-103 19v160h9q26 -10 70 -23t94 -13 q104 0 153 39t49 127q0 23 -1.5 46.5t-3.5 39.5h-20q-171 0 -260 91.5t-89 294.5v594h-127z" />
<glyph unicode="&#x164;" horiz-adv-x="1262" d="M0 1313v176h1262v-176h-532v-1313h-198v1313h-532zM288 2049h159l185 -256l184 256h155l-228 -379h-227z" />
<glyph unicode="&#x165;" horiz-adv-x="807" d="M62 959v158h127v321h188v-321h388v-158h-388v-509q0 -88 4 -137.5t28 -92.5q22 -40 60.5 -58.5t117.5 -18.5q46 0 96 13.5t72 22.5h10v-169q-53 -14 -115.5 -23t-111.5 -9q-171 0 -260 92t-89 295v594h-127zM513 1302l152 495h225l-250 -495h-127z" />
<glyph unicode="&#x166;" horiz-adv-x="1262" d="M0 1313v176h1262v-176h-532v-430h332v-143h-332v-740h-198v740h-332v143h332v430h-532z" />
<glyph unicode="&#x167;" horiz-adv-x="807" d="M62 533v134h127v292h-127v158h127v321h188v-321h388v-158h-388v-292h301v-134h-301v-83q0 -88 4 -137.5t28 -92.5q22 -40 60.5 -58.5t117.5 -18.5q46 0 96 13.5t72 22.5h10v-169q-53 -14 -115.5 -23t-111.5 -9q-171 0 -260 92t-89 295v168h-127z" />
<glyph unicode="&#x168;" horiz-adv-x="1499" d="M178 598v891h198v-901q0 -121 16.5 -191t55.5 -127q44 -65 119.5 -98t181.5 -33q107 0 182 32.5t120 98.5q39 57 55.5 130.5t16.5 182.5v906h198v-891q0 -162 -35.5 -282.5t-116.5 -200.5q-77 -76 -180 -111t-240 -35q-140 0 -244 37t-175 109q-81 82 -116.5 198 t-35.5 285zM334 1682q8 151 79 228t174 77q50 0 96.5 -19.5t88.5 -55.5q47 -41 83.5 -61.5t69.5 -20.5q51 0 79.5 46t31.5 116h129q-11 -152 -77 -229t-177 -77q-54 0 -100 19.5t-87 56.5q-47 43 -79.5 64.5t-71.5 21.5q-52 0 -78 -45t-30 -121h-131z" />
<glyph unicode="&#x169;" horiz-adv-x="1296" d="M177 392v725h188v-636q0 -85 8 -145.5t34 -103.5q27 -44 70 -64t125 -20q73 0 159.5 38t161.5 97v834h188v-1117h-188v124q-95 -75 -182 -115t-192 -40q-176 0 -274 107.5t-98 315.5zM243 1309q8 151 79 228t174 77q50 0 96.5 -19.5t88.5 -55.5q47 -41 83.5 -61.5 t69.5 -20.5q51 0 79.5 46t31.5 116h129q-11 -152 -77 -229t-177 -77q-54 0 -100 19.5t-87 56.5q-47 43 -79.5 64.5t-71.5 21.5q-52 0 -78 -45t-30 -121h-131z" />
<glyph unicode="&#x16a;" horiz-adv-x="1499" d="M178 598v891h198v-901q0 -121 16.5 -191t55.5 -127q44 -65 119.5 -98t181.5 -33q107 0 182 32.5t120 98.5q39 57 55.5 130.5t16.5 182.5v906h198v-891q0 -162 -35.5 -282.5t-116.5 -200.5q-77 -76 -180 -111t-240 -35q-140 0 -244 37t-175 109q-81 82 -116.5 198 t-35.5 285zM379 1708v154h742v-154h-742z" />
<glyph unicode="&#x16b;" horiz-adv-x="1296" d="M177 392v725h188v-636q0 -85 8 -145.5t34 -103.5q27 -44 70 -64t125 -20q73 0 159.5 38t161.5 97v834h188v-1117h-188v124q-95 -75 -182 -115t-192 -40q-176 0 -274 107.5t-98 315.5zM281 1335v154h742v-154h-742z" />
<glyph unicode="&#x16c;" horiz-adv-x="1499" d="M178 598v891h198v-901q0 -121 16.5 -191t55.5 -127q44 -65 119.5 -98t181.5 -33q107 0 182 32.5t120 98.5q39 57 55.5 130.5t16.5 182.5v906h198v-891q0 -162 -35.5 -282.5t-116.5 -200.5q-77 -76 -180 -111t-240 -35q-140 0 -244 37t-175 109q-81 82 -116.5 198 t-35.5 285zM374 2049h166q12 -132 65.5 -192t144.5 -60q89 0 142.5 60t67.5 192h165q-10 -168 -108.5 -275t-267.5 -107t-267.5 107t-107.5 275z" />
<glyph unicode="&#x16d;" horiz-adv-x="1291" d="M177 392v725h188v-636q0 -85 8 -145.5t34 -103.5q27 -44 70 -64t125 -20q73 0 159.5 38t161.5 97v834h188v-1117h-188v124q-95 -75 -182 -115t-192 -40q-176 0 -274 107.5t-98 315.5zM276 1676h166q12 -132 65.5 -192t144.5 -60q89 0 142.5 60t67.5 192h165 q-10 -168 -108.5 -275t-267.5 -107t-267.5 107t-107.5 275z" />
<glyph unicode="&#x16e;" horiz-adv-x="1499" d="M178 598v891h198v-901q0 -121 16.5 -191t55.5 -127q44 -65 119.5 -98t181.5 -33q107 0 182 32.5t120 98.5q39 57 55.5 130.5t16.5 182.5v906h198v-891q0 -162 -35.5 -282.5t-116.5 -200.5q-77 -76 -180 -111t-240 -35q-140 0 -244 37t-175 109q-81 82 -116.5 198 t-35.5 285zM400 1710q0 143 102 241t248 98q147 0 248.5 -98t101.5 -241t-102 -242t-248 -99q-144 0 -247 98.5t-103 242.5zM545 1710q0 -87 59 -146t146 -59q88 0 146.5 59t58.5 146q0 86 -58.5 145.5t-146.5 59.5t-146.5 -59t-58.5 -146z" />
<glyph unicode="&#x16f;" horiz-adv-x="1296" d="M177 392v725h188v-636q0 -85 8 -145.5t34 -103.5q27 -44 70 -64t125 -20q73 0 159.5 38t161.5 97v834h188v-1117h-188v124q-95 -75 -182 -115t-192 -40q-176 0 -274 107.5t-98 315.5zM301 1630q0 143 102 241t248 98q147 0 248.5 -98t101.5 -241t-102 -242t-248 -99 q-144 0 -247 98.5t-103 242.5zM446 1630q0 -87 59 -146t146 -59q88 0 146.5 59t58.5 146q0 86 -58.5 145.5t-146.5 59.5t-146.5 -59t-58.5 -146z" />
<glyph unicode="&#x170;" horiz-adv-x="1499" d="M178 598v891h198v-901q0 -121 16.5 -191t55.5 -127q44 -65 119.5 -98t181.5 -33q107 0 182 32.5t120 98.5q39 57 55.5 130.5t16.5 182.5v906h198v-891q0 -162 -35.5 -282.5t-116.5 -200.5q-77 -76 -180 -111t-240 -35q-140 0 -244 37t-175 109q-81 82 -116.5 198 t-35.5 285zM462 1675l169 374h228l-258 -374h-139zM866 1675l169 374h228l-258 -374h-139z" />
<glyph unicode="&#x171;" horiz-adv-x="1296" d="M177 392v725h188v-636q0 -85 8 -145.5t34 -103.5q27 -44 70 -64t125 -20q73 0 159.5 38t161.5 97v834h188v-1117h-188v124q-95 -75 -182 -115t-192 -40q-176 0 -274 107.5t-98 315.5zM352 1302l169 374h228l-258 -374h-139zM756 1302l169 374h228l-258 -374h-139z" />
<glyph unicode="&#x172;" horiz-adv-x="1499" d="M178 598v891h198v-901q0 -121 16.5 -191t55.5 -127q44 -65 119.5 -98t181.5 -33q107 0 182 32.5t120 98.5q39 57 55.5 130.5t16.5 182.5v906h198v-891q0 -162 -35.5 -282.5t-116.5 -200.5q-45 -44 -97 -73.5t-113 -45.5q-4 -20 -6.5 -50t-2.5 -53q0 -82 41.5 -121 t131.5 -39q36 0 76.5 13.5t57.5 21.5h8v-159q-52 -14 -89.5 -20t-79.5 -6q-140 0 -224 79.5t-84 221.5q0 26 2.5 45.5t7.5 41.5q-9 0 -21.5 -0.5t-27.5 -0.5q-140 0 -244 36.5t-175 108.5q-81 82 -116.5 198t-35.5 285z" />
<glyph unicode="&#x173;" horiz-adv-x="1291" d="M177 392v725h188v-636q0 -85 8 -145.5t34 -103.5q27 -44 70 -64t125 -20q73 0 159.5 38t161.5 97v834h188v-1117h-30q-6 -27 -9.5 -53.5t-3.5 -53.5q0 -82 41.5 -121t131.5 -39q36 0 76.5 13.5t57.5 21.5h8v-159q-52 -14 -89.5 -20t-79.5 -6q-140 0 -224 80t-84 221 q0 36 5.5 61.5t11.5 54.5v124q-95 -75 -182 -115t-192 -40q-176 0 -274 107.5t-98 315.5z" />
<glyph unicode="&#x174;" horiz-adv-x="2025" d="M92 1489h203l313 -1238l308 1238h201l311 -1250l311 1250h194l-387 -1489h-223l-313 1236l-306 -1236h-218zM671 1670l228 379h227l228 -379h-159l-185 256l-184 -256h-155z" />
<glyph unicode="&#x175;" horiz-adv-x="1676" d="M86 1117h196l205 -865l279 865h155l286 -865l194 865h189l-291 -1117h-174l-287 861l-285 -861h-173zM497 1297l228 379h227l228 -379h-159l-185 256l-184 -256h-155z" />
<glyph unicode="&#x176;" horiz-adv-x="1260" d="M6 1489h219l407 -666l411 666h211l-524 -836v-653h-198v632zM292 1670l228 379h227l228 -379h-159l-185 256l-184 -256h-155z" />
<glyph unicode="&#x177;" horiz-adv-x="1212" d="M61 1117h204l343 -828l346 828h197l-652 -1529h-201l208 466zM275 1297l228 379h227l228 -379h-159l-185 256l-184 -256h-155z" />
<glyph unicode="&#x178;" horiz-adv-x="1260" d="M6 1489h219l407 -666l411 666h211l-524 -836v-653h-198v632zM327 1677v195h199v-195h-199zM740 1677v195h199v-195h-199z" />
<glyph unicode="&#x179;" horiz-adv-x="1403" d="M126 0v184l913 1129h-879v176h1106v-179l-922 -1134h944v-176h-1162zM548 1675l179 374h243l-273 -374h-149z" />
<glyph unicode="&#x17a;" horiz-adv-x="1076" d="M93 0v139l651 821h-637v157h871v-134l-654 -824h671v-159h-902zM389 1302l179 374h243l-273 -374h-149z" />
<glyph unicode="&#x17b;" horiz-adv-x="1403" d="M126 0v184l913 1129h-879v176h1106v-179l-922 -1134h944v-176h-1162zM602 1677v195h212v-195h-212z" />
<glyph unicode="&#x17c;" horiz-adv-x="1076" d="M93 0v139l651 821h-637v157h871v-134l-654 -824h671v-159h-902zM435 1304v195h212v-195h-212z" />
<glyph unicode="&#x17d;" horiz-adv-x="1403" d="M126 0v184l913 1129h-879v176h1106v-179l-922 -1134h944v-176h-1162zM356 2049h159l185 -256l184 256h155l-228 -379h-227z" />
<glyph unicode="&#x17e;" horiz-adv-x="1076" d="M93 0v139l651 821h-637v157h871v-134l-654 -824h671v-159h-902zM198 1676h159l185 -256l184 256h155l-228 -379h-227z" />
<glyph unicode="&#x17f;" horiz-adv-x="615" d="M185 0v1154q0 194 97 303t288 109q63 0 113.5 -6t92.5 -14v-172h-10q-31 9 -81 18.5t-88 9.5q-121 0 -172.5 -53.5t-51.5 -193.5v-1155h-188z" />
<glyph unicode="&#x192;" d="M-36 -5h10q33 -14 80 -24t91 -10q127 0 191.5 64t99.5 231l103 490h-217v138h245l42 198q26 123 72 207t108 135t138.5 73t163.5 22q58 0 97.5 -5t91.5 -13v-180h-10q-29 10 -86 23t-98 13q-121 0 -184 -59.5t-98 -219.5l-42 -194h321v-138h-349l-103 -490 q-29 -134 -75 -222t-110 -140q-65 -53 -141 -74t-168 -21q-41 0 -81 3.5t-92 12.5v180z" />
<glyph unicode="&#x1fa;" horiz-adv-x="1400" d="M26 0l504 1367q-49 31 -77.5 81.5t-28.5 114.5q0 109 80.5 181t195.5 72t195 -72t80 -181q0 -64 -28.5 -114.5t-76.5 -81.5l504 -1367h-211l-148 415h-640l-148 -415h-201zM436 585h517l-258 715zM571 1563q0 -57 36.5 -94.5t92.5 -37.5t92 38t36 94q0 54 -35.5 91.5 t-92.5 37.5t-93 -37t-36 -92zM585 1843l149 274h243l-243 -274h-149z" />
<glyph unicode="&#x1fb;" horiz-adv-x="1230" d="M104 324q0 127 54.5 205.5t155.5 123.5q102 45 245 61t307 24v29q0 65 -23 108t-64 66q-41 24 -95.5 32.5t-117.5 8.5q-58 0 -110.5 -10t-94.5 -21q-49 -13 -89 -27.5t-59 -21.5h-10v191q35 9 87.5 19t101.5 18q-28 30 -46.5 71.5t-18.5 87.5q0 109 79.5 181t194.5 72 t194 -72t79 -181q0 -51 -23 -96.5t-58 -76.5q125 -34 192.5 -119t67.5 -239v-758h-187v119q-25 -17 -67.5 -47.5t-82.5 -48.5q-47 -23 -108 -38.5t-143 -15.5q-151 0 -256 100t-105 255zM298 337q0 -96 58 -144.5t177 -48.5q99 0 181 38.5t152 92.5v311q-86 -5 -202.5 -15 t-184.5 -29q-81 -23 -131 -71.5t-50 -133.5zM472 1289q0 -57 36.5 -95t92.5 -38t92 38.5t36 94.5q0 54 -35.5 91.5t-92.5 37.5t-93 -37t-36 -92zM486 1569l149 274h243l-243 -274h-149z" />
<glyph unicode="&#x1fc;" horiz-adv-x="2016" d="M14 0l594 1489h1293v-176h-749v-408h749v-176h-749v-553h749v-176h-944v556h-524l-212 -556h-207zM499 723h458v601h-219zM1019 1675l179 374h243l-273 -374h-149z" />
<glyph unicode="&#x1fd;" horiz-adv-x="1956" d="M104 317q0 124 54 200.5t155 118.5q95 39 241 53t308 17v61q0 65 -23 107.5t-64 65.5q-40 23 -96 31.5t-116 8.5q-79 0 -168.5 -21t-179.5 -57h-13v191q55 15 158 34t204 19q159 0 264.5 -46.5t162.5 -137.5q69 82 170 134t226 52q217 0 342.5 -128t125.5 -379v-82h-819 q0 -114 30 -195t85 -133q52 -48 123 -70.5t157 -22.5q111 0 217.5 41.5t172.5 93.5h12v-205q-78 -35 -184.5 -64.5t-215.5 -29.5q-166 0 -284.5 52t-194.5 155q-21 -19 -67 -59t-96 -68q-63 -36 -137 -59.5t-189 -23.5q-150 0 -255.5 97t-105.5 249zM298 331q0 -95 58 -141 t176 -46q99 0 195.5 43t166.5 111q-20 53 -30.5 119t-10.5 141q-105 -3 -201 -7.5t-178 -25.5q-79 -20 -127.5 -65.5t-48.5 -128.5zM902 1302l179 374h243l-273 -374h-149zM1039 703h634q-5 68 -23.5 119t-50.5 88q-34 39 -88.5 61t-133.5 22q-133 0 -223 -75t-115 -215z " />
<glyph unicode="&#x1fe;" horiz-adv-x="1612" d="M115 744q0 182 48 326.5t140 247.5q88 98 218.5 150t284.5 52q118 0 215 -27.5t179 -82.5l142 201h132l-188 -268q101 -100 156.5 -248.5t55.5 -350.5q0 -184 -49.5 -329.5t-138.5 -242.5q-92 -101 -217.5 -152t-286.5 -51q-115 0 -215.5 29t-179.5 84l-159 -228h-132 l205 294q-101 100 -155.5 250t-54.5 346zM318 744q0 -140 29.5 -252t87.5 -188l662 956q-57 46 -129 68.5t-161 22.5q-110 0 -200 -38.5t-156 -116.5q-64 -76 -98.5 -190.5t-34.5 -261.5zM513 229q60 -45 132.5 -68t161.5 -23q110 0 201.5 40t153.5 116q67 82 100 194.5 t33 255.5q0 139 -30 253t-88 189zM661 1675l179 374h243l-273 -374h-149z" />
<glyph unicode="&#x1ff;" horiz-adv-x="1243" d="M93 -148l171 256q-75 77 -116.5 190t-41.5 260q0 273 139.5 431.5t376.5 158.5q87 0 158 -22t125 -57l116 172h111l-155 -231q76 -76 118 -188t42 -264q0 -273 -140 -431t-375 -158q-84 0 -155.5 21t-130.5 60l-133 -198h-110zM297 558q0 -97 17 -171t52 -128l447 671 q-37 29 -86.5 43.5t-104.5 14.5q-155 0 -240 -110t-85 -320zM429 190q39 -31 86.5 -46t106.5 -15q150 0 237 108.5t87 320.5q0 97 -17.5 173t-51.5 130zM511 1302l179 374h243l-273 -374h-149z" />
<glyph unicode="&#x2c6;" d="M310 1297l228 379h227l228 -379h-159l-185 256l-184 -256h-155z" />
<glyph unicode="&#x2c7;" d="M306 1676h159l185 -256l184 256h155l-228 -379h-227z" />
<glyph unicode="&#x2c9;" d="M280 1335v154h742v-154h-742z" />
<glyph unicode="&#x2d8;" d="M275 1676h166q12 -132 65.5 -192t144.5 -60q89 0 142.5 60t67.5 192h165q-10 -168 -108.5 -275t-267.5 -107t-267.5 107t-107.5 275z" />
<glyph unicode="&#x2d9;" d="M545 1304v195h212v-195h-212z" />
<glyph unicode="&#x2da;" d="M301 1630q0 143 102 241t248 98q147 0 248.5 -98t101.5 -241t-102 -242t-248 -99q-144 0 -247 98.5t-103 242.5zM446 1630q0 -87 59 -146t146 -59q88 0 146.5 59t58.5 146q0 86 -58.5 145.5t-146.5 59.5t-146.5 -59t-58.5 -146z" />
<glyph unicode="&#x2db;" d="M415 -116q0 38 6.5 69t12.5 57h155q-6 -27 -9 -57t-3 -60q0 -82 41.5 -121t131.5 -39q36 0 76.5 13.5t57.5 21.5h8v-159q-52 -14 -89.5 -20t-79.5 -6q-139 0 -223.5 79t-84.5 222z" />
<glyph unicode="&#x2dc;" d="M237 1309q8 151 79 228t174 77q50 0 96.5 -19.5t88.5 -55.5q47 -41 83.5 -61.5t69.5 -20.5q51 0 79.5 46t31.5 116h129q-11 -152 -77 -229t-177 -77q-54 0 -100 19.5t-87 56.5q-47 43 -79.5 64.5t-71.5 21.5q-52 0 -78 -45t-30 -121h-131z" />
<glyph unicode="&#x2dd;" d="M342 1302l169 374h228l-258 -374h-139zM746 1302l169 374h228l-258 -374h-139z" />
<glyph unicode="&#x384;" d="M530 1676h243l-49 -384h-145z" />
<glyph unicode="&#x385;" d="M256 1304v195h191v-195h-191zM539 1676h226l-49 -384h-128zM857 1304v195h191v-195h-191z" />
<glyph unicode="&#x386;" horiz-adv-x="1400" d="M7 1489h243l-49 -384h-145zM26 0l542 1489h264l542 -1489h-211l-146 415h-644l-146 -415h-201zM433 585h523l-261 731z" />
<glyph unicode="&#x387;" horiz-adv-x="930" d="M346 832v285h239v-285h-239z" />
<glyph unicode="&#x388;" horiz-adv-x="1538" d="M0 1489h243l-49 -384h-145zM443 0v1489h981v-176h-783v-408h783v-176h-783v-553h783v-176h-981z" />
<glyph unicode="&#x389;" horiz-adv-x="1782" d="M0 1489h243l-49 -384h-145zM443 0v1489h198v-584h743v584h198v-1489h-198v729h-743v-729h-198z" />
<glyph unicode="&#x38a;" horiz-adv-x="1105" d="M0 1489h243l-49 -384h-145zM380 0v152h195v1185h-195v152h588v-152h-195v-1185h195v-152h-588z" />
<glyph unicode="&#x38c;" horiz-adv-x="1804" d="M0 1489h243l-49 -384h-145zM306 744q0 182 48 326.5t140 247.5q88 98 218.5 150t284.5 52q160 0 287.5 -52.5t216.5 -149.5q91 -100 139.5 -245t48.5 -329t-49.5 -329.5t-138.5 -242.5q-92 -101 -217.5 -152t-286.5 -51q-157 0 -285.5 52t-218.5 151t-138.5 243 t-48.5 329zM512 744q0 -293 132 -448.5t354 -155.5t353.5 155.5t131.5 448.5q0 290 -130 447.5t-355 157.5q-227 0 -356.5 -157.5t-129.5 -447.5z" />
<glyph unicode="&#x38e;" horiz-adv-x="1543" d="M0 1489h243l-49 -384h-145zM289 1489h219l407 -666l411 666h211l-524 -836v-653h-198v632z" />
<glyph unicode="&#x38f;" horiz-adv-x="1859" d="M0 1489h243l-49 -384h-145zM291 0v174h410v124q-157 90 -258.5 246t-101.5 350q0 276 187.5 451t492.5 175t492.5 -175t187.5 -451q0 -194 -101.5 -350t-258.5 -246v-124h410v-174h-576v387q60 38 119.5 82t103.5 101q45 59 71 138.5t26 185.5q0 206 -127 330.5 t-347 124.5t-347 -124.5t-127 -330.5q0 -106 26 -185.5t71 -138.5q45 -57 104 -101t119 -82v-387h-576z" />
<glyph unicode="&#x390;" horiz-adv-x="562" d="M-53 1304v195h171v-195h-171zM183 1676h196l-56 -384h-84zM187 0v1117h188v-1117h-188zM444 1304v195h171v-195h-171z" />
<glyph unicode="&#x391;" horiz-adv-x="1400" d="M26 0l542 1489h264l542 -1489h-211l-146 415h-644l-146 -415h-201zM433 585h523l-261 731z" />
<glyph unicode="&#x392;" horiz-adv-x="1404" d="M200 0v1489h441q163 0 244 -12t155 -50q82 -43 119 -110.5t37 -161.5q0 -106 -54 -180.5t-144 -119.5v-8q151 -31 238 -132.5t87 -256.5q0 -111 -42 -196t-113 -140q-84 -66 -184.5 -94t-255.5 -28h-528zM398 169h262q130 0 213 13.5t136 49.5q56 39 82 89t26 129 q0 90 -27 143t-98 90q-48 25 -116.5 32.5t-166.5 7.5h-311v-554zM398 890h256q93 0 148 9.5t102 39.5t66.5 77.5t19.5 112.5q0 54 -18 91t-58 60q-47 27 -114 33.5t-166 6.5h-236v-430z" />
<glyph unicode="&#x393;" horiz-adv-x="1160" d="M200 0v1489h962v-176h-764v-1313h-198z" />
<glyph unicode="&#x394;" horiz-adv-x="1440" d="M26 0l562 1489h264l562 -1489h-1388zM284 168h863l-432 1147z" />
<glyph unicode="&#x395;" horiz-adv-x="1295" d="M200 0v1489h981v-176h-783v-408h783v-176h-783v-553h783v-176h-981z" />
<glyph unicode="&#x396;" horiz-adv-x="1403" d="M126 0v184l913 1129h-879v176h1106v-179l-922 -1134h944v-176h-1162z" />
<glyph unicode="&#x397;" horiz-adv-x="1539" d="M200 0v1489h198v-584h743v584h198v-1489h-198v729h-743v-729h-198z" />
<glyph unicode="&#x398;" horiz-adv-x="1612" d="M115 744q0 182 48 326.5t140 247.5q88 98 218.5 150t284.5 52q160 0 287.5 -52.5t216.5 -149.5q91 -100 139.5 -245t48.5 -329t-49.5 -329.5t-138.5 -242.5q-92 -101 -217.5 -152t-286.5 -51q-157 0 -285.5 52t-218.5 151t-138.5 243t-48.5 329zM321 744 q0 -293 132 -448.5t354 -155.5t353.5 155.5t131.5 448.5q0 290 -130 447.5t-355 157.5q-227 0 -356.5 -157.5t-129.5 -447.5zM493 713v179h627v-179h-627z" />
<glyph unicode="&#x399;" horiz-adv-x="862" d="M137 0v152h195v1185h-195v152h588v-152h-195v-1185h195v-152h-588z" />
<glyph unicode="&#x39a;" horiz-adv-x="1419" d="M205 0v1489h198v-777l723 777h240l-665 -700l696 -789h-257l-589 663l-148 -158v-505h-198z" />
<glyph unicode="&#x39b;" horiz-adv-x="1404" d="M26 0l556 1489h240l556 -1489h-213l-468 1285l-468 -1285h-203z" />
<glyph unicode="&#x39c;" horiz-adv-x="1726" d="M200 0v1489h270l397 -829l384 829h275v-1489h-198v1283l-414 -873h-118l-411 873v-1283h-185z" />
<glyph unicode="&#x39d;" horiz-adv-x="1532" d="M200 0v1489h307l644 -1216v1216h185v-1489h-245l-706 1332v-1332h-185z" />
<glyph unicode="&#x39e;" horiz-adv-x="1329" d="M114 0v176h1101v-176h-1101zM114 1313v176h1101v-176h-1101zM166 729v176h997v-176h-997z" />
<glyph unicode="&#x39f;" horiz-adv-x="1612" d="M115 744q0 182 48 326.5t140 247.5q88 98 218.5 150t284.5 52q160 0 287.5 -52.5t216.5 -149.5q91 -100 139.5 -245t48.5 -329t-49.5 -329.5t-138.5 -242.5q-92 -101 -217.5 -152t-286.5 -51q-157 0 -285.5 52t-218.5 151t-138.5 243t-48.5 329zM321 744 q0 -293 132 -448.5t354 -155.5t353.5 155.5t131.5 448.5q0 290 -130 447.5t-355 157.5q-227 0 -356.5 -157.5t-129.5 -447.5z" />
<glyph unicode="&#x3a0;" horiz-adv-x="1539" d="M200 0v1489h1139v-1489h-198v1313h-743v-1313h-198z" />
<glyph unicode="&#x3a1;" horiz-adv-x="1235" d="M200 0v1489h404q134 0 227 -22.5t165 -70.5q85 -57 131.5 -142t46.5 -215q0 -99 -34.5 -183.5t-96.5 -146.5q-77 -77 -182 -115.5t-265 -38.5h-198v-555h-198zM398 724h167q120 0 195 21.5t122 68.5q47 48 66.5 101t19.5 119q0 77 -27 134t-82 93q-48 31 -109.5 44.5 t-155.5 13.5h-196v-595z" />
<glyph unicode="&#x3a3;" horiz-adv-x="1377" d="M118 0v184l620 600l-600 526v179h1096v-176h-832l586 -506v-26l-630 -605h922v-176h-1162z" />
<glyph unicode="&#x3a4;" horiz-adv-x="1262" d="M0 1313v176h1262v-176h-532v-1313h-198v1313h-532z" />
<glyph unicode="&#x3a5;" horiz-adv-x="1260" d="M6 1489h219l407 -666l411 666h211l-524 -836v-653h-198v632z" />
<glyph unicode="&#x3a6;" horiz-adv-x="1677" d="M105 755q0 136 43 238t119 178q81 81 202.5 128t270.5 51v155h197v-155q148 -3 271 -52t202 -127q75 -73 118.5 -177t43.5 -239q0 -140 -44.5 -248.5t-123.5 -181.5q-85 -79 -207 -125.5t-260 -49.5v-166h-197v166q-134 3 -257 48t-210 127q-79 74 -123.5 182t-44.5 248z M311 763q0 -112 33.5 -203t97.5 -149q49 -45 126.5 -75t171.5 -31v890q-106 -1 -177 -28t-129 -82t-90.5 -140t-32.5 -182zM937 305q94 2 171 30.5t127 75.5q65 60 98 147t33 205q0 99 -32 182t-91 140q-58 56 -129 82t-177 28v-890z" />
<glyph unicode="&#x3a7;" horiz-adv-x="1403" d="M68 0l519 744l-507 745h228l401 -605l410 605h217l-514 -736l513 -753h-229l-406 613l-416 -613h-216z" />
<glyph unicode="&#x3a8;" horiz-adv-x="1783" d="M179 910v579h198v-602q0 -109 29.5 -180t81.5 -115q53 -45 130 -68.5t175 -30.5v996h197v-996q97 8 175 30.5t131 68.5q56 49 83 115.5t27 179.5v602h198v-579q0 -157 -40.5 -264.5t-117.5 -174.5q-80 -69 -192.5 -104t-263.5 -45v-322h-197v322q-154 11 -267 47 t-188 102q-78 69 -118.5 176t-40.5 263z" />
<glyph unicode="&#x3a9;" horiz-adv-x="1676" d="M108 0v174h410v124q-157 90 -258.5 246t-101.5 350q0 276 187.5 451t492.5 175t492.5 -175t187.5 -451q0 -194 -101.5 -350t-258.5 -246v-124h410v-174h-576v387q60 38 119.5 82t103.5 101q45 59 71 138.5t26 185.5q0 206 -127 330.5t-347 124.5t-347 -124.5t-127 -330.5 q0 -106 26 -185.5t71 -138.5q45 -57 104 -101t119 -82v-387h-576z" />
<glyph unicode="&#x3aa;" horiz-adv-x="862" d="M126 1677v195h199v-195h-199zM137 0v152h195v1185h-195v152h588v-152h-195v-1185h195v-152h-588zM539 1677v195h199v-195h-199z" />
<glyph unicode="&#x3ab;" horiz-adv-x="1260" d="M6 1489h219l407 -666l411 666h211l-524 -836v-653h-198v632zM327 1677v195h199v-195h-199zM740 1677v195h199v-195h-199z" />
<glyph unicode="&#x3ac;" horiz-adv-x="1276" d="M108 550q0 142 40.5 253t109.5 189q68 76 158.5 116t187.5 40q88 0 156 -22t143 -61v52h188v-1117h-188v117q-81 -70 -169 -109t-191 -39q-200 0 -317.5 154t-117.5 427zM302 554q0 -199 68 -302.5t218 -103.5q80 0 162 35.5t153 91.5v636q-76 34 -136 49.5t-131 15.5 q-158 0 -246 -110t-88 -312zM500 1676h243l-49 -384h-145z" />
<glyph unicode="&#x3ad;" horiz-adv-x="1050" d="M109 306q0 96 56.5 168t177.5 110v7q-91 24 -145 90t-54 158q0 89 47.5 147.5t112.5 92.5q64 33 145 49t160 16q98 0 180 -16.5t172 -44.5v-207h-13q-66 51 -163.5 79t-197.5 28q-45 0 -84 -5.5t-81 -25.5q-35 -15 -60.5 -48.5t-25.5 -77.5q0 -61 28 -95t76 -49 q45 -14 97 -15.5t105 -1.5h111v-166h-158q-62 0 -112 -4.5t-92 -21.5q-41 -17 -65.5 -54t-24.5 -96q0 -53 26 -90t67 -58q37 -19 87.5 -29t106.5 -10q102 0 218 36t187 98h13v-206q-107 -48 -210 -69t-218 -21q-79 0 -161 16t-152 56q-69 39 -112.5 102.5t-43.5 157.5z M478 1676h243l-49 -384h-145z" />
<glyph unicode="&#x3ae;" horiz-adv-x="1296" d="M185 0v1117h188v-124q88 73 182 114t193 41q181 0 276 -109t95 -314v-1137h-188v1048q0 77 -9 144.5t-33 105.5q-25 42 -72 62.5t-122 20.5q-77 0 -161 -38t-161 -97v-834h-188zM559 1676h243l-49 -384h-145z" />
<glyph unicode="&#x3af;" horiz-adv-x="562" d="M160 1676h243l-49 -384h-145zM187 0v1117h188v-1117h-188z" />
<glyph unicode="&#x3b0;" horiz-adv-x="1293" d="M177 407v710h188v-641q0 -93 10 -153t42 -106q31 -43 84.5 -64.5t145.5 -21.5q86 0 143.5 22t87.5 66q29 44 39.5 105.5t10.5 151.5v641h188v-710q0 -218 -122 -327.5t-348 -109.5q-223 0 -346 107.5t-123 329.5zM251 1304v195h191v-195h-191zM534 1676h226l-49 -384 h-128zM852 1304v195h191v-195h-191z" />
<glyph unicode="&#x3b1;" horiz-adv-x="1276" d="M108 550q0 142 40.5 253t109.5 189q68 76 158.5 116t187.5 40q88 0 156 -22t143 -61v52h188v-1117h-188v117q-81 -70 -169 -109t-191 -39q-200 0 -317.5 154t-117.5 427zM302 554q0 -199 68 -302.5t218 -103.5q80 0 162 35.5t153 91.5v636q-76 34 -136 49.5t-131 15.5 q-158 0 -246 -110t-88 -312z" />
<glyph unicode="&#x3b2;" horiz-adv-x="1270" d="M185 -412v1490q0 224 126.5 351t349.5 127q90 0 164.5 -21.5t133.5 -67.5q57 -43 91 -112t34 -160q0 -127 -69.5 -221.5t-196.5 -131.5v-17q159 -26 253 -125.5t94 -255.5q0 -202 -134.5 -334t-339.5 -132q-79 0 -167 22t-151 64v-476h-188zM373 216q66 -38 141 -53.5 t147 -15.5q149 0 229.5 78.5t80.5 223.5q0 89 -34.5 144.5t-92.5 86.5q-59 32 -132 43t-146 11h-36v160h36q66 0 131 14.5t104 44.5q46 34 68.5 83t22.5 134q0 112 -69 170t-178 58q-73 0 -125 -26.5t-85 -70.5q-32 -44 -47 -102.5t-15 -120.5v-862z" />
<glyph unicode="&#x3b3;" horiz-adv-x="1212" d="M61 1117h204l343 -828l346 828h197l-457 -1061v-468h-188v468z" />
<glyph unicode="&#x3b4;" horiz-adv-x="1245" d="M106 534q0 141 43 239.5t107 162.5q69 72 159 113t182 58q-76 63 -166 130.5t-192 139.5v179h810v-158h-561v-10q68 -46 179 -124t204 -162q150 -136 209 -261.5t59 -289.5q0 -272 -138.5 -427t-376.5 -155q-241 0 -379.5 151.5t-138.5 413.5zM300 540q0 -201 85 -305 t241 -104q153 0 236 105.5t83 314.5q0 135 -55 249t-165 200q-66 -8 -138.5 -32t-138.5 -77q-63 -50 -105.5 -137t-42.5 -214z" />
<glyph unicode="&#x3b5;" horiz-adv-x="1050" d="M109 306q0 96 56.5 168t177.5 110v7q-91 24 -145 90t-54 158q0 89 47.5 147.5t112.5 92.5q64 33 145 49t160 16q98 0 180 -16.5t172 -44.5v-207h-13q-66 51 -163.5 79t-197.5 28q-45 0 -84 -5.5t-81 -25.5q-35 -15 -60.5 -48.5t-25.5 -77.5q0 -61 28 -95t76 -49 q45 -14 97 -15.5t105 -1.5h111v-166h-158q-62 0 -112 -4.5t-92 -21.5q-41 -17 -65.5 -54t-24.5 -96q0 -53 26 -90t67 -58q37 -19 87.5 -29t106.5 -10q102 0 218 36t187 98h13v-206q-107 -48 -210 -69t-218 -21q-79 0 -161 16t-152 56q-69 39 -112.5 102.5t-43.5 157.5z" />
<glyph unicode="&#x3b6;" horiz-adv-x="937" d="M108 463q0 140 46 268t124 247q75 112 173.5 214.5t206.5 196.5v9h-460v158h744v-135q-117 -78 -231.5 -181t-204.5 -223q-89 -117 -146 -257t-57 -283q0 -34 3 -70t15 -76q10 -38 34.5 -75.5t63.5 -61.5q36 -22 96.5 -24.5t116.5 -2.5h86q71 0 122 -26t82 -66 q32 -40 46 -85.5t14 -85.5q0 -84 -45 -168.5t-112 -147.5h-179v14q90 79 128 138.5t38 128.5q0 57 -30.5 95t-77.5 38h-145q-229 0 -340 116t-111 345z" />
<glyph unicode="&#x3b7;" horiz-adv-x="1296" d="M185 0v1117h188v-124q88 73 182 114t193 41q181 0 276 -109t95 -314v-1137h-188v1048q0 77 -9 144.5t-33 105.5q-25 42 -72 62.5t-122 20.5q-77 0 -161 -38t-161 -97v-834h-188z" />
<glyph unicode="&#x3b8;" horiz-adv-x="1278" d="M137 768q0 174 22.5 305.5t60.5 214.5q57 130 162.5 199t256.5 69t256.5 -69t162.5 -199q37 -84 60 -215t23 -305q0 -190 -23 -316.5t-59 -210.5q-58 -135 -163 -203.5t-257 -68.5t-257 68.5t-163 203.5q-37 84 -59.5 210.5t-22.5 316.5zM326 697q0 -142 23 -258.5 t59 -178.5q40 -69 96 -100t135 -31t135 31t96 100q36 62 59 178.5t23 258.5h-626zM326 858h626q-4 143 -28.5 250t-56.5 161q-41 70 -95 98.5t-133 28.5t-133 -28.5t-95 -98.5q-34 -55 -57.5 -161.5t-27.5 -249.5z" />
<glyph unicode="&#x3b9;" horiz-adv-x="562" d="M187 0v1117h188v-1117h-188z" />
<glyph unicode="&#x3ba;" horiz-adv-x="1212" d="M193 0v1117h188v-550l384 417q72 79 135.5 107t126.5 28q28 0 58 -1t37 -1v-166h-11q-16 2 -39.5 3t-36.5 1q-47 0 -85.5 -23.5t-67.5 -56.5l-251 -271l561 -604h-248l-451 489l-112 -109v-380h-188z" />
<glyph unicode="&#x3bb;" horiz-adv-x="1212" d="M61 0l465 1056l-215 500h211l629 -1556h-205l-328 829l-361 -829h-196z" />
<glyph unicode="&#x3bc;" horiz-adv-x="1310" d="M185 -412v1529h188v-838q32 -39 111 -80t170 -41q93 0 161 33.5t122 93.5v832h188v-1117h-186v118q-74 -78 -141.5 -108.5t-145.5 -30.5q-75 0 -135 27t-144 107v-525h-188z" />
<glyph unicode="&#x3bd;" horiz-adv-x="1212" d="M61 1117h204l346 -889l343 889h197l-452 -1117h-189z" />
<glyph unicode="&#x3be;" horiz-adv-x="1030" d="M104 412q0 78 25 144t73 119q44 49 112.5 83.5t144.5 53.5v11q-125 28 -200 110.5t-75 186.5q0 83 43.5 150.5t133.5 125.5v6h-228v154h824v-158h-256q-68 0 -122.5 -14.5t-102.5 -48.5q-45 -32 -72 -83t-27 -118q0 -79 32.5 -128t83.5 -75q45 -23 104 -34t139 -11h170 v-165h-295q-66 0 -118.5 -20t-99.5 -59q-43 -37 -68.5 -90t-25.5 -112q0 -102 37.5 -159t101.5 -82q63 -25 139.5 -28.5t166.5 -3.5h28q68 0 119.5 -23.5t84.5 -60.5q31 -35 48 -82.5t17 -96.5q0 -85 -45.5 -169t-111.5 -147h-180v14q92 79 129.5 139t37.5 128q0 55 -29 94 t-75 39h-140q-140 0 -232.5 27t-155.5 84q-66 60 -100.5 135.5t-34.5 163.5z" />
<glyph unicode="&#x3bf;" horiz-adv-x="1243" d="M106 558q0 273 139.5 431.5t376.5 158.5q235 0 375 -158.5t140 -431.5t-140 -431t-375 -158q-237 0 -376.5 158t-139.5 431zM300 558q0 -210 85 -318.5t237 -108.5q150 0 235.5 107.5t85.5 319.5q0 217 -85 322.5t-236 105.5q-153 0 -237.5 -105.5t-84.5 -322.5z" />
<glyph unicode="&#x3c0;" horiz-adv-x="1305" d="M185 0v1117h935v-1117h-188v955h-559v-955h-188z" />
<glyph unicode="&#x3c1;" horiz-adv-x="1280" d="M185 -412v1058q0 123 35.5 215.5t101.5 158.5q62 62 155.5 95t195.5 33q243 0 371 -147t128 -424q0 -258 -138.5 -428.5t-360.5 -170.5q-65 0 -146.5 18t-153.5 61v-469h-188zM373 210q73 -34 132.5 -48.5t134.5 -14.5q162 0 250 111t88 307q0 218 -80 320t-226 102 q-158 0 -228.5 -96t-70.5 -278v-403z" />
<glyph unicode="&#x3c2;" horiz-adv-x="1040" d="M105 549q0 270 155.5 432t414.5 162q84 0 164 -18.5t147 -45.5v-211h-12q-94 62 -172.5 87t-146.5 25q-166 0 -260.5 -119t-94.5 -312q0 -112 28.5 -183t78.5 -116q50 -44 114.5 -63.5t139.5 -19.5h100q115 0 186 -76.5t71 -186.5q0 -87 -47 -172t-109 -144h-177v14 q86 75 124.5 135.5t38.5 131.5q0 54 -30 93.5t-75 39.5h-92q-117 0 -216 30t-174 97q-73 66 -114.5 170t-41.5 250z" />
<glyph unicode="&#x3c3;" horiz-adv-x="1291" d="M106 558q0 275 141 432.5t378 157.5q55 0 108 -11t82 -20h480v-165h-288q62 -73 96 -170t34 -224q0 -281 -140.5 -435t-373.5 -154q-241 0 -379 158t-138 431zM300 558q0 -209 83.5 -318t239.5 -109q152 0 236 107.5t84 319.5q0 215 -82 322t-236 107q-161 0 -243 -112 t-82 -317z" />
<glyph unicode="&#x3c4;" horiz-adv-x="1016" d="M10 952v165h996v-165h-404v-952h-188v952h-404z" />
<glyph unicode="&#x3c5;" horiz-adv-x="1293" d="M177 407v710h188v-641q0 -93 10 -153t42 -106q31 -43 84.5 -64.5t145.5 -21.5q86 0 143.5 22t87.5 66q29 44 39.5 105.5t10.5 151.5v641h188v-710q0 -218 -122 -327.5t-348 -109.5q-223 0 -346 107.5t-123 329.5z" />
<glyph unicode="&#x3c6;" horiz-adv-x="1618" d="M104 546q0 159 59 296t192 275h229v-17q-136 -99 -210 -232t-74 -300q0 -189 112.5 -304t301.5 -121v1000q33 2 70.5 2.5t76.5 0.5q304 0 478.5 -149.5t174.5 -420.5q0 -259 -171.5 -417t-440.5 -173v-398h-187v398q-130 6 -240.5 46.5t-191.5 109.5q-85 74 -132 172 t-47 232zM902 143q206 10 311.5 126t105.5 317q0 184 -112 293.5t-305 109.5v-846z" />
<glyph unicode="&#x3c7;" horiz-adv-x="1208" d="M48 -412l444 770l-433 759h213l335 -600l339 600h203l-433 -751l444 -778h-213l-346 619l-350 -619h-203z" />
<glyph unicode="&#x3c8;" horiz-adv-x="1683" d="M176 446v671h188v-612q0 -113 37.5 -180.5t89.5 -102.5q56 -38 123 -53t134 -19v967h187v-967q67 5 134 19t123 53q59 40 93 101.5t34 181.5v612h188v-671q0 -114 -48 -198t-127 -137q-82 -55 -182 -82.5t-215 -32.5v-408h-187v408q-115 6 -214.5 32t-182.5 83 q-80 54 -127.5 137.5t-47.5 197.5z" />
<glyph unicode="&#x3c9;" horiz-adv-x="1666" d="M113 503q0 170 57 308.5t201 305.5h228v-17q-135 -108 -214.5 -262t-79.5 -337q0 -66 8 -122.5t38 -119.5q26 -55 72.5 -91.5t117.5 -36.5q51 0 86.5 12.5t55.5 29.5q22 18 36.5 40t20.5 37v584h186v-584q9 -17 23 -39t35 -39q24 -19 52.5 -30t86.5 -11q70 0 117 35.5 t74 92.5q25 55 36 116t11 126q0 182 -78.5 336t-215.5 263v17h228q144 -167 201 -305.5t57 -308.5q0 -96 -23.5 -192.5t-74.5 -171.5q-55 -80 -133.5 -124.5t-193.5 -44.5q-96 0 -177 49.5t-118 116.5h-6q-39 -68 -113 -117t-176 -49q-113 0 -194.5 46.5t-132.5 122.5 t-74.5 171.5t-23.5 192.5z" />
<glyph unicode="&#x3ca;" horiz-adv-x="562" d="M5 1304v195h189v-195h-189zM187 0v1117h188v-1117h-188zM368 1304v195h189v-195h-189z" />
<glyph unicode="&#x3cb;" horiz-adv-x="1293" d="M177 407v710h188v-641q0 -93 10 -153t42 -106q31 -43 84.5 -64.5t145.5 -21.5q86 0 143.5 22t87.5 66q29 44 39.5 105.5t10.5 151.5v641h188v-710q0 -218 -122 -327.5t-348 -109.5q-223 0 -346 107.5t-123 329.5zM341 1304v195h199v-195h-199zM754 1304v195h199v-195 h-199z" />
<glyph unicode="&#x3cc;" horiz-adv-x="1243" d="M106 558q0 273 139.5 431.5t376.5 158.5q235 0 375 -158.5t140 -431.5t-140 -431t-375 -158q-237 0 -376.5 158t-139.5 431zM300 558q0 -210 85 -318.5t237 -108.5q150 0 235.5 107.5t85.5 319.5q0 217 -85 322.5t-236 105.5q-153 0 -237.5 -105.5t-84.5 -322.5z M500 1676h243l-49 -384h-145z" />
<glyph unicode="&#x3cd;" horiz-adv-x="1293" d="M177 407v710h188v-641q0 -93 10 -153t42 -106q31 -43 84.5 -64.5t145.5 -21.5q86 0 143.5 22t87.5 66q29 44 39.5 105.5t10.5 151.5v641h188v-710q0 -218 -122 -327.5t-348 -109.5q-223 0 -346 107.5t-123 329.5zM525 1676h243l-49 -384h-145z" />
<glyph unicode="&#x3ce;" horiz-adv-x="1666" d="M113 503q0 170 57 308.5t201 305.5h228v-17q-135 -108 -214.5 -262t-79.5 -337q0 -66 8 -122.5t38 -119.5q26 -55 72.5 -91.5t117.5 -36.5q51 0 86.5 12.5t55.5 29.5q22 18 36.5 40t20.5 37v584h186v-584q9 -17 23 -39t35 -39q24 -19 52.5 -30t86.5 -11q70 0 117 35.5 t74 92.5q25 55 36 116t11 126q0 182 -78.5 336t-215.5 263v17h228q144 -167 201 -305.5t57 -308.5q0 -96 -23.5 -192.5t-74.5 -171.5q-55 -80 -133.5 -124.5t-193.5 -44.5q-96 0 -177 49.5t-118 116.5h-6q-39 -68 -113 -117t-176 -49q-113 0 -194.5 46.5t-132.5 122.5 t-74.5 171.5t-23.5 192.5zM712 1676h243l-49 -384h-145z" />
<glyph unicode="&#x3d6;" horiz-adv-x="1449" d="M113 959v158h1232v-158h-202v-959h-188v959h-452v-959h-188v959h-202z" />
<glyph unicode="&#x401;" horiz-adv-x="1295" d="M200 0v1489h981v-176h-783v-408h783v-176h-783v-553h783v-176h-981zM426 1677v195h199v-195h-199zM839 1677v195h199v-195h-199z" />
<glyph unicode="&#x402;" horiz-adv-x="1623" d="M-1 1313v176h1128v-176h-500v-408h339q152 0 247.5 -18t180.5 -84q76 -59 112.5 -146t36.5 -197q0 -108 -41.5 -196.5t-114.5 -146.5q-87 -69 -174.5 -93t-225.5 -24h-110v177h93q91 0 151 8t107 42q56 40 82 95.5t26 133.5q0 75 -24.5 132.5t-77.5 92.5 q-50 34 -124.5 43.5t-205.5 9.5h-277v-734h-198v1313h-430z" />
<glyph unicode="&#x403;" horiz-adv-x="1160" d="M200 0v1489h962v-176h-764v-1313h-198zM594 1655l179 374h243l-273 -374h-149z" />
<glyph unicode="&#x404;" horiz-adv-x="1435" d="M115 746q0 175 52.5 318.5t150.5 245.5q95 98 232 152t306 54q140 0 263 -26t218 -65v-223h-16q-78 64 -202.5 105t-265.5 41q-109 0 -196 -29t-159 -88q-70 -59 -114 -145.5t-59 -200.5h820v-173h-830q0 -139 44 -247.5t115 -178.5q74 -72 172 -108.5t210 -36.5 q138 0 261.5 37t203.5 104h16v-217q-99 -39 -217 -65.5t-263 -26.5q-169 0 -306 52t-234 151t-149.5 243t-52.5 327z" />
<glyph unicode="&#x405;" horiz-adv-x="1400" d="M134 92v248h14q113 -94 261 -145t278 -51q184 0 286.5 69t102.5 184q0 99 -48.5 146t-147.5 73q-75 20 -162.5 33t-185.5 33q-198 42 -293.5 143.5t-95.5 264.5q0 187 158 306.5t401 119.5q157 0 288 -30t232 -74v-234h-14q-85 72 -223.5 119.5t-283.5 47.5 q-159 0 -255.5 -66t-96.5 -170q0 -93 48 -146t169 -81q64 -14 182 -34t200 -41q166 -44 250 -133t84 -249q0 -87 -40.5 -172t-113.5 -144q-80 -64 -186.5 -100t-256.5 -36q-161 0 -289.5 30t-261.5 89z" />
<glyph unicode="&#x406;" horiz-adv-x="862" d="M137 0v152h195v1185h-195v152h588v-152h-195v-1185h195v-152h-588z" />
<glyph unicode="&#x407;" horiz-adv-x="862" d="M126 1677v195h199v-195h-199zM137 0v152h195v1185h-195v152h588v-152h-195v-1185h195v-152h-588zM539 1677v195h199v-195h-199z" />
<glyph unicode="&#x408;" horiz-adv-x="931" d="M44 8v185h11q41 -14 101 -29t123 -15q92 0 146.5 21t80.5 60q27 40 34.5 98t7.5 134v869h-315v158h513v-1102q0 -196 -119.5 -302t-320.5 -106q-48 0 -128 8.5t-134 20.5z" />
<glyph unicode="&#x409;" horiz-adv-x="2290" d="M18 0v192h14q10 -1 25 -2t30 -1q36 0 68 11t54 34q71 71 104.5 234t47.5 464q5 98 10.5 260t9.5 297h913v-584h338q152 0 248 -17.5t181 -83.5q76 -59 112.5 -146t36.5 -197q0 -108 -42.5 -196t-113.5 -143q-84 -66 -180 -94t-248 -28h-530v1313h-528 q-3 -113 -8.5 -221.5t-8.5 -193.5q-8 -214 -26.5 -352t-47.5 -227q-29 -90 -65.5 -143.5t-83.5 -96.5q-48 -44 -98.5 -63t-118.5 -19q-21 0 -51 1.5t-42 1.5zM1294 169h271q133 0 204.5 13t125.5 50q56 39 82 91.5t26 133.5q0 75 -25 132t-78 92q-55 37 -127 45t-203 8h-276 v-565z" />
<glyph unicode="&#x40a;" horiz-adv-x="2259" d="M200 0v1489h198v-584h667v584h198v-584h338q152 0 248 -17.5t181 -83.5q76 -59 112.5 -146t36.5 -197q0 -108 -42.5 -196t-113.5 -143q-84 -66 -180 -94t-248 -28h-530v734h-667v-734h-198zM1263 169h271q133 0 204.5 13t125.5 50q56 39 82 91.5t26 133.5q0 75 -25 132 t-78 92q-55 37 -127 45t-203 8h-276v-565z" />
<glyph unicode="&#x40b;" horiz-adv-x="1675" d="M-1 1313v176h1128v-176h-500v-467q95 31 218 56.5t226 25.5q101 0 186 -25t146 -78q61 -52 95.5 -133.5t34.5 -196.5v-495h-198v396q0 74 -11 144t-41 113q-32 46 -92.5 70.5t-160.5 24.5q-106 0 -203.5 -19t-199.5 -53v-676h-198v1313h-430z" />
<glyph unicode="&#x40c;" horiz-adv-x="1419" d="M205 0v1489h198v-668q51 1 96 10t85 34q40 23 79 65.5t69 104.5q13 27 30.5 68t35.5 86q69 166 161.5 233t272.5 67h79v-177h-83q-69 0 -108 -12.5t-70 -41.5q-29 -26 -50.5 -70t-44.5 -103q-52 -132 -105.5 -194t-143.5 -108l691 -783h-254l-605 679h-135v-679h-198z M601 1655l179 374h243l-273 -374h-149z" />
<glyph unicode="&#x40e;" horiz-adv-x="1260" d="M6 1489h219l435 -878l390 878h204l-566 -1253q-34 -76 -80.5 -125t-100.5 -76q-52 -25 -100.5 -33.5t-93.5 -8.5q-40 0 -97 4t-73 5v185h14q15 -2 50 -6.5t80 -4.5q20 0 56 3t64 14q32 12 63.5 38t53.5 76l36 79zM269 1935h182q2 -112 50 -161.5t142 -49.5q95 0 142.5 49 t49.5 162h182q-5 -166 -105.5 -250t-268.5 -84t-268.5 84t-105.5 250z" />
<glyph unicode="&#x40f;" horiz-adv-x="1539" d="M200 0v1489h198v-1317h743v1317h198v-1489h-476v-337h-187v337h-476z" />
<glyph unicode="&#x410;" horiz-adv-x="1400" d="M26 0l542 1489h264l542 -1489h-211l-146 415h-644l-146 -415h-201zM433 585h523l-261 731z" />
<glyph unicode="&#x411;" horiz-adv-x="1404" d="M200 0v1489h997v-176h-799v-408h348q152 0 248 -17.5t181 -83.5q76 -59 112.5 -146t36.5 -197q0 -108 -42.5 -196t-113.5 -143q-84 -66 -180 -94t-248 -28h-540zM398 169h281q133 0 204.5 13t125.5 50q56 39 82 91.5t26 133.5q0 75 -25 132t-78 92q-55 37 -127 45t-203 8 h-286v-565z" />
<glyph unicode="&#x412;" horiz-adv-x="1404" d="M200 0v1489h441q163 0 244 -12t155 -50q82 -43 119 -110.5t37 -161.5q0 -106 -54 -180.5t-144 -119.5v-8q151 -31 238 -132.5t87 -256.5q0 -111 -42 -196t-113 -140q-84 -66 -184.5 -94t-255.5 -28h-528zM398 169h262q130 0 213 13.5t136 49.5q56 39 82 89t26 129 q0 90 -27 143t-98 90q-48 25 -116.5 32.5t-166.5 7.5h-311v-554zM398 890h256q93 0 148 9.5t102 39.5t66.5 77.5t19.5 112.5q0 54 -18 91t-58 60q-47 27 -114 33.5t-166 6.5h-236v-430z" />
<glyph unicode="&#x413;" horiz-adv-x="1160" d="M200 0v1489h962v-176h-764v-1313h-198z" />
<glyph unicode="&#x414;" horiz-adv-x="1527" d="M10 176h120q130 214 207.5 558.5t77.5 754.5h882v-1313h141v-513h-188v341h-1052v-341h-188v513zM321 176h778v1141h-498q-14 -357 -88 -653.5t-192 -487.5z" />
<glyph unicode="&#x415;" horiz-adv-x="1295" d="M200 0v1489h981v-176h-783v-408h783v-176h-783v-553h783v-176h-981z" />
<glyph unicode="&#x416;" horiz-adv-x="1993" d="M32 0l593 766q-88 58 -140 136t-84 183q-19 61 -37.5 104.5t-46.5 71.5q-27 27 -68.5 39t-101.5 12h-60v177h71q167 0 256 -63.5t150 -236.5q11 -30 26 -74t30 -80q44 -105 115.5 -156t157.5 -59v669h196v-671q92 6 164.5 55.5t118.5 161.5q18 44 32.5 86.5t23.5 67.5 q60 172 150.5 236t255.5 64h71v-177h-60q-66 0 -103.5 -11.5t-67.5 -39.5q-29 -27 -47.5 -72.5t-37.5 -103.5q-42 -133 -104.5 -200.5t-124.5 -106.5l600 -778h-242l-524 681h-105v-681h-196v681h-107l-524 -681h-230z" />
<glyph unicode="&#x417;" horiz-adv-x="1261" d="M81 58v222h15q99 -59 223.5 -96.5t237.5 -37.5q72 0 156 21t136 62q54 45 78.5 100.5t24.5 124.5q0 79 -30 129.5t-81 81.5q-51 30 -123.5 43.5t-161.5 13.5h-201v169h179q173 0 278 63.5t105 183.5q0 54 -26.5 95t-72.5 65q-45 24 -100.5 34.5t-131.5 10.5 q-78 0 -144 -15t-125 -35q-48 -17 -98 -43t-73 -39h-13v219q75 32 199 59t250 27q123 0 211.5 -19.5t163.5 -63.5q78 -48 119 -116t41 -158q0 -127 -81.5 -215t-206.5 -115v-15q52 -9 111 -32.5t106 -64.5q48 -42 79.5 -106.5t31.5 -166.5q0 -105 -45.5 -190t-115.5 -145 q-80 -68 -195 -102t-248 -34q-147 0 -272.5 27.5t-199.5 57.5z" />
<glyph unicode="&#x418;" horiz-adv-x="1537" d="M200 0v1489h197v-1175l731 1175h209v-1489h-197v1193l-740 -1193h-200z" />
<glyph unicode="&#x419;" horiz-adv-x="1537" d="M200 0v1489h197v-1175l731 1175h209v-1489h-197v1193l-740 -1193h-200zM408 1935h182q2 -112 50 -161.5t142 -49.5q95 0 142.5 49t49.5 162h182q-5 -166 -105.5 -250t-268.5 -84t-268.5 84t-105.5 250z" />
<glyph unicode="&#x41a;" horiz-adv-x="1419" d="M205 0v1489h198v-668q51 1 96 10t85 34q40 23 79 65.5t69 104.5q13 27 30.5 68t35.5 86q69 166 161.5 233t272.5 67h79v-177h-83q-69 0 -108 -12.5t-70 -41.5q-29 -26 -50.5 -70t-44.5 -103q-52 -132 -105.5 -194t-143.5 -108l691 -783h-254l-605 679h-135v-679h-198z " />
<glyph unicode="&#x41b;" horiz-adv-x="1504" d="M18 0v192h14q10 -1 25 -2t30 -1q36 0 68 11t54 34q71 71 104.5 234t47.5 464q5 98 10.5 260t9.5 297h923v-1489h-198v1313h-538q-3 -113 -8.5 -221.5t-8.5 -193.5q-8 -214 -26.5 -352t-47.5 -227q-29 -90 -65.5 -143.5t-83.5 -96.5q-48 -44 -98.5 -63t-118.5 -19 q-21 0 -51 1.5t-42 1.5z" />
<glyph unicode="&#x41c;" horiz-adv-x="1726" d="M200 0v1489h270l397 -829l384 829h275v-1489h-198v1283l-414 -873h-118l-411 873v-1283h-185z" />
<glyph unicode="&#x41d;" horiz-adv-x="1539" d="M200 0v1489h198v-584h743v584h198v-1489h-198v729h-743v-729h-198z" />
<glyph unicode="&#x41e;" horiz-adv-x="1612" d="M115 744q0 182 48 326.5t140 247.5q88 98 218.5 150t284.5 52q160 0 287.5 -52.5t216.5 -149.5q91 -100 139.5 -245t48.5 -329t-49.5 -329.5t-138.5 -242.5q-92 -101 -217.5 -152t-286.5 -51q-157 0 -285.5 52t-218.5 151t-138.5 243t-48.5 329zM321 744 q0 -293 132 -448.5t354 -155.5t353.5 155.5t131.5 448.5q0 290 -130 447.5t-355 157.5q-227 0 -356.5 -157.5t-129.5 -447.5z" />
<glyph unicode="&#x41f;" horiz-adv-x="1539" d="M200 0v1489h1139v-1489h-198v1313h-743v-1313h-198z" />
<glyph unicode="&#x420;" horiz-adv-x="1235" d="M200 0v1489h404q134 0 227 -22.5t165 -70.5q85 -57 131.5 -142t46.5 -215q0 -99 -34.5 -183.5t-96.5 -146.5q-77 -77 -182 -115.5t-265 -38.5h-198v-555h-198zM398 724h167q120 0 195 21.5t122 68.5q47 48 66.5 101t19.5 119q0 77 -27 134t-82 93q-48 31 -109.5 44.5 t-155.5 13.5h-196v-595z" />
<glyph unicode="&#x421;" horiz-adv-x="1430" d="M115 743q0 184 52 329t150 245q95 97 229.5 148t298.5 51q120 0 239.5 -29t265.5 -102v-235h-15q-123 103 -244 150t-259 47q-113 0 -203.5 -36.5t-161.5 -113.5q-69 -75 -107.5 -189.5t-38.5 -264.5q0 -157 42.5 -270t109.5 -184q70 -74 163.5 -109.5t197.5 -35.5 q143 0 268 49t234 147h14v-232q-55 -24 -99.5 -45t-116.5 -44q-61 -19 -132.5 -32.5t-157.5 -13.5q-162 0 -294.5 45.5t-230.5 142.5q-96 95 -150 241.5t-54 340.5z" />
<glyph unicode="&#x422;" horiz-adv-x="1262" d="M0 1313v176h1262v-176h-532v-1313h-198v1313h-532z" />
<glyph unicode="&#x423;" horiz-adv-x="1260" d="M6 1489h219l435 -878l390 878h204l-566 -1253q-34 -76 -80.5 -125t-100.5 -76q-52 -25 -100.5 -33.5t-93.5 -8.5q-40 0 -97 4t-73 5v185h14q15 -2 50 -6.5t80 -4.5q20 0 56 3t64 14q32 12 63.5 38t53.5 76l36 79z" />
<glyph unicode="&#x424;" horiz-adv-x="1677" d="M105 755q0 136 43 238t119 178q81 81 202.5 128t270.5 51v155h197v-155q148 -3 271 -52t202 -127q75 -73 118.5 -177t43.5 -239q0 -140 -44.5 -248.5t-123.5 -181.5q-85 -79 -207 -125.5t-260 -49.5v-166h-197v166q-134 3 -257 48t-210 127q-79 74 -123.5 182t-44.5 248z M311 763q0 -112 33.5 -203t97.5 -149q49 -45 126.5 -75t171.5 -31v890q-106 -1 -177 -28t-129 -82t-90.5 -140t-32.5 -182zM937 305q94 2 171 30.5t127 75.5q65 60 98 147t33 205q0 99 -32 182t-91 140q-58 56 -129 82t-177 28v-890z" />
<glyph unicode="&#x425;" horiz-adv-x="1403" d="M68 0l519 744l-507 745h228l401 -605l410 605h217l-514 -736l513 -753h-229l-406 613l-416 -613h-216z" />
<glyph unicode="&#x426;" horiz-adv-x="1559" d="M200 0v1489h198v-1315h733v1315h198v-1315h141v-511h-188v337h-1082z" />
<glyph unicode="&#x427;" horiz-adv-x="1458" d="M142 981v508h198v-409q0 -87 10 -147.5t45 -108.5q35 -47 92 -70.5t164 -23.5q113 0 220 20t189 50v689h198v-1489h-198v630q-129 -40 -239.5 -61t-210.5 -21q-99 0 -185 24.5t-149 77.5t-98.5 135t-35.5 196z" />
<glyph unicode="&#x428;" horiz-adv-x="2110" d="M200 0v1489h198v-1317h558v1317h198v-1317h558v1317h198v-1489h-1710z" />
<glyph unicode="&#x429;" horiz-adv-x="2140" d="M200 0v1489h198v-1317h558v1317h198v-1317h558v1317h198v-1317h141v-509h-188v337h-1663z" />
<glyph unicode="&#x42a;" horiz-adv-x="1604" d="M0 1313v176h608v-584h338q152 0 248 -17.5t181 -83.5q76 -59 112.5 -146t36.5 -197q0 -108 -42.5 -196t-113.5 -143q-84 -66 -180 -94t-248 -28h-530v1313h-410zM608 169h271q133 0 204.5 13t125.5 50q56 39 82 91.5t26 133.5q0 75 -25 132t-78 92q-55 37 -127 45t-203 8 h-276v-565z" />
<glyph unicode="&#x42b;" horiz-adv-x="1885" d="M200 0v1489h198v-584h338q152 0 248 -17.5t181 -83.5q76 -59 112.5 -146t36.5 -197q0 -108 -42.5 -196t-113.5 -143q-84 -66 -180 -94t-248 -28h-530zM398 169h271q133 0 204.5 13t125.5 50q56 39 82 91.5t26 133.5q0 75 -25 132t-78 92q-55 37 -127 45t-203 8h-276v-565 zM1487 0v1489h198v-1489h-198z" />
<glyph unicode="&#x42c;" horiz-adv-x="1394" d="M200 0v1489h198v-584h338q152 0 248 -17.5t181 -83.5q76 -59 112.5 -146t36.5 -197q0 -108 -42.5 -196t-113.5 -143q-84 -66 -180 -94t-248 -28h-530zM398 169h271q133 0 204.5 13t125.5 50q56 39 82 91.5t26 133.5q0 75 -25 132t-78 92q-55 37 -127 45t-203 8h-276v-565 z" />
<glyph unicode="&#x42d;" horiz-adv-x="1436" d="M97 64v219h16q81 -65 204.5 -103.5t264.5 -38.5q123 0 225 43.5t170 118.5q72 80 108.5 180.5t36.5 228.5h-813v173h803q-14 119 -60 206.5t-117 144.5t-161 84.5t-192 27.5q-137 0 -257 -38.5t-207 -105.5h-17v220q93 39 220 65.5t260 26.5q172 0 307.5 -48t232.5 -144 q96 -96 148 -238t52 -336q0 -172 -52.5 -316.5t-151.5 -247.5q-102 -106 -238.5 -159.5t-299.5 -53.5q-141 0 -268 27t-214 64z" />
<glyph unicode="&#x42e;" horiz-adv-x="2118" d="M200 0v1489h198v-596h249q36 301 217 464t456 163q319 0 501 -206.5t182 -569.5q0 -365 -184 -570t-499 -205q-308 0 -491.5 196.5t-190.5 554.5h-240v-720h-198zM842 744q0 -293 129.5 -448.5t349.5 -155.5q219 0 347.5 155t128.5 449q0 296 -128.5 450.5t-347.5 154.5 q-221 0 -350 -154t-129 -451z" />
<glyph unicode="&#x42f;" horiz-adv-x="1446" d="M44 0l478 622q-150 51 -232.5 157.5t-82.5 285.5q0 114 47.5 196.5t125.5 137.5q71 50 166 70t210 20h490v-1489h-198v592h-321l-445 -592h-238zM415 1058q0 -80 18.5 -133t59.5 -94q45 -44 110 -59t151 -15h294v562h-302q-86 0 -138 -11t-95 -40q-46 -31 -72 -87 t-26 -123z" />
<glyph unicode="&#x430;" horiz-adv-x="1230" d="M104 324q0 127 54.5 205.5t155.5 123.5q102 45 245 61t307 24v29q0 64 -22.5 106t-64.5 66q-40 23 -96 31t-117 8q-74 0 -165 -19.5t-188 -56.5h-10v191q55 15 159 33t205 18q118 0 205.5 -19.5t151.5 -66.5q63 -46 96 -119t33 -181v-758h-187v119q-25 -17 -67.5 -47.5 t-82.5 -48.5q-47 -23 -108 -38.5t-143 -15.5q-151 0 -256 100t-105 255zM298 337q0 -96 58 -144.5t177 -48.5q99 0 181 38.5t152 92.5v311q-86 -5 -202.5 -15t-184.5 -29q-81 -23 -131 -71.5t-50 -133.5z" />
<glyph unicode="&#x431;" horiz-adv-x="1258" d="M116 710q0 75 7 152.5t32 185.5q20 93 58.5 179t91.5 139q72 73 189.5 117.5t311.5 61.5q79 7 147 11.5t122 8.5v-173q-66 -4 -130.5 -8t-128.5 -10q-128 -11 -231.5 -42t-151.5 -80q-53 -53 -79.5 -138.5t-34.5 -162.5q75 54 164.5 90.5t190.5 36.5q94 0 181 -31 t151 -95q70 -70 106 -169.5t36 -233.5q0 -250 -150 -415t-369 -165q-108 0 -199 36.5t-155 112.5q-80 95 -119.5 239.5t-39.5 352.5zM309 685q0 -174 29 -282t82 -172q46 -54 100 -76.5t116 -22.5q151 0 236 109t85 297q0 185 -89 276.5t-235 91.5q-87 0 -167 -27.5 t-152 -73.5q-2 -25 -3.5 -58.5t-1.5 -61.5z" />
<glyph unicode="&#x432;" horiz-adv-x="1218" d="M185 0v1117h432q125 0 188.5 -8.5t119.5 -37.5q63 -33 92.5 -86t29.5 -125q0 -83 -47 -144t-121 -95v-10q99 -24 163.5 -92.5t64.5 -180.5q0 -81 -32.5 -144t-89.5 -105q-64 -47 -139.5 -68t-198.5 -21h-462zM371 150h178q112 0 172.5 7.5t104.5 32.5t65.5 61t21.5 86 q0 55 -18 89.5t-79 63.5q-38 18 -82 21.5t-122 3.5h-241v-365zM371 661h235q74 0 109.5 5.5t71.5 27.5q38 24 52.5 56.5t14.5 80.5q0 36 -15.5 65t-47.5 45q-42 21 -94.5 23.5t-129.5 2.5h-196v-306z" />
<glyph unicode="&#x433;" horiz-adv-x="965" d="M185 0v1117h770v-165h-582v-952h-188z" />
<glyph unicode="&#x434;" horiz-adv-x="1273" d="M9 160h121q117 193 174.5 445.5t57.5 511.5h702v-957h135v-428h-175v271h-840v-271h-175v428zM315 160h561v799h-337q-13 -251 -77 -458t-147 -341z" />
<glyph unicode="&#x435;" horiz-adv-x="1220" d="M106 552q0 274 149.5 435t393.5 161q226 0 348.5 -132t122.5 -375v-102h-823q0 -103 31 -179.5t85 -125.5q52 -48 123.5 -72t157.5 -24q114 0 229.5 45.5t164.5 89.5h10v-205q-95 -40 -194 -67t-208 -27q-278 0 -434 150.5t-156 427.5zM297 683h640q-1 148 -74.5 229 t-223.5 81q-151 0 -240.5 -89t-101.5 -221z" />
<glyph unicode="&#x436;" horiz-adv-x="1634" d="M52 0l431 585q-49 26 -86.5 74t-68.5 145q-27 85 -64 118t-121 33h-53v162h69q124 0 199 -50t120 -175q9 -26 22.5 -59.5t23.5 -56.5q33 -76 84.5 -107.5t115.5 -35.5v484h186v-484q64 4 116.5 36t85.5 107q11 25 24.5 58t21.5 58q44 123 118 174t199 51h69v-162h-53 q-85 0 -122.5 -35t-62.5 -116q-28 -89 -66.5 -138.5t-83.5 -74.5l430 -591h-227l-358 510h-91v-510h-186v510h-81l-374 -510h-217z" />
<glyph unicode="&#x437;" horiz-adv-x="1074" d="M65 64v206h13q73 -64 186 -99t219 -35q50 0 103 9.5t92 30.5q42 24 67 57.5t25 91.5q0 60 -24.5 96t-66.5 54q-41 18 -99 22t-106 4h-163v162h113q40 0 104.5 3t104.5 16q52 17 82.5 48t30.5 99q0 47 -24 77.5t-60 47.5q-37 17 -82.5 23t-80.5 6q-102 0 -200.5 -27.5 t-165.5 -79.5h-13v207q83 27 178 44t190 17q78 0 155.5 -14t144.5 -48q66 -34 108 -92.5t42 -144.5q0 -88 -54.5 -154.5t-146.5 -95.5v-7q103 -25 164 -93.5t61 -181.5q0 -94 -43.5 -159t-111.5 -105q-68 -39 -150 -57t-164 -18q-116 0 -221 22t-207 68z" />
<glyph unicode="&#x438;" horiz-adv-x="1311" d="M185 0v1117h186v-827l579 827h176v-1117h-186v839l-585 -839h-170z" />
<glyph unicode="&#x439;" horiz-adv-x="1311" d="M185 0v1117h186v-827l579 827h176v-1117h-186v839l-585 -839h-170zM317 1557h171q1 -105 46.5 -152t133.5 -47q89 0 134 46t46 153h171q-5 -148 -93.5 -231t-257.5 -83t-257.5 83t-93.5 231z" />
<glyph unicode="&#x43a;" horiz-adv-x="1212" d="M193 0v1117h188v-482q93 0 150 33.5t97 107.5q14 27 27.5 57.5t26.5 58.5q52 113 130 169t224 56h86v-162h-83q-79 0 -123.5 -33.5t-80.5 -117.5q-40 -94 -84.5 -140.5t-94.5 -70.5l537 -593h-246l-464 512h-102v-512h-188z" />
<glyph unicode="&#x43b;" horiz-adv-x="1271" d="M29 0v164h10q8 0 23 -1t25 -1q24 0 49.5 7t43.5 26q51 50 82 169t41 344q4 82 7.5 194.5t6.5 214.5h769v-1117h-188v959h-417q-3 -83 -6 -160t-6 -139q-7 -167 -23 -266.5t-42 -165.5q-24 -62 -53.5 -100.5t-63.5 -69.5q-34 -30 -75.5 -45t-90.5 -15q-17 0 -49.5 1 t-42.5 1z" />
<glyph unicode="&#x43c;" horiz-adv-x="1426" d="M185 0v1117h227l304 -625l294 625h231v-1117h-186v882l-278 -574h-140l-276 574v-882h-176z" />
<glyph unicode="&#x43d;" horiz-adv-x="1305" d="M185 0v1117h188v-452h559v452h188v-1117h-188v503h-559v-503h-188z" />
<glyph unicode="&#x43e;" horiz-adv-x="1243" d="M106 558q0 273 139.5 431.5t376.5 158.5q235 0 375 -158.5t140 -431.5t-140 -431t-375 -158q-237 0 -376.5 158t-139.5 431zM300 558q0 -210 85 -318.5t237 -108.5q150 0 235.5 107.5t85.5 319.5q0 217 -85 322.5t-236 105.5q-153 0 -237.5 -105.5t-84.5 -322.5z" />
<glyph unicode="&#x43f;" horiz-adv-x="1305" d="M185 0v1117h935v-1117h-188v955h-559v-955h-188z" />
<glyph unicode="&#x440;" horiz-adv-x="1276" d="M185 -412v1529h188v-117q75 63 168.5 105.5t199.5 42.5q202 0 314.5 -152.5t112.5 -423.5q0 -136 -39 -248.5t-110 -190.5q-66 -74 -155.5 -114.5t-189.5 -40.5q-87 0 -157.5 19t-143.5 59v-468h-188zM373 209q80 -36 137.5 -49t130.5 -13q157 0 245 106t88 314 q0 202 -69 302t-212 100q-81 0 -163 -35t-157 -92v-633z" />
<glyph unicode="&#x441;" horiz-adv-x="1094" d="M106 557q0 267 148 426.5t405 159.5q97 0 190.5 -27t171.5 -66v-209h-11q-93 71 -183.5 105t-175.5 34q-167 0 -258.5 -112t-91.5 -311t91 -309t259 -110q59 0 117.5 15t106.5 39q38 19 78.5 45.5t56.5 39.5h11v-207q-115 -54 -197.5 -74.5t-164.5 -20.5 q-122 0 -224 35.5t-175 107.5t-113.5 182t-40.5 257z" />
<glyph unicode="&#x442;" horiz-adv-x="1016" d="M10 952v165h996v-165h-404v-952h-188v952h-404z" />
<glyph unicode="&#x443;" horiz-adv-x="1212" d="M61 1117h204l343 -828l346 828h197l-652 -1529h-201l208 466z" />
<glyph unicode="&#x444;" horiz-adv-x="1722" d="M111 555q0 141 39 251.5t102 185.5q61 73 143.5 111.5t164.5 38.5q60 0 109.5 -18.5t98.5 -48.5v481h186v-481q46 27 108 47t125 20q198 0 311 -149.5t113 -404.5q0 -149 -38 -263.5t-101 -188.5q-62 -74 -143 -113t-170 -39q-67 0 -116.5 23t-88.5 42v-461h-186v461 q-61 -30 -100.5 -47.5t-123.5 -17.5q-193 0 -313 151t-120 420zM304 564q0 -195 71.5 -307t206.5 -112q53 0 98.5 14.5t87.5 32.5v745q-39 18 -79 30.5t-89 12.5q-135 0 -215.5 -103t-80.5 -313zM954 192q47 -22 78.5 -34.5t89.5 -12.5q141 0 218.5 108.5t77.5 313.5 q0 191 -68 302t-204 111q-55 0 -92 -9t-100 -34v-745z" />
<glyph unicode="&#x445;" horiz-adv-x="1212" d="M60 0l436 557l-432 560h237l315 -422l316 422h220l-439 -550l439 -567h-237l-317 429l-319 -429h-219z" />
<glyph unicode="&#x446;" horiz-adv-x="1320" d="M185 0v1117h188v-955h550v955h188v-955h135v-430h-175v268h-886z" />
<glyph unicode="&#x447;" horiz-adv-x="1240" d="M142 711v406h188v-310q0 -64 8 -114.5t34 -87.5q26 -36 73 -55t131 -19q69 0 150 13.5t141 31.5v541h188v-1117h-188v429q-91 -28 -174 -45t-181 -17q-180 0 -275 88.5t-95 255.5z" />
<glyph unicode="&#x448;" horiz-adv-x="1794" d="M185 0v1117h188v-955h430v955h188v-955h430v955h188v-1117h-1424z" />
<glyph unicode="&#x449;" horiz-adv-x="1818" d="M185 0v1117h188v-955h430v955h188v-955h430v955h188v-955h135v-430h-175v268h-1384z" />
<glyph unicode="&#x44a;" horiz-adv-x="1312" d="M10 952v165h516v-435h244q126 0 195.5 -13t138.5 -64q58 -43 87 -110t29 -149q0 -81 -32.5 -147t-88.5 -107q-66 -50 -141 -71t-193 -21h-427v952h-328zM526 150h172q100 0 155 8.5t95 32.5q41 26 59.5 61.5t18.5 90.5q0 51 -17.5 89.5t-57.5 62.5q-42 25 -95.5 30 t-153.5 5h-176v-380z" />
<glyph unicode="&#x44b;" horiz-adv-x="1627" d="M185 0v1117h188v-435h244q126 0 195.5 -13t138.5 -64q58 -43 87 -110t29 -149q0 -81 -32.5 -147t-88.5 -107q-66 -50 -141 -71t-193 -21h-427zM373 150h172q100 0 155 8.5t95 32.5q41 26 59.5 61.5t18.5 90.5q0 51 -17.5 89.5t-57.5 62.5q-42 25 -95.5 30t-153.5 5h-176 v-380zM1254 0v1117h188v-1117h-188z" />
<glyph unicode="&#x44c;" horiz-adv-x="1169" d="M185 0v1117h188v-435h254q126 0 195.5 -13t138.5 -64q58 -43 87 -110t29 -149q0 -81 -32.5 -147t-88.5 -107q-66 -50 -141 -71t-193 -21h-437zM373 150h182q100 0 155 8.5t95 32.5q41 26 59.5 61.5t18.5 90.5q0 51 -17.5 89.5t-57.5 62.5q-42 25 -95.5 30t-153.5 5h-186 v-380z" />
<glyph unicode="&#x44d;" horiz-adv-x="1120" d="M83 50v206h13q60 -47 159 -83.5t208 -36.5q157 0 255 96t110 282h-564v151h563q-20 158 -115 237.5t-237 79.5q-91 0 -181 -30.5t-177 -97.5h-13v206q63 25 160 54t200 29q124 0 224 -34t173 -104t113 -175t40 -249q0 -278 -155.5 -442t-415.5 -164q-102 0 -197.5 24 t-162.5 51z" />
<glyph unicode="&#x44e;" horiz-adv-x="1718" d="M185 0v1117h188v-453h237q25 231 161.5 357.5t335.5 126.5q231 0 368 -158t137 -432q0 -271 -135 -430t-370 -159q-222 0 -355.5 144t-146.5 393h-232v-506h-188zM791 558q0 -212 84 -319.5t230 -107.5t229.5 106.5t83.5 320.5q0 215 -83 321.5t-230 106.5 q-153 0 -233.5 -111.5t-80.5 -316.5z" />
<glyph unicode="&#x44f;" horiz-adv-x="1228" d="M67 0l376 461q-145 40 -212 122.5t-67 216.5q0 89 40 151t101 101q60 38 138 51.5t170 13.5h430v-1117h-188v443h-221l-346 -443h-221zM357 794q0 -55 11.5 -89t47.5 -64q37 -29 90 -39.5t118 -10.5h231v376h-237q-77 0 -111 -5t-74 -27q-39 -22 -57.5 -59.5t-18.5 -81.5 z" />
<glyph unicode="&#x451;" horiz-adv-x="1220" d="M106 552q0 274 149.5 435t393.5 161q226 0 348.5 -132t122.5 -375v-102h-823q0 -103 31 -179.5t85 -125.5q52 -48 123.5 -72t157.5 -24q114 0 229.5 45.5t164.5 89.5h10v-205q-95 -40 -194 -67t-208 -27q-278 0 -434 150.5t-156 427.5zM297 683h640q-1 148 -74.5 229 t-223.5 81q-151 0 -240.5 -89t-101.5 -221zM339 1304v195h199v-195h-199zM752 1304v195h199v-195h-199z" />
<glyph unicode="&#x452;" horiz-adv-x="1296" d="M19 1268v134h166v154h188v-154h321v-134h-321v-275q88 73 184.5 114t194.5 41q177 0 270.5 -111t96.5 -312q0 -47 1.5 -100.5t1.5 -128.5q0 -58 -1 -114t-2 -114q-3 -176 -45 -304.5t-113 -208.5q-70 -80 -162.5 -119t-198.5 -39h-35t-54 2v158h68q187 0 265 123t87 459 q1 34 1.5 71.5t0.5 83.5q0 24 -0.5 61.5t-1.5 80.5q-1 80 -10.5 144t-34.5 105q-26 43 -70.5 63.5t-114.5 20.5q-80 0 -166 -38.5t-162 -96.5v-834h-188v1268h-166z" />
<glyph unicode="&#x453;" horiz-adv-x="965" d="M185 0v1117h770v-165h-582v-952h-188zM439 1292l179 374h243l-273 -374h-149z" />
<glyph unicode="&#x454;" horiz-adv-x="1120" d="M106 557q0 261 149.5 423.5t418.5 162.5q104 0 197.5 -27t162.5 -59v-203h-12q-64 50 -161 89t-198 39q-143 0 -242.5 -78t-124.5 -239h572v-151h-575q10 -178 108 -278t262 -100q108 0 202.5 34t156.5 84h12v-206q-78 -32 -157.5 -52.5t-202.5 -20.5q-125 0 -229.5 35.5 t-180.5 107.5q-76 73 -117 183t-41 256z" />
<glyph unicode="&#x455;" horiz-adv-x="1067" d="M110 67v211h10q89 -67 198 -106.5t209 -39.5q124 0 194 40t70 126q0 66 -38 100t-146 58q-40 9 -104.5 21t-117.5 26q-147 39 -208.5 114.5t-61.5 185.5q0 69 28.5 130t86.5 109q56 47 142.5 74.5t193.5 27.5q100 0 202.5 -24.5t170.5 -59.5v-201h-10q-72 53 -175 89.5 t-202 36.5q-103 0 -174 -39.5t-71 -117.5q0 -69 43 -104q42 -35 136 -57q52 -12 116.5 -24t107.5 -22q131 -30 202 -103q71 -74 71 -196q0 -153 -126.5 -251t-345.5 -98q-124 0 -227.5 29.5t-173.5 64.5z" />
<glyph unicode="&#x456;" horiz-adv-x="562" d="M175 1304v195h212v-195h-212zM187 0v1117h188v-1117h-188z" />
<glyph unicode="&#x457;" horiz-adv-x="562" d="M5 1304v195h189v-195h-189zM187 0v1117h188v-1117h-188zM368 1304v195h189v-195h-189z" />
<glyph unicode="&#x458;" horiz-adv-x="705" d="M-62 -216h10q28 -11 75.5 -25t92.5 -14q72 0 116 20t66 60t28.5 96.5t6.5 137.5v900h-233v158h421v-1144q0 -196 -100 -296t-268 -100q-40 0 -105.5 8t-109.5 20v179zM321 1304v195h212v-195h-212z" />
<glyph unicode="&#x459;" horiz-adv-x="1872" d="M29 0v164h10q8 0 23 -1t25 -1q24 0 49.5 7t43.5 26q51 50 82 169t41 344q4 82 7.5 194.5t6.5 214.5h769v-435h244q126 0 195.5 -13t138.5 -64q58 -43 87 -110t29 -149q0 -81 -32.5 -147t-88.5 -107q-66 -50 -141 -71t-193 -21h-427v959h-417q-3 -83 -6 -160t-6 -139 q-7 -167 -23 -266.5t-42 -165.5q-24 -62 -53.5 -100.5t-63.5 -69.5q-34 -30 -75.5 -45t-90.5 -15q-17 0 -49.5 1t-42.5 1zM1086 150h172q100 0 155 8.5t95 32.5q41 26 59.5 61.5t18.5 90.5q0 51 -17.5 89.5t-57.5 62.5q-42 25 -95.5 30t-153.5 5h-176v-380z" />
<glyph unicode="&#x45a;" horiz-adv-x="1872" d="M185 0v1117h188v-435h525v435h188v-435h244q126 0 195.5 -13t138.5 -64q58 -43 87 -110t29 -149q0 -81 -32.5 -147t-88.5 -107q-66 -50 -141 -71t-193 -21h-427v528h-525v-528h-188zM1086 150h172q100 0 155 8.5t95 32.5q41 26 59.5 61.5t18.5 90.5q0 51 -17.5 89.5 t-57.5 62.5q-42 25 -95.5 30t-153.5 5h-176v-380z" />
<glyph unicode="&#x45b;" horiz-adv-x="1296" d="M19 1268v134h166v154h188v-154h321v-134h-321v-275q88 73 182 114t193 41q181 0 276 -109t95 -314v-725h-188v636q0 77 -9 144.5t-33 105.5q-25 42 -72 62.5t-122 20.5q-77 0 -161 -38t-161 -97v-834h-188v1268h-166z" />
<glyph unicode="&#x45c;" horiz-adv-x="1212" d="M193 0v1117h188v-482q93 0 150 33.5t97 107.5q14 27 27.5 57.5t26.5 58.5q52 113 130 169t224 56h86v-162h-83q-79 0 -123.5 -33.5t-80.5 -117.5q-40 -94 -84.5 -140.5t-94.5 -70.5l537 -593h-246l-464 512h-102v-512h-188zM534 1292l179 374h243l-273 -374h-149z" />
<glyph unicode="&#x45e;" horiz-adv-x="1212" d="M61 1117h204l343 -828l346 828h197l-652 -1529h-201l208 466zM260 1557h171q1 -105 46.5 -152t133.5 -47q89 0 134 46t46 153h171q-5 -148 -93.5 -231t-257.5 -83t-257.5 83t-93.5 231z" />
<glyph unicode="&#x45f;" horiz-adv-x="1305" d="M185 0v1117h188v-956h559v956h188v-1117h-380v-268h-174v268h-381z" />
<glyph unicode="&#x490;" horiz-adv-x="1160" d="M200 0v1489h776v410h186v-586h-764v-1313h-198z" />
<glyph unicode="&#x491;" horiz-adv-x="965" d="M185 0v1117h596v369h174v-534h-582v-952h-188z" />
<glyph unicode="&#x1e80;" horiz-adv-x="2025" d="M92 1489h203l313 -1238l308 1238h201l311 -1250l311 1250h194l-387 -1489h-223l-313 1236l-306 -1236h-218zM711 2049h243l179 -374h-149z" />
<glyph unicode="&#x1e81;" horiz-adv-x="1676" d="M86 1117h196l205 -865l279 865h155l286 -865l194 865h189l-291 -1117h-174l-287 861l-285 -861h-173zM535 1676h243l179 -374h-149z" />
<glyph unicode="&#x1e82;" horiz-adv-x="2025" d="M92 1489h203l313 -1238l308 1238h201l311 -1250l311 1250h194l-387 -1489h-223l-313 1236l-306 -1236h-218zM902 1675l179 374h243l-273 -374h-149z" />
<glyph unicode="&#x1e83;" horiz-adv-x="1676" d="M86 1117h196l205 -865l279 865h155l286 -865l194 865h189l-291 -1117h-174l-287 861l-285 -861h-173zM732 1302l179 374h243l-273 -374h-149z" />
<glyph unicode="&#x1e84;" horiz-adv-x="2025" d="M92 1489h203l313 -1238l308 1238h201l311 -1250l311 1250h194l-387 -1489h-223l-313 1236l-306 -1236h-218zM710 1677v195h199v-195h-199zM1123 1677v195h199v-195h-199z" />
<glyph unicode="&#x1e85;" horiz-adv-x="1676" d="M86 1117h196l205 -865l279 865h155l286 -865l194 865h189l-291 -1117h-174l-287 861l-285 -861h-173zM537 1304v195h199v-195h-199zM950 1304v195h199v-195h-199z" />
<glyph unicode="&#x1ef2;" horiz-adv-x="1260" d="M6 1489h219l407 -666l411 666h211l-524 -836v-653h-198v632zM350 2049h243l179 -374h-149z" />
<glyph unicode="&#x1ef3;" horiz-adv-x="1212" d="M61 1117h204l343 -828l346 828h197l-652 -1529h-201l208 466zM339 1676h243l179 -374h-149z" />
<glyph unicode="&#x2000;" horiz-adv-x="1058" />
<glyph unicode="&#x2001;" horiz-adv-x="2117" />
<glyph unicode="&#x2002;" horiz-adv-x="1058" />
<glyph unicode="&#x2003;" horiz-adv-x="2117" />
<glyph unicode="&#x2004;" horiz-adv-x="705" />
<glyph unicode="&#x2005;" horiz-adv-x="529" />
<glyph unicode="&#x2006;" horiz-adv-x="352" />
<glyph unicode="&#x2007;" horiz-adv-x="352" />
<glyph unicode="&#x2008;" horiz-adv-x="264" />
<glyph unicode="&#x2009;" horiz-adv-x="423" />
<glyph unicode="&#x200a;" horiz-adv-x="117" />
<glyph unicode="&#x2010;" horiz-adv-x="930" d="M153 561v181h624v-181h-624z" />
<glyph unicode="&#x2011;" horiz-adv-x="930" d="M153 561v181h624v-181h-624z" />
<glyph unicode="&#x2012;" horiz-adv-x="930" d="M153 561v181h624v-181h-624z" />
<glyph unicode="&#x2013;" d="M153 572v160h996v-160h-996z" />
<glyph unicode="&#x2014;" horiz-adv-x="2048" d="M153 572v160h1742v-160h-1742z" />
<glyph unicode="&#x2015;" horiz-adv-x="2048" d="M203 572v160h1642v-160h-1642z" />
<glyph unicode="&#x2017;" d="M-4 -82h1310v-120h-1310v120zM-4 -303h1310v-120h-1310v120z" />
<glyph unicode="&#x2018;" horiz-adv-x="550" d="M-19 1556h244l165 -559h-138z" />
<glyph unicode="&#x2019;" horiz-adv-x="550" d="M160 997l165 559h244l-271 -559h-138z" />
<glyph unicode="&#x201a;" horiz-adv-x="550" d="M-10 -276l165 559h244l-271 -559h-138z" />
<glyph unicode="&#x201b;" horiz-adv-x="550" d="M-19 996l271 559h138l-165 -559h-244z" />
<glyph unicode="&#x201c;" horiz-adv-x="940" d="M-19 1556h240l165 -559h-134zM385 1556h240l165 -559h-134z" />
<glyph unicode="&#x201d;" horiz-adv-x="940" d="M150 997l165 559h240l-271 -559h-134zM554 997l165 559h240l-271 -559h-134z" />
<glyph unicode="&#x201e;" horiz-adv-x="940" d="M-10 -276l165 559h240l-271 -559h-134zM394 -276l165 559h240l-271 -559h-134z" />
<glyph unicode="&#x2020;" d="M187 1034v129l403 -5l-5 398h132l-5 -398l403 5v-129l-403 5l5 -904h-132l5 904z" />
<glyph unicode="&#x2021;" d="M187 507v129l403 -5v418l-403 -5v129l403 -5l-5 388h132l-5 -388l403 5v-129l-403 5v-418l403 5v-129l-403 5l5 -388h-132l5 388z" />
<glyph unicode="&#x2022;" horiz-adv-x="1117" d="M185 662q0 154 109.5 263.5t263.5 109.5t264 -109.5t110 -263.5t-110 -263.5t-264 -109.5t-263.5 109.5t-109.5 263.5z" />
<glyph unicode="&#x2026;" horiz-adv-x="1676" d="M178 0v223h204v-223h-204zM736 0v223h204v-223h-204zM1294 0v223h204v-223h-204z" />
<glyph unicode="&#x202f;" horiz-adv-x="423" />
<glyph unicode="&#x2030;" horiz-adv-x="3116" d="M149 1075q0 224 95 333t273 109q181 0 274 -110t93 -331q0 -224 -94.5 -333t-272.5 -109q-182 0 -275 109t-93 332zM327 1075q0 -173 44 -240.5t146 -67.5q100 0 144.5 67.5t44.5 241.5q0 172 -44.5 240t-144.5 68q-102 0 -146 -68t-44 -241zM630 0l780 1489h165 l-780 -1489h-165zM1320 412q0 224 94.5 333t272.5 109q182 0 275 -109t93 -332q0 -224 -95 -333t-273 -109q-181 0 -274 110t-93 331zM1498 412q0 -173 44 -240.5t146 -67.5q100 0 144.5 67.5t44.5 241.5q0 172 -44.5 240t-144.5 68q-102 0 -146 -68t-44 -241zM2228 412 q0 224 94.5 333t272.5 109q182 0 275 -109t93 -332q0 -224 -95 -333t-273 -109q-181 0 -274 110t-93 331zM2406 412q0 -173 44 -240.5t146 -67.5q100 0 144.5 67.5t44.5 241.5q0 172 -44.5 240t-144.5 68q-102 0 -146 -68t-44 -241z" />
<glyph unicode="&#x2032;" horiz-adv-x="740" d="M213 870l194 619h240l-298 -619h-136z" />
<glyph unicode="&#x2033;" horiz-adv-x="1141" d="M213 870l194 619h240l-298 -619h-136zM614 870l194 619h240l-298 -619h-136z" />
<glyph unicode="&#x2039;" horiz-adv-x="930" d="M186 608v89l550 435v-199l-371 -281l371 -281v-199z" />
<glyph unicode="&#x203a;" horiz-adv-x="930" d="M194 172v199l371 281l-371 281v199l550 -435v-89z" />
<glyph unicode="&#x203c;" horiz-adv-x="1279" d="M291 1489h224l-26 -1079h-170zM301 0v211h204v-211h-204zM764 1489h224l-26 -1079h-170zM774 0v211h204v-211h-204z" />
<glyph unicode="&#x203e;" d="M-48 1669v120h1350v-120h-1350z" />
<glyph unicode="&#x2044;" horiz-adv-x="740" d="M-102 0l780 1489h165l-780 -1489h-165z" />
<glyph unicode="&#x205f;" horiz-adv-x="529" />
<glyph unicode="&#x207f;" horiz-adv-x="1117" d="M154 554v939h171v-104q75 62 156 96.5t165 34.5q154 0 237 -92.5t83 -263.5v-610h-172v533q0 70 -7 123t-28 89q-22 36 -60.5 53.5t-102.5 17.5q-65 0 -135.5 -33.5t-135.5 -83.5v-699h-171z" />
<glyph unicode="&#x20a3;" d="M60 308v139h182v1042h898v-171h-706v-427h650v-171h-650v-273h330v-139h-330v-308h-192v308h-182z" />
<glyph unicode="&#x20a4;" d="M137 0v207q103 27 152 91.5t63 187.5h-157v134h164v140h-164v134h163v167q0 200 126.5 328.5t331.5 128.5q105 0 181 -17t140 -34v-206h-10q-62 42 -138 66t-162 24q-140 0 -209.5 -82.5t-69.5 -226.5v-148h364v-134h-365v-140h365v-134h-369q-15 -101 -71 -180.5 t-146 -123.5v-11h837v-171h-1026z" />
<glyph unicode="&#x20a7;" horiz-adv-x="2383" d="M200 0v1489h244q134 0 224 -22.5t162 -70.5q71 -47 115 -120.5t54 -173.5h120v220h181v-220h383q36 18 93.5 30t106.5 12q85 0 175.5 -24t152.5 -60v-201h-9q-64 53 -152.5 89.5t-179.5 36.5q-89 0 -146 -39t-57 -118q0 -70 29.5 -106t115.5 -59q46 -12 96 -24t96 -24 q114 -30 180 -101t66 -192q0 -155 -113 -252t-303 -97q-106 0 -199 30t-154 64v211h9q23 -19 58.5 -43.5t80.5 -46.5q53 -26 101.5 -41t117.5 -15q102 0 162.5 38t60.5 128q0 72 -33.5 106t-118.5 56q-42 11 -91 20.5t-104 25.5q-126 38 -181 112.5t-55 184.5q0 37 7.5 71 t25.5 72h-221v-946h-181v946h-124q-12 -69 -41.5 -129.5t-76.5 -107.5q-77 -77 -179 -115.5t-262 -38.5h-48v-555h-188zM388 719h17q120 0 195 22.5t122 69.5q47 48 66.5 102.5t19.5 120.5q0 77 -27 135.5t-82 94.5q-47 31 -112.5 45.5t-152.5 14.5h-46v-605z" />
<glyph unicode="&#x2105;" horiz-adv-x="2204" d="M149 1074q0 201 110.5 322t298.5 121q65 0 128.5 -16.5t126.5 -49.5v-173h-14q-60 50 -117.5 75.5t-114.5 25.5q-109 0 -172.5 -74.5t-63.5 -230.5q0 -150 61.5 -226t174.5 -76q73 0 134 33t98 68h14v-171q-30 -18 -103.5 -43t-151.5 -25q-192 0 -300.5 115t-108.5 325z M625 0l780 1489h165l-780 -1489h-165zM1320 412q0 224 94.5 333t272.5 109q182 0 275 -109t93 -332q0 -224 -95 -333t-273 -109q-181 0 -274 110t-93 331zM1498 412q0 -173 44 -240.5t146 -67.5q100 0 144.5 67.5t44.5 241.5q0 172 -44.5 240t-144.5 68q-102 0 -146 -68 t-44 -241z" />
<glyph unicode="&#x2113;" horiz-adv-x="662" d="M15 422l177 235v455q0 226 61.5 302.5t172.5 76.5q96 0 158 -65t62 -174q0 -92 -60 -224.5t-225 -362.5v-415q0 -89 14.5 -110.5t41.5 -21.5q26 0 60 16.5t139 90.5v-162q-55 -44 -111.5 -65.5t-113.5 -21.5q-92 0 -145.5 57t-53.5 184v225l-79 -98zM361 899 q98 169 121.5 233t23.5 119q0 30 -6.5 54t-19.5 41q-10 12 -22.5 18.5t-27.5 6.5t-27.5 -6t-18.5 -20q-11 -21 -17 -76t-6 -143v-227z" />
<glyph unicode="&#x2116;" horiz-adv-x="2400" d="M200 0v1489h307l592 -1216v1216h180v-1489h-245l-654 1332v-1332h-180zM1498 1075q0 224 95 333t273 109q181 0 274 -110t93 -331q0 -224 -94.5 -333t-272.5 -109q-182 0 -275 109t-93 332zM1641 208v158h440v-158h-440zM1676 1075q0 -173 43.5 -240.5t146.5 -67.5 q101 0 145 67.5t44 241.5q0 172 -44 240t-145 68q-103 0 -146.5 -68t-43.5 -241z" />
<glyph unicode="&#x2122;" horiz-adv-x="2000" d="M170 1372v117h585v-117h-229v-587h-127v587h-229zM930 785v704h238l191 -382l191 382h227v-704h-124v617h-20l-237 -451h-79l-239 458h-25v-624h-123z" />
<glyph unicode="&#x2126;" horiz-adv-x="1676" d="M107 0v174h436v124q-168 88 -276.5 241t-108.5 357q0 278 185 451t495 173t495 -173t185 -451q0 -204 -108.5 -357t-276.5 -241v-124h436v-174h-604v389q67 39 133 84t111 100q47 58 75 134.5t28 188.5q0 200 -124 326.5t-350 126.5t-350 -126.5t-124 -326.5 q0 -110 29 -189t76 -135q47 -57 110.5 -100.5t131.5 -82.5v-389h-604z" />
<glyph unicode="&#x212e;" horiz-adv-x="1470" d="M177 642q0 314 161 501t436 187q255 0 389 -153.5t134 -432.5v-112h-922q0 -132 33 -222.5t93 -152.5q58 -60 139.5 -89.5t177.5 -29.5q122 0 239 43t206 115h13v-213q-130 -54 -226 -81.5t-223 -27.5q-311 0 -480.5 173.5t-169.5 494.5zM376 786h731q-2 84 -21 156.5 t-60 123.5q-40 51 -107.5 80t-157.5 29q-159 0 -265.5 -106t-119.5 -283z" />
<glyph unicode="&#x215b;" horiz-adv-x="2048" d="M171 1246v117q102 0 165 22t72 108h137v-928h-165v681h-209zM465 0l780 1489h165l-780 -1489h-165zM1207 248q0 79 47 139t136 98v4q-82 41 -117 91t-35 121q0 106 92.5 176.5t236.5 70.5q149 0 239.5 -67.5t90.5 -171.5q0 -63 -40 -125.5t-122 -97.5v-4 q97 -39 142.5 -92.5t45.5 -138.5q0 -121 -101.5 -201.5t-256.5 -80.5q-167 0 -262.5 79.5t-95.5 199.5zM1369 271q0 -74 59 -121.5t139 -47.5q81 0 135.5 39t54.5 111q0 50 -27.5 79.5t-93.5 59.5q-23 10 -67 24t-86 29q-58 -32 -86 -78.5t-28 -94.5zM1404 698 q0 -38 24 -68.5t69 -50.5q23 -10 59 -25.5t82 -26.5q57 37 76 76.5t19 88.5q0 51 -43.5 87t-122.5 36q-70 0 -116.5 -31.5t-46.5 -85.5z" />
<glyph unicode="&#x215c;" horiz-adv-x="2048" d="M140 598v175h17q37 -35 114 -64.5t156 -29.5q84 0 139 36.5t55 108.5q0 83 -50 112.5t-141 29.5h-140v139h125q87 0 134.5 38t47.5 104q0 60 -41 95.5t-128 35.5q-66 0 -142.5 -31t-113.5 -66h-17v175q64 27 139 44t154 17q152 0 237 -70t85 -168q0 -87 -48.5 -143.5 t-125.5 -82.5v-8q80 -16 138.5 -70.5t58.5 -148.5q0 -71 -30 -127t-78 -90q-53 -37 -114.5 -53t-140.5 -16q-82 0 -153.5 15t-136.5 43zM555 0l780 1489h165l-780 -1489h-165zM1240 248q0 79 47 139t136 98v4q-82 41 -117 91t-35 121q0 106 92.5 176.5t236.5 70.5 q149 0 239.5 -67.5t90.5 -171.5q0 -63 -40 -125.5t-122 -97.5v-4q97 -39 142.5 -92.5t45.5 -138.5q0 -121 -101.5 -201.5t-256.5 -80.5q-167 0 -262.5 79.5t-95.5 199.5zM1402 271q0 -74 59 -121.5t139 -47.5q81 0 135.5 39t54.5 111q0 50 -27.5 79.5t-93.5 59.5 q-23 10 -67 24t-86 29q-58 -32 -86 -78.5t-28 -94.5zM1437 698q0 -38 24 -68.5t69 -50.5q23 -10 59 -25.5t82 -26.5q57 37 76 76.5t19 88.5q0 51 -43.5 87t-122.5 36q-70 0 -116.5 -31.5t-46.5 -85.5z" />
<glyph unicode="&#x215d;" horiz-adv-x="2048" d="M138 594v159h16q37 -20 110 -47t151 -27q44 0 85 11.5t69 39.5q29 29 40.5 62.5t11.5 72.5q0 42 -15.5 70.5t-44.5 48.5q-30 21 -74.5 29.5t-97.5 8.5q-59 0 -113 -7t-92 -13v496h597v-139h-440v-207q20 2 44.5 3t38.5 1q84 0 143 -11.5t111 -45.5q55 -36 85 -91.5 t30 -140.5q0 -69 -25 -130t-72 -103q-48 -43 -116 -68.5t-155 -25.5q-78 0 -152.5 14t-134.5 40zM555 0l780 1489h165l-780 -1489h-165zM1240 248q0 79 47 139t136 98v4q-82 41 -117 91t-35 121q0 106 92.5 176.5t236.5 70.5q149 0 239.5 -67.5t90.5 -171.5 q0 -63 -40 -125.5t-122 -97.5v-4q97 -39 142.5 -92.5t45.5 -138.5q0 -121 -101.5 -201.5t-256.5 -80.5q-167 0 -262.5 79.5t-95.5 199.5zM1402 271q0 -74 59 -121.5t139 -47.5q81 0 135.5 39t54.5 111q0 50 -27.5 79.5t-93.5 59.5q-23 10 -67 24t-86 29q-58 -32 -86 -78.5 t-28 -94.5zM1437 698q0 -38 24 -68.5t69 -50.5q23 -10 59 -25.5t82 -26.5q57 37 76 76.5t19 88.5q0 51 -43.5 87t-122.5 36q-70 0 -116.5 -31.5t-46.5 -85.5z" />
<glyph unicode="&#x215e;" horiz-adv-x="2048" d="M153 1359v139h690v-140l-470 -793h-185l496 794h-531zM459 0l780 1489h165l-780 -1489h-165zM1187 248q0 79 47 139t136 98v4q-82 41 -117 91t-35 121q0 106 92.5 176.5t236.5 70.5q149 0 239.5 -67.5t90.5 -171.5q0 -63 -40 -125.5t-122 -97.5v-4q97 -39 142.5 -92.5 t45.5 -138.5q0 -121 -101.5 -201.5t-256.5 -80.5q-167 0 -262.5 79.5t-95.5 199.5zM1349 271q0 -74 59 -121.5t139 -47.5q81 0 135.5 39t54.5 111q0 50 -27.5 79.5t-93.5 59.5q-23 10 -67 24t-86 29q-58 -32 -86 -78.5t-28 -94.5zM1384 698q0 -38 24 -68.5t69 -50.5 q23 -10 59 -25.5t82 -26.5q57 37 76 76.5t19 88.5q0 51 -43.5 87t-122.5 36q-70 0 -116.5 -31.5t-46.5 -85.5z" />
<glyph unicode="&#x2202;" d="M149 424q0 228 134.5 372.5t336.5 144.5q90 0 169.5 -26t158.5 -91q2 26 3 55.5t1 55.5q0 217 -79 318t-231 101q-78 0 -169.5 -31.5t-169.5 -86.5h-11v194q81 44 181.5 66.5t196.5 22.5q137 0 239.5 -54.5t164.5 -178.5q42 -86 56.5 -189t14.5 -260q0 -164 -39 -344 t-121 -303q-85 -124 -186.5 -173t-214.5 -49q-192 0 -313.5 126.5t-121.5 329.5zM349 427q0 -145 67.5 -221.5t179.5 -76.5q128 0 209.5 97t115.5 287q6 33 11.5 73t9.5 92q-60 47 -136 74t-148 27q-141 0 -225 -91t-84 -261z" />
<glyph unicode="&#x2206;" horiz-adv-x="1489" d="M50 0l562 1489h264l562 -1489h-1388zM308 168h863l-432 1147z" />
<glyph unicode="&#x220f;" horiz-adv-x="1676" d="M144 1315v174h1388v-174h-200v-1508h-198v1508h-592v-1508h-198v1508h-200z" />
<glyph unicode="&#x2211;" horiz-adv-x="1489" d="M187 2l673 668l-663 631v188h1133v-176h-891l648 -601v-72l-666 -653h948v-176h-1182v191z" />
<glyph unicode="&#x2212;" horiz-adv-x="1676" d="M220 572v160h1236v-160h-1236z" />
<glyph unicode="&#x2219;" horiz-adv-x="745" d="M253 511v283h239v-283h-239z" />
<glyph unicode="&#x221a;" horiz-adv-x="1676" d="M134 842v139h393l313 -821l730 1628h167l-880 -1939h-102l-384 993h-237z" />
<glyph unicode="&#x221e;" horiz-adv-x="2048" d="M161 642q0 238 125 372t327 134q134 0 245 -77t179 -222q79 150 185.5 224.5t247.5 74.5q191 0 304 -135.5t113 -349.5q0 -239 -122.5 -372.5t-329.5 -133.5q-133 0 -244 76.5t-180 222.5q-79 -151 -184.5 -225t-248.5 -74q-191 0 -304 135.5t-113 349.5zM330 642 q0 -133 63.5 -216t182.5 -83q110 0 172 48.5t119 142.5q34 57 52.5 92.5t47.5 102.5q-63 117 -155 175.5t-188 58.5q-138 0 -216 -83.5t-78 -237.5zM1081 576q60 -115 153.5 -174.5t189.5 -59.5q138 0 216 83t78 238q0 134 -64 216.5t-182 82.5q-88 0 -152.5 -35.5 t-138.5 -155.5q-30 -48 -55.5 -99.5t-44.5 -95.5z" />
<glyph unicode="&#x222b;" d="M138 -224h10q33 -8 87 -18.5t88 -10.5q129 0 182 61q52 61 52 210v1123q0 204 104 315q104 110 293 110q58 0 109 -5.5t105 -15.5v-178h-10q-32 8 -89.5 18.5t-89.5 10.5q-129 0 -181 -61q-53 -61 -53 -210v-1123q0 -206 -104 -315q-105 -110 -293 -110q-52 0 -106.5 5.5 t-103.5 15.5v178z" />
<glyph unicode="&#x2248;" horiz-adv-x="1676" d="M243 202q19 192 110.5 292t249.5 100q77 0 146 -37t127 -83q35 -28 97 -67.5t116 -39.5q75 0 117 49.5t69 171.5h157q-25 -184 -112 -281.5t-250 -97.5q-72 0 -144 37.5t-129 82.5q-39 31 -103 69t-110 38q-78 0 -121 -55t-63 -179h-157zM243 719q23 182 112.5 280 t248.5 98q72 0 143 -37t130 -83q61 -48 114.5 -77.5t98.5 -29.5q76 0 120.5 54.5t63.5 179.5h157q-20 -194 -111 -293t-249 -99q-77 0 -147 37.5t-126 82.5q-65 52 -117 79.5t-96 27.5q-75 0 -117 -48t-70 -172h-155z" />
<glyph unicode="&#x2260;" horiz-adv-x="1676" d="M245 362v156h474l84 268h-558v156h606l105 335h153l-105 -335h427v-156h-476l-83 -268h559v-156h-608l-104 -335h-153l104 335h-425z" />
<glyph unicode="&#x2264;" horiz-adv-x="1676" d="M254 0v160h1154v-160h-1154zM254 786v124l1154 483v-183l-889 -362l889 -362v-183z" />
<glyph unicode="&#x2265;" horiz-adv-x="1676" d="M268 0v160h1154v-160h-1154zM268 303v183l889 362l-889 362v183l1154 -483v-124z" />
<glyph unicode="&#x25a1;" horiz-adv-x="1237" d="M146 0v944h944v-944h-944zM222 76h792v792h-792v-792z" />
<glyph unicode="&#x25aa;" horiz-adv-x="726" d="M131 445v463h463v-463h-463z" />
<glyph unicode="&#x25ab;" horiz-adv-x="726" d="M131 445v463h463v-463h-463zM207 521h311v311h-311v-311z" />
<glyph unicode="&#x25ca;" horiz-adv-x="1676" d="M172 654l666 710l666 -710l-666 -710zM393 654l445 -477l445 477l-445 477z" />
<glyph unicode="&#x25cf;" horiz-adv-x="1237" d="M177 576q0 183 129 312t312 129q182 0 311 -129t129 -312q0 -182 -129 -311t-311 -129q-183 0 -312 129t-129 311z" />
<glyph unicode="&#x25e6;" horiz-adv-x="726" d="M112 677q0 104 73 177.5t178 73.5q104 0 177.5 -73.5t73.5 -177.5t-73.5 -177.5t-177.5 -73.5t-177.5 73.5t-73.5 177.5zM188 677q0 -73 51.5 -124t123.5 -51t123.5 51t51.5 124q0 72 -51 123.5t-124 51.5t-124 -51.5t-51 -123.5z" />
<glyph unicode="&#x25fc;" horiz-adv-x="1115" d="M0 0v1115h1115v-1115h-1115z" />
<glyph unicode="&#xf004;" horiz-adv-x="432" d="M97 -423l165 559h244l-271 -559h-138z" />
<glyph unicode="&#xf005;" d="M353 -237h9q26 -10 70 -23t94 -13q104 0 153 39t49 127q0 29 -3 65.5t-6 61.5h153q2 -19 5 -45t3 -64q0 -162 -91.5 -248t-237.5 -86q-37 0 -95 7t-103 19v160z" />
<glyph unicode="&#xf006;" horiz-adv-x="1110" d="M281 1246v117q102 0 165 22t72 108h137v-928h-165v681h-209z" />
<glyph unicode="&#xf007;" horiz-adv-x="1110" d="M239 573v148q91 69 158 121t106 89q109 103 141 157.5t32 136.5q0 70 -44 107t-120 37q-70 0 -141.5 -30t-112.5 -62h-15v179q65 27 140.5 44t152.5 17q157 0 241.5 -79t84.5 -201q0 -93 -41 -167t-147 -168q-49 -43 -119.5 -96t-125.5 -94h498v-139h-688z" />
<glyph unicode="&#xf008;" horiz-adv-x="1110" d="M230 598v175h17q37 -35 114 -64.5t156 -29.5q84 0 139 36.5t55 108.5q0 83 -50 112.5t-141 29.5h-140v139h125q87 0 134.5 38t47.5 104q0 60 -41 95.5t-128 35.5q-66 0 -142.5 -31t-113.5 -66h-17v175q64 27 139 44t154 17q152 0 237 -70t85 -168q0 -87 -48.5 -143.5 t-125.5 -82.5v-8q80 -16 138.5 -70.5t58.5 -148.5q0 -71 -30 -127t-78 -90q-53 -37 -114.5 -53t-140.5 -16q-82 0 -153.5 15t-136.5 43z" />
<glyph unicode="&#xf009;" horiz-adv-x="1110" d="M179 793v185l466 539h149v-591h163v-133h-163v-220h-150v220h-465zM295 926h353v400z" />
<glyph unicode="&#xf00a;" horiz-adv-x="1110" d="M230 594v159h16q37 -20 110 -47t151 -27q44 0 85 11.5t69 39.5q29 29 40.5 62.5t11.5 72.5q0 42 -15.5 70.5t-44.5 48.5q-30 21 -74.5 29.5t-97.5 8.5q-59 0 -113 -7t-92 -13v496h597v-139h-440v-207q20 2 44.5 3t38.5 1q84 0 143 -11.5t111 -45.5q55 -36 85 -91.5 t30 -140.5q0 -69 -25 -130t-72 -103q-48 -43 -116 -68.5t-155 -25.5q-78 0 -152.5 14t-134.5 40z" />
<glyph unicode="&#xf00b;" horiz-adv-x="1110" d="M243 1359v139h690v-140l-470 -793h-185l496 794h-531z" />
<glyph unicode="&#xf00c;" horiz-adv-x="1110" d="M197 818q0 79 47 139t136 98v4q-82 41 -117 91t-35 121q0 106 92.5 176.5t236.5 70.5q149 0 239.5 -67.5t90.5 -171.5q0 -63 -40 -125.5t-122 -97.5v-4q97 -39 142.5 -92.5t45.5 -138.5q0 -121 -101.5 -201.5t-256.5 -80.5q-167 0 -262.5 79.5t-95.5 199.5zM359 841 q0 -74 59 -121.5t139 -47.5q81 0 135.5 39t54.5 111q0 50 -27.5 79.5t-93.5 59.5q-23 10 -67 24t-86 29q-58 -32 -86 -78.5t-28 -94.5zM394 1268q0 -38 24 -68.5t69 -50.5q23 -10 59 -25.5t82 -26.5q57 37 76 76.5t19 88.5q0 51 -43.5 87t-122.5 36q-70 0 -116.5 -31.5 t-46.5 -85.5z" />
<glyph unicode="&#xf00d;" horiz-adv-x="0" />
<glyph unicode="&#xfb01;" horiz-adv-x="1280" d="M68 959v158h127v49q0 193 100 296.5t283 103.5q62 0 112.5 -6.5t91.5 -13.5v-170h-10q-28 8 -81 18t-87 10q-121 0 -174 -53.5t-53 -193.5v-40h713v-1117h-188v962h-519v-962h-188v959h-127zM899 1304v195h208v-195h-208z" />
<glyph unicode="&#xfb02;" horiz-adv-x="1282" d="M68 959v158h127v49q0 191 116.5 295.5t338.5 104.5q69 0 141 -7t116 -11l188 8v-1556h-188v1389q-43 8 -112.5 14t-122.5 6q-162 0 -228.5 -54t-66.5 -194v-44h329v-158h-323v-959h-188v959h-127z" />
</font>
</defs>
</svg>
