<?xml version="1.0" standalone="no"?>
<!DOCTYPE svg PUBLIC "-//W3C//DTD SVG 1.1//EN" "http://www.w3.org/Graphics/SVG/1.1/DTD/svg11.dtd" >
<svg>
<metadata>
Created by FontForge 20090914 at Tue Jul 14 05:49:02 2015
 By www-data
Copyright (c) 2013 by Worachet Deeyai. All rights reserved.
</metadata>
<defs>
<font id="WDBBangna" horiz-adv-x="562" >
  <font-face 
    font-family="WDB Bangna"
    font-weight="400"
    font-style="italic"
    font-stretch="normal"
    units-per-em="1000"
    panose-1="2 0 0 0 0 0 0 0 0 0"
    ascent="800"
    descent="-200"
    x-height="527"
    cap-height="733"
    bbox="-506 -516 974 1230"
    underline-thickness="48"
    underline-position="-52"
    slope="-10"
    unicode-range="U+0020-U+25CC"
  />
<missing-glyph 
d="M60 839h442v-814v-24h-442v838zM108 791v-742h346v742h-346z" />
    <glyph glyph-name="quotedblleft" unicode="&#x91;&#x91;" horiz-adv-x="290" 
d="M158 548c0.666992 5.33301 1.49805 10.502 2.49805 15.502s2.5 9.83301 4.5 14.5c2.66699 7.33301 6.33398 13.666 11.001 18.999s9.66699 10.666 15 15.999c6 4.66699 12 8.33398 18 11.001c0.666992 0 4.33398 1.33301 11.001 4c2.66699 1.33301 6 2.33301 10 3v-50
c-8 -4 -15 -11 -21 -21c14 -6.66699 21 -17.334 21 -32.001c0 -10 -3.5 -18.5 -10.5 -25.5s-15.5 -10.5 -25.5 -10.5c-6 0 -11 1 -15 3c-7.33301 3.33301 -12.333 7.83301 -15 13.5s-4.66699 12.167 -6 19.5v20zM59.998 548.002
c0.666992 5.33301 1.49805 10.502 2.49805 15.502s2.5 9.83301 4.5 14.5c2.66699 7.33301 6.33398 13.666 11.001 18.999s9.66699 10.666 15 15.999c6 4.66699 12 8.33398 18 11.001c0.666992 0 4.33398 1.33301 11.001 4c2.66699 1.33301 6 2.33301 10 3v-50
c-8 -4 -15 -11 -21 -21c14 -6.66699 21 -17.334 21 -32.001c0 -10 -3.5 -18.5 -10.5 -25.5s-15.5 -10.5 -25.5 -10.5c-6 0 -11 1 -15 3c-7.33301 3.33301 -12.333 7.83301 -15 13.5s-4.66699 12.167 -6 19.5v20z" />
    <glyph glyph-name="quotedblright" unicode="&#x92;&#x92;" horiz-adv-x="290" 
d="M132 574c-0.666992 -4.66699 -1.49902 -9.50293 -2.49902 -14.5029s-2.16699 -9.83301 -3.5 -14.5c-4.66699 -13.333 -13.667 -25 -27 -35c-5.33301 -5.33301 -11.333 -9.33301 -18 -12c-0.666992 -0.666992 -4.33398 -1.66699 -11.001 -3
c-2.66699 -0.666992 -6 -1.66699 -10 -3v50c10 4.66699 17 11.334 21 20.001c-14 6.66699 -21 17.667 -21 33c0 10 3.5 18.5 10.5 25.5s15.5 10.5 25.5 10.5c4.66699 0 9.66699 -1.33301 15 -4c7.33301 -3.33301 12.5 -7.66602 15.5 -12.999s4.83301 -11.666 5.5 -18.999
v-21zM230.001 573.997c-0.666992 -4.66699 -1.49902 -9.50293 -2.49902 -14.5029s-2.16699 -9.83301 -3.5 -14.5c-4.66699 -13.333 -13.667 -25 -27 -35c-5.33301 -5.33301 -11.333 -9.33301 -18 -12c-0.666992 -0.666992 -4.33398 -1.66699 -11.001 -3
c-2.66699 -0.666992 -6 -1.66699 -10 -3v50c10 4.66699 17 11.334 21 20.001c-14 6.66699 -21 17.667 -21 33c0 10 3.5 18.5 10.5 25.5s15.5 10.5 25.5 10.5c4.66699 0 9.66699 -1.33301 15 -4c7.33301 -3.33301 12.5 -7.66602 15.5 -12.999s4.83301 -11.666 5.5 -18.999
v-21z" />
    <glyph glyph-name="copyright2" unicode="&#x3b;&#x3b;For&#x20;Education&#x20;Used&#x20;Only&#x3b;&#x3b;" horiz-adv-x="815" 
d="M408 631c50.667 0 98.334 -9.66699 143.001 -29s83.5 -45.666 116.5 -78.999s59.167 -72.333 78.5 -117s29 -92.334 29 -143.001s-9.66699 -98.334 -29 -143.001s-45.5 -83.5 -78.5 -116.5s-71.833 -59.167 -116.5 -78.5s-92.334 -29 -143.001 -29
s-98.334 9.66699 -143.001 29s-83.667 45.5 -117 78.5s-59.666 71.833 -78.999 116.5s-29 92.334 -29 143.001s9.66699 98.334 29 143.001s45.666 83.667 78.999 117s72.333 59.666 117 78.999s92.334 29 143.001 29zM408 -57c44 0 85.333 8.33301 124 25
s72.5 39.5 101.5 68.5s51.833 63 68.5 102s25 80.5 25 124.5s-8.33301 85.333 -25 124s-39.5 72.5 -68.5 101.5s-62.833 51.833 -101.5 68.5s-80 25 -124 25s-85.5 -8.33301 -124.5 -25s-73 -39.5 -102 -68.5s-51.833 -62.833 -68.5 -101.5s-25 -80 -25 -124
s8.33301 -85.5 25 -124.5s39.5 -73 68.5 -102s63 -51.833 102 -68.5s80.5 -25 124.5 -25zM408 48c24 0 46.5 4.50098 67.5 13.501s39.333 21.333 55 37s28 34 37 55s13.5 43.5 13.5 67.5h48c0 -30.667 -5.83301 -59.334 -17.5 -86.001s-27.5 -50 -47.5 -70
s-43.333 -35.833 -70 -47.5s-55.334 -17.5 -86.001 -17.5s-59.334 5.83301 -86.001 17.5s-50 27.5 -70 47.5s-35.833 43.333 -47.5 70s-17.5 55.334 -17.5 86.001v84c0 30.667 5.83301 59.5 17.5 86.5s27.5 50.5 47.5 70.5s43.333 35.833 70 47.5s55.334 17.5 86.001 17.5
s59.334 -5.83301 86.001 -17.5s50 -27.5 70 -47.5s35.833 -43.333 47.5 -70s17.5 -55.334 17.5 -86.001h-48c0 24 -4.5 46.5 -13.5 67.5s-21.333 39.333 -37 55s-34 28 -55 37s-43.5 13.5 -67.5 13.5s-46.5 -4.5 -67.5 -13.5s-39.333 -21.5 -55 -37.5s-28 -34.5 -37 -55.5
s-13.5 -43.5 -13.5 -67.5v-84c0 -24 4.5 -46.5 13.5 -67.5s21.333 -39.333 37 -55s34 -28 55 -37s43.5 -13.5 67.5 -13.5z" />
    <glyph glyph-name="registered2" unicode="&#x3b;&#x3b;Registered&#x3b;&#x3b;" horiz-adv-x="815" 
d="M407 631c50.667 0 98.334 -9.66699 143.001 -29s83.667 -45.666 117 -78.999s59.666 -72.333 78.999 -117s29 -92.334 29 -143.001s-9.66699 -98.167 -29 -142.5s-45.666 -83.166 -78.999 -116.499s-72.333 -59.666 -117 -78.999s-92.334 -29 -143.001 -29
s-98.167 9.66699 -142.5 29s-83.166 45.666 -116.499 78.999s-59.666 72.166 -78.999 116.499s-29 91.833 -29 142.5s9.66699 98.334 29 143.001s45.666 83.667 78.999 117s72.166 59.666 116.499 78.999s91.833 29 142.5 29zM407 -56c44 0 85.5 8.33301 124.5 25
s73 39.5 102 68.5s51.833 62.833 68.5 101.5s25 80 25 124s-8.33301 85.333 -25 124s-39.5 72.5 -68.5 101.5s-63 52 -102 69s-80.5 25.5 -124.5 25.5s-85.333 -8.5 -124 -25.5s-72.5 -40 -101.5 -69s-51.833 -62.833 -68.5 -101.5s-25 -80 -25 -124
s8.33301 -85.333 25 -124s39.5 -72.5 68.5 -101.5s62.833 -51.833 101.5 -68.5s80 -25 124 -25zM636 379c-3.33301 -37.333 -18.666 -68.666 -45.999 -93.999h1c-17.333 -16.667 -38 -28 -62 -34l86 -227l-45 -17l-91 239h-12h-6h-1h-47h-88h-37v-191v-48h-48v48v191v48v192
v48h30h19h124h48h31h7c18.667 -0.666992 36.5 -4.83398 53.5 -12.501s31.667 -18 44 -31s22.166 -28 29.499 -45s11 -35.167 11 -54.5c0 -2 -0.166992 -4 -0.5 -6s-0.5 -4 -0.5 -6zM588 390l0.00195312 0.999023c0 12.667 -2.5 24.834 -7.5 36.501
s-11.833 21.834 -20.5 30.501s-18.834 15.5 -30.501 20.5s-23.834 7.5 -36.501 7.5h-1h-31h-48h-97h-28v-192h28h97h47h1h31h1c12.667 0 25.334 2.66699 38.001 8c16 7.33301 29.167 18.166 39.5 32.499s16.166 30.5 17.499 48.5v7z" />
    <glyph glyph-name="trademark2" unicode="&#x3b;&#x3b;Trademark&#x3b;&#x3b;" horiz-adv-x="608" 
d="M139 630h64h16v-16v-16v-16h-16h-49v-249v-16h-16h-16h-16v16v249h-50h-16v16v16v16h16h67h16zM532 630h16v-16v-281v-16h-16h-16h-16v16v136l-48 -141l-3 -11h-12h-1h-16h-1h-11l-4 11l-50 143v-138v-16h-16h-16h-16v16v281v16h16h17h11l4 -11l74 -213l72 211v13h16h16z
" />
    <glyph glyph-name="multiply2" unicode="&#x3b;&#x3b;Multiply&#x3b;&#x3b;" horiz-adv-x="435" 
d="M341 480l34 -34l-123 -123l123 -123l-34 -34l-123 123l-124 -123l-34 34l124 123l-124 123l34 34l124 -123l123 123v0z" />
    <glyph glyph-name="divide2" unicode="&#x3b;&#x3b;Divide&#x3b;&#x3b;" horiz-adv-x="433" 
d="M252 412c0 -10 -3.5 -18.5 -10.5 -25.5s-15.5 -10.5 -25.5 -10.5s-18.5 3.5 -25.5 10.5s-10.5 15.5 -10.5 25.5s3.5 18.5 10.5 25.5s15.5 10.5 25.5 10.5s18.5 -3.5 25.5 -10.5s10.5 -15.5 10.5 -25.5zM252 234c0 -10 -3.5 -18.5 -10.5 -25.5s-15.5 -10.5 -25.5 -10.5
s-18.5 3.5 -25.5 10.5s-10.5 15.5 -10.5 25.5s3.5 18.5 10.5 25.5s15.5 10.5 25.5 10.5s18.5 -3.5 25.5 -10.5s10.5 -15.5 10.5 -25.5zM60 299v48h313v-48h-313z" />
    <glyph glyph-name="rulakkhangyao" unicode="&#xc4;&#xd2;" horiz-adv-x="962" 
d="M681 631c30.667 0 59.334 -5.83203 86.001 -17.499s50 -27.5 70 -47.5s35.833 -43.333 47.5 -70s17.5 -55.334 17.5 -86.001v-678h-48v678c0 24 -4.5 46.5 -13.5 67.5s-21.333 39.333 -37 55s-34 28 -55 37s-43.5 13.5 -67.5 13.5s-46.333 -4.5 -67 -13.5
s-38.834 -21.333 -54.501 -37s-28.167 -33.834 -37.5 -54.501s-14 -43 -14 -67v-1v-410v-268h-48v268v410v2c0 23.333 -4.66699 45.333 -14 66s-21.833 38.834 -37.5 54.501s-33.834 28 -54.501 37s-43 13.5 -67 13.5c-36 0 -68 -9.5 -96 -28.5s-48.667 -43.833 -62 -74.5
l-21 -42l6 -40v-201v-61v-42c0 -16.667 3 -32 9 -46h48h76v-48h-76h-74c-0.666992 0.666992 -1 1.16699 -1 1.5s-0.333008 0.833008 -1 1.5c-4 5.33301 -7.5 11 -10.5 17s-5.83301 12 -8.5 18c-6.66699 17.333 -10 36 -10 56v316l-6 40l27 54l3 6
c18 36 44.5 65.167 79.5 87.5s74.167 33.5 117.5 33.5s82.333 -11.167 117 -33.5s61.334 -51.5 80.001 -87.5c18 36 44.5 65.167 79.5 87.5s74.167 33.5 117.5 33.5z" />
    <glyph glyph-name="lulakkhangyao" unicode="&#xc6;&#xd2;" horiz-adv-x="953" 
d="M672 631c30.667 0 59.3281 -5.83008 85.9951 -17.4971s50 -27.5 70 -47.5s35.833 -43.333 47.5 -70s17.5 -55.334 17.5 -86.001v-678h-48v678c0 24 -4.5 46.5 -13.5 67.5s-21.333 39.333 -37 55s-34 28 -55 37s-43.5 13.5 -67.5 13.5
c-23.333 0 -45.166 -4.33301 -65.499 -13s-38.166 -20.334 -53.499 -35.001s-27.833 -31.834 -37.5 -51.501s-15.167 -40.834 -16.5 -63.501v-7v-3v-410v-268h-48v268v410v9c-0.666992 22.667 -5.66699 44 -15 64s-21.833 37.333 -37.5 52s-33.834 26.334 -54.501 35.001
s-42.667 13 -66 13c-35.333 0 -67.166 -9.33301 -95.499 -28s-49.166 -43 -62.499 -73l-21 -42l6 -39v1v-355v-39v-8h-105v47h57v366l-6 39l27 54l3 6c18.667 36 45.334 64.833 80.001 86.5s73.667 32.5 117 32.5s82.5 -11 117.5 -33s61.5 -51 79.5 -87
c18.667 36 45.334 65 80.001 87s73.667 33 117 33z" />
    <glyph glyph-name=".notdef" 
d="M60 839h442v-814v-24h-442v838zM108 791v-742h346v742h-346z" />
    <glyph glyph-name="space" unicode=" " horiz-adv-x="337" 
 />
    <glyph glyph-name="exclam" unicode="!" horiz-adv-x="192" 
d="M132 36c0 -10 -3.5 -18.5 -10.5 -25.5s-15.5 -10.5 -25.5 -10.5s-18.5 3.5 -25.5 10.5s-10.5 15.5 -10.5 25.5s3.5 18.5 10.5 25.5s15.5 10.5 25.5 10.5s18.5 -3.5 25.5 -10.5s10.5 -15.5 10.5 -25.5zM121 112h-48v568h48v-568z" />
    <glyph glyph-name="quotedbl" unicode="&#x22;" horiz-adv-x="263" 
d="M108 542h-48v132h48v-132v0zM203 542h-48v132h48v-132v0z" />
    <glyph glyph-name="numbersign" unicode="#" horiz-adv-x="388" 
d="M368 356h-74l-27 -61h66v-48h-88l-33 -74l-44 20l24 54h-67l-33 -74l-44 20l25 54h-53v48h74l28 61h-67v48h89l33 74l44 -20l-25 -54h67l33 73l44 -19l-24 -54h52v-48zM214 295l27 61h-66l-28 -61h67z" />
    <glyph glyph-name="dollar" unicode="$" horiz-adv-x="563" 
d="M407 259c18.667 -5.33301 34.9941 -14.002 48.9941 -26.002s25.333 -26.333 34 -43c8.66699 -19.333 13 -38.666 13 -57.999c0 -18 -3.5 -35 -10.5 -51s-16.5 -30 -28.5 -42s-26 -21.5 -42 -28.5s-33 -10.5 -51 -10.5h-65v-61h-48v61h-67v1c-18 0 -35 3.33301 -51 10
s-30 16 -42 28s-21.333 26 -28 42s-10 33 -10 51h48c0 -23.333 8.16699 -43 24.5 -59s35.833 -24 58.5 -24v-1h67h48h65c23.333 0 43 8.16699 59 24.5s24 36.166 24 59.499c0 19.333 -5.83301 36.333 -17.5 51s-26.167 24.667 -43.5 30l-5 1l-17 4l-201 47
c-3.33301 0.666992 -6.16602 1.33398 -8.49902 2.00098s-5.16602 1.33398 -8.49902 2.00098c-36.667 11.333 -63.334 34.333 -80.001 69c-8.66699 18.667 -13 37.667 -13 57c0 18 3.33301 35 10 51s16 30 28 42s26 21.5 42 28.5s33 10.5 51 10.5h67v61h48v-61h65
c18 0 35 -3.5 51 -10.5s30 -16.5 42 -28.5s21.5 -26 28.5 -42s10.5 -33 10.5 -51h-48h-1c0 11.333 -2.16699 22.166 -6.5 32.499s-10.166 19.333 -17.499 27s-16 13.667 -26 18s-21 6.5 -33 6.5h-65h-48h-67c-11.333 0 -22.166 -2.16699 -32.499 -6.5
s-19.166 -10.333 -26.499 -18s-13.166 -16.5 -17.499 -26.5s-6.5 -21 -6.5 -33c0 -18.667 5.33301 -35.167 16 -49.5s24.334 -24.166 41.001 -29.499l14 -3l12 -3l205 -49c3.33301 0 7 -0.666992 11 -2z" />
    <glyph glyph-name="percent" unicode="%" horiz-adv-x="349" 
d="M201 250c-8 -18 -8.5 -36.333 -1.5 -55s19.5 -32 37.5 -40s36.333 -8.5 55 -1.5s32 19.5 40 37.5c8.66699 18 9.5 36.333 2.5 55s-19.5 32 -37.5 40c-18.667 8.66699 -37.167 9.5 -55.5 2.5s-31.833 -19.833 -40.5 -38.5zM288 211c-3.33301 -6 -8 -10.167 -14 -12.5
s-12 -2.16602 -18 0.500977c-6 3.33301 -10.167 8 -12.5 14s-2.16602 12 0.500977 18c3.33301 6 8 10.167 14 12.5s12 2.16602 18 -0.500977c6 -3.33301 10.167 -8 12.5 -14s2.16602 -12 -0.500977 -18zM17 490c-8 -18 -8.5 -36.333 -1.5 -55s19.5 -32 37.5 -40
s36.333 -8.5 55 -1.5s32 19.5 40 37.5c8.66699 18 9.5 36.333 2.5 55s-19.5 32 -37.5 40c-18.667 8.66699 -37.167 9.5 -55.5 2.5s-31.833 -19.833 -40.5 -38.5zM104 451c-3.33301 -6 -8 -10.167 -14 -12.5s-12 -2.16602 -18 0.500977c-6 3.33301 -10.167 8 -12.5 14
s-2.16602 12 0.500977 18c3.33301 6 8 10.167 14 12.5s12 2.16602 18 -0.500977c6 -3.33301 10.167 -8 12.5 -14s2.16602 -12 -0.500977 -18zM77 67l-44 20l240 527l43 -19z" />
    <glyph glyph-name="ampersand" unicode="&#x26;" horiz-adv-x="700" 
d="M640 14l-19.9951 -14.002l-19 -14l-91 128l-86 -61c-4.66699 -4 -9.5 -7.83301 -14.5 -11.5s-10.167 -7.16699 -15.5 -10.5l-10.5 -6c-3.66699 -2 -7.16699 -3.66699 -10.5 -5c-28.667 -13.333 -59.334 -20 -92.001 -20c-30.667 0 -59.334 5.83301 -86.001 17.5
s-50 27.5 -70 47.5s-35.833 43.333 -47.5 70s-17.5 55.334 -17.5 86.001c0 28.667 5.16699 55.834 15.5 81.501s24.166 48.167 41.499 67.5l3.5 3.5l3.5 3.5l57 41l76 56l-57 81l-28 39v1c-12 22.667 -18 48 -18 76c0 23.333 4.5 45.333 13.5 66s21.167 38.667 36.5 54
s33.166 27.5 53.499 36.5s42.166 13.5 65.499 13.5s45.333 -4.5 66 -13.5s38.667 -21.167 54 -36.5s27.5 -33.333 36.5 -54s13.5 -42.667 13.5 -66c0 -22.667 -4.16699 -44 -12.5 -64s-19.5 -37.667 -33.5 -53c-2 -1.33301 -5 -4 -9 -8l-31 -23l-84 -60l21 -30l158 -223
l20 -28l63 45l14 -19l14 -20l-64 -46zM294.005 503.998c2 0 3.33398 -0.333008 4.00098 -1l84 61l25 19c11.333 11.333 20.5 24.5 27.5 39.5s10.5 31.167 10.5 48.5c0 16.667 -3.16699 32.5 -9.5 47.5s-15 28 -26 39s-24 19.667 -39 26s-30.833 9.5 -47.5 9.5
s-32.334 -3.16699 -47.001 -9.5s-27.5 -15 -38.5 -26s-19.667 -24 -26 -39s-9.5 -30.833 -9.5 -47.5c0 -19.333 4 -37 12 -53l22 -32zM483.006 153.998l-30.999 43.001l-136 194l-31 43l-80 -58l-48 -34c-15.333 -16 -27.333 -34.333 -36 -55s-13 -42.667 -13 -66
c0 -24 4.5 -46.5 13.5 -67.5s21.333 -39.333 37 -55s34 -28 55 -37s43.5 -13.5 67.5 -13.5c16 0 31.167 2.16699 45.5 6.5s28.166 10.166 41.499 17.499l26 18z" />
    <glyph glyph-name="quotesingle" unicode="'" horiz-adv-x="168" 
d="M108 542h-48v132h48v-132z" />
    <glyph glyph-name="parenleft" unicode="(" horiz-adv-x="282" 
d="M282 -92c-30.667 0 -59.335 5.83105 -86.002 17.498s-50 27.5 -70 47.5s-35.833 43.333 -47.5 70s-17.5 55.334 -17.5 86.001h-1v583h1c0 30.667 5.83301 59.334 17.5 86.001s27.5 50 47.5 70s43.333 35.833 70 47.5s55.334 17.5 86.001 17.5v-48
c-24 0 -46.5 -4.5 -67.5 -13.5s-39.333 -21.333 -55 -37s-28 -34 -37 -55s-13.5 -43.5 -13.5 -67.5h-1v-583h1c0 -24 4.5 -46.5 13.5 -67.5s21.333 -39.333 37 -55s33.834 -28 54.501 -37s43 -13.5 67 -13.5h1v-48z" />
    <glyph glyph-name="parenright" unicode=")" horiz-adv-x="282" 
d="M0 -44l0.999023 0.00195312c24 0 46.333 4.5 67 13.5s38.834 21.333 54.501 37s28 34 37 55s13.5 43.5 13.5 67.5h1v583h-1c0 24 -4.5 46.5 -13.5 67.5s-21.333 39.333 -37 55s-34 28 -55 37s-43.5 13.5 -67.5 13.5v48c30.667 0 59.334 -5.83301 86.001 -17.5
s50 -27.5 70 -47.5s35.833 -43.333 47.5 -70s17.5 -55.334 17.5 -86.001h1v-583h-1c0 -30.667 -5.83301 -59.334 -17.5 -86.001s-27.5 -50 -47.5 -70s-43.333 -35.833 -70 -47.5s-55.334 -17.5 -86.001 -17.5v48z" />
    <glyph glyph-name="asterisk" unicode="*" horiz-adv-x="517" 
d="M457 347v-48h-140l99 -99l-34 -34l-99 99v-141h-48v141l-100 -99l-34 34l100 99h-141v48h141l-100 99l34 34l100 -99v140h48v-140l99 99l34 -34l-99 -99h140v0z" />
    <glyph glyph-name="plus" unicode="+" horiz-adv-x="433" 
d="M373 347v-48h-133v-133h-48v133h-132v48h132v132h48v-132h133v0z" />
    <glyph glyph-name="comma" unicode="," horiz-adv-x="193" 
d="M132 36v-21.501c0 -7 -1.33301 -14.167 -4 -21.5c-4.66699 -15.333 -13.167 -28.333 -25.5 -39s-26.5 -17.667 -42.5 -21v50c10 4.66699 17 11.334 21 20.001c-14 6.66699 -21 17.667 -21 33c0 10 3.5 18.5 10.5 25.5s15.5 10.5 25.5 10.5s18.5 -3.5 25.5 -10.5
s10.5 -15.5 10.5 -25.5z" />
    <glyph glyph-name="hyphen" unicode="-" horiz-adv-x="467" 
d="M60 257v48h347v-48h-347v0z" />
    <glyph glyph-name="period" unicode="." horiz-adv-x="192" 
d="M132 36c0 -10 -3.5 -18.5 -10.5 -25.5s-15.5 -10.5 -25.5 -10.5s-18.5 3.5 -25.5 10.5s-10.5 15.5 -10.5 25.5s3.5 18.5 10.5 25.5s15.5 10.5 25.5 10.5s18.5 -3.5 25.5 -10.5s10.5 -15.5 10.5 -25.5z" />
    <glyph glyph-name="slash" unicode="/" horiz-adv-x="438" 
d="M34 -70l-44 20l414 901l44 -20l-414 -901v0z" />
    <glyph glyph-name="zero" unicode="0" 
d="M502 221c0 -30.667 -5.66699 -59.334 -17 -86.001s-27 -50 -47 -70s-43.5 -35.833 -70.5 -47.5s-55.833 -17.5 -86.5 -17.5s-59.334 5.83301 -86.001 17.5s-50 27.5 -70 47.5s-35.833 43.333 -47.5 70s-17.5 55.334 -17.5 86.001v291
c0 30.667 5.83301 59.334 17.5 86.001s27.5 50 47.5 70s43.333 35.833 70 47.5s55.334 17.5 86.001 17.5s59.5 -5.83301 86.5 -17.5s50.5 -27.5 70.5 -47.5s35.667 -43.333 47 -70s17 -55.334 17 -86.001v-291zM281 48c24 0 46.5 4.5 67.5 13.5s39.333 21.333 55 37
s28 34 37 55s13.5 43.5 13.5 67.5v291c0 24 -4.5 46.5 -13.5 67.5s-21.333 39.333 -37 55s-34 28 -55 37s-43.5 13.5 -67.5 13.5s-46.5 -4.5 -67.5 -13.5s-39.333 -21.333 -55 -37s-28 -34 -37 -55s-13.5 -43.5 -13.5 -67.5v-291c0 -24 4.5 -46.5 13.5 -67.5
s21.333 -39.333 37 -55s34 -28 55 -37s43.5 -13.5 67.5 -13.5z" />
    <glyph glyph-name="one" unicode="1" horiz-adv-x="291" 
d="M180 733l1.00098 0.000976562v-733h-48v625c-10 -9.33301 -21.167 -17 -33.5 -23s-25.5 -10.333 -39.5 -13v50c21.333 5.33301 38.666 16.666 51.999 33.999s20 37.333 20 60h48z" />
    <glyph glyph-name="two" unicode="2" horiz-adv-x="565" 
d="M505 48l-0.00195312 -48.001h-445v48l245 244l90 90l16 15c13.333 15.333 23.833 32.833 31.5 52.5s11.5 40.5 11.5 62.5c0 24 -4.5 46.5 -13.5 67.5s-21.333 39.333 -37 55s-34 28 -55 37s-43.5 13.5 -67.5 13.5s-46.5 -4.5 -67.5 -13.5s-39.333 -21.333 -55 -37
s-28 -34 -37 -55s-13.5 -43.5 -13.5 -67.5h-48c0 30.667 5.83301 59.334 17.5 86.001s27.5 50 47.5 70s43.333 35.833 70 47.5s55.334 17.5 86.001 17.5s59.334 -5.83301 86.001 -17.5s50 -27.5 70 -47.5s35.833 -43.333 47.5 -70s17.5 -55.334 17.5 -86.001v-12.5
c0 -4.33301 -0.333008 -8.5 -1 -12.5c-2.66699 -23.333 -8.66699 -45.166 -18 -65.499s-21.333 -38.833 -36 -55.5c-6.66699 -7.33301 -13.667 -14.333 -21 -21l-298 -297h377z" />
    <glyph glyph-name="three" unicode="3" 
d="M401 367c30 -16.667 54.3301 -40 72.9971 -70s28 -63.667 28 -101c0 -27.333 -5.83301 -52.833 -17.5 -76.5s-27 -44.167 -46 -61.5s-41.167 -31.166 -66.5 -41.499s-51.333 -15.5 -78 -15.5c-30.667 0 -60 5.83301 -88 17.5s-52.833 27.5 -74.5 47.5s-39 43.333 -52 70
s-19.5 55.334 -19.5 86.001h48c0 -24 5.16699 -46.5 15.5 -67.5s24.166 -39.333 41.499 -55s37.166 -28 59.499 -37s45.5 -13.5 69.5 -13.5c20 0 39.667 3.83301 59 11.5s36.5 18.167 51.5 31.5s27 29 36 47s13.5 37 13.5 57c0 19.333 -3.5 37.5 -10.5 54.5
s-16.667 32.167 -29 45.5s-26.666 24.166 -42.999 32.499s-33.833 13.166 -52.5 14.499h-36v48h24h7h3c18.667 1.33301 36.334 6 53.001 14s31.334 18.667 44.001 32s22.5 28.666 29.5 45.999s10.5 35.666 10.5 54.999c0 20 -4.5 39 -13.5 57s-21 33.667 -36 47
s-32.167 23.833 -51.5 31.5s-39 11.5 -59 11.5c-24 0 -47.167 -4.5 -69.5 -13.5s-42.166 -21.333 -59.499 -37s-31.166 -34 -41.499 -55s-15.5 -43.5 -15.5 -67.5h-48c0 30.667 6.5 59.334 19.5 86.001s30.333 50 52 70s46.5 35.833 74.5 47.5s57.333 17.5 88 17.5
c26.667 0 52.667 -5.16699 78 -15.5s47.5 -24.166 66.5 -41.499s34.333 -38 46 -62s17.5 -49.333 17.5 -76c0 -37.333 -9.33301 -71 -28 -101s-43 -53.333 -73 -70z" />
    <glyph glyph-name="four" unicode="4" horiz-adv-x="592" 
d="M484 126h48v-48h-48v-78h-48v78h-372h-24v48v0v0v0l396 607h1h12h35v-607zM97 126h339v519z" />
    <glyph glyph-name="five" unicode="5" horiz-adv-x="565" 
d="M283 527c30.667 0 59.5 -5.83203 86.5 -17.499s50.5 -27.5 70.5 -47.5s35.833 -43.5 47.5 -70.5s17.5 -55.833 17.5 -86.5v-83c0 -30.667 -5.83301 -59.5 -17.5 -86.5s-27.5 -50.5 -47.5 -70.5s-43.5 -35.833 -70.5 -47.5s-55.833 -17.5 -86.5 -17.5
s-59.5 5.83301 -86.5 17.5s-50.5 27.5 -70.5 47.5s-36 43.5 -48 70.5s-18 55.833 -18 86.5h49c0 -24 4.5 -46.5 13.5 -67.5s21.5 -39.5 37.5 -55.5s34.5 -28.5 55.5 -37.5s43.5 -13.5 67.5 -13.5s46.5 4.5 67.5 13.5s39.5 21.5 55.5 37.5s28.5 34.5 37.5 55.5
s13.5 43.5 13.5 67.5v83c0 24 -4.5 46.5 -13.5 67.5s-21.5 39.5 -37.5 55.5s-34.5 28.5 -55.5 37.5s-43.5 13.5 -67.5 13.5s-46.5 -4.5 -67.5 -13.5s-39.5 -21.5 -55.5 -37.5s-28.5 -34.5 -37.5 -55.5s-13.5 -43.5 -13.5 -67.5h-49h1v428h48h396v-48h-396v-242
c20 25.333 45 45.666 75 60.999s63 23 99 23z" />
    <glyph glyph-name="six" unicode="6" 
d="M281 442c30.667 0 59.3369 -5.8291 86.0039 -17.4961s50 -27.5 70 -47.5s35.833 -43.333 47.5 -70s17.5 -55.334 17.5 -86.001s-5.83301 -59.334 -17.5 -86.001s-27.5 -50 -47.5 -70s-43.333 -35.833 -70 -47.5s-55.334 -17.5 -86.001 -17.5c-25.333 0 -49.333 4 -72 12
s-43.334 19.167 -62.001 33.5s-34.834 31.166 -48.501 50.499s-23.834 40.666 -30.501 63.999c-5.33301 20 -8 40.333 -8 61c0 30 5.66699 58.333 17 85v1l177 426h52l-132 -319c32 18.667 67.667 28 107 28zM454.003 221.004c0 24 -4.5 46.5 -13.5 67.5
s-21.333 39.333 -37 55s-34 28 -55 37s-43.5 13.5 -67.5 13.5s-46.5 -4.5 -67.5 -13.5s-39.333 -21.333 -55 -37s-28 -34 -37 -55s-13.5 -43.5 -13.5 -67.5s4.5 -46.5 13.5 -67.5s21.333 -39.333 37 -55s34 -28 55 -37s43.5 -13.5 67.5 -13.5s46.5 4.5 67.5 13.5
s39.333 21.333 55 37s28 34 37 55s13.5 43.5 13.5 67.5z" />
    <glyph glyph-name="seven" unicode="7" horiz-adv-x="545" 
d="M485 685l-284 -685h-52l284 685h-373h-20v48h445v-48v0z" />
    <glyph glyph-name="eight" unicode="8" 
d="M374 422c38 -17.333 68.8398 -44.001 92.5068 -80.001s35.5 -76.333 35.5 -121c0 -30.667 -5.83301 -59.334 -17.5 -86.001s-27.5 -50 -47.5 -70s-43.333 -35.833 -70 -47.5s-55.334 -17.5 -86.001 -17.5s-59.334 5.83301 -86.001 17.5s-50 27.5 -70 47.5
s-35.833 43.333 -47.5 70s-17.5 55.334 -17.5 86.001c0 22 3.16699 43.333 9.5 64s15.166 39.667 26.499 57s24.833 32.833 40.5 46.5s33.167 24.834 52.5 33.501c-23.333 15.333 -42 35.333 -56 60s-21 52 -21 82c0 23.333 4.5 45.166 13.5 65.499
s21.167 38.166 36.5 53.499s33.166 27.5 53.499 36.5s42.166 13.5 65.499 13.5s45.166 -4.5 65.499 -13.5s38.166 -21.167 53.499 -36.5s27.5 -33.166 36.5 -53.499s13.5 -42.166 13.5 -65.499c0 -30 -6.83301 -57.333 -20.5 -82s-32.167 -44.667 -55.5 -60z
M160.007 563.999c0 -16.667 3.00195 -32.334 9.00195 -47.001s14.333 -27.5 25 -38.5s23.167 -19.667 37.5 -26s29.5 -9.83301 45.5 -10.5h4h4c16 0.666992 31.167 4.16699 45.5 10.5s26.833 15 37.5 26s19 23.833 25 38.5s9 30.334 9 47.001s-3.16699 32.334 -9.5 47.001
s-15 27.5 -26 38.5s-23.833 19.667 -38.5 26s-30.334 9.5 -47.001 9.5s-32.334 -3.16699 -47.001 -9.5s-27.5 -15 -38.5 -26s-19.667 -23.833 -26 -38.5s-9.5 -30.334 -9.5 -47.001zM454.009 220.999c0 24 -4.5 46.5 -13.5 67.5s-21.333 39.333 -37 55s-34 28 -55 37
s-43.5 13.5 -67.5 13.5s-46.5 -4.5 -67.5 -13.5s-39.333 -21.333 -55 -37s-28 -34 -37 -55s-13.5 -43.5 -13.5 -67.5s4.5 -46.5 13.5 -67.5s21.333 -39.333 37 -55s34 -28 55 -37s43.5 -13.5 67.5 -13.5s46.5 4.5 67.5 13.5s39.333 21.333 55 37s28 34 37 55
s13.5 43.5 13.5 67.5z" />
    <glyph glyph-name="nine" unicode="9" 
d="M281 291c-30.667 0 -59.335 5.83203 -86.002 17.499s-50 27.5 -70 47.5s-35.833 43.333 -47.5 70s-17.5 55.334 -17.5 86.001s5.83301 59.334 17.5 86.001s27.5 50 47.5 70s43.333 35.833 70 47.5s55.334 17.5 86.001 17.5c25.333 0 49.333 -4 72 -12
s43.334 -19.167 62.001 -33.5s34.667 -31.333 48 -51s23.333 -41.167 30 -64.5c6 -19.333 9 -39.333 9 -60c0 -29.333 -5.66699 -58 -17 -86h-1l-176 -426h-52l132 318c-16 -8.66699 -33 -15.334 -51 -20.001s-36.667 -7 -56 -7zM107.999 511.999
c0 -24 4.5 -46.5 13.5 -67.5s21.333 -39.333 37 -55s34 -28 55 -37s43.5 -13.5 67.5 -13.5s46.5 4.5 67.5 13.5s39.333 21.333 55 37s28 34 37 55s13.5 43.5 13.5 67.5s-4.5 46.5 -13.5 67.5s-21.333 39.333 -37 55s-34 28 -55 37s-43.5 13.5 -67.5 13.5
s-46.5 -4.5 -67.5 -13.5s-39.333 -21.333 -55 -37s-28 -34 -37 -55s-13.5 -43.5 -13.5 -67.5z" />
    <glyph glyph-name="colon" unicode=":" horiz-adv-x="192" 
d="M132 456c0 -10 -3.5 -18.5 -10.5 -25.5s-15.5 -10.5 -25.5 -10.5s-18.5 3.5 -25.5 10.5s-10.5 15.5 -10.5 25.5s3.5 18.5 10.5 25.5s15.5 10.5 25.5 10.5s18.5 -3.5 25.5 -10.5s10.5 -15.5 10.5 -25.5zM132 159c0 -10 -3.5 -18.5 -10.5 -25.5s-15.5 -10.5 -25.5 -10.5
s-18.5 3.5 -25.5 10.5s-10.5 15.5 -10.5 25.5s3.5 18.5 10.5 25.5s15.5 10.5 25.5 10.5s18.5 -3.5 25.5 -10.5s10.5 -15.5 10.5 -25.5z" />
    <glyph glyph-name="semicolon" unicode=";" horiz-adv-x="193" 
d="M132 456c0 -10 -3.5 -18.5 -10.5 -25.5s-15.5 -10.5 -25.5 -10.5s-18.5 3.5 -25.5 10.5s-10.5 15.5 -10.5 25.5s3.5 18.5 10.5 25.5s15.5 10.5 25.5 10.5s18.5 -3.5 25.5 -10.5s10.5 -15.5 10.5 -25.5zM132 149c0 10 -3.5 18.501 -10.5 25.501s-15.5 10.5 -25.5 10.5
s-18.5 -3.5 -25.5 -10.5s-10.5 -15.5 -10.5 -25.5c0 -15.333 7 -26.333 21 -33c-4 -8.66699 -11 -15.334 -21 -20.001v-50c16 3.33301 30.167 10.333 42.5 21s20.833 23.667 25.5 39c2.66699 7.33301 4 14.5 4 21.5v21.5z" />
    <glyph glyph-name="less" unicode="&#x3c;" horiz-adv-x="375" 
d="M60 319v0l34 34v0l187 187l34 -34l-187 -187l187 -188l-34 -34l-187 188v0l-34 34v0z" />
    <glyph glyph-name="equal" unicode="=" horiz-adv-x="433" 
d="M60 249v48h313v-48h-313v0zM60 348v48h313v-48h-313v0z" />
    <glyph glyph-name="greater" unicode="&#x3e;" horiz-adv-x="375" 
d="M315 319v0l-34 -34v0l-187 -188l-34 34l187 188l-187 187l34 34l187 -187v0l34 -34v0z" />
    <glyph glyph-name="question" unicode="?" horiz-adv-x="412" 
d="M249 36c0 -10 -3.5 -18.5 -10.5 -25.5s-15.5 -10.5 -25.5 -10.5s-18.5 3.5 -25.5 10.5s-10.5 15.5 -10.5 25.5s3.5 18.5 10.5 25.5s15.5 10.5 25.5 10.5s18.5 -3.5 25.5 -10.5s10.5 -15.5 10.5 -25.5zM352 534c0 -28.667 -5.33203 -56.501 -15.999 -83.501
s-26.667 -51.167 -48 -72.5c-16 -16 -28.5 -34.5 -37.5 -55.5s-13.5 -43.5 -13.5 -67.5v-143h-48v143c0 30.667 5.66699 59.334 17 86.001s27 50 47 70c17.333 17.333 30.166 36.5 38.499 57.5s12.5 42.833 12.5 65.5c0 27.333 -9.33301 50.5 -28 69.5s-42 28.5 -70 28.5
c-27.333 0 -50.333 -9.5 -69 -28.5s-28 -42.167 -28 -69.5h-49c0 20 3.83301 39 11.5 57s18 33.5 31 46.5s28.5 23.333 46.5 31s37 11.5 57 11.5s39 -3.83301 57 -11.5s33.5 -18 46.5 -31s23.333 -28.5 31 -46.5s11.5 -37 11.5 -57z" />
    <glyph glyph-name="at" unicode="@" horiz-adv-x="815" 
d="M775 263c0 -68.667 -15.335 -116.666 -46.002 -143.999c-17.333 -16 -38.333 -24 -63 -24c-2 0 -4 0.166992 -6 0.5s-4 0.5 -6 0.5c-18.667 2 -33.334 9 -44.001 21c-3.33301 -6 -6.83301 -11.833 -10.5 -17.5s-7.83398 -11.167 -12.501 -16.5v1
c-17.333 -22.667 -38.666 -41.334 -63.999 -56.001s-53 -23.667 -83 -27h-6h-1c-2 0 -3.66699 -0.333008 -5 -1h-1h-6h-1h-6h-63c-22 0 -42.5 4.16699 -61.5 12.5s-35.5 19.666 -49.5 33.999s-25.167 31 -33.5 50s-12.5 39.5 -12.5 61.5c0 32 8 60 24 84
c19.333 32 46.666 53.667 81.999 65c2 1.33301 4.16699 2.16602 6.5 2.49902s4.5 0.833008 6.5 1.5l165 49l25 7l12 3c17.333 7.33301 32 17.333 44 30c-15.333 23.333 -35.666 42.333 -60.999 57s-53.333 22 -84 22c-24 0 -46.5 -4.5 -67.5 -13.5s-39.333 -21.333 -55 -37
s-28 -34 -37 -55s-13.5 -43.5 -13.5 -67.5h-48c0 30.667 5.83301 59.334 17.5 86.001s27.5 50 47.5 70s43.333 35.833 70 47.5s55.334 17.5 86.001 17.5c34.667 0 66.667 -7.16699 96 -21.5s54 -33.833 74 -58.5c6.66699 -7.33301 12.5 -15.166 17.5 -23.499
s9.83301 -17.166 14.5 -26.499h-1c13.333 -28.667 20 -59 20 -91v-77v-8v-11c0 -3.33301 -0.166992 -6.5 -0.5 -9.5s-0.833008 -6.16699 -1.5 -9.5c0 -6 0.666992 -12.667 2 -20s4 -13.666 8 -18.999c3.33301 -4 8.66602 -6.66699 15.999 -8
c14.667 -2 27.334 1.33301 38.001 10c9.33301 9.33301 16.833 23.333 22.5 42s8.5 41 8.5 67c0 44.667 -8.33301 86.5 -25 125.5s-39.5 73 -68.5 102s-63 51.833 -102 68.5s-80.5 25 -124.5 25s-85.5 -8.33301 -124.5 -25s-73 -39.5 -102 -68.5s-52 -63 -69 -102
s-25.5 -80.833 -25.5 -125.5c0 -44 8.5 -85.5 25.5 -124.5s40 -73 69 -102s63 -51.833 102 -68.5s80.5 -25 124.5 -25s85.333 8.33301 124 25s72.667 39.667 102 69l33 -33c-33.333 -34 -72.166 -60.5 -116.499 -79.5s-92.166 -28.5 -143.499 -28.5
c-50.667 0 -98.167 9.66699 -142.5 29s-83.166 45.666 -116.499 78.999s-59.666 72.166 -78.999 116.499s-29 91.833 -29 142.5s9.66699 98.334 29 143.001s45.666 83.667 78.999 117s72.166 59.666 116.499 78.999s91.833 29 142.5 29s98.334 -9.66699 143.001 -29
s83.667 -45.666 117 -78.999s59.666 -72.333 78.999 -117s29 -92.334 29 -143.001zM456.998 53.001c34 9.33301 62.499 26.498 85.499 51.498s37.167 54.833 42.5 89.5c0.666992 3.33301 1 6 1 8s0.333008 3.33301 1 4v15v85c0 16.667 -2 32.667 -6 48
c-15.333 -13.333 -32.666 -23 -51.999 -29c-2 -1.33301 -4.16699 -2.16602 -6.5 -2.49902s-4.83301 -1.16602 -7.5 -2.49902l-164 -48l-28 -8l-5 -1c-22 -7.33301 -40.167 -20.5 -54.5 -39.5s-21.5 -40.833 -21.5 -65.5c0 -15.333 2.83301 -29.5 8.5 -42.5
s13.5 -24.5 23.5 -34.5s21.5 -18 34.5 -24s27.167 -9 42.5 -9h63c14 0 28.333 1.66699 43 5z" />
    <glyph glyph-name="A" unicode="A" horiz-adv-x="582" 
d="M492 0l-47 159h-308l-47 -159h-50l215 733h36h36l215 -733h-50zM151 207h280l-140 478z" />
    <glyph glyph-name="B" unicode="B" horiz-adv-x="590" 
d="M421 379c18.667 -6.66699 35.833 -16.002 51.5 -28.002s29.334 -26 41.001 -42s20.667 -33.667 27 -53s9.5 -39.666 9.5 -60.999c0 -27.333 -5.16699 -52.833 -15.5 -76.5s-24.333 -44.167 -42 -61.5s-38.5 -31.166 -62.5 -41.499s-49.333 -15.5 -76 -15.5h-246h-48v733
h24h24h198c26.667 0 52 -5.16699 76 -15.5s44.833 -24.333 62.5 -42s31.667 -38.5 42 -62.5s15.5 -49.333 15.5 -76c0 -32.667 -7.33301 -62.667 -22 -90s-34.334 -50 -59.001 -68zM107.999 684.998v-295h198c20.667 0 40 3.83301 58 11.5s33.667 18.167 47 31.5
s23.833 29 31.5 47s11.5 37 11.5 57c0 20.667 -3.83301 40 -11.5 58s-18.167 33.667 -31.5 47s-29 23.833 -47 31.5s-37.333 11.5 -58 11.5h-198zM353.999 47.998c20.667 0 40.001 3.83203 58.001 11.499s33.667 18.167 47 31.5s23.833 29 31.5 47s11.5 37 11.5 57
c0 20.667 -3.83301 39.834 -11.5 57.501s-18.334 33.167 -32.001 46.5s-29.5 23.833 -47.5 31.5s-37 11.5 -57 11.5h-246v-294h246z" />
    <glyph glyph-name="C" unicode="C" 
d="M281 733c30.667 0 59.334 -5.83301 86.001 -17.5s50 -27.5 70 -47.5s35.833 -43.333 47.5 -70s17.5 -55.334 17.5 -86.001h-48c0 24 -4.5 46.5 -13.5 67.5s-21.333 39.333 -37 55s-34 28 -55 37s-43.5 13.5 -67.5 13.5s-46.5 -4.5 -67.5 -13.5s-39.333 -21.333 -55 -37
s-28 -34 -37 -55s-13.5 -43.5 -13.5 -67.5v-291c0 -24 4.5 -46.5 13.5 -67.5s21.333 -39.333 37 -55s34 -28 55 -37s43.5 -13.5 67.5 -13.5s46.5 4.5 67.5 13.5s39.333 21.333 55 37s28 34 37 55s13.5 43.5 13.5 67.5h48c0 -30.667 -5.83301 -59.334 -17.5 -86.001
s-27.5 -50 -47.5 -70s-43.333 -35.833 -70 -47.5s-55.334 -17.5 -86.001 -17.5s-59.334 5.83301 -86.001 17.5s-50 27.5 -70 47.5s-35.833 43.333 -47.5 70s-17.5 55.334 -17.5 86.001v291c0 30.667 5.83301 59.334 17.5 86.001s27.5 50 47.5 70s43.333 35.833 70 47.5
s55.334 17.5 86.001 17.5z" />
    <glyph glyph-name="D" unicode="D" 
d="M281 733c30.667 0 59.334 -5.83105 86.001 -17.498s50 -27.5 70 -47.5s35.833 -43.333 47.5 -70s17.5 -55.334 17.5 -86.001v-291c0 -30.667 -5.83301 -59.334 -17.5 -86.001s-27.5 -50 -47.5 -70s-43.333 -35.833 -70 -47.5s-55.334 -17.5 -86.001 -17.5h-173h-48v733
h48h173zM454 512.002c0 24 -4.5 46.5 -13.5 67.5s-21.333 39.333 -37 55s-34 28 -55 37s-43.5 13.5 -67.5 13.5h-173v-637h173c24 0 46.5 4.5 67.5 13.5s39.333 21.333 55 37s28 34 37 55s13.5 43.5 13.5 67.5v291z" />
    <glyph glyph-name="E" unicode="E" 
d="M60 733h48h394v-48h-394v-294h394v-49h-394v-294h394v-48h-442v1v47v294v48v295v48v0z" />
    <glyph glyph-name="F" unicode="F" 
d="M108 342v-342h-48v342v48v295v48h48h394v-48h-394v-294h394v-49h-394v0z" />
    <glyph glyph-name="G" unicode="G" horiz-adv-x="563" 
d="M61 221h-1v293c0 30.667 5.83301 59.334 17.5 86.001s27.5 50 47.5 70s43.5 35.833 70.5 47.5s55.833 17.5 86.5 17.5s59.334 -5.83301 86.001 -17.5s50 -27.5 70 -47.5s35.833 -43.333 47.5 -70s17.5 -55.334 17.5 -86.001h-48c0 24 -4.5 46.5 -13.5 67.5
s-21.333 39.333 -37 55s-34 28 -55 37s-43.5 13.5 -67.5 13.5s-46.5 -4.5 -67.5 -13.5s-39.333 -21.333 -55 -37s-28 -34 -37 -55s-13.5 -43.5 -13.5 -67.5v-293c0 -24 4.5 -46.5 13.5 -67.5s21.333 -39.333 37 -55s34 -28 55 -37s43.5 -13.5 67.5 -13.5s46.5 4.5 67.5 13.5
s39.333 21.333 55 37s28 34 37 55s13.5 43.5 13.5 67.5v123h-173v49h221v-172c0 -30.667 -5.83301 -59.334 -17.5 -86.001s-27.5 -50 -47.5 -70s-43.333 -35.833 -70 -47.5s-55.334 -17.5 -86.001 -17.5s-59.5 5.83301 -86.5 17.5s-50.5 27.5 -70.5 47.5
s-35.833 43.333 -47.5 70s-17.5 55.334 -17.5 86.001h1z" />
    <glyph glyph-name="H" unicode="H" horiz-adv-x="563" 
d="M108 341v-341h-48v341v48v344h48v-343h346v343h49v-344v-48v-341h-49v341h-346v0z" />
    <glyph glyph-name="I" unicode="I" horiz-adv-x="168" 
d="M60 0v733h48v-733h-48v0z" />
    <glyph glyph-name="J" unicode="J" horiz-adv-x="542" 
d="M482 221c0 -30.667 -5.83105 -59.334 -17.498 -86.001s-27.5 -50 -47.5 -70s-43.333 -35.833 -70 -47.5s-55.334 -17.5 -86.001 -17.5s-59.334 5.83301 -86.001 17.5s-50 27.5 -70 47.5s-35.833 43.333 -47.5 70s-17.5 55.334 -17.5 86.001h48
c0 -24 4.5 -46.5 13.5 -67.5s21.333 -39.333 37 -55s34 -28 55 -37s43.5 -13.5 67.5 -13.5s46.5 4.5 67.5 13.5s39.333 21.333 55 37s28 34 37 55s13.5 43.5 13.5 67.5v512h48v-512z" />
    <glyph glyph-name="K" unicode="K" horiz-adv-x="492" 
d="M502 733l-329 -366l329 -366h-65l-297 330l-32 -36v-295h-48v733h48v-366l329 366h65v0z" />
    <glyph glyph-name="L" unicode="L" horiz-adv-x="522" 
d="M108 733v-685h394v-48h-394h-48v48v685h48v0z" />
    <glyph glyph-name="M" unicode="M" horiz-adv-x="750" 
d="M642 733h48v-733h-48v600l-234 -600h-33h-33l-234 601v-601h-48v733h48l267 -685l267 685v0v0z" />
    <glyph glyph-name="N" unicode="N" 
d="M454 733h48v-721v-12h-48v0v0l-346 633v-633h-48v733h48l346 -633v633v0z" />
    <glyph glyph-name="O" unicode="O" 
d="M281 733c30.667 0 59.334 -5.83301 86.001 -17.5s50 -27.5 70 -47.5s35.833 -43.333 47.5 -70s17.5 -55.334 17.5 -86.001v-291c0 -30.667 -5.83301 -59.334 -17.5 -86.001s-27.5 -50 -47.5 -70s-43.333 -35.833 -70 -47.5s-55.334 -17.5 -86.001 -17.5
s-59.334 5.83301 -86.001 17.5s-50 27.5 -70 47.5s-35.833 43.333 -47.5 70s-17.5 55.334 -17.5 86.001v291c0 30.667 5.83301 59.334 17.5 86.001s27.5 50 47.5 70s43.333 35.833 70 47.5s55.334 17.5 86.001 17.5zM454 512c0 24 -4.5 46.5 -13.5 67.5
s-21.333 39.333 -37 55s-34 28 -55 37s-43.5 13.5 -67.5 13.5s-46.5 -4.5 -67.5 -13.5s-39.333 -21.333 -55 -37s-28 -34 -37 -55s-13.5 -43.5 -13.5 -67.5v-291c0 -24 4.5 -46.5 13.5 -67.5s21.333 -39.333 37 -55s34 -28 55 -37s43.5 -13.5 67.5 -13.5s46.5 4.5 67.5 13.5
s39.333 21.333 55 37s28 34 37 55s13.5 43.5 13.5 67.5v291z" />
    <glyph glyph-name="P" unicode="P" horiz-adv-x="570" 
d="M550 537c0 -27.333 -5.16699 -52.834 -15.5 -76.501s-24.333 -44.167 -42 -61.5s-38.5 -31.166 -62.5 -41.499s-49.333 -15.5 -76 -15.5v1h-246v-343h-48v733h48h246c26.667 0 52 -5.16699 76 -15.5s44.833 -24.333 62.5 -42s31.667 -38.5 42 -62.5
s15.5 -49.333 15.5 -76zM502 536.999c0 20.667 -3.83301 40 -11.5 58s-18.167 33.667 -31.5 47s-29 23.833 -47 31.5s-37.333 11.5 -58 11.5h-246v-294h246c20.667 0 40 3.83301 58 11.5s33.667 18 47 31s23.833 28.5 31.5 46.5s11.5 37 11.5 57z" />
    <glyph glyph-name="Q" unicode="Q" 
d="M502 221c0 -31.333 -6 -60.668 -18 -88.001s-28.667 -51 -50 -71c22 -9.33301 44.667 -14 68 -14v-48c-20 0 -39.333 2.5 -58 7.5s-36 12.167 -52 21.5c-16.667 -9.33301 -34.334 -16.5 -53.001 -21.5s-38 -7.5 -58 -7.5c-30.667 0 -59.334 5.83301 -86.001 17.5
s-50 27.5 -70 47.5s-35.833 43.333 -47.5 70s-17.5 55.334 -17.5 86.001v291c0 30.667 5.83301 59.334 17.5 86.001s27.5 50 47.5 70s43.333 35.833 70 47.5s55.334 17.5 86.001 17.5s59.334 -5.83301 86.001 -17.5s50 -27.5 70 -47.5s35.833 -43.333 47.5 -70
s17.5 -55.334 17.5 -86.001v-291zM454 511.998c0 24 -4.5 46.5 -13.5 67.5s-21.333 39.333 -37 55s-34 28 -55 37s-43.5 13.5 -67.5 13.5s-46.5 -4.5 -67.5 -13.5s-39.333 -21.333 -55 -37s-28 -34 -37 -55s-13.5 -43.5 -13.5 -67.5v-291c0 -24 4.5 -46.5 13.5 -67.5
s21.333 -39.333 37 -55s34 -28 55 -37s43.5 -13.5 67.5 -13.5s46.5 4.5 67.5 13.5s39.333 21.333 55 37s28 34 37 55s13.5 43.5 13.5 67.5v291z" />
    <glyph glyph-name="R" unicode="R" horiz-adv-x="570" 
d="M498 1l-141.997 340.999h-2v1h-246v-343h-48v733h48h246c26.667 0 52 -5.16699 76 -15.5s44.667 -24.333 62 -42s31.166 -38.5 41.499 -62.5s15.5 -49.333 15.5 -76c0 -22.667 -3.66699 -44.167 -11 -64.5s-17.333 -38.666 -30 -54.999s-27.834 -30.5 -45.501 -42.5
s-36.834 -20.667 -57.501 -26l145 -348h-52zM108.003 390.999h246.001c20 0 39 3.83301 57 11.5s33.667 18 47 31s23.833 28.5 31.5 46.5s11.5 37 11.5 57c0 20.667 -3.83301 40 -11.5 58s-18.167 33.667 -31.5 47s-28.833 23.833 -46.5 31.5s-36.834 11.5 -57.501 11.5
h-246v-294z" />
    <glyph glyph-name="S" unicode="S" horiz-adv-x="563" 
d="M401 356c14 -8 27.1689 -17.665 39.502 -28.998s23.166 -24 32.499 -38s16.666 -29 21.999 -45s8 -32.333 8 -49c0 -27.333 -5.83301 -52.833 -17.5 -76.5s-27 -44.167 -46 -61.5s-41.167 -31.166 -66.5 -41.499s-51.333 -15.5 -78 -15.5
c-30.667 0 -60.167 5.83301 -88.5 17.5s-53.333 27.5 -75 47.5s-39 43.333 -52 70s-19.5 55.334 -19.5 86.001h48c0 -24 5.16699 -46.5 15.5 -67.5s24.333 -39.333 42 -55s37.667 -28 60 -37s45.5 -13.5 69.5 -13.5c20.667 0 40.5 3.83301 59.5 11.5s36 18.167 51 31.5
s27 29 36 47s13.5 37 13.5 57c0 9.33301 -1.33301 18.666 -4 27.999s-6 18 -10 26c-11.333 22.667 -26.5 40 -45.5 52s-39.667 21.167 -62 27.5s-45.5 11.666 -69.5 15.999s-46.333 10.166 -67 17.499c-18 6 -35.333 14.833 -52 26.5s-31.167 25 -43.5 40
s-22.166 31.833 -29.499 50.5s-11 38 -11 58c0 26.667 5.66699 52 17 76s26.666 44.833 45.999 62.5s41.333 31.667 66 42s50.667 15.5 78 15.5c30.667 0 60.167 -5.83301 88.5 -17.5s53.333 -27.5 75 -47.5s39 -43.333 52 -70s19.5 -55.334 19.5 -86.001h-48
c0 24 -5.16699 46.5 -15.5 67.5s-24.333 39.333 -42 55s-37.667 28 -60 37s-45.5 13.5 -69.5 13.5c-20.667 0 -40.5 -3.83301 -59.5 -11.5s-36 -18.167 -51 -31.5s-27 -29 -36 -47s-13.5 -37.333 -13.5 -58c0 -20 5 -38.5 15 -55.5s22.333 -31.833 37 -44.5
c16.667 -14.667 34.834 -25 54.501 -31s40.167 -11 61.5 -15l64 -14c21.333 -4.66699 41.666 -11.667 60.999 -21z" />
    <glyph glyph-name="T" unicode="T" horiz-adv-x="482" 
d="M217 0v685h-197v48h197h48h197v-48h-197v-685h-48v0z" />
    <glyph glyph-name="U" unicode="U" 
d="M502 221c0 -30.667 -5.83105 -59.334 -17.498 -86.001s-27.5 -50 -47.5 -70s-43.333 -35.833 -70 -47.5s-55.334 -17.5 -86.001 -17.5s-59.334 5.83301 -86.001 17.5s-50 27.5 -70 47.5s-35.833 43.333 -47.5 70s-17.5 55.334 -17.5 86.001v512h48v-512
c0 -24 4.5 -46.5 13.5 -67.5s21.333 -39.333 37 -55s34 -28 55 -37s43.5 -13.5 67.5 -13.5s46.5 4.5 67.5 13.5s39.333 21.333 55 37s28 34 37 55s13.5 43.5 13.5 67.5v512h48v-512z" />
    <glyph glyph-name="V" unicode="V" horiz-adv-x="542" 
d="M472 733h50l-215 -733h-36h-36l-215 733h50l201 -685l201 685v0z" />
    <glyph glyph-name="W" unicode="W" horiz-adv-x="994" 
d="M235 0l-215 733h50l201 -685l201 685h50l201 -685l201 685h50l-215 -733h-36h-36l-190 648l-190 -648h-36h-36v0z" />
    <glyph glyph-name="X" unicode="X" horiz-adv-x="540" 
d="M520 733l-222 -367l222 -366h-56l-194 320l-194 -320h-56l222 366l-222 367h56l194 -320l194 320h56v0z" />
    <glyph glyph-name="Y" unicode="Y" horiz-adv-x="540" 
d="M520 733l-222 -367l-4 -6v-360h-48v360l-4 6l-222 367h56l194 -320l194 320h56v0z" />
    <glyph glyph-name="Z" unicode="Z" horiz-adv-x="522" 
d="M482 733v-48l-386 -637h386v-48h-415h-27v48v0v0l386 637h-386v48h442v0z" />
    <glyph glyph-name="bracketleft" unicode="[" horiz-adv-x="258" 
d="M258 886h-150v-930h150v-48h-150h-48v48v930v48h48h150v-48v0z" />
    <glyph glyph-name="backslash" unicode="\" horiz-adv-x="438" 
d="M448 -50l-44 -20l-414 901l44 20z" />
    <glyph glyph-name="bracketright" unicode="]" horiz-adv-x="258" 
d="M0 -44h150v930h-150v48h150h48v-48v-930v-48h-48h-150v48v0z" />
    <glyph glyph-name="asciicircum" unicode="^" horiz-adv-x="463" 
d="M231 446v0l34 -34v0l188 -187l-34 -34l-188 187l-187 -187l-34 34l187 187v0l34 34v0z" />
    <glyph glyph-name="underscore" unicode="_" horiz-adv-x="441" 
d="M0 -72v48h441v-48h-441v0z" />
    <glyph glyph-name="grave" unicode="`" horiz-adv-x="248" 
d="M188 578l-34 -34l-94 94l34 34l94 -94v0z" />
    <glyph glyph-name="a" unicode="a" 
d="M502 211c-1.33301 -24.667 -6.16797 -47.833 -14.501 -69.5s-19.5 -41.5 -33.5 -59.5c-17.333 -22.667 -38.666 -41.167 -63.999 -55.5s-53 -23.166 -83 -26.499h-89c-22 0 -42.5 4.16699 -61.5 12.5s-35.667 19.666 -50 33.999s-25.666 31 -33.999 50
s-12.5 39.5 -12.5 61.5c0 30 8.33301 57.667 25 83c19.333 32 46.666 53.667 81.999 65c0.666992 0.666992 2.66699 1.5 6 2.5l25.5 7.5l63.5 18l120 35c17.333 7.33301 32 17.333 44 30c-15.333 24 -35.666 43.167 -60.999 57.5s-53.333 21.5 -84 21.5
c-20 0 -38.833 -3.16699 -56.5 -9.5s-33.834 -15 -48.501 -26s-27.167 -24 -37.5 -39s-18.166 -31.5 -23.499 -49.5h-50c5.33301 24.667 14.666 47.5 27.999 68.5s29.5 39.167 48.5 54.5s40.5 27.333 64.5 36s49 13 75 13c34 0 65.833 -7.16699 95.5 -21.5
s54.5 -33.833 74.5 -58.5c12 -14 22.333 -30.667 31 -50c13.333 -28.667 20 -59 20 -91v-84v-10zM453.998 306.001c0 17.333 -2.33203 32.999 -6.99902 46.999c-15.333 -13.333 -32.333 -23 -51 -29c-1.33301 -0.666992 -3.5 -1.5 -6.5 -2.5s-11.333 -3.5 -25 -7.5l-62 -18
l-117.5 -34c-22 -7.33301 -40.167 -20.5 -54.5 -39.5s-21.5 -40.833 -21.5 -65.5c0 -15.333 2.83301 -29.5 8.5 -42.5s13.5 -24.333 23.5 -34s21.5 -17.5 34.5 -23.5s27.167 -9 42.5 -9h63c13.333 0 27.666 1.66699 42.999 5c18.667 4.66699 36 12.334 52 23.001
s29.667 23.5 41 38.5s20.333 31.5 27 49.5s10 37 10 57v85z" />
    <glyph glyph-name="b" unicode="b" 
d="M502 221c0 -30.667 -5.83301 -59.332 -17.5 -85.999s-27.5 -50 -47.5 -70s-43.333 -35.833 -70 -47.5s-55.334 -17.5 -86.001 -17.5s-59.334 5.83301 -86.001 17.5s-50 27.5 -70 47.5s-35.833 43.333 -47.5 70s-17.5 55.334 -17.5 86.001v85v427h48v-290
c20.667 25.333 45.834 45.666 75.501 60.999s62.167 23 97.5 23c30.667 0 59.334 -5.83301 86.001 -17.5s50 -27.5 70 -47.5s35.833 -43.333 47.5 -70s17.5 -55.334 17.5 -86.001v-85zM454 306.002c0 24 -4.5 46.5 -13.5 67.5s-21.333 39.333 -37 55s-34 28 -55 37
s-43.5 13.5 -67.5 13.5s-46.5 -4.5 -67.5 -13.5s-39.333 -21.333 -55 -37s-28 -34 -37 -55s-13.5 -43.5 -13.5 -67.5v-85c0 -24 4.5 -46.5 13.5 -67.5s21.333 -39.333 37 -55s34 -28 55 -37s43.5 -13.5 67.5 -13.5s46.5 4.5 67.5 13.5s39.333 21.333 55 37s28 34 37 55
s13.5 43.5 13.5 67.5v85z" />
    <glyph glyph-name="c" unicode="c" horiz-adv-x="543" 
d="M493 159c-6.66699 -23.333 -16.835 -44.6689 -30.502 -64.002s-29.667 -36 -48 -50s-38.833 -25 -61.5 -33s-46.667 -12 -72 -12c-30.667 0 -59.334 5.83301 -86.001 17.5s-50 27.5 -70 47.5s-35.833 43.333 -47.5 70s-17.5 55.334 -17.5 86.001v85
c0 30.667 5.83301 59.334 17.5 86.001s27.5 50 47.5 70s43.333 35.833 70 47.5s55.334 17.5 86.001 17.5c25.333 0 49.333 -4 72 -12s43.334 -19.167 62.001 -33.5s34.667 -31.333 48 -51s23.333 -40.834 30 -63.501h-50c-12.667 32.667 -33.5 59.5 -62.5 80.5
s-62.167 31.5 -99.5 31.5c-24 0 -46.5 -4.5 -67.5 -13.5s-39.333 -21.333 -55 -37s-28 -34 -37 -55s-13.5 -43.5 -13.5 -67.5v-85c0 -24 4.5 -46.5 13.5 -67.5s21.333 -39.333 37 -55s34 -28 55 -37s43.5 -13.5 67.5 -13.5c37.333 0 70.333 10.333 99 31
s49.334 47.334 62.001 80.001h51z" />
    <glyph glyph-name="d" unicode="d" 
d="M502 221c0 -30.667 -5.83203 -59.3359 -17.499 -86.0029s-27.5 -50 -47.5 -70s-43.333 -35.833 -70 -47.5s-55.334 -17.5 -86.001 -17.5s-59.334 5.83301 -86.001 17.5s-50 27.5 -70 47.5s-35.833 43.333 -47.5 70s-17.5 55.334 -17.5 86.001v85
c0 30.667 5.83301 59.334 17.5 86.001s27.5 50 47.5 70s43.333 35.833 70 47.5s55.334 17.5 86.001 17.5c35.333 0 68 -7.66699 98 -23s55 -35.666 75 -60.999v290h48v-427v-85zM454.001 305.998c0 24 -4.5 46.5 -13.5 67.5s-21.333 39.333 -37 55s-34 28 -55 37
s-43.5 13.5 -67.5 13.5s-46.5 -4.5 -67.5 -13.5s-39.333 -21.333 -55 -37s-28 -34 -37 -55s-13.5 -43.5 -13.5 -67.5v-85c0 -24 4.5 -46.5 13.5 -67.5s21.333 -39.333 37 -55s34 -28 55 -37s43.5 -13.5 67.5 -13.5s46.5 4.5 67.5 13.5s39.333 21.333 55 37s28 34 37 55
s13.5 43.5 13.5 67.5v85z" />
    <glyph glyph-name="e" unicode="e" 
d="M494 159c-6.66699 -23.333 -16.832 -44.6689 -30.499 -64.002s-29.834 -36 -48.501 -50s-39.334 -25 -62.001 -33s-46.667 -12 -72 -12c-30.667 0 -59.334 5.83301 -86.001 17.5s-50 27.5 -70 47.5s-35.833 43.333 -47.5 70s-17.5 55.334 -17.5 86.001v85
c0 30.667 5.83301 59.334 17.5 86.001s27.5 50 47.5 70s43.333 35.833 70 47.5s55.334 17.5 86.001 17.5s59.334 -5.83301 86.001 -17.5s50 -27.5 70 -47.5s35.833 -43.333 47.5 -70s17.5 -55.334 17.5 -86.001v-49h-290h-104v-36c0 -24 4.5 -46.5 13.5 -67.5
s21.333 -39.333 37 -55s34 -28 55 -37s43.5 -13.5 67.5 -13.5c37.333 0 70.5 10.333 99.5 31s49.833 47.334 62.5 80.001h51zM281.002 478.997c-24 0 -46.5 -4.5 -67.5 -13.5s-39.333 -21.333 -55 -37s-28 -34 -37 -55s-13.5 -43.5 -13.5 -67.5h346
c0 24 -4.5 46.5 -13.5 67.5s-21.333 39.333 -37 55s-34 28 -55 37s-43.5 13.5 -67.5 13.5z" />
    <glyph glyph-name="f" unicode="f" horiz-adv-x="423" 
d="M383 685c-24 0 -46.501 -4.50098 -67.501 -13.501s-39.333 -21.333 -55 -37s-28 -34 -37 -55s-13.5 -43.5 -13.5 -67.5v-64h173v-49h-173v-399h-48v399h-102v49h102v64c0 30.667 5.83301 59.334 17.5 86.001s27.5 50 47.5 70s43.333 35.833 70 47.5
s55.334 17.5 86.001 17.5v-48z" />
    <glyph glyph-name="g" unicode="g" horiz-adv-x="563" 
d="M281 527c30.667 0 59.501 -5.83594 86.501 -17.5029s50.5 -27.5 70.5 -47.5s35.833 -43.333 47.5 -70s17.5 -55.334 17.5 -86.001v-85v-331c0 -30.667 -5.83301 -59.5 -17.5 -86.5s-27.5 -50.5 -47.5 -70.5s-43.5 -35.667 -70.5 -47s-55.833 -17 -86.5 -17
s-59.334 5.83301 -86.001 17.5s-50 27.5 -70 47.5s-35.833 43.333 -47.5 70s-17.5 55.334 -17.5 86.001h48c0 -24 4.5 -46.5 13.5 -67.5s21.333 -39.333 37 -55s34 -28 55 -37s43.5 -13.5 67.5 -13.5s46.5 4.5 67.5 13.5s39.333 21.333 55 37s28 34 37 55
s13.5 43.5 13.5 67.5v194c-20 -25.333 -45 -45.666 -75 -60.999s-62.667 -23 -98 -23c-30.667 0 -59.334 5.83301 -86.001 17.5s-50 27.5 -70 47.5s-35.833 43.333 -47.5 70s-17.5 55.334 -17.5 86.001v85c0 30.667 5.83301 59.334 17.5 86.001s27.5 50 47.5 70
s43.333 35.833 70 47.5s55.334 17.5 86.001 17.5zM454.001 305.997c0 24 -4.5 46.5 -13.5 67.5s-21.333 39.333 -37 55s-34 28 -55 37s-43.5 13.5 -67.5 13.5s-46.5 -4.5 -67.5 -13.5s-39.333 -21.333 -55 -37s-28 -34 -37 -55s-13.5 -43.5 -13.5 -67.5v-85
c0 -24 4.5 -46.5 13.5 -67.5s21.333 -39.333 37 -55s34 -28 55 -37s43.5 -13.5 67.5 -13.5s46.5 4.5 67.5 13.5s39.333 21.333 55 37s28 34 37 55s13.5 43.5 13.5 67.5v85z" />
    <glyph glyph-name="h" unicode="h" horiz-adv-x="563" 
d="M503 0l-48.001 0.00195312v306c0 24 -4.5 46.5 -13.5 67.5s-21.5 39.333 -37.5 55s-34.5 28 -55.5 37s-43.5 13.5 -67.5 13.5s-46.5 -4.5 -67.5 -13.5s-39.333 -21.333 -55 -37s-28 -34 -37 -55s-13.5 -43.5 -13.5 -67.5v-306h-48v306v427h48v-290
c20.667 25.333 45.834 45.666 75.501 60.999s62.167 23 97.5 23c30.667 0 59.5 -5.83301 86.5 -17.5s50.5 -27.5 70.5 -47.5s35.833 -43.333 47.5 -70s17.5 -55.334 17.5 -86.001v-306z" />
    <glyph glyph-name="i" unicode="i" horiz-adv-x="168" 
d="M60 0v527h48v-527h-48zM60 629v104h48v-104h-48z" />
    <glyph glyph-name="j" unicode="j" horiz-adv-x="281" 
d="M173 733h48v-104h-48v104zM221 -110c0 -30.667 -5.83203 -59.5 -17.499 -86.5s-27.5 -50.5 -47.5 -70.5s-43.333 -35.833 -70 -47.5s-55.334 -17.5 -86.001 -17.5v49c24 0 46.5 4.5 67.5 13.5s39.333 21.333 55 37s28 34 37 55s13.5 43.5 13.5 67.5v637h48v-637z" />
    <glyph glyph-name="k" unicode="k" horiz-adv-x="492" 
d="M423 527h79l-346 -264l346 -263h-79l-307 233l-8 -6v-227h-48v733h48v-445l315 239v0z" />
    <glyph glyph-name="l" unicode="l" horiz-adv-x="168" 
d="M60 0v733h48v-733h-48v0z" />
    <glyph glyph-name="m" unicode="m" horiz-adv-x="750" 
d="M521 527c22.667 0 44.0068 -4.16602 64.0068 -12.499s37.5 -19.833 52.5 -34.5s27.167 -31.667 36.5 -51s14.666 -40.333 15.999 -63v-366h-48v357c0 16.667 -3.16699 32.5 -9.5 47.5s-15 28 -26 39s-23.833 19.667 -38.5 26s-30.334 9.5 -47.001 9.5
c-17.333 0 -33.333 -3.16699 -48 -9.5s-27.5 -15 -38.5 -26s-19.667 -24 -26 -39s-9.5 -30.833 -9.5 -47.5v-357h-48v357c0 16.667 -3.16699 32.5 -9.5 47.5s-15 28 -26 39s-24 19.667 -39 26s-30.833 9.5 -47.5 9.5s-32.334 -3.16699 -47.001 -9.5s-27.5 -15 -38.5 -26
s-19.667 -24 -26 -39s-9.5 -30.833 -9.5 -47.5v-357h-48v527h48v-51c15.333 15.333 33.5 27.666 54.5 36.999s43.167 14 66.5 14c31.333 0 59.666 -7.5 84.999 -22.5s45.666 -35.167 60.999 -60.5c15.333 25.333 35.666 45.5 60.999 60.5s53.666 22.5 84.999 22.5z" />
    <glyph glyph-name="n" unicode="n" 
d="M281 527c30.667 0 59.332 -5.83203 85.999 -17.499s50 -27.5 70 -47.5s35.833 -43.333 47.5 -70s17.5 -55.334 17.5 -86.001v-306h-48v306c0 24 -4.5 46.5 -13.5 67.5s-21.333 39.333 -37 55s-34 28 -55 37s-43.5 13.5 -67.5 13.5s-46.5 -4.5 -67.5 -13.5
s-39.333 -21.333 -55 -37s-28 -34 -37 -55s-13.5 -43.5 -13.5 -67.5v-306h-48v306v221h48v-83c20.667 25.333 45.834 45.5 75.501 60.5s62.167 22.5 97.5 22.5z" />
    <glyph glyph-name="o" unicode="o" 
d="M502 221c0 -30.667 -5.83301 -59.334 -17.5 -86.001s-27.5 -50 -47.5 -70s-43.333 -35.833 -70 -47.5s-55.334 -17.5 -86.001 -17.5s-59.334 5.83301 -86.001 17.5s-50 27.5 -70 47.5s-35.833 43.333 -47.5 70s-17.5 55.334 -17.5 86.001v85
c0 30.667 5.83301 59.334 17.5 86.001s27.5 50 47.5 70s43.333 35.833 70 47.5s55.334 17.5 86.001 17.5s59.334 -5.83301 86.001 -17.5s50 -27.5 70 -47.5s35.833 -43.333 47.5 -70s17.5 -55.334 17.5 -86.001v-85zM454 306c0 24 -4.5 46.5 -13.5 67.5
s-21.333 39.333 -37 55s-34 28 -55 37s-43.5 13.5 -67.5 13.5s-46.5 -4.5 -67.5 -13.5s-39.333 -21.333 -55 -37s-28 -34 -37 -55s-13.5 -43.5 -13.5 -67.5v-85c0 -24 4.5 -46.5 13.5 -67.5s21.333 -39.333 37 -55s34 -28 55 -37s43.5 -13.5 67.5 -13.5s46.5 4.5 67.5 13.5
s39.333 21.333 55 37s28 34 37 55s13.5 43.5 13.5 67.5v85z" />
    <glyph glyph-name="p" unicode="p" 
d="M281 527c30.667 0 59.334 -5.83105 86.001 -17.498s50 -27.5 70 -47.5s35.833 -43.333 47.5 -70s17.5 -55.334 17.5 -86.001v-85c0 -30.667 -5.83301 -59.334 -17.5 -86.001s-27.5 -50 -47.5 -70s-43.333 -35.833 -70 -47.5s-55.334 -17.5 -86.001 -17.5
c-35.333 0 -68 7.66699 -98 23s-55 35.666 -75 60.999v-305h-48v442v85c0 30.667 5.66699 59.334 17 86.001s27 50 47 70s43.5 35.833 70.5 47.5s55.833 17.5 86.5 17.5zM454 306.002c0 24 -4.5 46.5 -13.5 67.5s-21.333 39.333 -37 55s-34 28 -55 37s-43.5 13.5 -67.5 13.5
s-46.5 -4.5 -67.5 -13.5s-39.333 -21.333 -55 -37s-28 -34 -37 -55s-13.5 -43.5 -13.5 -67.5v-85c0 -24 4.5 -46.5 13.5 -67.5s21.333 -39.333 37 -55s34 -28 55 -37s43.5 -13.5 67.5 -13.5s46.5 4.5 67.5 13.5s39.333 21.333 55 37s28 34 37 55s13.5 43.5 13.5 67.5v85z
" />
    <glyph glyph-name="q" unicode="q" 
d="M281 527c30.667 0 59.333 -5.83496 86 -17.502s50 -27.5 70 -47.5s35.833 -43.333 47.5 -70s17.5 -55.334 17.5 -86.001v-85v-442h-48v305c-20 -25.333 -45 -45.666 -75 -60.999s-62.667 -23 -98 -23c-30.667 0 -59.334 5.83301 -86.001 17.5s-50 27.5 -70 47.5
s-35.833 43.333 -47.5 70s-17.5 55.334 -17.5 86.001v85c0 30.667 5.83301 59.334 17.5 86.001s27.5 50 47.5 70s43.333 35.833 70 47.5s55.334 17.5 86.001 17.5zM453.999 305.998c0 24 -4.5 46.5 -13.5 67.5s-21.333 39.333 -37 55s-34 28 -55 37s-43.5 13.5 -67.5 13.5
s-46.5 -4.5 -67.5 -13.5s-39.333 -21.333 -55 -37s-28 -34 -37 -55s-13.5 -43.5 -13.5 -67.5v-85c0 -24 4.5 -46.5 13.5 -67.5s21.333 -39.333 37 -55s34 -28 55 -37s43.5 -13.5 67.5 -13.5s46.5 4.5 67.5 13.5s39.333 21.333 55 37s28 34 37 55s13.5 43.5 13.5 67.5v85z
" />
    <glyph glyph-name="r" unicode="r" horiz-adv-x="302" 
d="M282 479c-24 0 -46.5 -4.5 -67.5 -13.5s-39.333 -21.333 -55 -37s-28 -34 -37 -55s-13.5 -43.5 -13.5 -67.5v-306h-49v306v221h49v-83c20 25.333 45 45.5 75 60.5s62.667 22.5 98 22.5v-48z" />
    <glyph glyph-name="s" unicode="s" horiz-adv-x="524" 
d="M352 527c18 0 35 -3.50098 51 -10.501s30 -16.5 42 -28.5s21.5 -26 28.5 -42s10.5 -33 10.5 -51h-49c0 23.333 -8 43.166 -24 59.499s-35.667 24.5 -59 24.5h-180c-11.333 0 -22.166 -2.16699 -32.499 -6.5s-19.333 -10.333 -27 -18s-13.667 -16.5 -18 -26.5
s-6.5 -21 -6.5 -33c0 -18.667 5.33301 -35.167 16 -49.5s24.667 -24.166 42 -29.499l242 -57c18 -5.33301 34.167 -14 48.5 -26s25.5 -26.333 33.5 -43c8.66699 -17.333 13 -36.666 13 -57.999c0 -18 -3.33301 -35 -10 -51s-16 -30 -28 -42s-26 -21.5 -42 -28.5
s-33 -10.5 -51 -10.5h-180c-18 0 -35 3.5 -51 10.5s-30 16.5 -42 28.5s-21.5 26 -28.5 42s-10.5 33 -10.5 51h49c0 -23.333 8 -43.166 24 -59.499s35.667 -24.5 59 -24.5h180c23.333 0 43 8.16699 59 24.5s24 36.166 24 59.499c0 19.333 -5.83301 36.333 -17.5 51
s-26.5 24.667 -44.5 30l-239 56c-36.667 11.333 -63.334 34.333 -80.001 69c-9.33301 17.333 -14 36.333 -14 57c0 18 3.5 35 10.5 51s16.5 30 28.5 42s26 21.5 42 28.5s33 10.5 51 10.5h180v0z" />
    <glyph glyph-name="t" unicode="t" horiz-adv-x="421" 
d="M235 733v-206h166v-48h-166v-479h-48v479h-167v48h167v206h48v0z" />
    <glyph glyph-name="u" unicode="u" horiz-adv-x="563" 
d="M454 527h49.001v-306c0 -30.667 -5.83301 -59.334 -17.5 -86.001s-27.5 -50 -47.5 -70s-43.5 -35.833 -70.5 -47.5s-55.833 -17.5 -86.5 -17.5s-59.334 5.83301 -86.001 17.5s-50 27.5 -70 47.5s-35.833 43.333 -47.5 70s-17.5 55.334 -17.5 86.001v306h48v-306
c0 -24 4.5 -46.5 13.5 -67.5s21.333 -39.333 37 -55s34 -28 55 -37s43.5 -13.5 67.5 -13.5s46.5 4.5 67.5 13.5s39.333 21.333 55 37s28 34 37 55s13.5 43.5 13.5 67.5v306z" />
    <glyph glyph-name="v" unicode="v" horiz-adv-x="482" 
d="M241 66l169 461h52l-194 -527h-3h-48h-4l-193 527h51l170 -461v0z" />
    <glyph glyph-name="w" unicode="w" horiz-adv-x="667" 
d="M478 89l120 438h49l-143 -527h-2h-48h-1l-119 436l-119 -436h-2h-48h-1l-144 527h50l119 -438l120 438v0h49h1l119 -438v0z" />
    <glyph glyph-name="x" unicode="x" horiz-adv-x="483" 
d="M403 527h60l-192 -264l192 -263h-60l-162 223l-161 -223h-60l192 263l-192 264h60l161 -223l162 223v0z" />
    <glyph glyph-name="y" unicode="y" 
d="M454 527l48.0039 -0.00292969v-306v-331c0 -30.667 -5.83301 -59.5 -17.5 -86.5s-27.5 -50.5 -47.5 -70.5s-43.333 -35.667 -70 -47s-55.334 -17 -86.001 -17s-59.334 5.83301 -86.001 17.5s-50 27.5 -70 47.5s-35.833 43.333 -47.5 70s-17.5 55.334 -17.5 86.001h48
c0 -24 4.5 -46.5 13.5 -67.5s21.333 -39.333 37 -55s34 -28 55 -37s43.5 -13.5 67.5 -13.5s46.5 4.5 67.5 13.5s39.333 21.333 55 37s28 34 37 55s13.5 43.5 13.5 67.5v194c-20.667 -25.333 -45.834 -45.666 -75.501 -60.999s-62.167 -23 -97.5 -23
c-30.667 0 -59.334 5.83301 -86.001 17.5s-50 27.5 -70 47.5s-35.833 43.333 -47.5 70s-17.5 55.334 -17.5 86.001v306h48v-306c0 -24 4.5 -46.5 13.5 -67.5s21.333 -39.333 37 -55s34 -28 55 -37s43.5 -13.5 67.5 -13.5s46.5 4.5 67.5 13.5s39.333 21.333 55 37
s28 34 37 55s13.5 43.5 13.5 67.5v306z" />
    <glyph glyph-name="z" unicode="z" horiz-adv-x="523" 
d="M40 479v48h443v-19v0v-29v0h-1l-378 -431h379v-48h-443v19v0v29v0v0l378 431h-378v0z" />
    <glyph glyph-name="braceleft" unicode="{" horiz-adv-x="389" 
d="M167 460l-39.001 -39.002l39 -39l25 -25l23 -23v-36v-169h1c0 -24 4.5 -46.5 13.5 -67.5s21.333 -39.333 37 -55s33.834 -28 54.501 -37s43 -13.5 67 -13.5h1v-48c-30.667 0 -59.334 5.83301 -86.001 17.5s-50 27.5 -70 47.5s-35.833 43.333 -47.5 70
s-17.5 55.334 -17.5 86.001h-1v117v68l-107 107l107 107v67v117h1c0 30.667 5.83301 59.334 17.5 86.001s27.5 50 47.5 70s43.333 35.833 70 47.5s55.334 17.5 86.001 17.5v-48c-24 0 -46.5 -4.5 -67.5 -13.5s-39.333 -21.333 -55 -37s-28 -34 -37 -55
s-13.5 -43.5 -13.5 -67.5h-1v-168v-36l-23 -23z" />
    <glyph glyph-name="bar" unicode="|" horiz-adv-x="168" 
d="M108 -41h-48v926h48v-926v0z" />
    <glyph glyph-name="braceright" unicode="}" horiz-adv-x="389" 
d="M222 382l39 39.001l-39 39l-25 25l-23 23v36v169h-1c0 24 -4.5 46.5 -13.5 67.5s-21.333 39.333 -37 55s-34 28 -55 37s-43.5 13.5 -67.5 13.5v-1v48v1c30.667 0 59.334 -5.83301 86.001 -17.5s50 -27.5 70 -47.5s35.833 -43.333 47.5 -70s17.5 -55.334 17.5 -86.001h1
v-118v-67l107 -107l-107 -108v-67v-116h-1c0 -30.667 -5.83301 -59.5 -17.5 -86.5s-27.5 -50.5 -47.5 -70.5s-43.333 -35.833 -70 -47.5s-55.334 -17.5 -86.001 -17.5v48v1c24 0 46.5 4.5 67.5 13.5s39.333 21.333 55 37s28 34 37 55s13.5 43.5 13.5 67.5h1v168v36l23 23z
" />
    <glyph glyph-name="asciitilde" unicode="~" horiz-adv-x="533" 
d="M166 351c20.667 0 39.834 -3.83301 57.501 -11.5s33.167 -18.167 46.5 -31.5l28 -26c18 -19.333 41 -29 69 -29c27.333 0 50.5 9.5 69.5 28.5s28.5 42.167 28.5 69.5h48c0 -20 -3.83301 -39 -11.5 -57s-18.167 -33.5 -31.5 -46.5s-28.833 -23.333 -46.5 -31
s-36.5 -11.5 -56.5 -11.5c-20.667 0 -39.834 3.83301 -57.501 11.5s-33.167 18.167 -46.5 31.5l-28 26c-18 19.333 -41 29 -69 29c-27.333 0 -50.5 -9.5 -69.5 -28.5s-28.5 -42.167 -28.5 -69.5h-48c0 20 3.83301 39 11.5 57s18.167 33.5 31.5 46.5s28.833 23.333 46.5 31
s36.5 11.5 56.5 11.5z" />
    <glyph glyph-name="thothannobasethai" horiz-adv-x="502" 
d="M221 583c-24 0 -46.499 -4.50195 -67.499 -13.502s-39.333 -21.333 -55 -37s-28 -34 -37 -55s-13.5 -43.5 -13.5 -67.5h-48c0 30.667 5.83301 59.334 17.5 86.001s27.5 50 47.5 70s43.333 35.833 70 47.5s55.334 17.5 86.001 17.5c31.333 0 60.666 -6 87.999 -18
s51 -28.333 71 -49c10 13.333 15 28 15 44v23h47v-23c0 -10 -1 -19.333 -3 -28c-4.66699 -20 -14.334 -38.333 -29.001 -55c10 -16.667 17.833 -34.667 23.5 -54s8.5 -39.666 8.5 -60.999v-410h-48v267h-129v48h129v95c0 24 -4.5 46.5 -13.5 67.5s-21.333 39.333 -37 55
s-34 28 -55 37s-43.5 13.5 -67.5 13.5z" />
    <glyph glyph-name="thothannobasethai" unicode="&#xf700;" horiz-adv-x="502" 
d="M221 583c-24 0 -46.499 -4.50195 -67.499 -13.502s-39.333 -21.333 -55 -37s-28 -34 -37 -55s-13.5 -43.5 -13.5 -67.5h-48c0 30.667 5.83301 59.334 17.5 86.001s27.5 50 47.5 70s43.333 35.833 70 47.5s55.334 17.5 86.001 17.5c31.333 0 60.666 -6 87.999 -18
s51 -28.333 71 -49c10 13.333 15 28 15 44v23h47v-23c0 -10 -1 -19.333 -3 -28c-4.66699 -20 -14.334 -38.333 -29.001 -55c10 -16.667 17.833 -34.667 23.5 -54s8.5 -39.666 8.5 -60.999v-410h-48v267h-129v48h129v95c0 24 -4.5 46.5 -13.5 67.5s-21.333 39.333 -37 55
s-34 28 -55 37s-43.5 13.5 -67.5 13.5z" />
    <glyph glyph-name="thothannobasethai" unicode="&#x20ac;" horiz-adv-x="502" 
d="M221 583c-24 0 -46.499 -4.50195 -67.499 -13.502s-39.333 -21.333 -55 -37s-28 -34 -37 -55s-13.5 -43.5 -13.5 -67.5h-48c0 30.667 5.83301 59.334 17.5 86.001s27.5 50 47.5 70s43.333 35.833 70 47.5s55.334 17.5 86.001 17.5c31.333 0 60.666 -6 87.999 -18
s51 -28.333 71 -49c10 13.333 15 28 15 44v23h47v-23c0 -10 -1 -19.333 -3 -28c-4.66699 -20 -14.334 -38.333 -29.001 -55c10 -16.667 17.833 -34.667 23.5 -54s8.5 -39.666 8.5 -60.999v-410h-48v267h-129v48h129v95c0 24 -4.5 46.5 -13.5 67.5s-21.333 39.333 -37 55
s-34 28 -55 37s-43.5 13.5 -67.5 13.5z" />
    <glyph glyph-name="saraileftthai" horiz-adv-x="0" 
d="M-506 757h346v-48h-346v48z" />
    <glyph glyph-name="saraileftthai" unicode="&#xf701;" horiz-adv-x="0" 
d="M-506 757h346v-48h-346v48z" />
    <glyph glyph-name="saraiileftthai" horiz-adv-x="0" 
d="M-208 841h48v-84v-48h-48h-298v48h298v84z" />
    <glyph glyph-name="saraiileftthai" unicode="&#xf702;" horiz-adv-x="0" 
d="M-208 841h48v-84v-48h-48h-298v48h298v84z" />
    <glyph glyph-name="saraiileftthai" unicode="&#x201a;" horiz-adv-x="0" 
d="M-208 841h48v-84v-48h-48h-298v48h298v84z" />
    <glyph glyph-name="saraueleftthai" horiz-adv-x="0" 
d="M-232 853c20 0 37 -7 51 -21s21 -31 21 -51s-7 -37 -21 -51s-31 -21 -51 -21h-274v48h206c-2.66699 7.33301 -4 15.333 -4 24c0 20 7 37 21 51s31 21 51 21zM-232 758c6.66699 0 12.334 2.33301 17.001 7s7 10.334 7 17.001s-2.33301 12.334 -7 17.001
s-10.334 7 -17.001 7s-12.334 -2.33301 -17.001 -7s-7 -10.334 -7 -17.001s2.33301 -12.334 7 -17.001s10.334 -7 17.001 -7z" />
    <glyph glyph-name="saraueleftthai" unicode="&#xf703;" horiz-adv-x="0" 
d="M-232 853c20 0 37 -7 51 -21s21 -31 21 -51s-7 -37 -21 -51s-31 -21 -51 -21h-274v48h206c-2.66699 7.33301 -4 15.333 -4 24c0 20 7 37 21 51s31 21 51 21zM-232 758c6.66699 0 12.334 2.33301 17.001 7s7 10.334 7 17.001s-2.33301 12.334 -7 17.001
s-10.334 7 -17.001 7s-12.334 -2.33301 -17.001 -7s-7 -10.334 -7 -17.001s2.33301 -12.334 7 -17.001s10.334 -7 17.001 -7z" />
    <glyph glyph-name="saraueleftthai" unicode="&#x192;" horiz-adv-x="0" 
d="M-232 853c20 0 37 -7 51 -21s21 -31 21 -51s-7 -37 -21 -51s-31 -21 -51 -21h-274v48h206c-2.66699 7.33301 -4 15.333 -4 24c0 20 7 37 21 51s31 21 51 21zM-232 758c6.66699 0 12.334 2.33301 17.001 7s7 10.334 7 17.001s-2.33301 12.334 -7 17.001
s-10.334 7 -17.001 7s-12.334 -2.33301 -17.001 -7s-7 -10.334 -7 -17.001s2.33301 -12.334 7 -17.001s10.334 -7 17.001 -7z" />
    <glyph glyph-name="saraueeleftthai" horiz-adv-x="0" 
d="M-208 841h48v-84v-48h-48h-48h-48h-202v48h202v84h48v-84h48v84z" />
    <glyph glyph-name="saraueeleftthai" unicode="&#xf704;" horiz-adv-x="0" 
d="M-208 841h48v-84v-48h-48h-48h-48h-202v48h202v84h48v-84h48v84z" />
    <glyph glyph-name="saraueeleftthai" unicode="&#x201e;" horiz-adv-x="0" 
d="M-208 841h48v-84v-48h-48h-48h-48h-202v48h202v84h48v-84h48v84z" />
    <glyph glyph-name="ellipsis" unicode="&#x85;" horiz-adv-x="480" 
d="M132 36c0 -10 -3.5 -18.5 -10.5 -25.5s-15.5 -10.5 -25.5 -10.5s-18.5 3.5 -25.5 10.5s-10.5 15.5 -10.5 25.5s3.5 18.5 10.5 25.5s15.5 10.5 25.5 10.5s18.5 -3.5 25.5 -10.5s10.5 -15.5 10.5 -25.5zM276 36c0 -10 -3.5 -18.5 -10.5 -25.5s-15.5 -10.5 -25.5 -10.5
s-18.5 3.5 -25.5 10.5s-10.5 15.5 -10.5 25.5s3.5 18.5 10.5 25.5s15.5 10.5 25.5 10.5s18.5 -3.5 25.5 -10.5s10.5 -15.5 10.5 -25.5zM420 36c0 -10 -3.5 -18.5 -10.5 -25.5s-15.5 -10.5 -25.5 -10.5s-18.5 3.5 -25.5 10.5s-10.5 15.5 -10.5 25.5s3.5 18.5 10.5 25.5
s15.5 10.5 25.5 10.5s18.5 -3.5 25.5 -10.5s10.5 -15.5 10.5 -25.5z" />
    <glyph glyph-name="ellipsis" unicode="&#x2026;" horiz-adv-x="480" 
d="M132 36c0 -10 -3.5 -18.5 -10.5 -25.5s-15.5 -10.5 -25.5 -10.5s-18.5 3.5 -25.5 10.5s-10.5 15.5 -10.5 25.5s3.5 18.5 10.5 25.5s15.5 10.5 25.5 10.5s18.5 -3.5 25.5 -10.5s10.5 -15.5 10.5 -25.5zM276 36c0 -10 -3.5 -18.5 -10.5 -25.5s-15.5 -10.5 -25.5 -10.5
s-18.5 3.5 -25.5 10.5s-10.5 15.5 -10.5 25.5s3.5 18.5 10.5 25.5s15.5 10.5 25.5 10.5s18.5 -3.5 25.5 -10.5s10.5 -15.5 10.5 -25.5zM420 36c0 -10 -3.5 -18.5 -10.5 -25.5s-15.5 -10.5 -25.5 -10.5s-18.5 3.5 -25.5 10.5s-10.5 15.5 -10.5 25.5s3.5 18.5 10.5 25.5
s15.5 10.5 25.5 10.5s18.5 -3.5 25.5 -10.5s10.5 -15.5 10.5 -25.5z" />
    <glyph glyph-name="maieklowleftthai" horiz-adv-x="0" 
d="M-160 709h-48v132h48v-132v0z" />
    <glyph glyph-name="maieklowleftthai" unicode="&#xf705;" horiz-adv-x="0" 
d="M-160 709h-48v132h48v-132v0z" />
    <glyph glyph-name="maieklowleftthai" unicode="&#x2020;" horiz-adv-x="0" 
d="M-160 709h-48v132h48v-132v0z" />
    <glyph glyph-name="maitholowleftthai" horiz-adv-x="0" 
d="M-40 757v-48h-196v2v25v21v35h-49v48h49h48v-37v-11v-35h148z" />
    <glyph glyph-name="maitholowleftthai" unicode="&#xf706;" horiz-adv-x="0" 
d="M-40 757v-48h-196v2v25v21v35h-49v48h49h48v-37v-11v-35h148z" />
    <glyph glyph-name="maitholowleftthai" unicode="&#x2021;" horiz-adv-x="0" 
d="M-40 757v-48h-196v2v25v21v35h-49v48h49h48v-37v-11v-35h148z" />
    <glyph glyph-name="maitrilowleftthai" horiz-adv-x="0" 
d="M-120 757v-48h-47h-47h-1v24c0 16.667 -5.33301 31.334 -16 44.001l-50 -50l-9 11l-39 39c-11.333 -12.667 -17 -27.334 -17 -44.001v-24h-48v24c0 17.333 3.5 33.5 10.5 48.5s17.167 28.167 30.5 39.5c3.33301 2.66699 6.83301 5.16699 10.5 7.5l10.5 6.5l8 4l44 -43
l43 43l8 -4c6.66699 -3.33301 13.667 -8 21 -14c20 -16.667 33 -38 39 -64h49z" />
    <glyph glyph-name="maitrilowleftthai" unicode="&#xf707;" horiz-adv-x="0" 
d="M-120 757v-48h-47h-47h-1v24c0 16.667 -5.33301 31.334 -16 44.001l-50 -50l-9 11l-39 39c-11.333 -12.667 -17 -27.334 -17 -44.001v-24h-48v24c0 17.333 3.5 33.5 10.5 48.5s17.167 28.167 30.5 39.5c3.33301 2.66699 6.83301 5.16699 10.5 7.5l10.5 6.5l8 4l44 -43
l43 43l8 -4c6.66699 -3.33301 13.667 -8 21 -14c20 -16.667 33 -38 39 -64h49z" />
    <glyph glyph-name="maitrilowleftthai" unicode="&#x2c6;" horiz-adv-x="0" 
d="M-120 757v-48h-47h-47h-1v24c0 16.667 -5.33301 31.334 -16 44.001l-50 -50l-9 11l-39 39c-11.333 -12.667 -17 -27.334 -17 -44.001v-24h-48v24c0 17.333 3.5 33.5 10.5 48.5s17.167 28.167 30.5 39.5c3.33301 2.66699 6.83301 5.16699 10.5 7.5l10.5 6.5l8 4l44 -43
l43 43l8 -4c6.66699 -3.33301 13.667 -8 21 -14c20 -16.667 33 -38 39 -64h49z" />
    <glyph glyph-name="maichattawalowleftthai" horiz-adv-x="0" 
d="M-118 751h-42v-42h-48v42h-42v48h42v42h48v-42h42v-48z" />
    <glyph glyph-name="maichattawalowleftthai" unicode="&#xf708;" horiz-adv-x="0" 
d="M-118 751h-42v-42h-48v42h-42v48h42v42h48v-42h42v-48z" />
    <glyph glyph-name="maichattawalowleftthai" unicode="&#x2030;" horiz-adv-x="0" 
d="M-118 751h-42v-42h-48v42h-42v48h42v42h48v-42h42v-48z" />
    <glyph glyph-name="thanthakhatlowleftthai" horiz-adv-x="0" 
d="M-80 840l0.000976562 -48.002h-130h-10c-10.667 -1.33301 -19.667 -5.66602 -27 -12.999s-11 -16.666 -11 -27.999v-42h-48v42c0 20 5.83301 37.667 17.5 53s26.5 26 44.5 32c4 1.33301 6.33301 2 7 2c5.33301 1.33301 9.66602 2 12.999 2h2h5h7h130z" />
    <glyph glyph-name="thanthakhatlowleftthai" unicode="&#xf709;" horiz-adv-x="0" 
d="M-80 840l0.000976562 -48.002h-130h-10c-10.667 -1.33301 -19.667 -5.66602 -27 -12.999s-11 -16.666 -11 -27.999v-42h-48v42c0 20 5.83301 37.667 17.5 53s26.5 26 44.5 32c4 1.33301 6.33301 2 7 2c5.33301 1.33301 9.66602 2 12.999 2h2h5h7h130z" />
    <glyph glyph-name="thanthakhatlowleftthai" unicode="&#x160;" horiz-adv-x="0" 
d="M-80 840l0.000976562 -48.002h-130h-10c-10.667 -1.33301 -19.667 -5.66602 -27 -12.999s-11 -16.666 -11 -27.999v-42h-48v42c0 20 5.83301 37.667 17.5 53s26.5 26 44.5 32c4 1.33301 6.33301 2 7 2c5.33301 1.33301 9.66602 2 12.999 2h2h5h7h130z" />
    <glyph glyph-name="maieklowrightthai" horiz-adv-x="0" 
d="M-60 709h-48v132h48v-132v0z" />
    <glyph glyph-name="maieklowrightthai" unicode="&#xf70a;" horiz-adv-x="0" 
d="M-60 709h-48v132h48v-132v0z" />
    <glyph glyph-name="maieklowrightthai" unicode="&#x2039;" horiz-adv-x="0" 
d="M-60 709h-48v132h48v-132v0z" />
    <glyph glyph-name="maitholowrightthai" horiz-adv-x="0" 
d="M60 757v-48h-196v2v25v21v35h-49v48h49h48v-37v-11v-35h148z" />
    <glyph glyph-name="maitholowrightthai" unicode="&#xf70b;" horiz-adv-x="0" 
d="M60 757v-48h-196v2v25v21v35h-49v48h49h48v-37v-11v-35h148z" />
    <glyph glyph-name="maitholowrightthai" unicode="&#x152;" horiz-adv-x="0" 
d="M60 757v-48h-196v2v25v21v35h-49v48h49h48v-37v-11v-35h148z" />
    <glyph glyph-name="maitrilowrightthai" horiz-adv-x="0" 
d="M-20 757v-48h-47h-47h-1v24c0 16.667 -5.33301 31.334 -16 44.001l-50 -50l-9 11l-39 39c-11.333 -12.667 -17 -27.334 -17 -44.001v-24h-48v24c0 17.333 3.5 33.5 10.5 48.5s17.167 28.167 30.5 39.5c3.33301 2.66699 6.83301 5.16699 10.5 7.5l10.5 6.5l8 4l44 -43
l43 43l8 -4c6.66699 -3.33301 13.667 -8 21 -14c20 -16.667 33 -38 39 -64h49z" />
    <glyph glyph-name="maitrilowrightthai" unicode="&#xf70c;" horiz-adv-x="0" 
d="M-20 757v-48h-47h-47h-1v24c0 16.667 -5.33301 31.334 -16 44.001l-50 -50l-9 11l-39 39c-11.333 -12.667 -17 -27.334 -17 -44.001v-24h-48v24c0 17.333 3.5 33.5 10.5 48.5s17.167 28.167 30.5 39.5c3.33301 2.66699 6.83301 5.16699 10.5 7.5l10.5 6.5l8 4l44 -43
l43 43l8 -4c6.66699 -3.33301 13.667 -8 21 -14c20 -16.667 33 -38 39 -64h49z" />
    <glyph glyph-name="maichattawalowrightthai" horiz-adv-x="0" 
d="M-18 751h-42v-42h-48v42h-42v48h42v42h48v-42h42v-48z" />
    <glyph glyph-name="maichattawalowrightthai" unicode="&#xf70d;" horiz-adv-x="0" 
d="M-18 751h-42v-42h-48v42h-42v48h42v42h48v-42h42v-48z" />
    <glyph glyph-name="maichattawalowrightthai" unicode="&#x17d;" horiz-adv-x="0" 
d="M-18 751h-42v-42h-48v42h-42v48h42v42h48v-42h42v-48z" />
    <glyph glyph-name="thanthakhatlowrightthai" horiz-adv-x="0" 
d="M20 840l0.000976562 -48.002h-130h-10c-10.667 -1.33301 -19.667 -5.66602 -27 -12.999s-11 -16.666 -11 -27.999v-42h-48v42c0 20 5.83301 37.667 17.5 53s26.5 26 44.5 32c4 1.33301 6.33301 2 7 2c5.33301 1.33301 9.66602 2 12.999 2h2h5h7h130z" />
    <glyph glyph-name="thanthakhatlowrightthai" unicode="&#xf70e;" horiz-adv-x="0" 
d="M20 840l0.000976562 -48.002h-130h-10c-10.667 -1.33301 -19.667 -5.66602 -27 -12.999s-11 -16.666 -11 -27.999v-42h-48v42c0 20 5.83301 37.667 17.5 53s26.5 26 44.5 32c4 1.33301 6.33301 2 7 2c5.33301 1.33301 9.66602 2 12.999 2h2h5h7h130z" />
    <glyph glyph-name="yoyingnobasethai" horiz-adv-x="962" 
d="M902 220c0 -30.667 -5.83301 -59.3291 -17.5 -85.9961s-27.5 -50 -47.5 -70s-43.333 -35.667 -70 -47s-55.334 -17 -86.001 -17c-7.33301 0 -14.833 0.333008 -22.5 1s-15.167 1.66699 -22.5 3c-25.333 5.33301 -48.666 14.666 -69.999 27.999s-39.833 29.5 -55.5 48.5
s-28 40.5 -37 64.5s-13.5 49.333 -13.5 76v189c0 24 -4.5 46.5 -13.5 67.5s-21.333 39.333 -37 55s-34 28 -55 37s-43.5 13.5 -67.5 13.5c-36 0 -68 -9.5 -96 -28.5s-48.667 -43.833 -62 -74.5l-21 -42l6 -40v-201v-61v-42c0 -16.667 3 -32 9 -46h48h76v-48h-76h-74
c-0.666992 0.666992 -1 1.16699 -1 1.5s-0.333008 0.833008 -1 1.5c-4 5.33301 -7.5 11 -10.5 17s-5.83301 12 -8.5 18c-6.66699 17.333 -10 36 -10 56v316l-6 40l27 54l3 6c18 36 44.5 65.167 79.5 87.5s74.167 33.5 117.5 33.5c30.667 0 59.334 -5.83301 86.001 -17.5
s50 -27.5 70 -47.5s35.833 -43.333 47.5 -70s17.5 -55.334 17.5 -86.001v-189c0 -20 3.16699 -39 9.5 -57s15.166 -34.333 26.499 -49s24.833 -27.334 40.5 -38.001s32.5 -18.334 50.5 -23.001c4.66699 -1.33301 9.16699 -2.33301 13.5 -3s9.16602 -1.33398 14.499 -2.00098
c-5.33301 0.666992 -10.166 1.33398 -14.499 2.00098s-8.83301 1.66699 -13.5 3c12 -2.66699 24.667 -4.66699 38 -6h2h1h5c24 0 46.5 4.5 67.5 13.5s39.333 21.333 55 37s28 34 37 55s13.5 43.5 13.5 67.5v410h48v-410v-1z" />
    <glyph glyph-name="yoyingnobasethai" unicode="&#xf70f;" horiz-adv-x="962" 
d="M902 220c0 -30.667 -5.83301 -59.3291 -17.5 -85.9961s-27.5 -50 -47.5 -70s-43.333 -35.667 -70 -47s-55.334 -17 -86.001 -17c-7.33301 0 -14.833 0.333008 -22.5 1s-15.167 1.66699 -22.5 3c-25.333 5.33301 -48.666 14.666 -69.999 27.999s-39.833 29.5 -55.5 48.5
s-28 40.5 -37 64.5s-13.5 49.333 -13.5 76v189c0 24 -4.5 46.5 -13.5 67.5s-21.333 39.333 -37 55s-34 28 -55 37s-43.5 13.5 -67.5 13.5c-36 0 -68 -9.5 -96 -28.5s-48.667 -43.833 -62 -74.5l-21 -42l6 -40v-201v-61v-42c0 -16.667 3 -32 9 -46h48h76v-48h-76h-74
c-0.666992 0.666992 -1 1.16699 -1 1.5s-0.333008 0.833008 -1 1.5c-4 5.33301 -7.5 11 -10.5 17s-5.83301 12 -8.5 18c-6.66699 17.333 -10 36 -10 56v316l-6 40l27 54l3 6c18 36 44.5 65.167 79.5 87.5s74.167 33.5 117.5 33.5c30.667 0 59.334 -5.83301 86.001 -17.5
s50 -27.5 70 -47.5s35.833 -43.333 47.5 -70s17.5 -55.334 17.5 -86.001v-189c0 -20 3.16699 -39 9.5 -57s15.166 -34.333 26.499 -49s24.833 -27.334 40.5 -38.001s32.5 -18.334 50.5 -23.001c4.66699 -1.33301 9.16699 -2.33301 13.5 -3s9.16602 -1.33398 14.499 -2.00098
c-5.33301 0.666992 -10.166 1.33398 -14.499 2.00098s-8.83301 1.66699 -13.5 3c12 -2.66699 24.667 -4.66699 38 -6h2h1h5c24 0 46.5 4.5 67.5 13.5s39.333 21.333 55 37s28 34 37 55s13.5 43.5 13.5 67.5v410h48v-410v-1z" />
    <glyph glyph-name="quoteleft" horiz-adv-x="192" 
d="M60 548c0.666992 5.33301 1.49805 10.502 2.49805 15.502s2.5 9.83301 4.5 14.5c2.66699 7.33301 6.33398 13.666 11.001 18.999s9.66699 10.666 15 15.999c6 4.66699 12 8.33398 18 11.001c0.666992 0 4.33398 1.33301 11.001 4c2.66699 1.33301 6 2.33301 10 3v-50
c-8 -4 -15 -11 -21 -21c14 -6.66699 21 -17.334 21 -32.001c0 -10 -3.5 -18.5 -10.5 -25.5s-15.5 -10.5 -25.5 -10.5c-6 0 -11 1 -15 3c-7.33301 3.33301 -12.333 7.83301 -15 13.5s-4.66699 12.167 -6 19.5v20z" />
    <glyph glyph-name="quoteleft" unicode="&#x2018;" horiz-adv-x="192" 
d="M60 548c0.666992 5.33301 1.49805 10.502 2.49805 15.502s2.5 9.83301 4.5 14.5c2.66699 7.33301 6.33398 13.666 11.001 18.999s9.66699 10.666 15 15.999c6 4.66699 12 8.33398 18 11.001c0.666992 0 4.33398 1.33301 11.001 4c2.66699 1.33301 6 2.33301 10 3v-50
c-8 -4 -15 -11 -21 -21c14 -6.66699 21 -17.334 21 -32.001c0 -10 -3.5 -18.5 -10.5 -25.5s-15.5 -10.5 -25.5 -10.5c-6 0 -11 1 -15 3c-7.33301 3.33301 -12.333 7.83301 -15 13.5s-4.66699 12.167 -6 19.5v20z" />
    <glyph glyph-name="quoteright" horiz-adv-x="192" 
d="M132 574c-0.666992 -4.66699 -1.49902 -9.50293 -2.49902 -14.5029s-2.16699 -9.83301 -3.5 -14.5c-4.66699 -13.333 -13.667 -25 -27 -35c-5.33301 -5.33301 -11.333 -9.33301 -18 -12c-0.666992 -0.666992 -4.33398 -1.66699 -11.001 -3
c-2.66699 -0.666992 -6 -1.66699 -10 -3v50c10 4.66699 17 11.334 21 20.001c-14 6.66699 -21 17.667 -21 33c0 10 3.5 18.5 10.5 25.5s15.5 10.5 25.5 10.5c4.66699 0 9.66699 -1.33301 15 -4c7.33301 -3.33301 12.5 -7.66602 15.5 -12.999s4.83301 -11.666 5.5 -18.999
v-21z" />
    <glyph glyph-name="quoteright" unicode="&#x2019;" horiz-adv-x="192" 
d="M132 574c-0.666992 -4.66699 -1.49902 -9.50293 -2.49902 -14.5029s-2.16699 -9.83301 -3.5 -14.5c-4.66699 -13.333 -13.667 -25 -27 -35c-5.33301 -5.33301 -11.333 -9.33301 -18 -12c-0.666992 -0.666992 -4.33398 -1.66699 -11.001 -3
c-2.66699 -0.666992 -6 -1.66699 -10 -3v50c10 4.66699 17 11.334 21 20.001c-14 6.66699 -21 17.667 -21 33c0 10 3.5 18.5 10.5 25.5s15.5 10.5 25.5 10.5c4.66699 0 9.66699 -1.33301 15 -4c7.33301 -3.33301 12.5 -7.66602 15.5 -12.999s4.83301 -11.666 5.5 -18.999
v-21z" />
    <glyph glyph-name="bullet" horiz-adv-x="343" 
d="M171 65c-16.667 0 -32.6689 3.33398 -48.002 10.001s-28.666 15.667 -39.999 27s-20.333 24.5 -27 39.5s-10 31.167 -10 48.5c0 16.667 3.33301 32.667 10 48s15.834 28.666 27.501 39.999s25 20.333 40 27s30.833 10 47.5 10s32.667 -3.33301 48 -10
s28.666 -15.667 39.999 -27s20.333 -24.666 27 -39.999s10 -31.333 10 -48s-3.33301 -32.5 -10 -47.5s-15.667 -28.333 -27 -40s-24.666 -20.834 -39.999 -27.501s-31.333 -10 -48 -10z" />
    <glyph glyph-name="bullet" unicode="&#x2022;" horiz-adv-x="343" 
d="M171 65c-16.667 0 -32.6689 3.33398 -48.002 10.001s-28.666 15.667 -39.999 27s-20.333 24.5 -27 39.5s-10 31.167 -10 48.5c0 16.667 3.33301 32.667 10 48s15.834 28.666 27.501 39.999s25 20.333 40 27s30.833 10 47.5 10s32.667 -3.33301 48 -10
s28.666 -15.667 39.999 -27s20.333 -24.666 27 -39.999s10 -31.333 10 -48s-3.33301 -32.5 -10 -47.5s-15.667 -28.333 -27 -40s-24.666 -20.834 -39.999 -27.501s-31.333 -10 -48 -10z" />
    <glyph glyph-name="endash" horiz-adv-x="461" 
d="M401 233h-341v49h341v-49v0z" />
    <glyph glyph-name="endash" unicode="&#x2013;" horiz-adv-x="461" 
d="M401 233h-341v49h341v-49v0z" />
    <glyph glyph-name="emdash" horiz-adv-x="441" 
d="M441 233h-441v49h441v-49v0z" />
    <glyph glyph-name="emdash" unicode="&#x2014;" horiz-adv-x="441" 
d="M441 233h-441v49h441v-49v0z" />
    <glyph glyph-name="maihanakatleftthai" horiz-adv-x="0" 
d="M-188 710l-7.00098 -0.00195312h-5h-2c-3.33301 0 -7.66602 0.666992 -12.999 2c-0.666992 0 -3 0.666992 -7 2c-18 6 -32.833 16.667 -44.5 32s-17.5 33 -17.5 53v42h48v-42c0 -11.333 3.66699 -20.666 11 -27.999s16.333 -11.666 27 -12.999h10h148v-48h-148z" />
    <glyph glyph-name="maihanakatleftthai" unicode="&#xf710;" horiz-adv-x="0" 
d="M-188 710l-7.00098 -0.00195312h-5h-2c-3.33301 0 -7.66602 0.666992 -12.999 2c-0.666992 0 -3 0.666992 -7 2c-18 6 -32.833 16.667 -44.5 32s-17.5 33 -17.5 53v42h48v-42c0 -11.333 3.66699 -20.666 11 -27.999s16.333 -11.666 27 -12.999h10h148v-48h-148z" />
    <glyph glyph-name="maihanakatleftthai" unicode="&#x2dc;" horiz-adv-x="0" 
d="M-188 710l-7.00098 -0.00195312h-5h-2c-3.33301 0 -7.66602 0.666992 -12.999 2c-0.666992 0 -3 0.666992 -7 2c-18 6 -32.833 16.667 -44.5 32s-17.5 33 -17.5 53v42h48v-42c0 -11.333 3.66699 -20.666 11 -27.999s16.333 -11.666 27 -12.999h10h148v-48h-148z" />
    <glyph glyph-name="nikhahitleftthai" horiz-adv-x="0" 
d="M-152 853c20 0 37 -7 51 -21s21 -31 21 -51s-7 -37 -21 -51s-31 -21 -51 -21s-37 7 -51 21s-21 31 -21 51s7 37 21 51s31 21 51 21zM-152 758c7.33301 0 13.166 2.33301 17.499 7s6.5 10.334 6.5 17.001s-2.16699 12.334 -6.5 17.001s-10.166 7 -17.499 7
c-6.66699 0 -12.334 -2.33301 -17.001 -7s-7 -10.334 -7 -17.001s2.33301 -12.334 7 -17.001s10.334 -7 17.001 -7z" />
    <glyph glyph-name="nikhahitleftthai" unicode="&#xf711;" horiz-adv-x="0" 
d="M-152 853c20 0 37 -7 51 -21s21 -31 21 -51s-7 -37 -21 -51s-31 -21 -51 -21s-37 7 -51 21s-21 31 -21 51s7 37 21 51s31 21 51 21zM-152 758c7.33301 0 13.166 2.33301 17.499 7s6.5 10.334 6.5 17.001s-2.16699 12.334 -6.5 17.001s-10.166 7 -17.499 7
c-6.66699 0 -12.334 -2.33301 -17.001 -7s-7 -10.334 -7 -17.001s2.33301 -12.334 7 -17.001s10.334 -7 17.001 -7z" />
    <glyph glyph-name="nikhahitleftthai" unicode="&#x2122;" horiz-adv-x="0" 
d="M-152 853c20 0 37 -7 51 -21s21 -31 21 -51s-7 -37 -21 -51s-31 -21 -51 -21s-37 7 -51 21s-21 31 -21 51s7 37 21 51s31 21 51 21zM-152 758c7.33301 0 13.166 2.33301 17.499 7s6.5 10.334 6.5 17.001s-2.16699 12.334 -6.5 17.001s-10.166 7 -17.499 7
c-6.66699 0 -12.334 -2.33301 -17.001 -7s-7 -10.334 -7 -17.001s2.33301 -12.334 7 -17.001s10.334 -7 17.001 -7z" />
    <glyph glyph-name="maitaikhuleftthai" horiz-adv-x="0" 
d="M-300 839c-10.667 -1.33301 -19.665 -5.66797 -26.998 -13.001s-11 -16.666 -11 -27.999s4.33301 -21.333 13 -30l52 53l9 -11l39 -39c5.33301 5.33301 9.66602 12 12.999 20h50c-6 -26 -19 -47.333 -39 -64c-3.33301 -2.66699 -6.83301 -5.16699 -10.5 -7.5l-10.5 -6.5
l-8 -4l-44 43l-43 -43c-6 0 -12.833 2.33301 -20.5 7s-15.167 11 -22.5 19s-13.5 17.5 -18.5 28.5s-7.5 22.5 -7.5 34.5c0 20 5.83301 37.667 17.5 53s26.5 26 44.5 32c4 1.33301 6.33301 2 7 2c5.33301 1.33301 9.66602 2 12.999 2h2h5h7h130v-48h-130h-10v0z" />
    <glyph glyph-name="maitaikhuleftthai" unicode="&#xf712;" horiz-adv-x="0" 
d="M-300 839c-10.667 -1.33301 -19.665 -5.66797 -26.998 -13.001s-11 -16.666 -11 -27.999s4.33301 -21.333 13 -30l52 53l9 -11l39 -39c5.33301 5.33301 9.66602 12 12.999 20h50c-6 -26 -19 -47.333 -39 -64c-3.33301 -2.66699 -6.83301 -5.16699 -10.5 -7.5l-10.5 -6.5
l-8 -4l-44 43l-43 -43c-6 0 -12.833 2.33301 -20.5 7s-15.167 11 -22.5 19s-13.5 17.5 -18.5 28.5s-7.5 22.5 -7.5 34.5c0 20 5.83301 37.667 17.5 53s26.5 26 44.5 32c4 1.33301 6.33301 2 7 2c5.33301 1.33301 9.66602 2 12.999 2h2h5h7h130v-48h-130h-10v0z" />
    <glyph glyph-name="maitaikhuleftthai" unicode="&#x161;" horiz-adv-x="0" 
d="M-300 839c-10.667 -1.33301 -19.665 -5.66797 -26.998 -13.001s-11 -16.666 -11 -27.999s4.33301 -21.333 13 -30l52 53l9 -11l39 -39c5.33301 5.33301 9.66602 12 12.999 20h50c-6 -26 -19 -47.333 -39 -64c-3.33301 -2.66699 -6.83301 -5.16699 -10.5 -7.5l-10.5 -6.5
l-8 -4l-44 43l-43 -43c-6 0 -12.833 2.33301 -20.5 7s-15.167 11 -22.5 19s-13.5 17.5 -18.5 28.5s-7.5 22.5 -7.5 34.5c0 20 5.83301 37.667 17.5 53s26.5 26 44.5 32c4 1.33301 6.33301 2 7 2c5.33301 1.33301 9.66602 2 12.999 2h2h5h7h130v-48h-130h-10v0z" />
    <glyph glyph-name="maiekupperleftthai" horiz-adv-x="0" 
d="M-160 888h-48v132h48v-132z" />
    <glyph glyph-name="maiekupperleftthai" unicode="&#xf713;" horiz-adv-x="0" 
d="M-160 888h-48v132h48v-132z" />
    <glyph glyph-name="maiekupperleftthai" unicode="&#x203a;" horiz-adv-x="0" 
d="M-160 888h-48v132h48v-132z" />
    <glyph glyph-name="maithoupperleftthai" horiz-adv-x="0" 
d="M-40 936v-48h-196v2v25v21v35h-49v48h49h48v-37v-11v-35h148z" />
    <glyph glyph-name="maithoupperleftthai" unicode="&#xf714;" horiz-adv-x="0" 
d="M-40 936v-48h-196v2v25v21v35h-49v48h49h48v-37v-11v-35h148z" />
    <glyph glyph-name="maithoupperleftthai" unicode="&#x153;" horiz-adv-x="0" 
d="M-40 936v-48h-196v2v25v21v35h-49v48h49h48v-37v-11v-35h148z" />
    <glyph glyph-name="maitriupperleftthai" horiz-adv-x="0" 
d="M-120 936v-48h-47h-47h-1v24c0 16.667 -5.33301 31.334 -16 44.001l-50 -50l-9 11l-39 39c-11.333 -12.667 -17 -27.334 -17 -44.001v-24h-48v24c0 17.333 3.5 33.5 10.5 48.5s17.167 28.167 30.5 39.5c3.33301 2.66699 6.83301 5.16699 10.5 7.5l10.5 6.5l8 4l44 -43
l43 43l8 -4c6.66699 -3.33301 13.667 -8 21 -14c20 -16.667 33 -38 39 -64h49z" />
    <glyph glyph-name="maitriupperleftthai" unicode="&#xf715;" horiz-adv-x="0" 
d="M-120 936v-48h-47h-47h-1v24c0 16.667 -5.33301 31.334 -16 44.001l-50 -50l-9 11l-39 39c-11.333 -12.667 -17 -27.334 -17 -44.001v-24h-48v24c0 17.333 3.5 33.5 10.5 48.5s17.167 28.167 30.5 39.5c3.33301 2.66699 6.83301 5.16699 10.5 7.5l10.5 6.5l8 4l44 -43
l43 43l8 -4c6.66699 -3.33301 13.667 -8 21 -14c20 -16.667 33 -38 39 -64h49z" />
    <glyph glyph-name="maichattawaupperleftthai" horiz-adv-x="0" 
d="M-118 929h-42v-42h-48v42h-42v48h42v42h48v-42h42v-48z" />
    <glyph glyph-name="maichattawaupperleftthai" unicode="&#xf716;" horiz-adv-x="0" 
d="M-118 929h-42v-42h-48v42h-42v48h42v42h48v-42h42v-48z" />
    <glyph glyph-name="maichattawaupperleftthai" unicode="&#x17e;" horiz-adv-x="0" 
d="M-118 929h-42v-42h-48v42h-42v48h42v42h48v-42h42v-48z" />
    <glyph glyph-name="thanthakhatupperleftthai" horiz-adv-x="0" 
d="M-80 1019l0.000976562 -48.002h-130h-10c-10.667 -1.33301 -19.667 -5.66602 -27 -12.999s-11 -16.666 -11 -27.999v-42h-48v42c0 20 5.83301 37.667 17.5 53s26.5 26 44.5 32c4 1.33301 6.33301 2 7 2c5.33301 1.33301 9.66602 2 12.999 2h2h5h7h130z" />
    <glyph glyph-name="thanthakhatupperleftthai" unicode="&#xf717;" horiz-adv-x="0" 
d="M-80 1019l0.000976562 -48.002h-130h-10c-10.667 -1.33301 -19.667 -5.66602 -27 -12.999s-11 -16.666 -11 -27.999v-42h-48v42c0 20 5.83301 37.667 17.5 53s26.5 26 44.5 32c4 1.33301 6.33301 2 7 2c5.33301 1.33301 9.66602 2 12.999 2h2h5h7h130z" />
    <glyph glyph-name="thanthakhatupperleftthai" unicode="&#x178;" horiz-adv-x="0" 
d="M-80 1019l0.000976562 -48.002h-130h-10c-10.667 -1.33301 -19.667 -5.66602 -27 -12.999s-11 -16.666 -11 -27.999v-42h-48v42c0 20 5.83301 37.667 17.5 53s26.5 26 44.5 32c4 1.33301 6.33301 2 7 2c5.33301 1.33301 9.66602 2 12.999 2h2h5h7h130z" />
    <glyph glyph-name="uni00A0" unicode="&#xa0;" horiz-adv-x="452" 
 />
    <glyph glyph-name="uni00A0" unicode="&#xe00;" horiz-adv-x="452" 
 />
    <glyph glyph-name="kokaithai" unicode="&#xa1;" horiz-adv-x="568" 
d="M60 450l26.999 54.001l3 6c18 36 44.5 65.167 79.5 87.5s74.167 33.5 117.5 33.5c30.667 0 59.334 -5.83301 86.001 -17.5s50 -27.5 70 -47.5s35.833 -43.333 47.5 -70s17.5 -55.334 17.5 -86.001v-410h-48v410c0 24 -4.5 46.5 -13.5 67.5s-21.333 39.333 -37 55
s-34 28 -55 37s-43.5 13.5 -67.5 13.5c-36 0 -68 -9.5 -96 -28.5s-48.667 -43.833 -62 -74.5l-21 -42l6 -40v-398h-48v410z" />
    <glyph glyph-name="kokaithai" unicode="&#xe01;" horiz-adv-x="568" 
d="M60 450l26.999 54.001l3 6c18 36 44.5 65.167 79.5 87.5s74.167 33.5 117.5 33.5c30.667 0 59.334 -5.83301 86.001 -17.5s50 -27.5 70 -47.5s35.833 -43.333 47.5 -70s17.5 -55.334 17.5 -86.001v-410h-48v410c0 24 -4.5 46.5 -13.5 67.5s-21.333 39.333 -37 55
s-34 28 -55 37s-43.5 13.5 -67.5 13.5c-36 0 -68 -9.5 -96 -28.5s-48.667 -43.833 -62 -74.5l-21 -42l6 -40v-398h-48v410z" />
    <glyph glyph-name="khokhaithai" unicode="&#xa2;" horiz-adv-x="416" 
d="M108 432c12.667 12.667 21.001 28.6641 25.001 47.9971v39c0 3.33301 -0.333008 6 -1 8c0 6.66699 -1.66699 15.334 -5 26.001s-7.66602 20.667 -12.999 30h-114v48h22h54h1h37h21c9.33301 -10 17.666 -21.167 24.999 -33.5s12.666 -25.5 15.999 -39.5v-1l1 -2v-2
c2.66699 -10 4 -21.333 4 -34v-39c-2 -15.333 -6.5 -30.166 -13.5 -44.499s-16.167 -27.166 -27.5 -38.499l-2 -2c-0.666992 0 -1 -0.333008 -1 -1c-17.333 -18.667 -26 -41 -26 -67v-181c0 -13.333 2.5 -26 7.5 -38s12 -22.5 21 -31.5s19.5 -16.167 31.5 -21.5s25 -8 39 -8
s27 2.66699 39 8s22.5 12.5 31.5 21.5s16 19.5 21 31.5s7.5 24.667 7.5 38v485h47v-485c0 -40 -14.333 -74.333 -43 -103c-13.333 -14 -29 -24.667 -47 -32s-36.667 -11 -56 -11s-38 3.66699 -56 11s-33.667 18 -47 32c-28.667 28.667 -43 63 -43 103v181
c0 19.333 3.66699 38 11 56s18 33.667 32 47c0 0.666992 0.166992 1 0.5 1s0.5 0.333008 0.5 1z" />
    <glyph glyph-name="khokhaithai" unicode="&#xe02;" horiz-adv-x="416" 
d="M108 432c12.667 12.667 21.001 28.6641 25.001 47.9971v39c0 3.33301 -0.333008 6 -1 8c0 6.66699 -1.66699 15.334 -5 26.001s-7.66602 20.667 -12.999 30h-114v48h22h54h1h37h21c9.33301 -10 17.666 -21.167 24.999 -33.5s12.666 -25.5 15.999 -39.5v-1l1 -2v-2
c2.66699 -10 4 -21.333 4 -34v-39c-2 -15.333 -6.5 -30.166 -13.5 -44.499s-16.167 -27.166 -27.5 -38.499l-2 -2c-0.666992 0 -1 -0.333008 -1 -1c-17.333 -18.667 -26 -41 -26 -67v-181c0 -13.333 2.5 -26 7.5 -38s12 -22.5 21 -31.5s19.5 -16.167 31.5 -21.5s25 -8 39 -8
s27 2.66699 39 8s22.5 12.5 31.5 21.5s16 19.5 21 31.5s7.5 24.667 7.5 38v485h47v-485c0 -40 -14.333 -74.333 -43 -103c-13.333 -14 -29 -24.667 -47 -32s-36.667 -11 -56 -11s-38 3.66699 -56 11s-33.667 18 -47 32c-28.667 28.667 -43 63 -43 103v181
c0 19.333 3.66699 38 11 56s18 33.667 32 47c0 0.666992 0.166992 1 0.5 1s0.5 0.333008 0.5 1z" />
    <glyph glyph-name="khokhuatthai" unicode="&#xa3;" horiz-adv-x="416" 
d="M57 583h-56.999v48h37h24h16l25 -25l24 25h25c0.666992 -0.666992 1 -1.16699 1 -1.5s0.333008 -0.833008 1 -1.5c4 -5.33301 7.5 -11 10.5 -17s5.83301 -12 8.5 -18c0.666992 -2.66699 1.66699 -6 3 -10c4.66699 -14 7 -29.333 7 -46v-37
c0 -40 -14.333 -74.333 -43 -103c0 -0.666992 -0.166992 -1 -0.5 -1s-0.5 -0.333008 -0.5 -1c-18 -19.333 -27 -42 -27 -68v-181c0 -13.333 2.5 -26 7.5 -38s12 -22.5 21 -31.5s19.5 -16.167 31.5 -21.5s25 -8 39 -8s27 2.66699 39 8s22.5 12.5 31.5 21.5s16 19.5 21 31.5
s7.5 24.667 7.5 38v485h47v-485c0 -40 -14.333 -74.333 -43 -103s-63 -43 -103 -43c-40.667 -0 -75.334 14.333 -104.001 43s-43 63 -43 103v181c0 19.333 3.66699 38 11 56s18 33.667 32 47l2 2c18 19.333 27 42 27 68v36v1c0 5.33301 -0.333008 10.5 -1 15.5
s-1.66699 10.167 -3 15.5l-29 -29l-34 34z" />
    <glyph glyph-name="khokhuatthai" unicode="&#xe03;" horiz-adv-x="416" 
d="M57 583h-56.999v48h37h24h16l25 -25l24 25h25c0.666992 -0.666992 1 -1.16699 1 -1.5s0.333008 -0.833008 1 -1.5c4 -5.33301 7.5 -11 10.5 -17s5.83301 -12 8.5 -18c0.666992 -2.66699 1.66699 -6 3 -10c4.66699 -14 7 -29.333 7 -46v-37
c0 -40 -14.333 -74.333 -43 -103c0 -0.666992 -0.166992 -1 -0.5 -1s-0.5 -0.333008 -0.5 -1c-18 -19.333 -27 -42 -27 -68v-181c0 -13.333 2.5 -26 7.5 -38s12 -22.5 21 -31.5s19.5 -16.167 31.5 -21.5s25 -8 39 -8s27 2.66699 39 8s22.5 12.5 31.5 21.5s16 19.5 21 31.5
s7.5 24.667 7.5 38v485h47v-485c0 -40 -14.333 -74.333 -43 -103s-63 -43 -103 -43c-40.667 -0 -75.334 14.333 -104.001 43s-43 63 -43 103v181c0 19.333 3.66699 38 11 56s18 33.667 32 47l2 2c18 19.333 27 42 27 68v36v1c0 5.33301 -0.333008 10.5 -1 15.5
s-1.66699 10.167 -3 15.5l-29 -29l-34 34z" />
    <glyph glyph-name="khokhwaithai" unicode="&#xa4;" 
d="M60 410c0 30.667 5.83105 59.334 17.498 86.001s27.5 50 47.5 70s43.333 35.833 70 47.5s55.334 17.5 86.001 17.5s59.334 -5.83301 86.001 -17.5s50 -27.5 70 -47.5s35.833 -43.333 47.5 -70s17.5 -55.334 17.5 -86.001v-410h-48v410c0 24 -4.5 46.5 -13.5 67.5
s-21.333 39.333 -37 55s-34 28 -55 37s-43.5 13.5 -67.5 13.5s-46.5 -4.5 -67.5 -13.5s-39.333 -21.333 -55 -37s-28 -34 -37 -55s-13.5 -43.5 -13.5 -67.5v-95h140v-48h-140v-267h-48v410v0z" />
    <glyph glyph-name="khokhwaithai" unicode="&#xe04;" 
d="M60 410c0 30.667 5.83105 59.334 17.498 86.001s27.5 50 47.5 70s43.333 35.833 70 47.5s55.334 17.5 86.001 17.5s59.334 -5.83301 86.001 -17.5s50 -27.5 70 -47.5s35.833 -43.333 47.5 -70s17.5 -55.334 17.5 -86.001v-410h-48v410c0 24 -4.5 46.5 -13.5 67.5
s-21.333 39.333 -37 55s-34 28 -55 37s-43.5 13.5 -67.5 13.5s-46.5 -4.5 -67.5 -13.5s-39.333 -21.333 -55 -37s-28 -34 -37 -55s-13.5 -43.5 -13.5 -67.5v-95h140v-48h-140v-267h-48v410v0z" />
    <glyph glyph-name="khokhonthai" unicode="&#xa5;" 
d="M60 434c0 34 7.16699 65.667 21.5 95s33.833 54.333 58.5 75c11.333 9.33301 25 18.333 41 27l36 -36l64 -65l64 65l36 36c16 -8.66699 29.667 -17.667 41 -27c24.667 -20.667 44.167 -45.667 58.5 -75s21.5 -61 21.5 -95v-1v-23v-410h-48v410v23v1
c0 28 -6 53.667 -18 77s-28 43 -48 59l-107 -108l-107 108c-20 -16 -36 -35.667 -48 -59s-18 -49 -18 -77v-1v-23v-95h140v-48h-140v-267h-48v410v23v1z" />
    <glyph glyph-name="khokhonthai" unicode="&#xe05;" 
d="M60 434c0 34 7.16699 65.667 21.5 95s33.833 54.333 58.5 75c11.333 9.33301 25 18.333 41 27l36 -36l64 -65l64 65l36 36c16 -8.66699 29.667 -17.667 41 -27c24.667 -20.667 44.167 -45.667 58.5 -75s21.5 -61 21.5 -95v-1v-23v-410h-48v410v23v1
c0 28 -6 53.667 -18 77s-28 43 -48 59l-107 -108l-107 108c-20 -16 -36 -35.667 -48 -59s-18 -49 -18 -77v-1v-23v-95h140v-48h-140v-267h-48v410v23v1z" />
    <glyph glyph-name="khorakhangthai" unicode="&#xa6;" horiz-adv-x="565" 
d="M57 583l-56.998 0.00195312v48h37h24h16l25 -25l24 25h25c0.666992 -0.666992 1 -1.16699 1 -1.5s0.333008 -0.833008 1 -1.5c4 -5.33301 7.5 -11 10.5 -17s5.83301 -12 8.5 -18c0.666992 -2.66699 1.66699 -6 3 -10c4.66699 -14 7 -29.333 7 -46v-37
c0 -40 -14.333 -74.333 -43 -103c0 -0.666992 -0.166992 -1 -0.5 -1s-0.5 -0.333008 -0.5 -1c-18 -19.333 -27 -42 -27 -68v-106c0 -24 4.5 -46.5 13.5 -67.5s21.333 -39.333 37 -55s34 -28 55 -37s43.5 -13.5 67.5 -13.5s46.5 4.5 67.5 13.5s39.333 21.333 55 37
s28 34 37 55s13.5 43.5 13.5 67.5v410h48v-410c0 -30.667 -5.83301 -59.334 -17.5 -86.001s-27.5 -50 -47.5 -70s-43.333 -35.833 -70 -47.5s-55.334 -17.5 -86.001 -17.5c-35.333 0 -67.833 7.66699 -97.5 23s-54.834 35.666 -75.501 60.999v-84h-48v327
c0 19.333 3.66699 38 11 56s18 33.667 32 47l2 2c18 19.333 27 42 27 68v36v1c0 5.33301 -0.333008 10.5 -1 15.5s-1.66699 10.167 -3 15.5l-29 -29l-34 34z" />
    <glyph glyph-name="khorakhangthai" unicode="&#xe06;" horiz-adv-x="565" 
d="M57 583l-56.998 0.00195312v48h37h24h16l25 -25l24 25h25c0.666992 -0.666992 1 -1.16699 1 -1.5s0.333008 -0.833008 1 -1.5c4 -5.33301 7.5 -11 10.5 -17s5.83301 -12 8.5 -18c0.666992 -2.66699 1.66699 -6 3 -10c4.66699 -14 7 -29.333 7 -46v-37
c0 -40 -14.333 -74.333 -43 -103c0 -0.666992 -0.166992 -1 -0.5 -1s-0.5 -0.333008 -0.5 -1c-18 -19.333 -27 -42 -27 -68v-106c0 -24 4.5 -46.5 13.5 -67.5s21.333 -39.333 37 -55s34 -28 55 -37s43.5 -13.5 67.5 -13.5s46.5 4.5 67.5 13.5s39.333 21.333 55 37
s28 34 37 55s13.5 43.5 13.5 67.5v410h48v-410c0 -30.667 -5.83301 -59.334 -17.5 -86.001s-27.5 -50 -47.5 -70s-43.333 -35.833 -70 -47.5s-55.334 -17.5 -86.001 -17.5c-35.333 0 -67.833 7.66699 -97.5 23s-54.834 35.666 -75.501 60.999v-84h-48v327
c0 19.333 3.66699 38 11 56s18 33.667 32 47l2 2c18 19.333 27 42 27 68v36v1c0 5.33301 -0.333008 10.5 -1 15.5s-1.66699 10.167 -3 15.5l-29 -29l-34 34z" />
    <glyph glyph-name="ngonguthai" unicode="&#xa7;" horiz-adv-x="503" 
d="M443 208c0 -30.667 -4.8291 -58.5 -14.4961 -83.5s-23.334 -46.333 -41.001 -64s-38.834 -31.334 -63.501 -41.001s-52.334 -14.5 -83.001 -14.5s-59.334 5.83301 -86.001 17.5s-50 27.5 -70 47.5s-35.833 43.333 -47.5 70s-17.5 55.334 -17.5 86.001h48
c0 -24 4.5 -46.5 13.5 -67.5s21.333 -39.333 37 -55s34 -28 55 -37s43.5 -13.5 67.5 -13.5s45.5 4.16699 64.5 12.5s35.167 19.5 48.5 33.5s23.5 30.333 30.5 49s10.5 38.667 10.5 60v380h-105v48h129h24v-428v0z" />
    <glyph glyph-name="ngonguthai" unicode="&#xe07;" horiz-adv-x="503" 
d="M443 208c0 -30.667 -4.8291 -58.5 -14.4961 -83.5s-23.334 -46.333 -41.001 -64s-38.834 -31.334 -63.501 -41.001s-52.334 -14.5 -83.001 -14.5s-59.334 5.83301 -86.001 17.5s-50 27.5 -70 47.5s-35.833 43.333 -47.5 70s-17.5 55.334 -17.5 86.001h48
c0 -24 4.5 -46.5 13.5 -67.5s21.333 -39.333 37 -55s34 -28 55 -37s43.5 -13.5 67.5 -13.5s45.5 4.16699 64.5 12.5s35.167 19.5 48.5 33.5s23.5 30.333 30.5 49s10.5 38.667 10.5 60v380h-105v48h129h24v-428v0z" />
    <glyph glyph-name="chochanthai" unicode="&#xa8;" horiz-adv-x="502" 
d="M221 631c30.667 0 59.332 -5.83301 85.999 -17.5s50 -27.5 70 -47.5s35.833 -43.333 47.5 -70s17.5 -55.334 17.5 -86.001v-410h-48v267h-129v48h129v95c0 24 -4.5 46.5 -13.5 67.5s-21.333 39.333 -37 55s-34 28 -55 37s-43.5 13.5 -67.5 13.5s-46.5 -4.5 -67.5 -13.5
s-39.333 -21.333 -55 -37s-28 -34 -37 -55s-13.5 -43.5 -13.5 -67.5h-48c0 30.667 5.83301 59.334 17.5 86.001s27.5 50 47.5 70s43.333 35.833 70 47.5s55.334 17.5 86.001 17.5z" />
    <glyph glyph-name="chochanthai" unicode="&#xe08;" horiz-adv-x="502" 
d="M221 631c30.667 0 59.332 -5.83301 85.999 -17.5s50 -27.5 70 -47.5s35.833 -43.333 47.5 -70s17.5 -55.334 17.5 -86.001v-410h-48v267h-129v48h129v95c0 24 -4.5 46.5 -13.5 67.5s-21.333 39.333 -37 55s-34 28 -55 37s-43.5 13.5 -67.5 13.5s-46.5 -4.5 -67.5 -13.5
s-39.333 -21.333 -55 -37s-28 -34 -37 -55s-13.5 -43.5 -13.5 -67.5h-48c0 30.667 5.83301 59.334 17.5 86.001s27.5 50 47.5 70s43.333 35.833 70 47.5s55.334 17.5 86.001 17.5z" />
    <glyph glyph-name="chochingthai" unicode="&#xa9;" horiz-adv-x="559" 
d="M278 631c30.667 0 59.333 -5.83496 86 -17.502s50 -27.5 70 -47.5s35.833 -43.333 47.5 -70s17.5 -55.334 17.5 -86.001v-410h-48v84c-20 -25.333 -45 -45.666 -75 -60.999s-62.667 -23 -98 -23c-30.667 0 -59.334 5.83301 -86.001 17.5s-50 27.5 -70 47.5
s-35.833 43.333 -47.5 70s-17.5 55.334 -17.5 86.001v46h-17v48h65v-48v-46c0 -24 4.5 -46.5 13.5 -67.5s21.333 -39.333 37 -55s34 -28 55 -37s43.5 -13.5 67.5 -13.5s46.5 4.5 67.5 13.5s39.333 21.333 55 37s28 34 37 55s13.5 43.5 13.5 67.5v189
c0 24 -4.5 46.5 -13.5 67.5s-21.333 39.333 -37 55s-34 28 -55 37s-43.5 13.5 -67.5 13.5s-46.5 -4.5 -67.5 -13.5s-39.333 -21.333 -55 -37s-28 -34 -37 -55s-13.5 -43.5 -13.5 -67.5h-48c0 30.667 5.83301 59.334 17.5 86.001s27.5 50 47.5 70s43.333 35.833 70 47.5
s55.334 17.5 86.001 17.5z" />
    <glyph glyph-name="chochingthai" unicode="&#xe09;" horiz-adv-x="559" 
d="M278 631c30.667 0 59.333 -5.83496 86 -17.502s50 -27.5 70 -47.5s35.833 -43.333 47.5 -70s17.5 -55.334 17.5 -86.001v-410h-48v84c-20 -25.333 -45 -45.666 -75 -60.999s-62.667 -23 -98 -23c-30.667 0 -59.334 5.83301 -86.001 17.5s-50 27.5 -70 47.5
s-35.833 43.333 -47.5 70s-17.5 55.334 -17.5 86.001v46h-17v48h65v-48v-46c0 -24 4.5 -46.5 13.5 -67.5s21.333 -39.333 37 -55s34 -28 55 -37s43.5 -13.5 67.5 -13.5s46.5 4.5 67.5 13.5s39.333 21.333 55 37s28 34 37 55s13.5 43.5 13.5 67.5v189
c0 24 -4.5 46.5 -13.5 67.5s-21.333 39.333 -37 55s-34 28 -55 37s-43.5 13.5 -67.5 13.5s-46.5 -4.5 -67.5 -13.5s-39.333 -21.333 -55 -37s-28 -34 -37 -55s-13.5 -43.5 -13.5 -67.5h-48c0 30.667 5.83301 59.334 17.5 86.001s27.5 50 47.5 70s43.333 35.833 70 47.5
s55.334 17.5 86.001 17.5z" />
    <glyph glyph-name="chochangthai" unicode="&#xaa;" horiz-adv-x="416" 
d="M132 527c0 6.66699 -1.66602 15.3301 -4.99902 25.9971s-7.66602 20.667 -12.999 30h-114v48h22h54h1h37h21c9.33301 -10 17.666 -21.167 24.999 -33.5s12.666 -25.5 15.999 -39.5v-1l1 -2v-2c2.66699 -10 4 -21.333 4 -34v-39c-2 -15.333 -6.5 -30.166 -13.5 -44.499
s-16.167 -27.166 -27.5 -38.499l-2 -2c-0.666992 0 -1 -0.333008 -1 -1c-17.333 -18.667 -26 -41 -26 -67v-181c0 -13.333 2.5 -26 7.5 -38s12 -22.5 21 -31.5s19.5 -16.167 31.5 -21.5s25 -8 39 -8s27 2.66699 39 8s22.5 12.5 31.5 21.5s16 19.5 21 31.5s7.5 24.667 7.5 38
v265c0 20.667 -7.33301 38.334 -22 53.001s-32.667 22 -54 22v48c21.333 0 39.333 7.16699 54 21.5s22 31.833 22 52.5v23h47v-23c0 -19.333 -4.16699 -37.333 -12.5 -54s-19.833 -30.667 -34.5 -42c-1.33301 -1.33301 -2.33301 -2 -3 -2c1.33301 -1.33301 2.33301 -2 3 -2
c14.667 -11.333 26.167 -25.5 34.5 -42.5s12.5 -35.167 12.5 -54.5v-265c0 -40 -14.333 -74.333 -43 -103c-13.333 -14 -29 -24.667 -47 -32s-36.667 -11 -56 -11s-38 3.66699 -56 11s-33.667 18 -47 32c-28.667 28.667 -43 63 -43 103v181c0 19.333 3.66699 38 11 56
s18 33.667 32 47c0 0.666992 0.166992 1 0.5 1s0.5 0.333008 0.5 1c12.667 12.667 21 28.667 25 48v39c0 3.33301 -0.333008 6 -1 8z" />
    <glyph glyph-name="chochangthai" unicode="&#xe0a;" horiz-adv-x="416" 
d="M132 527c0 6.66699 -1.66602 15.3301 -4.99902 25.9971s-7.66602 20.667 -12.999 30h-114v48h22h54h1h37h21c9.33301 -10 17.666 -21.167 24.999 -33.5s12.666 -25.5 15.999 -39.5v-1l1 -2v-2c2.66699 -10 4 -21.333 4 -34v-39c-2 -15.333 -6.5 -30.166 -13.5 -44.499
s-16.167 -27.166 -27.5 -38.499l-2 -2c-0.666992 0 -1 -0.333008 -1 -1c-17.333 -18.667 -26 -41 -26 -67v-181c0 -13.333 2.5 -26 7.5 -38s12 -22.5 21 -31.5s19.5 -16.167 31.5 -21.5s25 -8 39 -8s27 2.66699 39 8s22.5 12.5 31.5 21.5s16 19.5 21 31.5s7.5 24.667 7.5 38
v265c0 20.667 -7.33301 38.334 -22 53.001s-32.667 22 -54 22v48c21.333 0 39.333 7.16699 54 21.5s22 31.833 22 52.5v23h47v-23c0 -19.333 -4.16699 -37.333 -12.5 -54s-19.833 -30.667 -34.5 -42c-1.33301 -1.33301 -2.33301 -2 -3 -2c1.33301 -1.33301 2.33301 -2 3 -2
c14.667 -11.333 26.167 -25.5 34.5 -42.5s12.5 -35.167 12.5 -54.5v-265c0 -40 -14.333 -74.333 -43 -103c-13.333 -14 -29 -24.667 -47 -32s-36.667 -11 -56 -11s-38 3.66699 -56 11s-33.667 18 -47 32c-28.667 28.667 -43 63 -43 103v181c0 19.333 3.66699 38 11 56
s18 33.667 32 47c0 0.666992 0.166992 1 0.5 1s0.5 0.333008 0.5 1c12.667 12.667 21 28.667 25 48v39c0 3.33301 -0.333008 6 -1 8z" />
    <glyph glyph-name="sosothai" unicode="&#xab;" horiz-adv-x="416" 
d="M135 536l0.000976562 1c0 5.33301 -0.333008 10.5 -1 15.5s-1.66699 10.167 -3 15.5l-29 -29l-34 34l-11 10h-57v48h37h24h16l25 -25l24 25h25c0.666992 -0.666992 1 -1.16699 1 -1.5s0.333008 -0.833008 1 -1.5c4 -5.33301 7.5 -11 10.5 -17s5.83301 -12 8.5 -18
c0.666992 -2.66699 1.66699 -6 3 -10c4.66699 -14 7 -29.333 7 -46v-37c0 -40 -14.333 -74.333 -43 -103c0 -0.666992 -0.166992 -1 -0.5 -1s-0.5 -0.333008 -0.5 -1c-18 -19.333 -27 -42 -27 -68v-181c0 -13.333 2.5 -26 7.5 -38s12 -22.5 21 -31.5
s19.5 -16.167 31.5 -21.5s25 -8 39 -8s27 2.66699 39 8s22.5 12.5 31.5 21.5s16 19.5 21 31.5s7.5 24.667 7.5 38v265c0 20.667 -7.33301 38.334 -22 53.001s-32.667 22 -54 22v48c21.333 0 39.333 7.16699 54 21.5s22 31.833 22 52.5v23h47v-23c0 -10 -1 -19.333 -3 -28
c-7.33301 -28.667 -22 -51.334 -44 -68.001c-1.33301 -1.33301 -2.33301 -2 -3 -2c1.33301 -1.33301 2.33301 -2 3 -2c22 -18 36.667 -40.667 44 -68c2 -9.33301 3 -19 3 -29v-265c0 -40 -14.333 -74.333 -43 -103s-63 -43 -103 -43c-40.667 -0 -75.334 14.333 -104.001 43
s-43 63 -43 103v181c0 19.333 3.66699 38 11 56s18 33.667 32 47l2 2c18 19.333 27 42 27 68v36z" />
    <glyph glyph-name="sosothai" unicode="&#xe0b;" horiz-adv-x="416" 
d="M135 536l0.000976562 1c0 5.33301 -0.333008 10.5 -1 15.5s-1.66699 10.167 -3 15.5l-29 -29l-34 34l-11 10h-57v48h37h24h16l25 -25l24 25h25c0.666992 -0.666992 1 -1.16699 1 -1.5s0.333008 -0.833008 1 -1.5c4 -5.33301 7.5 -11 10.5 -17s5.83301 -12 8.5 -18
c0.666992 -2.66699 1.66699 -6 3 -10c4.66699 -14 7 -29.333 7 -46v-37c0 -40 -14.333 -74.333 -43 -103c0 -0.666992 -0.166992 -1 -0.5 -1s-0.5 -0.333008 -0.5 -1c-18 -19.333 -27 -42 -27 -68v-181c0 -13.333 2.5 -26 7.5 -38s12 -22.5 21 -31.5
s19.5 -16.167 31.5 -21.5s25 -8 39 -8s27 2.66699 39 8s22.5 12.5 31.5 21.5s16 19.5 21 31.5s7.5 24.667 7.5 38v265c0 20.667 -7.33301 38.334 -22 53.001s-32.667 22 -54 22v48c21.333 0 39.333 7.16699 54 21.5s22 31.833 22 52.5v23h47v-23c0 -10 -1 -19.333 -3 -28
c-7.33301 -28.667 -22 -51.334 -44 -68.001c-1.33301 -1.33301 -2.33301 -2 -3 -2c1.33301 -1.33301 2.33301 -2 3 -2c22 -18 36.667 -40.667 44 -68c2 -9.33301 3 -19 3 -29v-265c0 -40 -14.333 -74.333 -43 -103s-63 -43 -103 -43c-40.667 -0 -75.334 14.333 -104.001 43
s-43 63 -43 103v181c0 19.333 3.66699 38 11 56s18 33.667 32 47l2 2c18 19.333 27 42 27 68v36z" />
    <glyph glyph-name="chochoethai" unicode="&#xac;" horiz-adv-x="962" 
d="M247 0l-75.999 0.00195312h-74c-0.666992 0.666992 -1 1.16699 -1 1.5s-0.333008 0.833008 -1 1.5c-4 5.33301 -7.5 11 -10.5 17s-5.83301 12 -8.5 18c-6.66699 17.333 -10 36 -10 56v316l-6 40l27 54l3 6c18 36 44.5 65.167 79.5 87.5s74.167 33.5 117.5 33.5
c30.667 0 59.334 -5.83301 86.001 -17.5s50 -27.5 70 -47.5s35.833 -43.333 47.5 -70s17.5 -55.334 17.5 -86.001v-189c0 -24 4.5 -46.5 13.5 -67.5s21.333 -39.333 37 -55s34 -28 55 -37s43.5 -13.5 67.5 -13.5s46.5 4.5 67.5 13.5s39.333 21.333 55 37s28 34 37 55
s13.5 43.5 13.5 67.5v410h48v-410c0 -30.667 -5.83301 -59.334 -17.5 -86.001s-27.5 -50 -47.5 -70s-43.333 -35.833 -70 -47.5s-55.334 -17.5 -86.001 -17.5c-35.333 0 -67.833 7.5 -97.5 22.5s-54.834 35.167 -75.501 60.5v-83h-48v410c0 24 -4.5 46.5 -13.5 67.5
s-21.333 39.333 -37 55s-34 28 -55 37s-43.5 13.5 -67.5 13.5c-36 0 -68 -9.5 -96 -28.5s-48.667 -43.833 -62 -74.5l-21 -42l6 -40v-201v-61v-42c0 -16.667 3 -32 9 -46h48h76v-48z" />
    <glyph glyph-name="chochoethai" unicode="&#xe0c;" horiz-adv-x="962" 
d="M247 0l-75.999 0.00195312h-74c-0.666992 0.666992 -1 1.16699 -1 1.5s-0.333008 0.833008 -1 1.5c-4 5.33301 -7.5 11 -10.5 17s-5.83301 12 -8.5 18c-6.66699 17.333 -10 36 -10 56v316l-6 40l27 54l3 6c18 36 44.5 65.167 79.5 87.5s74.167 33.5 117.5 33.5
c30.667 0 59.334 -5.83301 86.001 -17.5s50 -27.5 70 -47.5s35.833 -43.333 47.5 -70s17.5 -55.334 17.5 -86.001v-189c0 -24 4.5 -46.5 13.5 -67.5s21.333 -39.333 37 -55s34 -28 55 -37s43.5 -13.5 67.5 -13.5s46.5 4.5 67.5 13.5s39.333 21.333 55 37s28 34 37 55
s13.5 43.5 13.5 67.5v410h48v-410c0 -30.667 -5.83301 -59.334 -17.5 -86.001s-27.5 -50 -47.5 -70s-43.333 -35.833 -70 -47.5s-55.334 -17.5 -86.001 -17.5c-35.333 0 -67.833 7.5 -97.5 22.5s-54.834 35.167 -75.501 60.5v-83h-48v410c0 24 -4.5 46.5 -13.5 67.5
s-21.333 39.333 -37 55s-34 28 -55 37s-43.5 13.5 -67.5 13.5c-36 0 -68 -9.5 -96 -28.5s-48.667 -43.833 -62 -74.5l-21 -42l6 -40v-201v-61v-42c0 -16.667 3 -32 9 -46h48h76v-48z" />
    <glyph glyph-name="yoyingthai" unicode="&#xad;" horiz-adv-x="962" 
d="M902 0c0 -30.667 -5.83105 -59.334 -17.498 -86.001s-27.5 -50 -47.5 -70s-43.333 -35.833 -70 -47.5s-55.334 -17.5 -86.001 -17.5s-59.334 5.83301 -86.001 17.5s-50 27.5 -70 47.5s-35.833 43.333 -47.5 70s-17.5 55.334 -17.5 86.001h48c0 -24 4.5 -46.5 13.5 -67.5
s21.333 -39.333 37 -55s34 -28 55 -37s43.5 -13.5 67.5 -13.5s46.5 4.5 67.5 13.5s39.333 21.333 55 37s28 34 37 55s13.5 43.5 13.5 67.5v83c-20 -25.333 -45 -45.5 -75 -60.5s-62.667 -22.5 -98 -22.5c-30.667 -0 -59.334 5.83301 -86.001 17.5s-50 27.5 -70 47.5
s-35.833 43.333 -47.5 70s-17.5 55.334 -17.5 86.001v189c0 24 -4.5 46.5 -13.5 67.5s-21.333 39.333 -37 55s-34 28 -55 37s-43.5 13.5 -67.5 13.5c-36 0 -68 -9.5 -96 -28.5s-48.667 -43.833 -62 -74.5l-21 -42l6 -40v-201v-61v-42c0 -16.667 3 -32 9 -46h48h76v-48h-76
h-74c-0.666992 0.666992 -1 1.16699 -1 1.5s-0.333008 0.833008 -1 1.5c-4 5.33301 -7.5 11 -10.5 17s-5.83301 12 -8.5 18c-6.66699 17.333 -10 36 -10 56v316l-6 40l27 54l3 6c18 36 44.5 65.167 79.5 87.5s74.167 33.5 117.5 33.5c30.667 0 59.334 -5.83301 86.001 -17.5
s50 -27.5 70 -47.5s35.833 -43.333 47.5 -70s17.5 -55.334 17.5 -86.001v-189c0 -24 4.5 -46.5 13.5 -67.5s21.333 -39.333 37 -55s34 -28 55 -37s43.5 -13.5 67.5 -13.5s46.5 4.5 67.5 13.5s39.333 21.333 55 37s28 34 37 55s13.5 43.5 13.5 67.5v410h48v-410v-221v0z" />
    <glyph glyph-name="yoyingthai" unicode="&#xe0d;" horiz-adv-x="962" 
d="M902 0c0 -30.667 -5.83105 -59.334 -17.498 -86.001s-27.5 -50 -47.5 -70s-43.333 -35.833 -70 -47.5s-55.334 -17.5 -86.001 -17.5s-59.334 5.83301 -86.001 17.5s-50 27.5 -70 47.5s-35.833 43.333 -47.5 70s-17.5 55.334 -17.5 86.001h48c0 -24 4.5 -46.5 13.5 -67.5
s21.333 -39.333 37 -55s34 -28 55 -37s43.5 -13.5 67.5 -13.5s46.5 4.5 67.5 13.5s39.333 21.333 55 37s28 34 37 55s13.5 43.5 13.5 67.5v83c-20 -25.333 -45 -45.5 -75 -60.5s-62.667 -22.5 -98 -22.5c-30.667 -0 -59.334 5.83301 -86.001 17.5s-50 27.5 -70 47.5
s-35.833 43.333 -47.5 70s-17.5 55.334 -17.5 86.001v189c0 24 -4.5 46.5 -13.5 67.5s-21.333 39.333 -37 55s-34 28 -55 37s-43.5 13.5 -67.5 13.5c-36 0 -68 -9.5 -96 -28.5s-48.667 -43.833 -62 -74.5l-21 -42l6 -40v-201v-61v-42c0 -16.667 3 -32 9 -46h48h76v-48h-76
h-74c-0.666992 0.666992 -1 1.16699 -1 1.5s-0.333008 0.833008 -1 1.5c-4 5.33301 -7.5 11 -10.5 17s-5.83301 12 -8.5 18c-6.66699 17.333 -10 36 -10 56v316l-6 40l27 54l3 6c18 36 44.5 65.167 79.5 87.5s74.167 33.5 117.5 33.5c30.667 0 59.334 -5.83301 86.001 -17.5
s50 -27.5 70 -47.5s35.833 -43.333 47.5 -70s17.5 -55.334 17.5 -86.001v-189c0 -24 4.5 -46.5 13.5 -67.5s21.333 -39.333 37 -55s34 -28 55 -37s43.5 -13.5 67.5 -13.5s46.5 4.5 67.5 13.5s39.333 21.333 55 37s28 34 37 55s13.5 43.5 13.5 67.5v410h48v-410v-221v0z" />
    <glyph glyph-name="yoyingthai" unicode="&#xde;" horiz-adv-x="962" 
d="M902 0c0 -30.667 -5.83105 -59.334 -17.498 -86.001s-27.5 -50 -47.5 -70s-43.333 -35.833 -70 -47.5s-55.334 -17.5 -86.001 -17.5s-59.334 5.83301 -86.001 17.5s-50 27.5 -70 47.5s-35.833 43.333 -47.5 70s-17.5 55.334 -17.5 86.001h48c0 -24 4.5 -46.5 13.5 -67.5
s21.333 -39.333 37 -55s34 -28 55 -37s43.5 -13.5 67.5 -13.5s46.5 4.5 67.5 13.5s39.333 21.333 55 37s28 34 37 55s13.5 43.5 13.5 67.5v83c-20 -25.333 -45 -45.5 -75 -60.5s-62.667 -22.5 -98 -22.5c-30.667 -0 -59.334 5.83301 -86.001 17.5s-50 27.5 -70 47.5
s-35.833 43.333 -47.5 70s-17.5 55.334 -17.5 86.001v189c0 24 -4.5 46.5 -13.5 67.5s-21.333 39.333 -37 55s-34 28 -55 37s-43.5 13.5 -67.5 13.5c-36 0 -68 -9.5 -96 -28.5s-48.667 -43.833 -62 -74.5l-21 -42l6 -40v-201v-61v-42c0 -16.667 3 -32 9 -46h48h76v-48h-76
h-74c-0.666992 0.666992 -1 1.16699 -1 1.5s-0.333008 0.833008 -1 1.5c-4 5.33301 -7.5 11 -10.5 17s-5.83301 12 -8.5 18c-6.66699 17.333 -10 36 -10 56v316l-6 40l27 54l3 6c18 36 44.5 65.167 79.5 87.5s74.167 33.5 117.5 33.5c30.667 0 59.334 -5.83301 86.001 -17.5
s50 -27.5 70 -47.5s35.833 -43.333 47.5 -70s17.5 -55.334 17.5 -86.001v-189c0 -24 4.5 -46.5 13.5 -67.5s21.333 -39.333 37 -55s34 -28 55 -37s43.5 -13.5 67.5 -13.5s46.5 4.5 67.5 13.5s39.333 21.333 55 37s28 34 37 55s13.5 43.5 13.5 67.5v410h48v-410v-221v0z" />
    <glyph glyph-name="dochadathai" unicode="&#xae;" horiz-adv-x="559" 
d="M470 -266c-1.33301 -1.33301 -2.00293 -2.33203 -2.00293 -2.99902h-74h-31l-85 86l-86 -86h-192v48h172l106 106l105 -106h11h48c6 14 9 29.333 9 46v585c0 24 -4.5 46.5 -13.5 67.5s-21.333 39.333 -37 55s-34 28 -55 37s-43.5 13.5 -67.5 13.5
c-35.333 0 -67.166 -9.5 -95.499 -28.5s-49.166 -43.833 -62.499 -74.5l-21 -42l6 -40v-350v-48v-1h-105v48h57v1v362l-6 40l27 54l3 6c18 36 44.5 65.167 79.5 87.5s74.167 33.5 117.5 33.5c30.667 0 59.334 -5.83301 86.001 -17.5s50 -27.5 70 -47.5
s35.833 -43.333 47.5 -70s17.5 -55.334 17.5 -86.001v-585c0 -20 -3.33301 -38.667 -10 -56c-2.66699 -6 -5.5 -12 -8.5 -18s-6.5 -11.667 -10.5 -17z" />
    <glyph glyph-name="dochadathai" unicode="&#xe0e;" horiz-adv-x="559" 
d="M470 -266c-1.33301 -1.33301 -2.00293 -2.33203 -2.00293 -2.99902h-74h-31l-85 86l-86 -86h-192v48h172l106 106l105 -106h11h48c6 14 9 29.333 9 46v585c0 24 -4.5 46.5 -13.5 67.5s-21.333 39.333 -37 55s-34 28 -55 37s-43.5 13.5 -67.5 13.5
c-35.333 0 -67.166 -9.5 -95.499 -28.5s-49.166 -43.833 -62.499 -74.5l-21 -42l6 -40v-350v-48v-1h-105v48h57v1v362l-6 40l27 54l3 6c18 36 44.5 65.167 79.5 87.5s74.167 33.5 117.5 33.5c30.667 0 59.334 -5.83301 86.001 -17.5s50 -27.5 70 -47.5
s35.833 -43.333 47.5 -70s17.5 -55.334 17.5 -86.001v-585c0 -20 -3.33301 -38.667 -10 -56c-2.66699 -6 -5.5 -12 -8.5 -18s-6.5 -11.667 -10.5 -17z" />
    <glyph glyph-name="topatakthai" unicode="&#xaf;" horiz-adv-x="559" 
d="M408 -269l-85.001 86.002l-86 -86l-86 86l-85 -86h-66v48h46l105 106l86 -86l86 86l105 -106h1h12c6.66699 13.333 10 28.666 10 45.999v585c0 24 -4.5 46.5 -13.5 67.5s-21.333 39.333 -37 55s-34 28 -55 37s-43.5 13.5 -67.5 13.5c-36 0 -68 -9.5 -96 -28.5
s-48.667 -43.833 -62 -74.5l-21 -42l6 -40v-350v-48v-1h-105v48h57v1v362l-6 40l27 54l3 6c18 36 44.5 65.167 79.5 87.5s74.167 33.5 117.5 33.5c30.667 0 59.334 -5.83301 86.001 -17.5s50 -27.5 70 -47.5s35.833 -43.333 47.5 -70s17.5 -55.334 17.5 -86.001v-585
c0 -20 -3.33301 -38.667 -10 -56c-2.66699 -6 -5.5 -12 -8.5 -18s-6.5 -11.667 -10.5 -17c-1.33301 -1.33301 -2 -2.33301 -2 -3h-28h-11h-21z" />
    <glyph glyph-name="topatakthai" unicode="&#xe0f;" horiz-adv-x="559" 
d="M408 -269l-85.001 86.002l-86 -86l-86 86l-85 -86h-66v48h46l105 106l86 -86l86 86l105 -106h1h12c6.66699 13.333 10 28.666 10 45.999v585c0 24 -4.5 46.5 -13.5 67.5s-21.333 39.333 -37 55s-34 28 -55 37s-43.5 13.5 -67.5 13.5c-36 0 -68 -9.5 -96 -28.5
s-48.667 -43.833 -62 -74.5l-21 -42l6 -40v-350v-48v-1h-105v48h57v1v362l-6 40l27 54l3 6c18 36 44.5 65.167 79.5 87.5s74.167 33.5 117.5 33.5c30.667 0 59.334 -5.83301 86.001 -17.5s50 -27.5 70 -47.5s35.833 -43.333 47.5 -70s17.5 -55.334 17.5 -86.001v-585
c0 -20 -3.33301 -38.667 -10 -56c-2.66699 -6 -5.5 -12 -8.5 -18s-6.5 -11.667 -10.5 -17c-1.33301 -1.33301 -2 -2.33301 -2 -3h-28h-11h-21z" />
    <glyph glyph-name="thothanthai" unicode="&#xb0;" horiz-adv-x="502" 
d="M221 583c-24 0 -46.499 -4.50195 -67.499 -13.502s-39.333 -21.333 -55 -37s-28 -34 -37 -55s-13.5 -43.5 -13.5 -67.5h-48c0 30.667 5.83301 59.334 17.5 86.001s27.5 50 47.5 70s43.333 35.833 70 47.5s55.334 17.5 86.001 17.5c31.333 0 60.666 -6 87.999 -18
s51 -28.333 71 -49c10 13.333 15 28 15 44v23h47v-23c0 -10 -1 -19.333 -3 -28c-4.66699 -20 -14.334 -38.333 -29.001 -55c10 -16.667 17.833 -34.667 23.5 -54s8.5 -39.666 8.5 -60.999v-410h-48v267h-129v48h129v95c0 24 -4.5 46.5 -13.5 67.5s-21.333 39.333 -37 55
s-34 28 -55 37s-43.5 13.5 -67.5 13.5zM470.001 -218.002c-1.33301 -1.33301 -2 -2.33203 -2 -2.99902h-28h-11h-21l-85 86l-86 -86l-86 86l-85 -86h-66v48h46l105 106l86 -86l86 86l105 -106h1h12c6.66699 13.333 10 28.666 10 45.999h48c0 -20 -3.33301 -38.667 -10 -56
c-2.66699 -6 -5.5 -12 -8.5 -18s-6.5 -11.667 -10.5 -17z" />
    <glyph glyph-name="thothanthai" unicode="&#xe10;" horiz-adv-x="502" 
d="M221 583c-24 0 -46.499 -4.50195 -67.499 -13.502s-39.333 -21.333 -55 -37s-28 -34 -37 -55s-13.5 -43.5 -13.5 -67.5h-48c0 30.667 5.83301 59.334 17.5 86.001s27.5 50 47.5 70s43.333 35.833 70 47.5s55.334 17.5 86.001 17.5c31.333 0 60.666 -6 87.999 -18
s51 -28.333 71 -49c10 13.333 15 28 15 44v23h47v-23c0 -10 -1 -19.333 -3 -28c-4.66699 -20 -14.334 -38.333 -29.001 -55c10 -16.667 17.833 -34.667 23.5 -54s8.5 -39.666 8.5 -60.999v-410h-48v267h-129v48h129v95c0 24 -4.5 46.5 -13.5 67.5s-21.333 39.333 -37 55
s-34 28 -55 37s-43.5 13.5 -67.5 13.5zM470.001 -218.002c-1.33301 -1.33301 -2 -2.33203 -2 -2.99902h-28h-11h-21l-85 86l-86 -86l-86 86l-85 -86h-66v48h46l105 106l86 -86l86 86l105 -106h1h12c6.66699 13.333 10 28.666 10 45.999h48c0 -20 -3.33301 -38.667 -10 -56
c-2.66699 -6 -5.5 -12 -8.5 -18s-6.5 -11.667 -10.5 -17z" />
    <glyph glyph-name="thonangmonthothai" unicode="&#xb1;" horiz-adv-x="636" 
d="M355 583c-24 0 -46.502 -4.49805 -67.502 -13.498s-39.333 -21.333 -55 -37s-28 -34 -37 -55s-13.5 -43.5 -13.5 -67.5v-410h-48v410v161l-32 -32l-34 34l-11 10h-57v48h37h24h16l25 -25l24 25h8h17h31v-84c20.667 25.333 45.834 45.666 75.501 60.999s62.167 23 97.5 23
c30.667 0 59.334 -5.83301 86.001 -17.5s50 -27.5 70 -47.5s35.833 -43.333 47.5 -70s17.5 -55.334 17.5 -86.001v-410h-48v410c0 24 -4.5 46.5 -13.5 67.5s-21.333 39.333 -37 55s-34 28 -55 37s-43.5 13.5 -67.5 13.5z" />
    <glyph glyph-name="thonangmonthothai" unicode="&#xe11;" horiz-adv-x="636" 
d="M355 583c-24 0 -46.502 -4.49805 -67.502 -13.498s-39.333 -21.333 -55 -37s-28 -34 -37 -55s-13.5 -43.5 -13.5 -67.5v-410h-48v410v161l-32 -32l-34 34l-11 10h-57v48h37h24h16l25 -25l24 25h8h17h31v-84c20.667 25.333 45.834 45.666 75.501 60.999s62.167 23 97.5 23
c30.667 0 59.334 -5.83301 86.001 -17.5s50 -27.5 70 -47.5s35.833 -43.333 47.5 -70s17.5 -55.334 17.5 -86.001v-410h-48v410c0 24 -4.5 46.5 -13.5 67.5s-21.333 39.333 -37 55s-34 28 -55 37s-43.5 13.5 -67.5 13.5z" />
    <glyph glyph-name="thophuthaothai" unicode="&#xb2;" horiz-adv-x="956" 
d="M896 221c0 -30.667 -5.83301 -59.332 -17.5 -85.999s-27.5 -50 -47.5 -70s-43.333 -35.833 -70 -47.5s-55.334 -17.5 -86.001 -17.5c-35.333 0 -68 7.5 -98 22.5s-55 35.167 -75 60.5v-83h-48v214v7v189v23v1c0 28 -6 53.667 -18 77s-28 43 -48 59l-107 -108l-107 108
c-20 -16 -36 -35.667 -48 -59s-18 -49 -18 -77v-1v-23v-316c0 -16.667 3 -32 9 -46h48h23h47c6.66699 13.333 10 28.666 10 45.999h48c0 -18.667 -3.66699 -37.334 -11 -56.001c-2 -6 -4.66699 -12 -8 -18s-7 -11.667 -11 -17c0 -0.666992 -0.666992 -1.66699 -2 -3h-73h-23
h-74c-0.666992 0.666992 -1 1.16699 -1 1.5s-0.333008 0.833008 -1 1.5c-4 5.33301 -7.5 11 -10.5 17s-5.83301 12 -8.5 18c-6.66699 17.333 -10 36 -10 56v316v23v1c0 34 7.16699 65.667 21.5 95s33.5 54.333 57.5 75c12 9.33301 25.667 18.333 41 27l37 -36l64 -65l64 65
l36 36c16 -8.66699 29.667 -17.667 41 -27c24.667 -20.667 44.167 -45.667 58.5 -75s21.5 -61 21.5 -95v-1v-23v-195c0.666992 -23.333 5.66699 -45.166 15 -65.499s21.833 -38 37.5 -53s33.834 -26.833 54.501 -35.5s42.667 -13 66 -13c24 0 46.5 4.5 67.5 13.5
s39.333 21.333 55 37s28 34 37 55s13.5 43.5 13.5 67.5v410h48v-410v0z" />
    <glyph glyph-name="thophuthaothai" unicode="&#xe12;" horiz-adv-x="956" 
d="M896 221c0 -30.667 -5.83301 -59.332 -17.5 -85.999s-27.5 -50 -47.5 -70s-43.333 -35.833 -70 -47.5s-55.334 -17.5 -86.001 -17.5c-35.333 0 -68 7.5 -98 22.5s-55 35.167 -75 60.5v-83h-48v214v7v189v23v1c0 28 -6 53.667 -18 77s-28 43 -48 59l-107 -108l-107 108
c-20 -16 -36 -35.667 -48 -59s-18 -49 -18 -77v-1v-23v-316c0 -16.667 3 -32 9 -46h48h23h47c6.66699 13.333 10 28.666 10 45.999h48c0 -18.667 -3.66699 -37.334 -11 -56.001c-2 -6 -4.66699 -12 -8 -18s-7 -11.667 -11 -17c0 -0.666992 -0.666992 -1.66699 -2 -3h-73h-23
h-74c-0.666992 0.666992 -1 1.16699 -1 1.5s-0.333008 0.833008 -1 1.5c-4 5.33301 -7.5 11 -10.5 17s-5.83301 12 -8.5 18c-6.66699 17.333 -10 36 -10 56v316v23v1c0 34 7.16699 65.667 21.5 95s33.5 54.333 57.5 75c12 9.33301 25.667 18.333 41 27l37 -36l64 -65l64 65
l36 36c16 -8.66699 29.667 -17.667 41 -27c24.667 -20.667 44.167 -45.667 58.5 -75s21.5 -61 21.5 -95v-1v-23v-195c0.666992 -23.333 5.66699 -45.166 15 -65.499s21.833 -38 37.5 -53s33.834 -26.833 54.501 -35.5s42.667 -13 66 -13c24 0 46.5 4.5 67.5 13.5
s39.333 21.333 55 37s28 34 37 55s13.5 43.5 13.5 67.5v410h48v-410v0z" />
    <glyph glyph-name="nonenthai" unicode="&#xb3;" horiz-adv-x="962" 
d="M854 83c-20 -25.333 -45 -45.5 -75 -60.5s-62.667 -22.5 -98 -22.5c-30.667 -0 -59.334 5.83301 -86.001 17.5s-50 27.5 -70 47.5s-35.833 43.333 -47.5 70s-17.5 55.334 -17.5 86.001v189c0 24 -4.5 46.5 -13.5 67.5s-21.333 39.333 -37 55s-34 28 -55 37
s-43.5 13.5 -67.5 13.5c-36 0 -68 -9.5 -96 -28.5s-48.667 -43.833 -62 -74.5l-21 -42l6 -40v-201v-61v-42c0 -16.667 3 -32 9 -46h48h76v-48h-76h-74c-0.666992 0.666992 -1 1.16699 -1 1.5s-0.333008 0.833008 -1 1.5c-4 5.33301 -7.5 11 -10.5 17s-5.83301 12 -8.5 18
c-6.66699 17.333 -10 36 -10 56v316l-6 40l27 54l3 6c18 36 44.5 65.167 79.5 87.5s74.167 33.5 117.5 33.5c30.667 0 59.334 -5.83301 86.001 -17.5s50 -27.5 70 -47.5s35.833 -43.333 47.5 -70s17.5 -55.334 17.5 -86.001v-189c0 -24 4.5 -46.5 13.5 -67.5
s21.333 -39.333 37 -55s34 -28 55 -37s43.5 -13.5 67.5 -13.5s46.5 4.5 67.5 13.5s39.333 21.333 55 37s28 34 37 55s13.5 43.5 13.5 67.5v410h48v-410v-221h-48v83z" />
    <glyph glyph-name="nonenthai" unicode="&#xe13;" horiz-adv-x="962" 
d="M854 83c-20 -25.333 -45 -45.5 -75 -60.5s-62.667 -22.5 -98 -22.5c-30.667 -0 -59.334 5.83301 -86.001 17.5s-50 27.5 -70 47.5s-35.833 43.333 -47.5 70s-17.5 55.334 -17.5 86.001v189c0 24 -4.5 46.5 -13.5 67.5s-21.333 39.333 -37 55s-34 28 -55 37
s-43.5 13.5 -67.5 13.5c-36 0 -68 -9.5 -96 -28.5s-48.667 -43.833 -62 -74.5l-21 -42l6 -40v-201v-61v-42c0 -16.667 3 -32 9 -46h48h76v-48h-76h-74c-0.666992 0.666992 -1 1.16699 -1 1.5s-0.333008 0.833008 -1 1.5c-4 5.33301 -7.5 11 -10.5 17s-5.83301 12 -8.5 18
c-6.66699 17.333 -10 36 -10 56v316l-6 40l27 54l3 6c18 36 44.5 65.167 79.5 87.5s74.167 33.5 117.5 33.5c30.667 0 59.334 -5.83301 86.001 -17.5s50 -27.5 70 -47.5s35.833 -43.333 47.5 -70s17.5 -55.334 17.5 -86.001v-189c0 -24 4.5 -46.5 13.5 -67.5
s21.333 -39.333 37 -55s34 -28 55 -37s43.5 -13.5 67.5 -13.5s46.5 4.5 67.5 13.5s39.333 21.333 55 37s28 34 37 55s13.5 43.5 13.5 67.5v410h48v-410v-221h-48v83z" />
    <glyph glyph-name="dodekthai" unicode="&#xb4;" 
d="M281 631c30.667 0 59.333 -5.83398 86 -17.501s50 -27.5 70 -47.5s35.833 -43.333 47.5 -70s17.5 -55.334 17.5 -86.001v-410h-48v410c0 24 -4.5 46.5 -13.5 67.5s-21.333 39.333 -37 55s-34 28 -55 37s-43.5 13.5 -67.5 13.5s-46.5 -4.5 -67.5 -13.5
s-39.333 -21.333 -55 -37s-28 -34 -37 -55s-13.5 -43.5 -13.5 -67.5v-315c0.666992 -13.333 5.5 -24.5 14.5 -33.5s20.167 -13.5 33.5 -13.5h22h10h48c6 14.667 9 30 9 46h48c0 -20 -3.33301 -38.667 -10 -56c-2.66699 -6 -5.5 -12 -8.5 -18s-6.5 -11.667 -10.5 -17
c-1.33301 -1.33301 -2 -2.33301 -2 -3h-74h-10h-22c-26.667 0 -49.334 9.33301 -68.001 28s-28 41.334 -28 68.001v314c0 30.667 5.83301 59.334 17.5 86.001s27.5 50 47.5 70s43.333 35.833 70 47.5s55.334 17.5 86.001 17.5z" />
    <glyph glyph-name="dodekthai" unicode="&#xe14;" 
d="M281 631c30.667 0 59.333 -5.83398 86 -17.501s50 -27.5 70 -47.5s35.833 -43.333 47.5 -70s17.5 -55.334 17.5 -86.001v-410h-48v410c0 24 -4.5 46.5 -13.5 67.5s-21.333 39.333 -37 55s-34 28 -55 37s-43.5 13.5 -67.5 13.5s-46.5 -4.5 -67.5 -13.5
s-39.333 -21.333 -55 -37s-28 -34 -37 -55s-13.5 -43.5 -13.5 -67.5v-315c0.666992 -13.333 5.5 -24.5 14.5 -33.5s20.167 -13.5 33.5 -13.5h22h10h48c6 14.667 9 30 9 46h48c0 -20 -3.33301 -38.667 -10 -56c-2.66699 -6 -5.5 -12 -8.5 -18s-6.5 -11.667 -10.5 -17
c-1.33301 -1.33301 -2 -2.33301 -2 -3h-74h-10h-22c-26.667 0 -49.334 9.33301 -68.001 28s-28 41.334 -28 68.001v314c0 30.667 5.83301 59.334 17.5 86.001s27.5 50 47.5 70s43.333 35.833 70 47.5s55.334 17.5 86.001 17.5z" />
    <glyph glyph-name="totaothai" unicode="&#xb5;" 
d="M422 604c24.667 -20.667 44.168 -45.6689 58.501 -75.002s21.5 -61 21.5 -95v-1v-23v-410h-48v410v23v1c0 28 -6 53.667 -18 77s-28 43 -48 59l-107 -108l-107 108c-20 -16 -36 -35.667 -48 -59s-18 -49 -18 -77v-1v-23v-315c0.666992 -13.333 5.5 -24.5 14.5 -33.5
s20.167 -13.5 33.5 -13.5h15h7h10h48c6 14.667 9 30 9 46h48c0 -20 -3.33301 -38.667 -10 -56c-2.66699 -6 -5.5 -12 -8.5 -18s-6.5 -11.667 -10.5 -17c-1.33301 -1.33301 -2 -2.33301 -2 -3h-74h-10h-7h-15c-26.667 0 -49.334 9.33301 -68.001 28s-28 41.334 -28 68.001
v314v23v1c0 34 7.16699 65.667 21.5 95s33.833 54.333 58.5 75c11.333 9.33301 25 18.333 41 27l36 -36l64 -65l64 65l37 36c7.33301 -4 14.333 -8.16699 21 -12.5s13 -9.16602 19 -14.499z" />
    <glyph glyph-name="totaothai" unicode="&#xe15;" 
d="M422 604c24.667 -20.667 44.168 -45.6689 58.501 -75.002s21.5 -61 21.5 -95v-1v-23v-410h-48v410v23v1c0 28 -6 53.667 -18 77s-28 43 -48 59l-107 -108l-107 108c-20 -16 -36 -35.667 -48 -59s-18 -49 -18 -77v-1v-23v-315c0.666992 -13.333 5.5 -24.5 14.5 -33.5
s20.167 -13.5 33.5 -13.5h15h7h10h48c6 14.667 9 30 9 46h48c0 -20 -3.33301 -38.667 -10 -56c-2.66699 -6 -5.5 -12 -8.5 -18s-6.5 -11.667 -10.5 -17c-1.33301 -1.33301 -2 -2.33301 -2 -3h-74h-10h-7h-15c-26.667 0 -49.334 9.33301 -68.001 28s-28 41.334 -28 68.001
v314v23v1c0 34 7.16699 65.667 21.5 95s33.833 54.333 58.5 75c11.333 9.33301 25 18.333 41 27l36 -36l64 -65l64 65l37 36c7.33301 -4 14.333 -8.16699 21 -12.5s13 -9.16602 19 -14.499z" />
    <glyph glyph-name="thothungthai" unicode="&#xb6;" horiz-adv-x="568" 
d="M287 631c30.667 0 59.333 -5.83203 86 -17.499s50 -27.5 70 -47.5s35.833 -43.333 47.5 -70s17.5 -55.334 17.5 -86.001v-410h-48v410c0 24 -4.5 46.5 -13.5 67.5s-21.333 39.333 -37 55s-34 28 -55 37s-43.5 13.5 -67.5 13.5c-36 0 -68 -9.5 -96 -28.5
s-48.667 -43.833 -62 -74.5l-21 -42l6 -40v-201v-61v-42c0 -16.667 3 -32 9 -46h48h76v-48h-76h-74c-0.666992 0.666992 -1 1.16699 -1 1.5s-0.333008 0.833008 -1 1.5c-4 5.33301 -7.5 11 -10.5 17s-5.83301 12 -8.5 18c-6.66699 17.333 -10 36 -10 56v316l-6 40l27 54l3 6
c18 36 44.5 65.167 79.5 87.5s74.167 33.5 117.5 33.5z" />
    <glyph glyph-name="thothungthai" unicode="&#xe16;" horiz-adv-x="568" 
d="M287 631c30.667 0 59.333 -5.83203 86 -17.499s50 -27.5 70 -47.5s35.833 -43.333 47.5 -70s17.5 -55.334 17.5 -86.001v-410h-48v410c0 24 -4.5 46.5 -13.5 67.5s-21.333 39.333 -37 55s-34 28 -55 37s-43.5 13.5 -67.5 13.5c-36 0 -68 -9.5 -96 -28.5
s-48.667 -43.833 -62 -74.5l-21 -42l6 -40v-201v-61v-42c0 -16.667 3 -32 9 -46h48h76v-48h-76h-74c-0.666992 0.666992 -1 1.16699 -1 1.5s-0.333008 0.833008 -1 1.5c-4 5.33301 -7.5 11 -10.5 17s-5.83301 12 -8.5 18c-6.66699 17.333 -10 36 -10 56v316l-6 40l27 54l3 6
c18 36 44.5 65.167 79.5 87.5s74.167 33.5 117.5 33.5z" />
    <glyph glyph-name="thothahanthai" unicode="&#xb7;" 
d="M281 631c30.667 0 59.332 -5.83105 85.999 -17.498s50 -27.5 70 -47.5s35.833 -43.333 47.5 -70s17.5 -55.334 17.5 -86.001v-410h-48v410c0 24 -4.5 46.5 -13.5 67.5s-21.333 39.333 -37 55s-34 28 -55 37s-43.5 13.5 -67.5 13.5s-46.5 -4.5 -67.5 -13.5
s-39.333 -21.333 -55 -37s-28 -34 -37 -55s-13.5 -43.5 -13.5 -67.5v-410h-48v410v221h48v-84c20.667 25.333 45.834 45.666 75.501 60.999s62.167 23 97.5 23z" />
    <glyph glyph-name="thothahanthai" unicode="&#x2219;" 
d="M281 631c30.667 0 59.332 -5.83105 85.999 -17.498s50 -27.5 70 -47.5s35.833 -43.333 47.5 -70s17.5 -55.334 17.5 -86.001v-410h-48v410c0 24 -4.5 46.5 -13.5 67.5s-21.333 39.333 -37 55s-34 28 -55 37s-43.5 13.5 -67.5 13.5s-46.5 -4.5 -67.5 -13.5
s-39.333 -21.333 -55 -37s-28 -34 -37 -55s-13.5 -43.5 -13.5 -67.5v-410h-48v410v221h48v-84c20.667 25.333 45.834 45.666 75.501 60.999s62.167 23 97.5 23z" />
    <glyph glyph-name="thothahanthai" unicode="&#xe17;" 
d="M281 631c30.667 0 59.332 -5.83105 85.999 -17.498s50 -27.5 70 -47.5s35.833 -43.333 47.5 -70s17.5 -55.334 17.5 -86.001v-410h-48v410c0 24 -4.5 46.5 -13.5 67.5s-21.333 39.333 -37 55s-34 28 -55 37s-43.5 13.5 -67.5 13.5s-46.5 -4.5 -67.5 -13.5
s-39.333 -21.333 -55 -37s-28 -34 -37 -55s-13.5 -43.5 -13.5 -67.5v-410h-48v410v221h48v-84c20.667 25.333 45.834 45.666 75.501 60.999s62.167 23 97.5 23z" />
    <glyph glyph-name="thothongthai" unicode="&#xb8;" horiz-adv-x="564" 
d="M283 631c30.667 0 59.333 -5.83301 86 -17.5s50 -27.5 70 -47.5s35.833 -43.333 47.5 -70s17.5 -55.334 17.5 -86.001h-48c0 24 -4.5 46.5 -13.5 67.5s-21.5 39.333 -37.5 55s-34.5 28 -55.5 37s-43.5 13.5 -67.5 13.5h-64c-15.333 0 -29.666 -2.83301 -42.999 -8.5
s-25 -13.5 -35 -23.5s-17.833 -21.667 -23.5 -35s-8.5 -27.333 -8.5 -42c0 -24 6.83301 -45.333 20.5 -64s31.167 -32 52.5 -40l119.5 -35l63 -18l25.5 -7.5c3.33301 -1 5.66602 -1.83301 6.99902 -2.5c35.333 -11.333 62.666 -33 81.999 -65c16 -24 24 -52 24 -84
c0 -22 -4.16699 -42.5 -12.5 -61.5s-19.5 -35.667 -33.5 -50s-30.5 -25.666 -49.5 -33.999s-39.5 -12.5 -61.5 -12.5h-115c-23.333 0 -45.333 4.5 -66 13.5s-38.667 21.167 -54 36.5s-27.5 33.333 -36.5 54s-13.5 42.667 -13.5 66v146h48v-146
c0 -16.667 3.33301 -32.5 10 -47.5s15.5 -28 26.5 -39s23.833 -19.667 38.5 -26s30.334 -9.5 47.001 -9.5h115c14.667 0 28.667 3 42 9s25 14 35 24s17.833 21.5 23.5 34.5s8.5 27.167 8.5 42.5c0 24.667 -7.16699 46.5 -21.5 65.5s-32.5 32.167 -54.5 39.5l-118 34l-62 18
l-25 7.5c-3.33301 1 -5.66602 1.83301 -6.99902 2.5c-17.333 5.33301 -32.833 13.5 -46.5 24.5s-25.167 24.167 -34.5 39.5c-16.667 26 -25 54 -25 84c0 22 4.16699 42.667 12.5 62s19.666 36 33.999 50s31 25.167 50 33.5s39.5 12.5 61.5 12.5h64h1v0z" />
    <glyph glyph-name="thothongthai" unicode="&#xe18;" horiz-adv-x="564" 
d="M283 631c30.667 0 59.333 -5.83301 86 -17.5s50 -27.5 70 -47.5s35.833 -43.333 47.5 -70s17.5 -55.334 17.5 -86.001h-48c0 24 -4.5 46.5 -13.5 67.5s-21.5 39.333 -37.5 55s-34.5 28 -55.5 37s-43.5 13.5 -67.5 13.5h-64c-15.333 0 -29.666 -2.83301 -42.999 -8.5
s-25 -13.5 -35 -23.5s-17.833 -21.667 -23.5 -35s-8.5 -27.333 -8.5 -42c0 -24 6.83301 -45.333 20.5 -64s31.167 -32 52.5 -40l119.5 -35l63 -18l25.5 -7.5c3.33301 -1 5.66602 -1.83301 6.99902 -2.5c35.333 -11.333 62.666 -33 81.999 -65c16 -24 24 -52 24 -84
c0 -22 -4.16699 -42.5 -12.5 -61.5s-19.5 -35.667 -33.5 -50s-30.5 -25.666 -49.5 -33.999s-39.5 -12.5 -61.5 -12.5h-115c-23.333 0 -45.333 4.5 -66 13.5s-38.667 21.167 -54 36.5s-27.5 33.333 -36.5 54s-13.5 42.667 -13.5 66v146h48v-146
c0 -16.667 3.33301 -32.5 10 -47.5s15.5 -28 26.5 -39s23.833 -19.667 38.5 -26s30.334 -9.5 47.001 -9.5h115c14.667 0 28.667 3 42 9s25 14 35 24s17.833 21.5 23.5 34.5s8.5 27.167 8.5 42.5c0 24.667 -7.16699 46.5 -21.5 65.5s-32.5 32.167 -54.5 39.5l-118 34l-62 18
l-25 7.5c-3.33301 1 -5.66602 1.83301 -6.99902 2.5c-17.333 5.33301 -32.833 13.5 -46.5 24.5s-25.167 24.167 -34.5 39.5c-16.667 26 -25 54 -25 84c0 22 4.16699 42.667 12.5 62s19.666 36 33.999 50s31 25.167 50 33.5s39.5 12.5 61.5 12.5h64h1v0z" />
    <glyph glyph-name="nonuthai" unicode="&#xb9;" 
d="M454 82c-20.667 -25.333 -45.832 -45.333 -75.499 -60s-62.167 -22 -97.5 -22c-30.667 0 -59.334 5.66699 -86.001 17s-50 27 -70 47s-35.833 43.167 -47.5 69.5s-17.5 54.5 -17.5 84.5v413h48v-413c0 -23.333 4.5 -45.5 13.5 -66.5s21.333 -39.167 37 -54.5
s34 -27.5 55 -36.5s43.5 -13.5 67.5 -13.5s46.5 4.5 67.5 13.5s39.333 21.167 55 36.5s28 33.5 37 54.5s13.5 43.167 13.5 66.5v413h48v-413v-218h-48v82v0z" />
    <glyph glyph-name="nonuthai" unicode="&#xe19;" 
d="M454 82c-20.667 -25.333 -45.832 -45.333 -75.499 -60s-62.167 -22 -97.5 -22c-30.667 0 -59.334 5.66699 -86.001 17s-50 27 -70 47s-35.833 43.167 -47.5 69.5s-17.5 54.5 -17.5 84.5v413h48v-413c0 -23.333 4.5 -45.5 13.5 -66.5s21.333 -39.167 37 -54.5
s34 -27.5 55 -36.5s43.5 -13.5 67.5 -13.5s46.5 4.5 67.5 13.5s39.333 21.167 55 36.5s28 33.5 37 54.5s13.5 43.167 13.5 66.5v413h48v-413v-218h-48v82v0z" />
    <glyph glyph-name="bobaimaithai" unicode="&#xba;" horiz-adv-x="563" 
d="M281 0c-30.667 0 -59.333 5.66699 -86 17s-50 27 -70 47s-35.833 43.167 -47.5 69.5s-17.5 54.5 -17.5 84.5v413h48v-413c0 -23.333 4.5 -45.5 13.5 -66.5s21.333 -39.167 37 -54.5s34 -27.5 55 -36.5s43.5 -13.5 67.5 -13.5s46.5 4.5 67.5 13.5s39.5 21.167 55.5 36.5
s28.5 33.5 37.5 54.5s13.5 43.167 13.5 66.5v413h48v-413c0 -30 -5.83301 -58.167 -17.5 -84.5s-27.5 -49.5 -47.5 -69.5s-43.5 -35.667 -70.5 -47s-55.833 -17 -86.5 -17z" />
    <glyph glyph-name="bobaimaithai" unicode="&#xe1a;" horiz-adv-x="563" 
d="M281 0c-30.667 0 -59.333 5.66699 -86 17s-50 27 -70 47s-35.833 43.167 -47.5 69.5s-17.5 54.5 -17.5 84.5v413h48v-413c0 -23.333 4.5 -45.5 13.5 -66.5s21.333 -39.167 37 -54.5s34 -27.5 55 -36.5s43.5 -13.5 67.5 -13.5s46.5 4.5 67.5 13.5s39.5 21.167 55.5 36.5
s28.5 33.5 37.5 54.5s13.5 43.167 13.5 66.5v413h48v-413c0 -30 -5.83301 -58.167 -17.5 -84.5s-27.5 -49.5 -47.5 -69.5s-43.5 -35.667 -70.5 -47s-55.833 -17 -86.5 -17z" />
    <glyph glyph-name="poplathai" unicode="&#xbb;" 
d="M502 218c0 -30 -5.83105 -58.167 -17.498 -84.5s-27.5 -49.5 -47.5 -69.5s-43.333 -35.667 -70 -47s-55.334 -17 -86.001 -17s-59.334 5.66699 -86.001 17s-50 27 -70 47s-35.833 43.167 -47.5 69.5s-17.5 54.5 -17.5 84.5v413h48v-413c0 -23.333 4.5 -45.5 13.5 -66.5
s21.333 -39.167 37 -54.5s34 -27.5 55 -36.5s43.5 -13.5 67.5 -13.5s46.5 4.5 67.5 13.5s39.333 21.167 55 36.5s28 33.5 37 54.5s13.5 43.167 13.5 66.5v623h48v-623v0z" />
    <glyph glyph-name="poplathai" unicode="&#xe1b;" 
d="M502 218c0 -30 -5.83105 -58.167 -17.498 -84.5s-27.5 -49.5 -47.5 -69.5s-43.333 -35.667 -70 -47s-55.334 -17 -86.001 -17s-59.334 5.66699 -86.001 17s-50 27 -70 47s-35.833 43.167 -47.5 69.5s-17.5 54.5 -17.5 84.5v413h48v-413c0 -23.333 4.5 -45.5 13.5 -66.5
s21.333 -39.167 37 -54.5s34 -27.5 55 -36.5s43.5 -13.5 67.5 -13.5s46.5 4.5 67.5 13.5s39.333 21.167 55 36.5s28 33.5 37 54.5s13.5 43.167 13.5 66.5v623h48v-623v0z" />
    <glyph glyph-name="phophungthai" unicode="&#xbc;" 
d="M454 631h48.001v-413v-23v-1c0 -34 -7.16699 -65.333 -21.5 -94s-33.5 -53 -57.5 -73c-12.667 -10.667 -26.334 -19.667 -41.001 -27l-37 36l-64 63l-64 -63l-36 -36c-16 7.33301 -29.667 16.333 -41 27c-24.667 20 -44.167 44.333 -58.5 73s-21.5 60 -21.5 94v1v23v413
h24h24h105v-47h-105v-366v-23v-1c0 -27.333 6 -52.5 18 -75.5s28 -42.5 48 -58.5l107 106l107 -106c20 16 36 35.5 48 58.5s18 48.167 18 75.5v1v23v413z" />
    <glyph glyph-name="phophungthai" unicode="&#xe1c;" 
d="M454 631h48.001v-413v-23v-1c0 -34 -7.16699 -65.333 -21.5 -94s-33.5 -53 -57.5 -73c-12.667 -10.667 -26.334 -19.667 -41.001 -27l-37 36l-64 63l-64 -63l-36 -36c-16 7.33301 -29.667 16.333 -41 27c-24.667 20 -44.167 44.333 -58.5 73s-21.5 60 -21.5 94v1v23v413
h24h24h105v-47h-105v-366v-23v-1c0 -27.333 6 -52.5 18 -75.5s28 -42.5 48 -58.5l107 106l107 -106c20 16 36 35.5 48 58.5s18 48.167 18 75.5v1v23v413z" />
    <glyph glyph-name="fofathai" unicode="&#xbd;" horiz-adv-x="563" 
d="M455 841h48v-623v-23v-1c0 -34 -7.16699 -65.333 -21.5 -94s-33.833 -53 -58.5 -73c-11.333 -10.667 -25 -19.667 -41 -27l-36 36l-64 63l-65 -63l-36 -36c-16 7.33301 -29.667 16.333 -41 27c-24.667 20 -44.167 44.333 -58.5 73s-21.5 60 -21.5 94v1v23v413h24h24h106
v-47h-106v-366v-23v-1c0 -27.333 6 -52.5 18 -75.5s28 -42.5 48 -58.5l108 106l107 -106c20 16 36 35.5 48 58.5s18 48.167 18 75.5v1v23v623z" />
    <glyph glyph-name="fofathai" unicode="&#xe1d;" horiz-adv-x="563" 
d="M455 841h48v-623v-23v-1c0 -34 -7.16699 -65.333 -21.5 -94s-33.833 -53 -58.5 -73c-11.333 -10.667 -25 -19.667 -41 -27l-36 36l-64 63l-65 -63l-36 -36c-16 7.33301 -29.667 16.333 -41 27c-24.667 20 -44.167 44.333 -58.5 73s-21.5 60 -21.5 94v1v23v413h24h24h106
v-47h-106v-366v-23v-1c0 -27.333 6 -52.5 18 -75.5s28 -42.5 48 -58.5l108 106l107 -106c20 16 36 35.5 48 58.5s18 48.167 18 75.5v1v23v623z" />
    <glyph glyph-name="phophanthai" unicode="&#xbe;" 
d="M502 185c0 -33.333 -7 -64.168 -21 -92.501s-32.667 -52.5 -56 -72.5c0 -0.666992 -0.333008 -1 -1 -1l-1 -1c-4 -3.33301 -8.16699 -6.5 -12.5 -9.5l-12.5 -8.5l-16 57l-101 370l-101 -370l-16 -57l-12.5 8.5c-4.33301 3 -8.5 6.16699 -12.5 9.5l-2 1
c0 0.666992 -0.333008 1 -1 1c-23.333 20 -41.833 44.333 -55.5 73s-20.5 59.334 -20.5 92.001v1v23v422h48v-422v-23v-1c0 -36 10.333 -68.333 31 -97l105 387h73l106 -387c20.667 28.667 31 61 31 97v1v23v422h48v-422v-23v-1z" />
    <glyph glyph-name="phophanthai" unicode="&#xe1e;" 
d="M502 185c0 -33.333 -7 -64.168 -21 -92.501s-32.667 -52.5 -56 -72.5c0 -0.666992 -0.333008 -1 -1 -1l-1 -1c-4 -3.33301 -8.16699 -6.5 -12.5 -9.5l-12.5 -8.5l-16 57l-101 370l-101 -370l-16 -57l-12.5 8.5c-4.33301 3 -8.5 6.16699 -12.5 9.5l-2 1
c0 0.666992 -0.333008 1 -1 1c-23.333 20 -41.833 44.333 -55.5 73s-20.5 59.334 -20.5 92.001v1v23v422h48v-422v-23v-1c0 -36 10.333 -68.333 31 -97l105 387h73l106 -387c20.667 28.667 31 61 31 97v1v23v422h48v-422v-23v-1z" />
    <glyph glyph-name="fofanthai" unicode="&#xbf;" 
d="M502 185c0 -33.333 -7 -64.168 -21 -92.501s-32.667 -52.5 -56 -72.5c0 -0.666992 -0.333008 -1 -1 -1l-1 -1c-4 -3.33301 -8.16699 -6.5 -12.5 -9.5l-12.5 -8.5l-16 57l-101 370l-101 -370l-16 -57l-12.5 8.5c-4.33301 3 -8.5 6.16699 -12.5 9.5l-2 1
c0 0.666992 -0.333008 1 -1 1c-23.333 20 -41.833 44.333 -55.5 73s-20.5 59.334 -20.5 92.001v1v23v422h48v-422v-23v-1c0 -36 10.333 -68.333 31 -97l105 387h74l105 -387c20.667 28.667 31 61 31 97v1v23v632h48v-632v-23v-1v0z" />
    <glyph glyph-name="fofanthai" unicode="&#xe1f;" 
d="M502 185c0 -33.333 -7 -64.168 -21 -92.501s-32.667 -52.5 -56 -72.5c0 -0.666992 -0.333008 -1 -1 -1l-1 -1c-4 -3.33301 -8.16699 -6.5 -12.5 -9.5l-12.5 -8.5l-16 57l-101 370l-101 -370l-16 -57l-12.5 8.5c-4.33301 3 -8.5 6.16699 -12.5 9.5l-2 1
c0 0.666992 -0.333008 1 -1 1c-23.333 20 -41.833 44.333 -55.5 73s-20.5 59.334 -20.5 92.001v1v23v422h48v-422v-23v-1c0 -36 10.333 -68.333 31 -97l105 387h74l105 -387c20.667 28.667 31 61 31 97v1v23v632h48v-632v-23v-1v0z" />
    <glyph glyph-name="phosamphaothai" unicode="&#xc0;" horiz-adv-x="559" 
d="M278 631c30.667 0 59.3301 -5.66699 85.9971 -17s50 -27 70 -47s35.833 -43.167 47.5 -69.5s17.5 -54.5 17.5 -84.5v-413h-48v413c0 23.333 -4.5 45.333 -13.5 66s-21.333 38.667 -37 54s-34 27.5 -55 36.5s-43.5 13.5 -67.5 13.5
c-35.333 0 -67.166 -9.33301 -95.499 -28s-49.166 -43 -62.499 -73l-21 -42l6 -39v1v-355v-39v-8h-105v47h57v366l-6 39l27 54l3 6c18.667 36 45.334 64.833 80.001 86.5s73.667 32.5 117 32.5z" />
    <glyph glyph-name="phosamphaothai" unicode="&#xe20;" horiz-adv-x="559" 
d="M278 631c30.667 0 59.3301 -5.66699 85.9971 -17s50 -27 70 -47s35.833 -43.167 47.5 -69.5s17.5 -54.5 17.5 -84.5v-413h-48v413c0 23.333 -4.5 45.333 -13.5 66s-21.333 38.667 -37 54s-34 27.5 -55 36.5s-43.5 13.5 -67.5 13.5
c-35.333 0 -67.166 -9.33301 -95.499 -28s-49.166 -43 -62.499 -73l-21 -42l6 -39v1v-355v-39v-8h-105v47h57v366l-6 39l27 54l3 6c18.667 36 45.334 64.833 80.001 86.5s73.667 32.5 117 32.5z" />
    <glyph glyph-name="momathai" unicode="&#xc1;" horiz-adv-x="563" 
d="M455 631l48.001 0.000976562v-410c0 -30.667 -5.83301 -59.334 -17.5 -86.001s-27.5 -50 -47.5 -70s-43.5 -35.833 -70.5 -47.5s-55.833 -17.5 -86.5 -17.5c-35.333 0 -67.833 7.5 -97.5 22.5s-54.834 35.167 -75.501 60.5v-83h-48v631h48v-410
c0 -24 4.5 -46.5 13.5 -67.5s21.333 -39.333 37 -55s34 -28 55 -37s43.5 -13.5 67.5 -13.5s46.5 4.5 67.5 13.5s39.5 21.333 55.5 37s28.5 34 37.5 55s13.5 43.5 13.5 67.5v410z" />
    <glyph glyph-name="momathai" unicode="&#xe21;" horiz-adv-x="563" 
d="M455 631l48.001 0.000976562v-410c0 -30.667 -5.83301 -59.334 -17.5 -86.001s-27.5 -50 -47.5 -70s-43.5 -35.833 -70.5 -47.5s-55.833 -17.5 -86.5 -17.5c-35.333 0 -67.833 7.5 -97.5 22.5s-54.834 35.167 -75.501 60.5v-83h-48v631h48v-410
c0 -24 4.5 -46.5 13.5 -67.5s21.333 -39.333 37 -55s34 -28 55 -37s43.5 -13.5 67.5 -13.5s46.5 4.5 67.5 13.5s39.5 21.333 55.5 37s28.5 34 37.5 55s13.5 43.5 13.5 67.5v410z" />
    <glyph glyph-name="yoyakthai" unicode="&#xc2;" 
d="M502 221c0 -30.667 -5.83008 -59.3359 -17.4971 -86.0029s-27.5 -50 -47.5 -70s-43.333 -35.833 -70 -47.5s-55.334 -17.5 -86.001 -17.5s-59.334 5.83301 -86.001 17.5s-50 27.5 -70 47.5s-35.833 43.333 -47.5 70s-17.5 55.334 -17.5 86.001c0 36 8 69.333 24 100
s37.333 56.334 64 77.001c-25.333 6.66699 -46.333 20.334 -63 41.001s-25 45 -25 73c0 16 2.83301 30.833 8.5 44.5s13.5 25.834 23.5 36.501s21.667 19.167 35 25.5s27.666 10.166 42.999 11.499v1h111v-48h-103c-19.333 0 -35.833 -7 -49.5 -21s-20.5 -30.667 -20.5 -50
s6.83301 -35.833 20.5 -49.5s30.167 -20.5 49.5 -20.5h103v-48c-24 0 -46.5 -4.5 -67.5 -13.5s-39.333 -21.333 -55 -37s-28 -34 -37 -55s-13.5 -43.5 -13.5 -67.5s4.5 -46.5 13.5 -67.5s21.333 -39.333 37 -55s34 -28 55 -37s43.5 -13.5 67.5 -13.5s46.5 4.5 67.5 13.5
s39.333 21.333 55 37s28 34 37 55s13.5 43.5 13.5 67.5v410h48v-410z" />
    <glyph glyph-name="yoyakthai" unicode="&#xe22;" 
d="M502 221c0 -30.667 -5.83008 -59.3359 -17.4971 -86.0029s-27.5 -50 -47.5 -70s-43.333 -35.833 -70 -47.5s-55.334 -17.5 -86.001 -17.5s-59.334 5.83301 -86.001 17.5s-50 27.5 -70 47.5s-35.833 43.333 -47.5 70s-17.5 55.334 -17.5 86.001c0 36 8 69.333 24 100
s37.333 56.334 64 77.001c-25.333 6.66699 -46.333 20.334 -63 41.001s-25 45 -25 73c0 16 2.83301 30.833 8.5 44.5s13.5 25.834 23.5 36.501s21.667 19.167 35 25.5s27.666 10.166 42.999 11.499v1h111v-48h-103c-19.333 0 -35.833 -7 -49.5 -21s-20.5 -30.667 -20.5 -50
s6.83301 -35.833 20.5 -49.5s30.167 -20.5 49.5 -20.5h103v-48c-24 0 -46.5 -4.5 -67.5 -13.5s-39.333 -21.333 -55 -37s-28 -34 -37 -55s-13.5 -43.5 -13.5 -67.5s4.5 -46.5 13.5 -67.5s21.333 -39.333 37 -55s34 -28 55 -37s43.5 -13.5 67.5 -13.5s46.5 4.5 67.5 13.5
s39.333 21.333 55 37s28 34 37 55s13.5 43.5 13.5 67.5v410h48v-410z" />
    <glyph glyph-name="roruathai" unicode="&#xc3;" horiz-adv-x="564" 
d="M218 583c-15.333 0 -29.666 -2.83398 -42.999 -8.50098s-25 -13.5 -35 -23.5s-17.833 -21.667 -23.5 -35s-8.5 -27.333 -8.5 -42c0 -24 6.83301 -45.333 20.5 -64s31.167 -32 52.5 -40l119.5 -35l63 -18l25.5 -7.5c3.33301 -1 5.66602 -1.83301 6.99902 -2.5
c35.333 -11.333 62.666 -33 81.999 -65c16 -24 24 -52 24 -84c0 -22 -4.16699 -42.5 -12.5 -61.5s-19.5 -35.667 -33.5 -50s-30.5 -25.666 -49.5 -33.999s-39.5 -12.5 -61.5 -12.5h-63c-30.667 -0 -59.5 5.83301 -86.5 17.5s-50.5 27.5 -70.5 47.5s-35.833 43.333 -47.5 70
s-17.5 55.334 -17.5 86.001h49c0 -24 4.5 -46.5 13.5 -67.5s21.333 -39.333 37 -55s34 -28 55 -37s43.5 -13.5 67.5 -13.5h63c14.667 0 28.667 3 42 9s25 14 35 24s17.833 21.5 23.5 34.5s8.5 27.167 8.5 42.5c0 24.667 -7.16699 46.5 -21.5 65.5s-32.5 32.167 -54.5 39.5
l-118 34l-62 18l-25 7.5c-3.33301 1 -5.66602 1.83301 -6.99902 2.5c-17.333 5.33301 -32.833 13.5 -46.5 24.5s-25.167 24.167 -34.5 39.5c-16.667 26 -25 54 -25 84c0 22 4.16699 42.667 12.5 62s19.666 36 33.999 50s31 25.167 50 33.5s39.5 12.5 61.5 12.5h64h1
c30.667 0 59.334 -5.83301 86.001 -17.5s50 -27.5 70 -47.5s35.833 -43.333 47.5 -70s17.5 -55.334 17.5 -86.001h-48c0 24 -4.5 46.5 -13.5 67.5s-21.5 39.333 -37.5 55s-34.5 28 -55.5 37s-43.5 13.5 -67.5 13.5h-64v0z" />
    <glyph glyph-name="roruathai" unicode="&#xe23;" horiz-adv-x="564" 
d="M218 583c-15.333 0 -29.666 -2.83398 -42.999 -8.50098s-25 -13.5 -35 -23.5s-17.833 -21.667 -23.5 -35s-8.5 -27.333 -8.5 -42c0 -24 6.83301 -45.333 20.5 -64s31.167 -32 52.5 -40l119.5 -35l63 -18l25.5 -7.5c3.33301 -1 5.66602 -1.83301 6.99902 -2.5
c35.333 -11.333 62.666 -33 81.999 -65c16 -24 24 -52 24 -84c0 -22 -4.16699 -42.5 -12.5 -61.5s-19.5 -35.667 -33.5 -50s-30.5 -25.666 -49.5 -33.999s-39.5 -12.5 -61.5 -12.5h-63c-30.667 -0 -59.5 5.83301 -86.5 17.5s-50.5 27.5 -70.5 47.5s-35.833 43.333 -47.5 70
s-17.5 55.334 -17.5 86.001h49c0 -24 4.5 -46.5 13.5 -67.5s21.333 -39.333 37 -55s34 -28 55 -37s43.5 -13.5 67.5 -13.5h63c14.667 0 28.667 3 42 9s25 14 35 24s17.833 21.5 23.5 34.5s8.5 27.167 8.5 42.5c0 24.667 -7.16699 46.5 -21.5 65.5s-32.5 32.167 -54.5 39.5
l-118 34l-62 18l-25 7.5c-3.33301 1 -5.66602 1.83301 -6.99902 2.5c-17.333 5.33301 -32.833 13.5 -46.5 24.5s-25.167 24.167 -34.5 39.5c-16.667 26 -25 54 -25 84c0 22 4.16699 42.667 12.5 62s19.666 36 33.999 50s31 25.167 50 33.5s39.5 12.5 61.5 12.5h64h1
c30.667 0 59.334 -5.83301 86.001 -17.5s50 -27.5 70 -47.5s35.833 -43.333 47.5 -70s17.5 -55.334 17.5 -86.001h-48c0 24 -4.5 46.5 -13.5 67.5s-21.5 39.333 -37.5 55s-34.5 28 -55.5 37s-43.5 13.5 -67.5 13.5h-64v0z" />
    <glyph glyph-name="ruthai" unicode="&#xc4;" horiz-adv-x="568" 
d="M508 0l-0.000976562 -267.999h-48v268v410c0 24 -4.5 46.5 -13.5 67.5s-21.333 39.333 -37 55s-34 28 -55 37s-43.5 13.5 -67.5 13.5c-36 0 -68 -9.5 -96 -28.5s-48.667 -43.833 -62 -74.5l-21 -42l6 -40v-201v-61v-42c0 -16.667 3 -32 9 -46h48h76v-48h-76h-74
c-0.666992 0.666992 -1 1.16699 -1 1.5s-0.333008 0.833008 -1 1.5c-4 5.33301 -7.5 11 -10.5 17s-5.83301 12 -8.5 18c-6.66699 17.333 -10 36 -10 56v316l-6 40l27 54l3 6c18 36 44.5 65.167 79.5 87.5s74.167 33.5 117.5 33.5c30.667 0 59.334 -5.83301 86.001 -17.5
s50 -27.5 70 -47.5s35.833 -43.333 47.5 -70s17.5 -55.334 17.5 -86.001v-410z" />
    <glyph glyph-name="ruthai" unicode="&#xe24;" horiz-adv-x="568" 
d="M508 0l-0.000976562 -267.999h-48v268v410c0 24 -4.5 46.5 -13.5 67.5s-21.333 39.333 -37 55s-34 28 -55 37s-43.5 13.5 -67.5 13.5c-36 0 -68 -9.5 -96 -28.5s-48.667 -43.833 -62 -74.5l-21 -42l6 -40v-201v-61v-42c0 -16.667 3 -32 9 -46h48h76v-48h-76h-74
c-0.666992 0.666992 -1 1.16699 -1 1.5s-0.333008 0.833008 -1 1.5c-4 5.33301 -7.5 11 -10.5 17s-5.83301 12 -8.5 18c-6.66699 17.333 -10 36 -10 56v316l-6 40l27 54l3 6c18 36 44.5 65.167 79.5 87.5s74.167 33.5 117.5 33.5c30.667 0 59.334 -5.83301 86.001 -17.5
s50 -27.5 70 -47.5s35.833 -43.333 47.5 -70s17.5 -55.334 17.5 -86.001v-410z" />
    <glyph glyph-name="lolingthai" unicode="&#xc5;" horiz-adv-x="542" 
d="M482 0h-48.0039v348c-16 -16 -35.333 -27.667 -58 -35c-1.33301 -0.666992 -3.5 -1.5 -6.5 -2.5s-11.333 -3.5 -25 -7.5l-62 -18l-117.5 -34c-22 -7.33301 -40.167 -20.5 -54.5 -39.5s-21.5 -40.833 -21.5 -65.5c0 -27.333 9.33301 -50.5 28 -69.5s41.667 -28.5 69 -28.5
h70v-48h-70c-20 -0 -38.833 3.83301 -56.5 11.5s-33.167 18.167 -46.5 31.5s-23.833 28.833 -31.5 46.5s-11.5 36.5 -11.5 56.5c0 30.667 8.33301 58.667 25 84c19.333 32 46.666 53.667 81.999 65c0.666992 0.666992 2.83398 1.5 6.50098 2.5l26.5 7.5l63.5 18.5
l118.5 35.5c27.333 9.33301 48 27.666 62 54.999c1.33301 3.33301 2.83301 9.33301 4.5 18s0.833984 19 -2.49902 31c-6 17.333 -14.333 33.333 -25 48s-23.167 27.334 -37.5 38.001s-30.166 19 -47.499 25s-35.666 9 -54.999 9c-24 0 -46.5 -4.5 -67.5 -13.5
s-39.333 -21.333 -55 -37s-28 -34 -37 -55s-13.5 -43.5 -13.5 -67.5h-48c0 30.667 5.83301 59.334 17.5 86.001s27.5 50 47.5 70s43.333 35.833 70 47.5s55.334 17.5 86.001 17.5c26 0 50.667 -4.16699 74 -12.5s44.5 -19.833 63.5 -34.5s35.167 -32.334 48.5 -53.001
s23 -43 29 -67c2 -7.33301 3.5 -15 4.5 -23s1.5 -18.333 1.5 -31v-410z" />
    <glyph glyph-name="lolingthai" unicode="&#xe25;" horiz-adv-x="542" 
d="M482 0h-48.0039v348c-16 -16 -35.333 -27.667 -58 -35c-1.33301 -0.666992 -3.5 -1.5 -6.5 -2.5s-11.333 -3.5 -25 -7.5l-62 -18l-117.5 -34c-22 -7.33301 -40.167 -20.5 -54.5 -39.5s-21.5 -40.833 -21.5 -65.5c0 -27.333 9.33301 -50.5 28 -69.5s41.667 -28.5 69 -28.5
h70v-48h-70c-20 -0 -38.833 3.83301 -56.5 11.5s-33.167 18.167 -46.5 31.5s-23.833 28.833 -31.5 46.5s-11.5 36.5 -11.5 56.5c0 30.667 8.33301 58.667 25 84c19.333 32 46.666 53.667 81.999 65c0.666992 0.666992 2.83398 1.5 6.50098 2.5l26.5 7.5l63.5 18.5
l118.5 35.5c27.333 9.33301 48 27.666 62 54.999c1.33301 3.33301 2.83301 9.33301 4.5 18s0.833984 19 -2.49902 31c-6 17.333 -14.333 33.333 -25 48s-23.167 27.334 -37.5 38.001s-30.166 19 -47.499 25s-35.666 9 -54.999 9c-24 0 -46.5 -4.5 -67.5 -13.5
s-39.333 -21.333 -55 -37s-28 -34 -37 -55s-13.5 -43.5 -13.5 -67.5h-48c0 30.667 5.83301 59.334 17.5 86.001s27.5 50 47.5 70s43.333 35.833 70 47.5s55.334 17.5 86.001 17.5c26 0 50.667 -4.16699 74 -12.5s44.5 -19.833 63.5 -34.5s35.167 -32.334 48.5 -53.001
s23 -43 29 -67c2 -7.33301 3.5 -15 4.5 -23s1.5 -18.333 1.5 -31v-410z" />
    <glyph glyph-name="luthai" unicode="&#xc6;" horiz-adv-x="559" 
d="M278 631c30.667 0 59.3301 -5.66699 85.9971 -17s50 -27 70 -47s35.833 -43.167 47.5 -69.5s17.5 -54.5 17.5 -84.5v-3v-410v-268h-48v268v410v3c0 23.333 -4.5 45.333 -13.5 66s-21.333 38.667 -37 54s-34 27.5 -55 36.5s-43.5 13.5 -67.5 13.5
c-35.333 0 -67.166 -9.33301 -95.499 -28s-49.166 -43 -62.499 -73l-21 -42l6 -39v1v-355v-39v-8h-105v47h57v366l-6 39l27 54l3 6c18.667 36 45.334 64.833 80.001 86.5s73.667 32.5 117 32.5z" />
    <glyph glyph-name="luthai" unicode="&#xe26;" horiz-adv-x="559" 
d="M278 631c30.667 0 59.3301 -5.66699 85.9971 -17s50 -27 70 -47s35.833 -43.167 47.5 -69.5s17.5 -54.5 17.5 -84.5v-3v-410v-268h-48v268v410v3c0 23.333 -4.5 45.333 -13.5 66s-21.333 38.667 -37 54s-34 27.5 -55 36.5s-43.5 13.5 -67.5 13.5
c-35.333 0 -67.166 -9.33301 -95.499 -28s-49.166 -43 -62.499 -73l-21 -42l6 -39v1v-355v-39v-8h-105v47h57v366l-6 39l27 54l3 6c18.667 36 45.334 64.833 80.001 86.5s73.667 32.5 117 32.5z" />
    <glyph glyph-name="wowaenthai" unicode="&#xc7;" horiz-adv-x="523" 
d="M463 221c0 -30.667 -5.83301 -59.333 -17.5 -86s-27.5 -50 -47.5 -70s-43.333 -35.833 -70 -47.5s-55.334 -17.5 -86.001 -17.5v48c24 0 46.5 4.5 67.5 13.5s39.333 21.333 55 37s28 34 37 55s13.5 43.5 13.5 67.5v189c0 24 -4.5 46.5 -13.5 67.5s-21.333 39.333 -37 55
s-34 28 -55 37s-43.5 13.5 -67.5 13.5s-46.5 -4.5 -67.5 -13.5s-39.333 -21.333 -55 -37s-28 -34 -37 -55s-13.5 -43.5 -13.5 -67.5h-49c0 30.667 5.83301 59.334 17.5 86.001s27.5 50 47.5 70s43.5 35.833 70.5 47.5s55.833 17.5 86.5 17.5s59.334 -5.83301 86.001 -17.5
s50 -27.5 70 -47.5s35.833 -43.333 47.5 -70s17.5 -55.334 17.5 -86.001v-189z" />
    <glyph glyph-name="wowaenthai" unicode="&#xe27;" horiz-adv-x="523" 
d="M463 221c0 -30.667 -5.83301 -59.333 -17.5 -86s-27.5 -50 -47.5 -70s-43.333 -35.833 -70 -47.5s-55.334 -17.5 -86.001 -17.5v48c24 0 46.5 4.5 67.5 13.5s39.333 21.333 55 37s28 34 37 55s13.5 43.5 13.5 67.5v189c0 24 -4.5 46.5 -13.5 67.5s-21.333 39.333 -37 55
s-34 28 -55 37s-43.5 13.5 -67.5 13.5s-46.5 -4.5 -67.5 -13.5s-39.333 -21.333 -55 -37s-28 -34 -37 -55s-13.5 -43.5 -13.5 -67.5h-49c0 30.667 5.83301 59.334 17.5 86.001s27.5 50 47.5 70s43.5 35.833 70.5 47.5s55.833 17.5 86.5 17.5s59.334 -5.83301 86.001 -17.5
s50 -27.5 70 -47.5s35.833 -43.333 47.5 -70s17.5 -55.334 17.5 -86.001v-189z" />
    <glyph glyph-name="sosalathai" unicode="&#xc8;" 
d="M499 580c-5.33301 -21.333 -15.001 -39.6689 -29.001 -55.002c10 -17.333 17.833 -35.666 23.5 -54.999s8.5 -39.666 8.5 -60.999v-409h-48v409c0 24 -4.5 46.5 -13.5 67.5s-21.333 39.333 -37 55s-34 28 -55 37s-43.5 13.5 -67.5 13.5s-46.5 -4.5 -67.5 -13.5
s-39.333 -21.333 -55 -37s-28 -34 -37 -55s-13.5 -43.5 -13.5 -67.5v-94h140v-48h-140v-267h-48v409c0 30.667 5.83301 59.5 17.5 86.5s27.5 50.5 47.5 70.5s43.333 35.667 70 47s55.334 17 86.001 17c31.333 0 60.666 -5.83301 87.999 -17.5s51 -28.167 71 -49.5
c4.66699 6.66699 8.33398 13.667 11.001 21s4 15.333 4 24v23h47v-23c0 -10 -1 -19.333 -3 -28z" />
    <glyph glyph-name="sosalathai" unicode="&#xe28;" 
d="M499 580c-5.33301 -21.333 -15.001 -39.6689 -29.001 -55.002c10 -17.333 17.833 -35.666 23.5 -54.999s8.5 -39.666 8.5 -60.999v-409h-48v409c0 24 -4.5 46.5 -13.5 67.5s-21.333 39.333 -37 55s-34 28 -55 37s-43.5 13.5 -67.5 13.5s-46.5 -4.5 -67.5 -13.5
s-39.333 -21.333 -55 -37s-28 -34 -37 -55s-13.5 -43.5 -13.5 -67.5v-94h140v-48h-140v-267h-48v409c0 30.667 5.83301 59.5 17.5 86.5s27.5 50.5 47.5 70.5s43.333 35.667 70 47s55.334 17 86.001 17c31.333 0 60.666 -5.83301 87.999 -17.5s51 -28.167 71 -49.5
c4.66699 6.66699 8.33398 13.667 11.001 21s4 15.333 4 24v23h47v-23c0 -10 -1 -19.333 -3 -28z" />
    <glyph glyph-name="sorusithai" unicode="&#xc9;" horiz-adv-x="563" 
d="M502 363h46.002v-48h-46v-94c0 -30.667 -5.83301 -59.334 -17.5 -86.001s-27.5 -50 -47.5 -70s-43.333 -35.833 -70 -47.5s-55.334 -17.5 -86.001 -17.5s-59.334 5.83301 -86.001 17.5s-50 27.5 -70 47.5s-35.833 43.333 -47.5 70s-17.5 55.334 -17.5 86.001v410h48v-410
c0 -24 4.5 -46.5 13.5 -67.5s21.333 -39.333 37 -55s34 -28 55 -37s43.5 -13.5 67.5 -13.5s46.5 4.5 67.5 13.5s39.333 21.333 55 37s28 34 37 55s13.5 43.5 13.5 67.5v94h-46h-94v48h94h46v268h48v-268z" />
    <glyph glyph-name="sorusithai" unicode="&#xe29;" horiz-adv-x="563" 
d="M502 363h46.002v-48h-46v-94c0 -30.667 -5.83301 -59.334 -17.5 -86.001s-27.5 -50 -47.5 -70s-43.333 -35.833 -70 -47.5s-55.334 -17.5 -86.001 -17.5s-59.334 5.83301 -86.001 17.5s-50 27.5 -70 47.5s-35.833 43.333 -47.5 70s-17.5 55.334 -17.5 86.001v410h48v-410
c0 -24 4.5 -46.5 13.5 -67.5s21.333 -39.333 37 -55s34 -28 55 -37s43.5 -13.5 67.5 -13.5s46.5 4.5 67.5 13.5s39.333 21.333 55 37s28 34 37 55s13.5 43.5 13.5 67.5v94h-46h-94v48h94h46v268h48v-268z" />
    <glyph glyph-name="sosuathai" unicode="&#xca;" horiz-adv-x="542" 
d="M482 0l-48.002 -0.000976562v348c-16 -16 -35.333 -27.667 -58 -35c-1.33301 -0.666992 -3.5 -1.5 -6.5 -2.5s-11.333 -3.5 -25 -7.5l-62 -18l-117.5 -34c-22 -7.33301 -40.167 -20.5 -54.5 -39.5s-21.5 -40.833 -21.5 -65.5c0 -27.333 9.33301 -50.5 28 -69.5
s41.667 -28.5 69 -28.5h70v-48h-70c-20 0 -38.833 3.83301 -56.5 11.5s-33.167 18.167 -46.5 31.5s-23.833 28.833 -31.5 46.5s-11.5 36.5 -11.5 56.5c0 30.667 8.33301 58.667 25 84c19.333 32 46.666 53.667 81.999 65c0.666992 0.666992 2.66699 1.5 6 2.5l25.5 7.5
l63.5 18.5l120 35.5c27.333 9.33301 48 27.666 62 54.999c1.33301 3.33301 2.83301 9.33301 4.5 18s0.833984 19 -2.49902 31c-6 17.333 -14.333 33.333 -25 48s-23.167 27.334 -37.5 38.001s-30.166 19 -47.499 25s-35.666 9 -54.999 9c-24 0 -46.5 -4.5 -67.5 -13.5
s-39.333 -21.333 -55 -37s-28 -34 -37 -55s-13.5 -43.5 -13.5 -67.5h-48c0 30.667 5.83301 59.334 17.5 86.001s27.5 50 47.5 70s43.333 35.833 70 47.5s55.334 17.5 86.001 17.5c31.333 0 60.666 -6 87.999 -18s51 -28.333 71 -49c10 13.333 15 28 15 44v23h47v-23
c0 -10 -1 -19.333 -3 -28c-4.66699 -20 -14.334 -38.333 -29.001 -55c6 -9.33301 11.333 -19.333 16 -30s8.33398 -21.667 11.001 -33c2 -7.33301 3.33301 -14.833 4 -22.5s1 -17.5 1 -29.5v-410z" />
    <glyph glyph-name="sosuathai" unicode="&#xe2a;" horiz-adv-x="542" 
d="M482 0l-48.002 -0.000976562v348c-16 -16 -35.333 -27.667 -58 -35c-1.33301 -0.666992 -3.5 -1.5 -6.5 -2.5s-11.333 -3.5 -25 -7.5l-62 -18l-117.5 -34c-22 -7.33301 -40.167 -20.5 -54.5 -39.5s-21.5 -40.833 -21.5 -65.5c0 -27.333 9.33301 -50.5 28 -69.5
s41.667 -28.5 69 -28.5h70v-48h-70c-20 0 -38.833 3.83301 -56.5 11.5s-33.167 18.167 -46.5 31.5s-23.833 28.833 -31.5 46.5s-11.5 36.5 -11.5 56.5c0 30.667 8.33301 58.667 25 84c19.333 32 46.666 53.667 81.999 65c0.666992 0.666992 2.66699 1.5 6 2.5l25.5 7.5
l63.5 18.5l120 35.5c27.333 9.33301 48 27.666 62 54.999c1.33301 3.33301 2.83301 9.33301 4.5 18s0.833984 19 -2.49902 31c-6 17.333 -14.333 33.333 -25 48s-23.167 27.334 -37.5 38.001s-30.166 19 -47.499 25s-35.666 9 -54.999 9c-24 0 -46.5 -4.5 -67.5 -13.5
s-39.333 -21.333 -55 -37s-28 -34 -37 -55s-13.5 -43.5 -13.5 -67.5h-48c0 30.667 5.83301 59.334 17.5 86.001s27.5 50 47.5 70s43.333 35.833 70 47.5s55.334 17.5 86.001 17.5c31.333 0 60.666 -6 87.999 -18s51 -28.333 71 -49c10 13.333 15 28 15 44v23h47v-23
c0 -10 -1 -19.333 -3 -28c-4.66699 -20 -14.334 -38.333 -29.001 -55c6 -9.33301 11.333 -19.333 16 -30s8.33398 -21.667 11.001 -33c2 -7.33301 3.33301 -14.833 4 -22.5s1 -17.5 1 -29.5v-410z" />
    <glyph glyph-name="hohipthai" unicode="&#xcb;" 
d="M502 601c0 -28 -8.50098 -52.8311 -25.501 -74.498s-38.167 -36.167 -63.5 -43.5c27.333 -20 49 -45.333 65 -76s24 -64.334 24 -101.001v-306h-48v306c0 24 -4.5 46.5 -13.5 67.5s-21.333 39.333 -37 55s-34 28 -55 37s-43.5 13.5 -67.5 13.5s-46.5 -4.5 -67.5 -13.5
s-39.333 -21.333 -55 -37s-28 -34 -37 -55s-13.5 -43.5 -13.5 -67.5v-306h-48v410v221h48v-188c20.667 25.333 45.834 45.666 75.501 60.999s62.167 23 97.5 23h1h98c20.667 0 38.167 7.16699 52.5 21.5s21.5 31.833 21.5 52.5v30h48v-30v0z" />
    <glyph glyph-name="hohipthai" unicode="&#xe2b;" 
d="M502 601c0 -28 -8.50098 -52.8311 -25.501 -74.498s-38.167 -36.167 -63.5 -43.5c27.333 -20 49 -45.333 65 -76s24 -64.334 24 -101.001v-306h-48v306c0 24 -4.5 46.5 -13.5 67.5s-21.333 39.333 -37 55s-34 28 -55 37s-43.5 13.5 -67.5 13.5s-46.5 -4.5 -67.5 -13.5
s-39.333 -21.333 -55 -37s-28 -34 -37 -55s-13.5 -43.5 -13.5 -67.5v-306h-48v410v221h48v-188c20.667 25.333 45.834 45.666 75.501 60.999s62.167 23 97.5 23h1h98c20.667 0 38.167 7.16699 52.5 21.5s21.5 31.833 21.5 52.5v30h48v-30v0z" />
    <glyph glyph-name="lochulathai" unicode="&#xcc;" 
d="M502 185c0 -33.333 -7 -64.1709 -21 -92.5039s-32.667 -52.5 -56 -72.5c0 -0.666992 -0.333008 -1 -1 -1l-1 -1c-4 -3.33301 -8.16699 -6.5 -12.5 -9.5l-12.5 -8.5l-16 57l-101 370l-101 -370l-16 -57l-12.5 8.5c-4.33301 3 -8.5 6.16699 -12.5 9.5l-2 1
c0 0.666992 -0.333008 1 -1 1c-23.333 20 -41.833 44.333 -55.5 73s-20.5 59.334 -20.5 92.001v1v23v422h48v-422v-23v-1c0 -36 10.333 -68.333 31 -97l105 387h74l105 -387c20.667 28.667 31 61 31 97v1v23v422c0 19.333 -6.83301 35.833 -20.5 49.5
s-30.167 20.5 -49.5 20.5v48c19.333 0 35.833 6.83301 49.5 20.5s20.5 30.167 20.5 49.5v1v32h48v-32c0 -19.333 -4.33301 -37.166 -13 -53.499s-20 -30.166 -34 -41.499c14 -10.667 25.333 -24.167 34 -40.5s13 -34.166 13 -53.499v-422v-23v-1v0z" />
    <glyph glyph-name="lochulathai" unicode="&#xe2c;" 
d="M502 185c0 -33.333 -7 -64.1709 -21 -92.5039s-32.667 -52.5 -56 -72.5c0 -0.666992 -0.333008 -1 -1 -1l-1 -1c-4 -3.33301 -8.16699 -6.5 -12.5 -9.5l-12.5 -8.5l-16 57l-101 370l-101 -370l-16 -57l-12.5 8.5c-4.33301 3 -8.5 6.16699 -12.5 9.5l-2 1
c0 0.666992 -0.333008 1 -1 1c-23.333 20 -41.833 44.333 -55.5 73s-20.5 59.334 -20.5 92.001v1v23v422h48v-422v-23v-1c0 -36 10.333 -68.333 31 -97l105 387h74l105 -387c20.667 28.667 31 61 31 97v1v23v422c0 19.333 -6.83301 35.833 -20.5 49.5
s-30.167 20.5 -49.5 20.5v48c19.333 0 35.833 6.83301 49.5 20.5s20.5 30.167 20.5 49.5v1v32h48v-32c0 -19.333 -4.33301 -37.166 -13 -53.499s-20 -30.166 -34 -41.499c14 -10.667 25.333 -24.167 34 -40.5s13 -34.166 13 -53.499v-422v-23v-1v0z" />
    <glyph glyph-name="oangthai" unicode="&#xcd;" 
d="M281 631c30.667 0 59.334 -5.83301 86.001 -17.5s50 -27.5 70 -47.5s35.833 -43.333 47.5 -70s17.5 -55.334 17.5 -86.001v-189c0 -30.667 -5.83301 -59.334 -17.5 -86.001s-27.5 -50 -47.5 -70s-43.333 -35.833 -70 -47.5s-55.334 -17.5 -86.001 -17.5
s-59.334 5.83301 -86.001 17.5s-50 27.5 -70 47.5s-35.833 43.333 -47.5 70s-17.5 55.334 -17.5 86.001v46v48h140v-48h-92v-46c0 -24 4.5 -46.5 13.5 -67.5s21.333 -39.333 37 -55s34 -28 55 -37s43.5 -13.5 67.5 -13.5s46.5 4.5 67.5 13.5s39.333 21.333 55 37
s28 34 37 55s13.5 43.5 13.5 67.5v189c0 24 -4.5 46.5 -13.5 67.5s-21.333 39.333 -37 55s-34 28 -55 37s-43.5 13.5 -67.5 13.5s-46.5 -4.5 -67.5 -13.5s-39.333 -21.333 -55 -37s-28 -34 -37 -55s-13.5 -43.5 -13.5 -67.5h-48c0 30.667 5.83301 59.334 17.5 86.001
s27.5 50 47.5 70s43.333 35.833 70 47.5s55.334 17.5 86.001 17.5z" />
    <glyph glyph-name="oangthai" unicode="&#xe2d;" 
d="M281 631c30.667 0 59.334 -5.83301 86.001 -17.5s50 -27.5 70 -47.5s35.833 -43.333 47.5 -70s17.5 -55.334 17.5 -86.001v-189c0 -30.667 -5.83301 -59.334 -17.5 -86.001s-27.5 -50 -47.5 -70s-43.333 -35.833 -70 -47.5s-55.334 -17.5 -86.001 -17.5
s-59.334 5.83301 -86.001 17.5s-50 27.5 -70 47.5s-35.833 43.333 -47.5 70s-17.5 55.334 -17.5 86.001v46v48h140v-48h-92v-46c0 -24 4.5 -46.5 13.5 -67.5s21.333 -39.333 37 -55s34 -28 55 -37s43.5 -13.5 67.5 -13.5s46.5 4.5 67.5 13.5s39.333 21.333 55 37
s28 34 37 55s13.5 43.5 13.5 67.5v189c0 24 -4.5 46.5 -13.5 67.5s-21.333 39.333 -37 55s-34 28 -55 37s-43.5 13.5 -67.5 13.5s-46.5 -4.5 -67.5 -13.5s-39.333 -21.333 -55 -37s-28 -34 -37 -55s-13.5 -43.5 -13.5 -67.5h-48c0 30.667 5.83301 59.334 17.5 86.001
s27.5 50 47.5 70s43.333 35.833 70 47.5s55.334 17.5 86.001 17.5z" />
    <glyph glyph-name="honokhukthai" unicode="&#xce;" 
d="M499 580c-4.66699 -20.667 -14.3311 -38.6699 -28.998 -54.0029c10 -17.333 17.833 -35.666 23.5 -54.999s8.5 -39.666 8.5 -60.999v-189c0 -30.667 -5.83301 -59.334 -17.5 -86.001s-27.5 -50 -47.5 -70s-43.333 -35.833 -70 -47.5s-55.334 -17.5 -86.001 -17.5
s-59.334 5.83301 -86.001 17.5s-50 27.5 -70 47.5s-35.833 43.333 -47.5 70s-17.5 55.334 -17.5 86.001v46v48h140v-48h-92v-46c0 -24 4.5 -46.5 13.5 -67.5s21.333 -39.333 37 -55s34 -28 55 -37s43.5 -13.5 67.5 -13.5s46.5 4.5 67.5 13.5s39.333 21.333 55 37
s28 34 37 55s13.5 43.5 13.5 67.5v189c0 24 -4.5 46.5 -13.5 67.5s-21.333 39.333 -37 55s-34 28 -55 37s-43.5 13.5 -67.5 13.5s-46.5 -4.5 -67.5 -13.5s-39.333 -21.333 -55 -37s-28 -34 -37 -55s-13.5 -43.5 -13.5 -67.5h-48c0 30.667 5.83301 59.334 17.5 86.001
s27.5 50 47.5 70s43.333 35.833 70 47.5s55.334 17.5 86.001 17.5c31.333 0 60.666 -6 87.999 -18s51 -28.333 71 -49c10 13.333 15 28 15 44v23h47v-23c0 -10 -1 -19.333 -3 -28z" />
    <glyph glyph-name="honokhukthai" unicode="&#xe2e;" 
d="M499 580c-4.66699 -20.667 -14.3311 -38.6699 -28.998 -54.0029c10 -17.333 17.833 -35.666 23.5 -54.999s8.5 -39.666 8.5 -60.999v-189c0 -30.667 -5.83301 -59.334 -17.5 -86.001s-27.5 -50 -47.5 -70s-43.333 -35.833 -70 -47.5s-55.334 -17.5 -86.001 -17.5
s-59.334 5.83301 -86.001 17.5s-50 27.5 -70 47.5s-35.833 43.333 -47.5 70s-17.5 55.334 -17.5 86.001v46v48h140v-48h-92v-46c0 -24 4.5 -46.5 13.5 -67.5s21.333 -39.333 37 -55s34 -28 55 -37s43.5 -13.5 67.5 -13.5s46.5 4.5 67.5 13.5s39.333 21.333 55 37
s28 34 37 55s13.5 43.5 13.5 67.5v189c0 24 -4.5 46.5 -13.5 67.5s-21.333 39.333 -37 55s-34 28 -55 37s-43.5 13.5 -67.5 13.5s-46.5 -4.5 -67.5 -13.5s-39.333 -21.333 -55 -37s-28 -34 -37 -55s-13.5 -43.5 -13.5 -67.5h-48c0 30.667 5.83301 59.334 17.5 86.001
s27.5 50 47.5 70s43.333 35.833 70 47.5s55.334 17.5 86.001 17.5c31.333 0 60.666 -6 87.999 -18s51 -28.333 71 -49c10 13.333 15 28 15 44v23h47v-23c0 -10 -1 -19.333 -3 -28z" />
    <glyph glyph-name="paiyannoithai" unicode="&#xcf;" horiz-adv-x="438" 
d="M309 495c21.333 -20.667 38.165 -44.6641 50.498 -71.9971s18.5 -57 18.5 -89v-1v-23v-531h-48v531v23v1c0 21.333 -3.66699 41.666 -11 60.999s-17.666 36.666 -30.999 51.999c-13.333 -20 -30.666 -36 -51.999 -48s-44.666 -18 -69.999 -18
c-20 0 -38.833 3.83301 -56.5 11.5s-33.167 18 -46.5 31s-23.833 28.5 -31.5 46.5s-11.5 37 -11.5 57h48c0 -27.333 9.5 -50.5 28.5 -69.5s42.167 -28.5 69.5 -28.5s50.5 9.5 69.5 28.5s28.5 42.167 28.5 69.5h1c6 -3.33301 11.667 -6.83301 17 -10.5
s10.666 -7.83398 15.999 -12.501c2 -1.33301 3.83301 -2.83301 5.5 -4.5s3.5 -3.16699 5.5 -4.5z" />
    <glyph glyph-name="paiyannoithai" unicode="&#xe2f;" horiz-adv-x="438" 
d="M309 495c21.333 -20.667 38.165 -44.6641 50.498 -71.9971s18.5 -57 18.5 -89v-1v-23v-531h-48v531v23v1c0 21.333 -3.66699 41.666 -11 60.999s-17.666 36.666 -30.999 51.999c-13.333 -20 -30.666 -36 -51.999 -48s-44.666 -18 -69.999 -18
c-20 0 -38.833 3.83301 -56.5 11.5s-33.167 18 -46.5 31s-23.833 28.5 -31.5 46.5s-11.5 37 -11.5 57h48c0 -27.333 9.5 -50.5 28.5 -69.5s42.167 -28.5 69.5 -28.5s50.5 9.5 69.5 28.5s28.5 42.167 28.5 69.5h1c6 -3.33301 11.667 -6.83301 17 -10.5
s10.666 -7.83398 15.999 -12.501c2 -1.33301 3.83301 -2.83301 5.5 -4.5s3.5 -3.16699 5.5 -4.5z" />
    <glyph glyph-name="saraathai" unicode="&#xd0;" horiz-adv-x="316" 
d="M108 481h148v-48h-196v2v46v46h48v-46v0zM108 181h148v-48h-196v2v46v46h48v-46v0z" />
    <glyph glyph-name="saraathai" unicode="&#xe30;" horiz-adv-x="316" 
d="M108 481h148v-48h-196v2v46v46h48v-46v0zM108 181h148v-48h-196v2v46v46h48v-46v0z" />
    <glyph glyph-name="maihanakatthai" unicode="&#xd1;" horiz-adv-x="0" 
d="M-88 710l-7.00098 -0.00195312h-5h-2c-3.33301 0 -7.66602 0.666992 -12.999 2c-0.666992 0 -3 0.666992 -7 2c-18 6 -32.833 16.667 -44.5 32s-17.5 33 -17.5 53v42h48v-42c0 -11.333 3.66699 -20.666 11 -27.999s16.333 -11.666 27 -12.999h10h148v-48h-148z" />
    <glyph glyph-name="maihanakatthai" unicode="&#xe31;" horiz-adv-x="0" 
d="M-88 710l-7.00098 -0.00195312h-5h-2c-3.33301 0 -7.66602 0.666992 -12.999 2c-0.666992 0 -3 0.666992 -7 2c-18 6 -32.833 16.667 -44.5 32s-17.5 33 -17.5 53v42h48v-42c0 -11.333 3.66699 -20.666 11 -27.999s16.333 -11.666 27 -12.999h10h148v-48h-148z" />
    <glyph glyph-name="saraaathai" unicode="&#xd2;" horiz-adv-x="503" 
d="M443 0h-49.001v410c0 24 -4.5 46.5 -13.5 67.5s-21.333 39.333 -37 55s-34 28 -55 37s-43.5 13.5 -67.5 13.5s-46.5 -4.5 -67.5 -13.5s-39.333 -21.333 -55 -37s-28 -34 -37 -55s-13.5 -43.5 -13.5 -67.5h-48c0 30.667 5.83301 59.334 17.5 86.001s27.5 50 47.5 70
s43.333 35.833 70 47.5s55.334 17.5 86.001 17.5s59.5 -5.83301 86.5 -17.5s50.5 -27.5 70.5 -47.5s35.833 -43.333 47.5 -70s17.5 -55.334 17.5 -86.001v-410z" />
    <glyph glyph-name="saraaathai" unicode="&#xe32;" horiz-adv-x="503" 
d="M443 0h-49.001v410c0 24 -4.5 46.5 -13.5 67.5s-21.333 39.333 -37 55s-34 28 -55 37s-43.5 13.5 -67.5 13.5s-46.5 -4.5 -67.5 -13.5s-39.333 -21.333 -55 -37s-28 -34 -37 -55s-13.5 -43.5 -13.5 -67.5h-48c0 30.667 5.83301 59.334 17.5 86.001s27.5 50 47.5 70
s43.333 35.833 70 47.5s55.334 17.5 86.001 17.5s59.5 -5.83301 86.5 -17.5s50.5 -27.5 70.5 -47.5s35.833 -43.333 47.5 -70s17.5 -55.334 17.5 -86.001v-410z" />
    <glyph glyph-name="saraamthai" unicode="&#xd3;" horiz-adv-x="503" 
d="M443 0h-49.001v410c0 24 -4.5 46.5 -13.5 67.5s-21.333 39.333 -37 55s-34 28 -55 37s-43.5 13.5 -67.5 13.5s-46.5 -4.5 -67.5 -13.5s-39.333 -21.333 -55 -37s-28 -34 -37 -55s-13.5 -43.5 -13.5 -67.5h-48c0 30.667 5.83301 59.334 17.5 86.001s27.5 50 47.5 70
s43.333 35.833 70 47.5s55.334 17.5 86.001 17.5s59.5 -5.83301 86.5 -17.5s50.5 -27.5 70.5 -47.5s35.833 -43.333 47.5 -70s17.5 -55.334 17.5 -86.001v-410zM-130.001 853c20 0 37 -7 51 -21s21 -31 21 -51s-7 -37 -21 -51s-31 -21 -51 -21s-37 7 -51 21s-21 31 -21 51
s7 37 21 51s31 21 51 21zM-130.001 758c7.33301 0 13.166 2.33301 17.499 7s6.5 10.334 6.5 17.001s-2.16699 12.334 -6.5 17.001s-10.166 7 -17.499 7c-6.66699 0 -12.334 -2.33301 -17.001 -7s-7 -10.334 -7 -17.001s2.33301 -12.334 7 -17.001s10.334 -7 17.001 -7z" />
    <glyph glyph-name="saraamthai" unicode="&#xe33;" horiz-adv-x="503" 
d="M443 0h-49.001v410c0 24 -4.5 46.5 -13.5 67.5s-21.333 39.333 -37 55s-34 28 -55 37s-43.5 13.5 -67.5 13.5s-46.5 -4.5 -67.5 -13.5s-39.333 -21.333 -55 -37s-28 -34 -37 -55s-13.5 -43.5 -13.5 -67.5h-48c0 30.667 5.83301 59.334 17.5 86.001s27.5 50 47.5 70
s43.333 35.833 70 47.5s55.334 17.5 86.001 17.5s59.5 -5.83301 86.5 -17.5s50.5 -27.5 70.5 -47.5s35.833 -43.333 47.5 -70s17.5 -55.334 17.5 -86.001v-410zM-130.001 853c20 0 37 -7 51 -21s21 -31 21 -51s-7 -37 -21 -51s-31 -21 -51 -21s-37 7 -51 21s-21 31 -21 51
s7 37 21 51s31 21 51 21zM-130.001 758c7.33301 0 13.166 2.33301 17.499 7s6.5 10.334 6.5 17.001s-2.16699 12.334 -6.5 17.001s-10.166 7 -17.499 7c-6.66699 0 -12.334 -2.33301 -17.001 -7s-7 -10.334 -7 -17.001s2.33301 -12.334 7 -17.001s10.334 -7 17.001 -7z" />
    <glyph glyph-name="saraithai" unicode="&#xd4;" horiz-adv-x="0" 
d="M-406 709v48h346v-48h-346v0z" />
    <glyph glyph-name="saraithai" unicode="&#xe34;" horiz-adv-x="0" 
d="M-406 709v48h346v-48h-346v0z" />
    <glyph glyph-name="saraiithai" unicode="&#xd5;" horiz-adv-x="0" 
d="M-108 757v84h48v-84v-48h-48h-298v48h298v0z" />
    <glyph glyph-name="saraiithai" unicode="&#xe35;" horiz-adv-x="0" 
d="M-108 757v84h48v-84v-48h-48h-298v48h298v0z" />
    <glyph glyph-name="sarauethai" unicode="&#xd6;" horiz-adv-x="0" 
d="M-132 853c20 0 37 -7 51 -21s21 -31 21 -51s-7 -37 -21 -51s-31 -21 -51 -21h-274v48h206c-2.66699 7.33301 -4 15.333 -4 24c0 20 7 37 21 51s31 21 51 21zM-132 758c6.66699 0 12.334 2.33301 17.001 7s7 10.334 7 17.001s-2.33301 12.334 -7 17.001
s-10.334 7 -17.001 7s-12.334 -2.33301 -17.001 -7s-7 -10.334 -7 -17.001s2.33301 -12.334 7 -17.001s10.334 -7 17.001 -7z" />
    <glyph glyph-name="sarauethai" unicode="&#xe36;" horiz-adv-x="0" 
d="M-132 853c20 0 37 -7 51 -21s21 -31 21 -51s-7 -37 -21 -51s-31 -21 -51 -21h-274v48h206c-2.66699 7.33301 -4 15.333 -4 24c0 20 7 37 21 51s31 21 51 21zM-132 758c6.66699 0 12.334 2.33301 17.001 7s7 10.334 7 17.001s-2.33301 12.334 -7 17.001
s-10.334 7 -17.001 7s-12.334 -2.33301 -17.001 -7s-7 -10.334 -7 -17.001s2.33301 -12.334 7 -17.001s10.334 -7 17.001 -7z" />
    <glyph glyph-name="saraueethai" unicode="&#xd7;" horiz-adv-x="0" 
d="M-108 757v84h48v-84v-48h-48h-48h-48h-202v48h202v84h48v-84h48v0z" />
    <glyph glyph-name="saraueethai" unicode="&#xe37;" horiz-adv-x="0" 
d="M-108 757v84h48v-84v-48h-48h-48h-48h-202v48h202v84h48v-84h48v0z" />
    <glyph glyph-name="sarauthai" unicode="&#xd8;" horiz-adv-x="0" 
d="M-63 -78h3v-60v-136h-48v136v12h-46v48h46h45v0z" />
    <glyph glyph-name="sarauthai" unicode="&#xe38;" horiz-adv-x="0" 
d="M-63 -78h3v-60v-136h-48v136v12h-46v48h46h45v0z" />
    <glyph glyph-name="sarauuthai" unicode="&#xd9;" horiz-adv-x="0" 
d="M-60 -78l-0.00195312 -124c0 -20 -7 -37 -21 -51s-31 -21 -51 -21s-37 7 -51 21s-21 31 -21 51v76h-46v48h46h29h19v-124c0 -6.66699 2.33301 -12.334 7 -17.001s10.334 -7 17.001 -7s12.334 2.33301 17.001 7s7 10.334 7 17.001v124h48z" />
    <glyph glyph-name="sarauuthai" unicode="&#xe39;" horiz-adv-x="0" 
d="M-60 -78l-0.00195312 -124c0 -20 -7 -37 -21 -51s-31 -21 -51 -21s-37 7 -51 21s-21 31 -21 51v76h-46v48h46h29h19v-124c0 -6.66699 2.33301 -12.334 7 -17.001s10.334 -7 17.001 -7s12.334 2.33301 17.001 7s7 10.334 7 17.001v124h48z" />
    <glyph glyph-name="phinthuthai" unicode="&#xda;" horiz-adv-x="0" 
d="M-60 -114c0 -10 -3.5 -18.5 -10.5 -25.5s-15.5 -10.5 -25.5 -10.5s-18.5 3.5 -25.5 10.5s-10.5 15.5 -10.5 25.5s3.5 18.5 10.5 25.5s15.5 10.5 25.5 10.5s18.5 -3.5 25.5 -10.5s10.5 -15.5 10.5 -25.5z" />
    <glyph glyph-name="phinthuthai" unicode="&#xe3a;" horiz-adv-x="0" 
d="M-60 -114c0 -10 -3.5 -18.5 -10.5 -25.5s-15.5 -10.5 -25.5 -10.5s-18.5 3.5 -25.5 10.5s-10.5 15.5 -10.5 25.5s3.5 18.5 10.5 25.5s15.5 10.5 25.5 10.5s18.5 -3.5 25.5 -10.5s10.5 -15.5 10.5 -25.5z" />
    <glyph glyph-name="nptp3.001march2007p" unicode="&#xdb;" horiz-adv-x="0" 
 />
    <glyph glyph-name="nptp3.001march2007p" unicode="&#xe3b;" horiz-adv-x="0" 
 />
    <glyph glyph-name="nptp3.001march2007u" unicode="&#xdc;" horiz-adv-x="0" 
 />
    <glyph glyph-name="nptp3.001march2007u" unicode="&#xe3c;" horiz-adv-x="0" 
 />
    <glyph glyph-name="nptp3.001march2007c" unicode="&#xdd;" horiz-adv-x="0" 
 />
    <glyph glyph-name="nptp3.001march2007c" unicode="&#xe3d;" horiz-adv-x="0" 
 />
    <glyph glyph-name="bahtthai" unicode="&#xdf;" 
d="M410 278c27.333 -10.667 49.5 -28 66.5 -52s25.5 -51.667 25.5 -83c0 -20 -3.83301 -38.667 -11.5 -56s-18 -32.5 -31 -45.5s-28.167 -23.167 -45.5 -30.5s-36 -11 -56 -11h-77v-61h-48v61h-125h-48v48v191v48v192v48h48h125v61h48v-61h31c20 0 38.667 -3.83301 56 -11.5
s32.5 -18 45.5 -31s23.333 -28.167 31 -45.5s11.5 -36 11.5 -56c0 -20.667 -4.16699 -40 -12.5 -58s-19.5 -33.667 -33.5 -47zM281 479l-0.000976562 -192h32c12.667 0 24.834 2.5 36.501 7.5s21.834 12 30.501 21s15.5 19.167 20.5 30.5s7.5 23.666 7.5 36.999
c0 26.667 -9.33301 49.334 -28 68.001s-41.334 28 -68.001 28h-31zM107.999 287h125v192h-125v-192zM232.999 48v191h-125v-191h125zM357.999 48c13.333 0 25.833 2.5 37.5 7.5s21.834 11.833 30.501 20.5s15.5 18.667 20.5 30s7.5 23.666 7.5 36.999
c0 26.667 -9.33301 49.334 -28 68.001s-41.334 28 -68.001 28h-77v-191h77z" />
    <glyph glyph-name="bahtthai" unicode="&#xe3f;" 
d="M410 278c27.333 -10.667 49.5 -28 66.5 -52s25.5 -51.667 25.5 -83c0 -20 -3.83301 -38.667 -11.5 -56s-18 -32.5 -31 -45.5s-28.167 -23.167 -45.5 -30.5s-36 -11 -56 -11h-77v-61h-48v61h-125h-48v48v191v48v192v48h48h125v61h48v-61h31c20 0 38.667 -3.83301 56 -11.5
s32.5 -18 45.5 -31s23.333 -28.167 31 -45.5s11.5 -36 11.5 -56c0 -20.667 -4.16699 -40 -12.5 -58s-19.5 -33.667 -33.5 -47zM281 479l-0.000976562 -192h32c12.667 0 24.834 2.5 36.501 7.5s21.834 12 30.501 21s15.5 19.167 20.5 30.5s7.5 23.666 7.5 36.999
c0 26.667 -9.33301 49.334 -28 68.001s-41.334 28 -68.001 28h-31zM107.999 287h125v192h-125v-192zM232.999 48v191h-125v-191h125zM357.999 48c13.333 0 25.833 2.5 37.5 7.5s21.834 11.833 30.501 20.5s15.5 18.667 20.5 30s7.5 23.666 7.5 36.999
c0 26.667 -9.33301 49.334 -28 68.001s-41.334 28 -68.001 28h-77v-191h77z" />
    <glyph glyph-name="saraethai" unicode="&#xe0;" horiz-adv-x="194" 
d="M108 48h46v-48h-46h-46h-2v631h48v-583v0z" />
    <glyph glyph-name="saraethai" unicode="&#xe40;" horiz-adv-x="194" 
d="M108 48h46v-48h-46h-46h-2v631h48v-583v0z" />
    <glyph glyph-name="saraaethai" unicode="&#xe1;" horiz-adv-x="342" 
d="M108 48h46v-48h-46h-46h-2v631h48v-583zM256 48h46v-48h-46h-46h-2v631h48v-583z" />
    <glyph glyph-name="saraaethai" unicode="&#xe41;" horiz-adv-x="342" 
d="M108 48h46v-48h-46h-46h-2v631h48v-583zM256 48h46v-48h-46h-46h-2v631h48v-583z" />
    <glyph glyph-name="saraothai" unicode="&#xe2;" horiz-adv-x="194" 
d="M154 48l0.00195312 -47.999h-46h-46h-2v909c0 24.667 -7.16699 46.5 -21.5 65.5s-32.5 32.167 -54.5 39.5c-1.33301 0 -2.33301 0.166992 -3 0.5s-1.33398 0.5 -2.00098 0.5l-28 8l-154 45c-18 4 -33 13.5 -45 28.5s-18 32.167 -18 51.5c0 22.667 8 42 24 58
s35.333 24 58 24h295v-48h-295c-9.33301 0 -17.333 -3.33301 -24 -10s-10 -14.667 -10 -24c0 -7.33301 2 -13.833 6 -19.5s9.33301 -9.83398 16 -12.501l6 -1l6 -2l173 -51l13 -4c35.333 -11.333 62.666 -33 81.999 -65c16 -25.333 24 -53.333 24 -84v-861h46z" />
    <glyph glyph-name="saraothai" unicode="&#xe42;" horiz-adv-x="194" 
d="M154 48l0.00195312 -47.999h-46h-46h-2v909c0 24.667 -7.16699 46.5 -21.5 65.5s-32.5 32.167 -54.5 39.5c-1.33301 0 -2.33301 0.166992 -3 0.5s-1.33398 0.5 -2.00098 0.5l-28 8l-154 45c-18 4 -33 13.5 -45 28.5s-18 32.167 -18 51.5c0 22.667 8 42 24 58
s35.333 24 58 24h295v-48h-295c-9.33301 0 -17.333 -3.33301 -24 -10s-10 -14.667 -10 -24c0 -7.33301 2 -13.833 6 -19.5s9.33301 -9.83398 16 -12.501l6 -1l6 -2l173 -51l13 -4c35.333 -11.333 62.666 -33 81.999 -65c16 -25.333 24 -53.333 24 -84v-861h46z" />
    <glyph glyph-name="saraaimaimuanthai" unicode="&#xe3;" horiz-adv-x="194" 
d="M75 1230c20 0 38.9961 -3.83398 56.9961 -11.501s33.833 -18.167 47.5 -31.5s24.5 -29 32.5 -47s12 -37.333 12 -58c0 -28.667 -5.5 -56.5 -16.5 -83.5s-27.167 -51.167 -48.5 -72.5l-1 -1c-16.667 -16.667 -29.167 -35.667 -37.5 -57s-12.5 -43 -12.5 -65v-755h46v-48
h-46h-46h-2v803c0 28.667 5.33301 56.5 16 83.5s27 51.167 49 72.5c16.667 17.333 29.167 36.666 37.5 57.999s12.5 43 12.5 65c0 28 -9.66699 51.667 -29 71s-43 29 -71 29c-14 0 -27.167 -2.66699 -39.5 -8s-23 -12.5 -32 -21.5s-16.167 -19.667 -21.5 -32
s-8 -25.5 -8 -39.5c0 -24 7.33301 -45 22 -63s33.334 -29.667 56.001 -35v-48c-18 2.66699 -34.667 8.33398 -50 17.001s-28.666 19.5 -39.999 32.5s-20.166 27.833 -26.499 44.5s-9.5 34.334 -9.5 53.001c0 20.667 3.83301 40 11.5 58s18.334 33.667 32.001 47
s29.5 23.833 47.5 31.5s37.333 11.5 58 11.5z" />
    <glyph glyph-name="saraaimaimuanthai" unicode="&#xe43;" horiz-adv-x="194" 
d="M75 1230c20 0 38.9961 -3.83398 56.9961 -11.501s33.833 -18.167 47.5 -31.5s24.5 -29 32.5 -47s12 -37.333 12 -58c0 -28.667 -5.5 -56.5 -16.5 -83.5s-27.167 -51.167 -48.5 -72.5l-1 -1c-16.667 -16.667 -29.167 -35.667 -37.5 -57s-12.5 -43 -12.5 -65v-755h46v-48
h-46h-46h-2v803c0 28.667 5.33301 56.5 16 83.5s27 51.167 49 72.5c16.667 17.333 29.167 36.666 37.5 57.999s12.5 43 12.5 65c0 28 -9.66699 51.667 -29 71s-43 29 -71 29c-14 0 -27.167 -2.66699 -39.5 -8s-23 -12.5 -32 -21.5s-16.167 -19.667 -21.5 -32
s-8 -25.5 -8 -39.5c0 -24 7.33301 -45 22 -63s33.334 -29.667 56.001 -35v-48c-18 2.66699 -34.667 8.33398 -50 17.001s-28.666 19.5 -39.999 32.5s-20.166 27.833 -26.499 44.5s-9.5 34.334 -9.5 53.001c0 20.667 3.83301 40 11.5 58s18.334 33.667 32.001 47
s29.5 23.833 47.5 31.5s37.333 11.5 58 11.5z" />
    <glyph glyph-name="saraaimaimalaithai" unicode="&#xe4;" horiz-adv-x="194" 
d="M154 48v-47.999h-46h-46h-2v1009v23v1c0 28 -6 53.667 -18 77s-28 42.666 -48 57.999l-107 -107l-101 101v67v1l37 -37l64 -64l64 64l36 37c16 -8.66699 29.667 -17.667 41 -27c24.667 -20.667 44.167 -45.667 58.5 -75s21.5 -61 21.5 -95v-1v-23v-961h46z" />
    <glyph glyph-name="saraaimaimalaithai" unicode="&#xe44;" horiz-adv-x="194" 
d="M154 48v-47.999h-46h-46h-2v1009v23v1c0 28 -6 53.667 -18 77s-28 42.666 -48 57.999l-107 -107l-101 101v67v1l37 -37l64 -64l64 64l36 37c16 -8.66699 29.667 -17.667 41 -27c24.667 -20.667 44.167 -45.667 58.5 -75s21.5 -61 21.5 -95v-1v-23v-961h46z" />
    <glyph glyph-name="lakkhangyaothai" unicode="&#xe5;" horiz-adv-x="502" 
d="M442 -237h-48.002v647c0 24 -4.5 46.5 -13.5 67.5s-21.333 39.333 -37 55s-34 28 -55 37s-43.5 13.5 -67.5 13.5s-46.5 -4.5 -67.5 -13.5s-39.333 -21.333 -55 -37s-28 -34 -37 -55s-13.5 -43.5 -13.5 -67.5h-48c0 30.667 5.83301 59.334 17.5 86.001s27.5 50 47.5 70
s43.333 35.833 70 47.5s55.334 17.5 86.001 17.5s59.334 -5.83301 86.001 -17.5s50 -27.5 70 -47.5s35.833 -43.333 47.5 -70s17.5 -55.334 17.5 -86.001v-647z" />
    <glyph glyph-name="lakkhangyaothai" unicode="&#xe45;" horiz-adv-x="502" 
d="M442 -237h-48.002v647c0 24 -4.5 46.5 -13.5 67.5s-21.333 39.333 -37 55s-34 28 -55 37s-43.5 13.5 -67.5 13.5s-46.5 -4.5 -67.5 -13.5s-39.333 -21.333 -55 -37s-28 -34 -37 -55s-13.5 -43.5 -13.5 -67.5h-48c0 30.667 5.83301 59.334 17.5 86.001s27.5 50 47.5 70
s43.333 35.833 70 47.5s55.334 17.5 86.001 17.5s59.334 -5.83301 86.001 -17.5s50 -27.5 70 -47.5s35.833 -43.333 47.5 -70s17.5 -55.334 17.5 -86.001v-647z" />
    <glyph glyph-name="maiyamokthai" unicode="&#xe6;" horiz-adv-x="542" 
d="M402 500c24.667 -20.667 44.167 -45.667 58.5 -75s21.5 -61 21.5 -95v-1v-23v-527h-48v527v23v1c0 28 -6 53.667 -18 77s-28 43 -48 59l-107 -107l-107 107c-20 -16 -36 -35.667 -48 -59s-18 -49 -18 -77v-1v-23h-1c0.666992 -23.333 9 -43 25 -59s35.667 -24 59 -24v-49
c-18 0 -35 3.5 -51 10.5s-30 16.5 -42 28.5s-21.333 26 -28 42s-10 33 -10 51v23v1c0 34 7.16699 65.667 21.5 95s33.833 54.333 58.5 75c6 5.33301 12.333 10.333 19 15s13.667 8.66699 21 12l37 -36l64 -64l64 64l36 36c7.33301 -3.33301 14.5 -7.33301 21.5 -12
s13.5 -9.66699 19.5 -15z" />
    <glyph glyph-name="maiyamokthai" unicode="&#xe46;" horiz-adv-x="542" 
d="M402 500c24.667 -20.667 44.167 -45.667 58.5 -75s21.5 -61 21.5 -95v-1v-23v-527h-48v527v23v1c0 28 -6 53.667 -18 77s-28 43 -48 59l-107 -107l-107 107c-20 -16 -36 -35.667 -48 -59s-18 -49 -18 -77v-1v-23h-1c0.666992 -23.333 9 -43 25 -59s35.667 -24 59 -24v-49
c-18 0 -35 3.5 -51 10.5s-30 16.5 -42 28.5s-21.333 26 -28 42s-10 33 -10 51v23v1c0 34 7.16699 65.667 21.5 95s33.833 54.333 58.5 75c6 5.33301 12.333 10.333 19 15s13.667 8.66699 21 12l37 -36l64 -64l64 64l36 36c7.33301 -3.33301 14.5 -7.33301 21.5 -12
s13.5 -9.66699 19.5 -15z" />
    <glyph glyph-name="maitaikhuthai" unicode="&#xe7;" horiz-adv-x="0" 
d="M-200 839c-10.667 -1.33301 -19.665 -5.66797 -26.998 -13.001s-11 -16.666 -11 -27.999s4.33301 -21.333 13 -30l52 53l9 -11l39 -39c5.33301 5.33301 9.66602 12 12.999 20h50c-6 -26 -19 -47.333 -39 -64c-3.33301 -2.66699 -6.83301 -5.16699 -10.5 -7.5l-10.5 -6.5
l-8 -4l-44 43l-43 -43c-6 0 -12.833 2.33301 -20.5 7s-15.167 11 -22.5 19s-13.5 17.5 -18.5 28.5s-7.5 22.5 -7.5 34.5c0 20 5.83301 37.667 17.5 53s26.5 26 44.5 32c4 1.33301 6.33301 2 7 2c5.33301 1.33301 9.66602 2 12.999 2h2h5h7h130v-48h-130h-10v0z" />
    <glyph glyph-name="maitaikhuthai" unicode="&#xe47;" horiz-adv-x="0" 
d="M-200 839c-10.667 -1.33301 -19.665 -5.66797 -26.998 -13.001s-11 -16.666 -11 -27.999s4.33301 -21.333 13 -30l52 53l9 -11l39 -39c5.33301 5.33301 9.66602 12 12.999 20h50c-6 -26 -19 -47.333 -39 -64c-3.33301 -2.66699 -6.83301 -5.16699 -10.5 -7.5l-10.5 -6.5
l-8 -4l-44 43l-43 -43c-6 0 -12.833 2.33301 -20.5 7s-15.167 11 -22.5 19s-13.5 17.5 -18.5 28.5s-7.5 22.5 -7.5 34.5c0 20 5.83301 37.667 17.5 53s26.5 26 44.5 32c4 1.33301 6.33301 2 7 2c5.33301 1.33301 9.66602 2 12.999 2h2h5h7h130v-48h-130h-10v0z" />
    <glyph glyph-name="maiekthai" unicode="&#xe8;" horiz-adv-x="0" 
d="M-60 875h-48v132h48v-132v0z" />
    <glyph glyph-name="maiekthai" unicode="&#xe48;" horiz-adv-x="0" 
d="M-60 875h-48v132h48v-132v0z" />
    <glyph glyph-name="maithothai" unicode="&#xe9;" horiz-adv-x="0" 
d="M-110 923h148v-48h-196v2v25v21v35h-49v48h49h48v-37v-11v-35v0z" />
    <glyph glyph-name="maithothai" unicode="&#xe49;" horiz-adv-x="0" 
d="M-110 923h148v-48h-196v2v25v21v35h-49v48h49h48v-37v-11v-35v0z" />
    <glyph glyph-name="maitrithai" unicode="&#xea;" horiz-adv-x="0" 
d="M-20 923v-48h-47h-47h-1v24c0 16.667 -5.33301 31.334 -16 44.001l-50 -50l-9 11l-39 39c-11.333 -12.667 -17 -27.334 -17 -44.001v-24h-48v24c0 17.333 3.5 33.5 10.5 48.5s17.167 28.167 30.5 39.5c3.33301 2.66699 6.83301 5.16699 10.5 7.5l10.5 6.5l8 4l44 -43
l43 43l8 -4c6.66699 -3.33301 13.667 -8 21 -14c20 -16.667 33 -38 39 -64h49z" />
    <glyph glyph-name="maitrithai" unicode="&#xe4a;" horiz-adv-x="0" 
d="M-20 923v-48h-47h-47h-1v24c0 16.667 -5.33301 31.334 -16 44.001l-50 -50l-9 11l-39 39c-11.333 -12.667 -17 -27.334 -17 -44.001v-24h-48v24c0 17.333 3.5 33.5 10.5 48.5s17.167 28.167 30.5 39.5c3.33301 2.66699 6.83301 5.16699 10.5 7.5l10.5 6.5l8 4l44 -43
l43 43l8 -4c6.66699 -3.33301 13.667 -8 21 -14c20 -16.667 33 -38 39 -64h49z" />
    <glyph glyph-name="maichattawathai" unicode="&#xeb;" horiz-adv-x="0" 
d="M-18 965v-48h-42v-42h-48v42h-42v48h42v42h48v-42h42v0z" />
    <glyph glyph-name="maichattawathai" unicode="&#xe4b;" horiz-adv-x="0" 
d="M-18 965v-48h-42v-42h-48v42h-42v48h42v42h48v-42h42v0z" />
    <glyph glyph-name="thanthakhatthai" unicode="&#xec;" horiz-adv-x="0" 
d="M20 1006l0.000976562 -48.002h-130h-10c-10.667 -1.33301 -19.667 -5.66602 -27 -12.999s-11 -16.666 -11 -27.999v-42h-48v42c0 20 5.83301 37.667 17.5 53s26.5 26 44.5 32c4 1.33301 6.33301 2 7 2c5.33301 1.33301 9.66602 2 12.999 2h2h5h7h130z" />
    <glyph glyph-name="thanthakhatthai" unicode="&#xe4c;" horiz-adv-x="0" 
d="M20 1006l0.000976562 -48.002h-130h-10c-10.667 -1.33301 -19.667 -5.66602 -27 -12.999s-11 -16.666 -11 -27.999v-42h-48v42c0 20 5.83301 37.667 17.5 53s26.5 26 44.5 32c4 1.33301 6.33301 2 7 2c5.33301 1.33301 9.66602 2 12.999 2h2h5h7h130z" />
    <glyph glyph-name="nikhahitthai" unicode="&#xed;" horiz-adv-x="0" 
d="M-92 853c20 0 37 -7 51 -21s21 -31 21 -51s-7 -37 -21 -51s-31 -21 -51 -21s-37 7 -51 21s-21 31 -21 51s7 37 21 51s31 21 51 21zM-92 758c7.33301 0 13.166 2.33301 17.499 7s6.5 10.334 6.5 17.001s-2.16699 12.334 -6.5 17.001s-10.166 7 -17.499 7
c-6.66699 0 -12.334 -2.33301 -17.001 -7s-7 -10.334 -7 -17.001s2.33301 -12.334 7 -17.001s10.334 -7 17.001 -7z" />
    <glyph glyph-name="nikhahitthai" unicode="&#xe4d;" horiz-adv-x="0" 
d="M-92 853c20 0 37 -7 51 -21s21 -31 21 -51s-7 -37 -21 -51s-31 -21 -51 -21s-37 7 -51 21s-21 31 -21 51s7 37 21 51s31 21 51 21zM-92 758c7.33301 0 13.166 2.33301 17.499 7s6.5 10.334 6.5 17.001s-2.16699 12.334 -6.5 17.001s-10.166 7 -17.499 7
c-6.66699 0 -12.334 -2.33301 -17.001 -7s-7 -10.334 -7 -17.001s2.33301 -12.334 7 -17.001s10.334 -7 17.001 -7z" />
    <glyph glyph-name="yamakkanthai" unicode="&#xee;" horiz-adv-x="0" 
d="M-159 612c-10 8 -15.0029 17.6709 -15.0029 29.0039c0 10.667 3.5 20.667 10.5 30s16.167 17.666 27.5 24.999s24.166 13 38.499 17s28.833 6 43.5 6c10 -0.666992 20.333 -1.5 31 -2.5s21 -3.5 31 -7.5l11 -4v-32c-8.66699 2.66699 -16.167 5.16699 -22.5 7.5
s-12.166 4 -17.499 5s-10.5 1.83301 -15.5 2.5s-10.833 1 -17.5 1c-9.33301 0 -19.166 -1.33301 -29.499 -4s-20 -6.33398 -29 -11.001s-16.5 -9.83398 -22.5 -15.501s-9 -11.5 -9 -17.5c0 -8 12.667 -15 38 -21l11 -4v-25h-15c-1.33301 0 -3.16602 0.166992 -5.49902 0.5
s-4.16602 0.5 -5.49902 0.5c-6 0 -12.5 -1.66699 -19.5 -5s-13.5 -7.33301 -19.5 -12s-11 -9.5 -15 -14.5s-6 -9.5 -6 -13.5c0 -10.667 4.5 -19.334 13.5 -26.001s20.833 -10 35.5 -10c26.667 0 45.667 10 57 30l5 8h31l-9 -22c-16.667 -30.667 -44.667 -46 -84 -46
c-11.333 0 -21.833 1.66699 -31.5 5s-18 8 -25 14s-12.5 13 -16.5 21s-6 16.667 -6 26c0 26 17.333 47.667 52 65z" />
    <glyph glyph-name="yamakkanthai" unicode="&#xe4e;" horiz-adv-x="0" 
d="M-159 612c-10 8 -15.0029 17.6709 -15.0029 29.0039c0 10.667 3.5 20.667 10.5 30s16.167 17.666 27.5 24.999s24.166 13 38.499 17s28.833 6 43.5 6c10 -0.666992 20.333 -1.5 31 -2.5s21 -3.5 31 -7.5l11 -4v-32c-8.66699 2.66699 -16.167 5.16699 -22.5 7.5
s-12.166 4 -17.499 5s-10.5 1.83301 -15.5 2.5s-10.833 1 -17.5 1c-9.33301 0 -19.166 -1.33301 -29.499 -4s-20 -6.33398 -29 -11.001s-16.5 -9.83398 -22.5 -15.501s-9 -11.5 -9 -17.5c0 -8 12.667 -15 38 -21l11 -4v-25h-15c-1.33301 0 -3.16602 0.166992 -5.49902 0.5
s-4.16602 0.5 -5.49902 0.5c-6 0 -12.5 -1.66699 -19.5 -5s-13.5 -7.33301 -19.5 -12s-11 -9.5 -15 -14.5s-6 -9.5 -6 -13.5c0 -10.667 4.5 -19.334 13.5 -26.001s20.833 -10 35.5 -10c26.667 0 45.667 10 57 30l5 8h31l-9 -22c-16.667 -30.667 -44.667 -46 -84 -46
c-11.333 0 -21.833 1.66699 -31.5 5s-18 8 -25 14s-12.5 13 -16.5 21s-6 16.667 -6 26c0 26 17.333 47.667 52 65z" />
    <glyph glyph-name="fongmanthai" unicode="&#xef;" horiz-adv-x="412" 
d="M242 230c0 -9.33301 -3.5 -17.666 -10.5 -24.999s-15.5 -11 -25.5 -11s-18.5 3.66699 -25.5 11s-10.5 15.666 -10.5 24.999c0 10 3.5 18.5 10.5 25.5s15.5 10.5 25.5 10.5s18.5 -3.5 25.5 -10.5s10.5 -15.5 10.5 -25.5zM206 377c20 0 38.833 -3.83301 56.5 -11.5
s33.167 -18.167 46.5 -31.5s23.833 -28.833 31.5 -46.5s11.5 -36.5 11.5 -56.5s-3.83301 -39 -11.5 -57s-18.167 -33.5 -31.5 -46.5s-28.833 -23.333 -46.5 -31s-36.5 -11.5 -56.5 -11.5s-39 3.83301 -57 11.5s-33.5 18 -46.5 31s-23.333 28.5 -31 46.5s-11.5 37 -11.5 57
s3.83301 38.833 11.5 56.5s18 33.167 31 46.5s28.5 23.833 46.5 31.5s37 11.5 57 11.5zM205 133c27.333 0 50.5 9.5 69.5 28.5s28.5 42.167 28.5 69.5s-9.5 50.5 -28.5 69.5s-42.167 28.5 -69.5 28.5s-50.5 -9.5 -69.5 -28.5s-28.5 -42.167 -28.5 -69.5
s9.5 -50.5 28.5 -69.5s42.167 -28.5 69.5 -28.5z" />
    <glyph glyph-name="fongmanthai" unicode="&#xe4f;" horiz-adv-x="412" 
d="M242 230c0 -9.33301 -3.5 -17.666 -10.5 -24.999s-15.5 -11 -25.5 -11s-18.5 3.66699 -25.5 11s-10.5 15.666 -10.5 24.999c0 10 3.5 18.5 10.5 25.5s15.5 10.5 25.5 10.5s18.5 -3.5 25.5 -10.5s10.5 -15.5 10.5 -25.5zM206 377c20 0 38.833 -3.83301 56.5 -11.5
s33.167 -18.167 46.5 -31.5s23.833 -28.833 31.5 -46.5s11.5 -36.5 11.5 -56.5s-3.83301 -39 -11.5 -57s-18.167 -33.5 -31.5 -46.5s-28.833 -23.333 -46.5 -31s-36.5 -11.5 -56.5 -11.5s-39 3.83301 -57 11.5s-33.5 18 -46.5 31s-23.333 28.5 -31 46.5s-11.5 37 -11.5 57
s3.83301 38.833 11.5 56.5s18 33.167 31 46.5s28.5 23.833 46.5 31.5s37 11.5 57 11.5zM205 133c27.333 0 50.5 9.5 69.5 28.5s28.5 42.167 28.5 69.5s-9.5 50.5 -28.5 69.5s-42.167 28.5 -69.5 28.5s-50.5 -9.5 -69.5 -28.5s-28.5 -42.167 -28.5 -69.5
s9.5 -50.5 28.5 -69.5s42.167 -28.5 69.5 -28.5z" />
    <glyph glyph-name="zerothai" unicode="&#xf0;" 
d="M281 527c30.667 0 59.334 -5.83301 86.001 -17.5s50 -27.5 70 -47.5s35.833 -43.333 47.5 -70s17.5 -55.334 17.5 -86.001v-85c0 -30.667 -5.83301 -59.334 -17.5 -86.001s-27.5 -50 -47.5 -70s-43.333 -35.833 -70 -47.5s-55.334 -17.5 -86.001 -17.5
s-59.334 5.83301 -86.001 17.5s-50 27.5 -70 47.5s-35.833 43.333 -47.5 70s-17.5 55.334 -17.5 86.001v85c0 30.667 5.83301 59.334 17.5 86.001s27.5 50 47.5 70s43.333 35.833 70 47.5s55.334 17.5 86.001 17.5zM281 48c24 0 46.5 4.5 67.5 13.5s39.333 21.333 55 37
s28 34 37 55s13.5 43.5 13.5 67.5v85c0 24 -4.5 46.5 -13.5 67.5s-21.333 39.333 -37 55s-34 28 -55 37s-43.5 13.5 -67.5 13.5s-46.5 -4.5 -67.5 -13.5s-39.333 -21.333 -55 -37s-28 -34 -37 -55s-13.5 -43.5 -13.5 -67.5v-85c0 -24 4.5 -46.5 13.5 -67.5
s21.333 -39.333 37 -55s34 -28 55 -37s43.5 -13.5 67.5 -13.5z" />
    <glyph glyph-name="zerothai" unicode="&#xe50;" 
d="M281 527c30.667 0 59.334 -5.83301 86.001 -17.5s50 -27.5 70 -47.5s35.833 -43.333 47.5 -70s17.5 -55.334 17.5 -86.001v-85c0 -30.667 -5.83301 -59.334 -17.5 -86.001s-27.5 -50 -47.5 -70s-43.333 -35.833 -70 -47.5s-55.334 -17.5 -86.001 -17.5
s-59.334 5.83301 -86.001 17.5s-50 27.5 -70 47.5s-35.833 43.333 -47.5 70s-17.5 55.334 -17.5 86.001v85c0 30.667 5.83301 59.334 17.5 86.001s27.5 50 47.5 70s43.333 35.833 70 47.5s55.334 17.5 86.001 17.5zM281 48c24 0 46.5 4.5 67.5 13.5s39.333 21.333 55 37
s28 34 37 55s13.5 43.5 13.5 67.5v85c0 24 -4.5 46.5 -13.5 67.5s-21.333 39.333 -37 55s-34 28 -55 37s-43.5 13.5 -67.5 13.5s-46.5 -4.5 -67.5 -13.5s-39.333 -21.333 -55 -37s-28 -34 -37 -55s-13.5 -43.5 -13.5 -67.5v-85c0 -24 4.5 -46.5 13.5 -67.5
s21.333 -39.333 37 -55s34 -28 55 -37s43.5 -13.5 67.5 -13.5z" />
    <glyph glyph-name="onethai" unicode="&#xf1;" 
d="M281 527c30.667 0 59.3359 -5.66992 86.0029 -17.0029s50 -27 70 -47s35.833 -43.333 47.5 -70s17.5 -55.334 17.5 -86.001v-86c0 -30.667 -5.83301 -59.334 -17.5 -86.001s-27.5 -50 -47.5 -70s-43.333 -35.833 -70 -47.5s-55.334 -17.5 -86.001 -17.5
s-59.334 5.83301 -86.001 17.5s-50 27.5 -70 47.5s-35.833 43.333 -47.5 70s-17.5 55.334 -17.5 86.001h48c0 -24 4.5 -46.5 13.5 -67.5s21.333 -39.333 37 -55s34 -28 55 -37s43.5 -13.5 67.5 -13.5s46.5 4.5 67.5 13.5s39.333 21.333 55 37s28 34 37 55
s13.5 43.5 13.5 67.5v85c0 24 -4.5 46.5 -13.5 67.5s-21.333 39.333 -37 55s-34 28 -55 37s-43.5 13.5 -67.5 13.5c-21.333 0 -41.5 -3.66699 -60.5 -11s-36 -17.333 -51 -30s-27.5 -27.667 -37.5 -45s-17 -36 -21 -56c0 -3.33301 0.333008 -6.66602 1 -9.99902
s2 -6.66602 4 -9.99902c11.333 -19.333 43.333 -29 96 -29v-48c-70 0 -115.667 17.333 -137 52c-2.66699 4.66699 -5 9.33398 -7 14.001c-2.66699 6.66699 -4.33398 13.167 -5.00098 19.5s-0.666992 12.5 0 18.5c1.33301 11.333 3.5 20.833 6.5 28.5s4.5 11.834 4.5 12.501
c8 20.667 18.833 39.667 32.5 57s29.5 32.333 47.5 45s37.833 22.5 59.5 29.5s44.167 10.5 67.5 10.5z" />
    <glyph glyph-name="onethai" unicode="&#xe51;" 
d="M281 527c30.667 0 59.3359 -5.66992 86.0029 -17.0029s50 -27 70 -47s35.833 -43.333 47.5 -70s17.5 -55.334 17.5 -86.001v-86c0 -30.667 -5.83301 -59.334 -17.5 -86.001s-27.5 -50 -47.5 -70s-43.333 -35.833 -70 -47.5s-55.334 -17.5 -86.001 -17.5
s-59.334 5.83301 -86.001 17.5s-50 27.5 -70 47.5s-35.833 43.333 -47.5 70s-17.5 55.334 -17.5 86.001h48c0 -24 4.5 -46.5 13.5 -67.5s21.333 -39.333 37 -55s34 -28 55 -37s43.5 -13.5 67.5 -13.5s46.5 4.5 67.5 13.5s39.333 21.333 55 37s28 34 37 55
s13.5 43.5 13.5 67.5v85c0 24 -4.5 46.5 -13.5 67.5s-21.333 39.333 -37 55s-34 28 -55 37s-43.5 13.5 -67.5 13.5c-21.333 0 -41.5 -3.66699 -60.5 -11s-36 -17.333 -51 -30s-27.5 -27.667 -37.5 -45s-17 -36 -21 -56c0 -3.33301 0.333008 -6.66602 1 -9.99902
s2 -6.66602 4 -9.99902c11.333 -19.333 43.333 -29 96 -29v-48c-70 0 -115.667 17.333 -137 52c-2.66699 4.66699 -5 9.33398 -7 14.001c-2.66699 6.66699 -4.33398 13.167 -5.00098 19.5s-0.666992 12.5 0 18.5c1.33301 11.333 3.5 20.833 6.5 28.5s4.5 11.834 4.5 12.501
c8 20.667 18.833 39.667 32.5 57s29.5 32.333 47.5 45s37.833 22.5 59.5 29.5s44.167 10.5 67.5 10.5z" />
    <glyph glyph-name="twothai" unicode="&#xf2;" 
d="M422 500c24.667 -20.667 44.1689 -45.667 58.502 -75s21.5 -61 21.5 -95v-1v-23v-85c0 -30.667 -5.83301 -59.334 -17.5 -86.001s-27.5 -50 -47.5 -70s-43.333 -35.833 -70 -47.5s-55.334 -17.5 -86.001 -17.5s-59.334 5.83301 -86.001 17.5s-50 27.5 -70 47.5
s-35.833 43.333 -47.5 70s-17.5 55.334 -17.5 86.001v410h48v-410c0 -24 4.5 -46.5 13.5 -67.5s21.333 -39.333 37 -55s34 -28 55 -37s43.5 -13.5 67.5 -13.5s46.5 4.5 67.5 13.5s39.333 21.333 55 37s28 34 37 55s13.5 43.5 13.5 67.5v85v23v1c0 28 -6 53.667 -18 77
s-28 43 -48 59l-25 -25l-34 -34l-34 34l-25 25c-20 -16 -36 -35.667 -48 -59s-18 -49 -18 -77v-1v-23h-48v23v1c0 34 7.16699 65.667 21.5 95s33.833 54.333 58.5 75c11.333 9.33301 25 18.333 41 27l36 -36l16 -16l16 16l36 36c16 -8.66699 29.667 -17.667 41 -27z" />
    <glyph glyph-name="twothai" unicode="&#xe52;" 
d="M422 500c24.667 -20.667 44.1689 -45.667 58.502 -75s21.5 -61 21.5 -95v-1v-23v-85c0 -30.667 -5.83301 -59.334 -17.5 -86.001s-27.5 -50 -47.5 -70s-43.333 -35.833 -70 -47.5s-55.334 -17.5 -86.001 -17.5s-59.334 5.83301 -86.001 17.5s-50 27.5 -70 47.5
s-35.833 43.333 -47.5 70s-17.5 55.334 -17.5 86.001v410h48v-410c0 -24 4.5 -46.5 13.5 -67.5s21.333 -39.333 37 -55s34 -28 55 -37s43.5 -13.5 67.5 -13.5s46.5 4.5 67.5 13.5s39.333 21.333 55 37s28 34 37 55s13.5 43.5 13.5 67.5v85v23v1c0 28 -6 53.667 -18 77
s-28 43 -48 59l-25 -25l-34 -34l-34 34l-25 25c-20 -16 -36 -35.667 -48 -59s-18 -49 -18 -77v-1v-23h-48v23v1c0 34 7.16699 65.667 21.5 95s33.833 54.333 58.5 75c11.333 9.33301 25 18.333 41 27l36 -36l16 -16l16 16l36 36c16 -8.66699 29.667 -17.667 41 -27z" />
    <glyph glyph-name="threethai" unicode="&#xf3;" 
d="M422 500c24.667 -20.667 44.168 -45.668 58.501 -75.001s21.5 -61 21.5 -95v-1v-23v-306h-48v306v23v1c0 28 -6 53.667 -18 77s-28 43 -48 59l-107 -107l-107 107c-20 -16 -36 -35.667 -48 -59s-18 -49 -18 -77v-1v-23v-85c0 -24 4.5 -46.5 13.5 -67.5
s21.333 -39.333 37 -55s34 -28 55 -37s43.5 -13.5 67.5 -13.5v-48c-30.667 0 -59.334 5.83301 -86.001 17.5s-50 27.5 -70 47.5s-35.833 43.333 -47.5 70s-17.5 55.334 -17.5 86.001v85v23v1c0 34 7.16699 65.667 21.5 95s33.833 54.333 58.5 75
c6 5.33301 12.5 10.333 19.5 15s14.167 8.66699 21.5 12l36 -36l64 -64l64 64l36 36c7.33301 -3.33301 14.5 -7.33301 21.5 -12s13.5 -9.66699 19.5 -15z" />
    <glyph glyph-name="threethai" unicode="&#xe53;" 
d="M422 500c24.667 -20.667 44.168 -45.668 58.501 -75.001s21.5 -61 21.5 -95v-1v-23v-306h-48v306v23v1c0 28 -6 53.667 -18 77s-28 43 -48 59l-107 -107l-107 107c-20 -16 -36 -35.667 -48 -59s-18 -49 -18 -77v-1v-23v-85c0 -24 4.5 -46.5 13.5 -67.5
s21.333 -39.333 37 -55s34 -28 55 -37s43.5 -13.5 67.5 -13.5v-48c-30.667 0 -59.334 5.83301 -86.001 17.5s-50 27.5 -70 47.5s-35.833 43.333 -47.5 70s-17.5 55.334 -17.5 86.001v85v23v1c0 34 7.16699 65.667 21.5 95s33.833 54.333 58.5 75
c6 5.33301 12.5 10.333 19.5 15s14.167 8.66699 21.5 12l36 -36l64 -64l64 64l36 36c7.33301 -3.33301 14.5 -7.33301 21.5 -12s13.5 -9.66699 19.5 -15z" />
    <glyph glyph-name="fourthai" unicode="&#xf4;" 
d="M329 221c0 -24 4.50098 -46.502 13.501 -67.502s21.333 -39.333 37 -55s34 -28 55 -37s43.5 -13.5 67.5 -13.5v-48h-221c-30.667 0 -59.334 5.83301 -86.001 17.5s-50 27.5 -70 47.5s-35.833 43.333 -47.5 70s-17.5 55.334 -17.5 86.001v86
c0 30.667 5.83301 59.334 17.5 86.001s27.5 50 47.5 70s43.333 35.667 70 47s55.334 17 86.001 17c18 0 35.667 2.5 53 7.5s33.5 12.167 48.5 21.5s28.5 20.333 40.5 33s21.333 26.667 28 42h51c-7.33301 -22 -18.333 -42.333 -33 -61s-31.834 -34.667 -51.501 -48
s-41.167 -23.833 -64.5 -31.5s-47.333 -11.5 -72 -11.5c-24 0 -46.5 -4.5 -67.5 -13.5s-39.333 -21.333 -55 -37s-28 -34 -37 -55s-13.5 -43.5 -13.5 -67.5v-85c0 -24 4.5 -46.5 13.5 -67.5s21.333 -39.333 37 -55s34 -28 55 -37s43.5 -13.5 67.5 -13.5h83
c-25.333 20 -45.5 45 -60.5 75s-22.5 62.667 -22.5 98h48v0z" />
    <glyph glyph-name="fourthai" unicode="&#xe54;" 
d="M329 221c0 -24 4.50098 -46.502 13.501 -67.502s21.333 -39.333 37 -55s34 -28 55 -37s43.5 -13.5 67.5 -13.5v-48h-221c-30.667 0 -59.334 5.83301 -86.001 17.5s-50 27.5 -70 47.5s-35.833 43.333 -47.5 70s-17.5 55.334 -17.5 86.001v86
c0 30.667 5.83301 59.334 17.5 86.001s27.5 50 47.5 70s43.333 35.667 70 47s55.334 17 86.001 17c18 0 35.667 2.5 53 7.5s33.5 12.167 48.5 21.5s28.5 20.333 40.5 33s21.333 26.667 28 42h51c-7.33301 -22 -18.333 -42.333 -33 -61s-31.834 -34.667 -51.501 -48
s-41.167 -23.833 -64.5 -31.5s-47.333 -11.5 -72 -11.5c-24 0 -46.5 -4.5 -67.5 -13.5s-39.333 -21.333 -55 -37s-28 -34 -37 -55s-13.5 -43.5 -13.5 -67.5v-85c0 -24 4.5 -46.5 13.5 -67.5s21.333 -39.333 37 -55s34 -28 55 -37s43.5 -13.5 67.5 -13.5h83
c-25.333 20 -45.5 45 -60.5 75s-22.5 62.667 -22.5 98h48v0z" />
    <glyph glyph-name="fivethai" unicode="&#xf5;" 
d="M329 221c0 -24 4.50293 -46.499 13.5029 -67.499s21.333 -39.333 37 -55s34 -28 55 -37s43.5 -13.5 67.5 -13.5v-48h-221c-30.667 0 -59.334 5.83301 -86.001 17.5s-50 27.5 -70 47.5s-35.833 43.333 -47.5 70s-17.5 55.334 -17.5 86.001v86
c0 24.667 3.83301 48.167 11.5 70.5s18.334 42.666 32.001 60.999s30 34.166 49 47.499s39.833 23.666 62.5 30.999c-6.66699 10.667 -10 23.334 -10 38.001c0 21.333 7.33301 39.333 22 54s32.667 22 54 22s39.333 -7.33301 54 -22s22 -32.667 22 -54
c0 -5.33301 -0.333008 -9.33301 -1 -12c21.333 8.66699 40.166 20.667 56.499 36s29.166 32.666 38.499 51.999h51c-7.33301 -22 -18.333 -42.333 -33 -61s-31.834 -34.667 -51.501 -48s-41.167 -23.833 -64.5 -31.5s-47.333 -11.5 -72 -11.5h-4
c-23.333 -0.666992 -45.333 -5.66699 -66 -15s-38.667 -21.666 -54 -36.999s-27.333 -33.5 -36 -54.5s-13 -43.167 -13 -66.5v-85c0 -24 4.5 -46.5 13.5 -67.5s21.333 -39.333 37 -55s34 -28 55 -37s43.5 -13.5 67.5 -13.5h83c-25.333 20 -45.5 45 -60.5 75
s-22.5 62.667 -22.5 98h48zM253.003 555.001c0 -7.33301 2.33301 -13.667 7 -19s10.667 -8.33301 18 -9h3c7.33301 0 13.833 2.83301 19.5 8.5s8.5 12.167 8.5 19.5s-2.83301 13.833 -8.5 19.5s-12.167 8.5 -19.5 8.5c-8 0 -14.667 -2.83301 -20 -8.5s-8 -12.167 -8 -19.5z
" />
    <glyph glyph-name="fivethai" unicode="&#xe55;" 
d="M329 221c0 -24 4.50293 -46.499 13.5029 -67.499s21.333 -39.333 37 -55s34 -28 55 -37s43.5 -13.5 67.5 -13.5v-48h-221c-30.667 0 -59.334 5.83301 -86.001 17.5s-50 27.5 -70 47.5s-35.833 43.333 -47.5 70s-17.5 55.334 -17.5 86.001v86
c0 24.667 3.83301 48.167 11.5 70.5s18.334 42.666 32.001 60.999s30 34.166 49 47.499s39.833 23.666 62.5 30.999c-6.66699 10.667 -10 23.334 -10 38.001c0 21.333 7.33301 39.333 22 54s32.667 22 54 22s39.333 -7.33301 54 -22s22 -32.667 22 -54
c0 -5.33301 -0.333008 -9.33301 -1 -12c21.333 8.66699 40.166 20.667 56.499 36s29.166 32.666 38.499 51.999h51c-7.33301 -22 -18.333 -42.333 -33 -61s-31.834 -34.667 -51.501 -48s-41.167 -23.833 -64.5 -31.5s-47.333 -11.5 -72 -11.5h-4
c-23.333 -0.666992 -45.333 -5.66699 -66 -15s-38.667 -21.666 -54 -36.999s-27.333 -33.5 -36 -54.5s-13 -43.167 -13 -66.5v-85c0 -24 4.5 -46.5 13.5 -67.5s21.333 -39.333 37 -55s34 -28 55 -37s43.5 -13.5 67.5 -13.5h83c-25.333 20 -45.5 45 -60.5 75
s-22.5 62.667 -22.5 98h48zM253.003 555.001c0 -7.33301 2.33301 -13.667 7 -19s10.667 -8.33301 18 -9h3c7.33301 0 13.833 2.83301 19.5 8.5s8.5 12.167 8.5 19.5s-2.83301 13.833 -8.5 19.5s-12.167 8.5 -19.5 8.5c-8 0 -14.667 -2.83301 -20 -8.5s-8 -12.167 -8 -19.5z
" />
    <glyph glyph-name="sixthai" unicode="&#xf6;" horiz-adv-x="502" 
d="M221 527c30.667 0 59.333 -5.66504 86 -16.998s50 -27 70 -47s35.833 -43.333 47.5 -70s17.5 -55.334 17.5 -86.001v-86c0 -30.667 -5.83301 -59.334 -17.5 -86.001s-27.5 -50 -47.5 -70s-43.333 -35.833 -70 -47.5s-55.334 -17.5 -86.001 -17.5
c-20 -0 -39 3.83301 -57 11.5s-33.5 18 -46.5 31s-23.333 28.5 -31 46.5s-11.5 37 -11.5 57s3.83301 39 11.5 57s18 33.5 31 46.5s28.5 23.333 46.5 31s37 11.5 57 11.5v-48c-27.333 0 -50.5 -9.5 -69.5 -28.5s-28.5 -42.167 -28.5 -69.5s9.5 -50.5 28.5 -69.5
s42.167 -28.5 69.5 -28.5c24 0 46.5 4.5 67.5 13.5s39.333 21.333 55 37s28 34 37 55s13.5 43.5 13.5 67.5v85c0 24 -4.5 46.5 -13.5 67.5s-21.333 39.333 -37 55s-34 28 -55 37s-43.5 13.5 -67.5 13.5c-35.333 0 -67.666 -10 -96.999 -30l-26 26v10
c0 27.333 -9.5 50.5 -28.5 69.5s-42.167 28.5 -69.5 28.5v48c36 0 67.167 -11.167 93.5 -33.5s42.833 -50.5 49.5 -84.5c24.667 9.33301 50.667 14 78 14z" />
    <glyph glyph-name="sixthai" unicode="&#xe56;" horiz-adv-x="502" 
d="M221 527c30.667 0 59.333 -5.66504 86 -16.998s50 -27 70 -47s35.833 -43.333 47.5 -70s17.5 -55.334 17.5 -86.001v-86c0 -30.667 -5.83301 -59.334 -17.5 -86.001s-27.5 -50 -47.5 -70s-43.333 -35.833 -70 -47.5s-55.334 -17.5 -86.001 -17.5
c-20 -0 -39 3.83301 -57 11.5s-33.5 18 -46.5 31s-23.333 28.5 -31 46.5s-11.5 37 -11.5 57s3.83301 39 11.5 57s18 33.5 31 46.5s28.5 23.333 46.5 31s37 11.5 57 11.5v-48c-27.333 0 -50.5 -9.5 -69.5 -28.5s-28.5 -42.167 -28.5 -69.5s9.5 -50.5 28.5 -69.5
s42.167 -28.5 69.5 -28.5c24 0 46.5 4.5 67.5 13.5s39.333 21.333 55 37s28 34 37 55s13.5 43.5 13.5 67.5v85c0 24 -4.5 46.5 -13.5 67.5s-21.333 39.333 -37 55s-34 28 -55 37s-43.5 13.5 -67.5 13.5c-35.333 0 -67.666 -10 -96.999 -30l-26 26v10
c0 27.333 -9.5 50.5 -28.5 69.5s-42.167 28.5 -69.5 28.5v48c36 0 67.167 -11.167 93.5 -33.5s42.833 -50.5 49.5 -84.5c24.667 9.33301 50.667 14 78 14z" />
    <glyph glyph-name="seventhai" unicode="&#xf7;" horiz-adv-x="658" 
d="M550 631l48.0029 0.000976562v-535c0 -26.667 -9.33301 -49.334 -28 -68.001s-41.334 -28 -68.001 -28h-48v306v23v1c0 28 -6 53.667 -18 77s-28 43 -48 59l-107 -107l-107 107c-20 -16 -36 -35.667 -48 -59s-18 -49 -18 -77v-1v-23v-85c0 -24 4.5 -46.5 13.5 -67.5
s21.333 -39.333 37 -55s34 -28 55 -37s43.5 -13.5 67.5 -13.5v-48c-30.667 -0 -59.334 5.83301 -86.001 17.5s-50 27.5 -70 47.5s-35.833 43.333 -47.5 70s-17.5 55.334 -17.5 86.001v85v23v1c0 34 7.16699 65.667 21.5 95s33.833 54.333 58.5 75
c6 5.33301 12.5 10.333 19.5 15s14.167 8.66699 21.5 12l36 -36l64 -64l64 64l36 36c7.33301 -3.33301 14.5 -7.33301 21.5 -12s13.5 -9.66699 19.5 -15c24.667 -20.667 44.167 -45.667 58.5 -75s21.5 -61 21.5 -95v-1v-23v-258c13.333 0 24.666 4.66699 33.999 14
s14 20.666 14 33.999v535z" />
    <glyph glyph-name="seventhai" unicode="&#xe57;" horiz-adv-x="658" 
d="M550 631l48.0029 0.000976562v-535c0 -26.667 -9.33301 -49.334 -28 -68.001s-41.334 -28 -68.001 -28h-48v306v23v1c0 28 -6 53.667 -18 77s-28 43 -48 59l-107 -107l-107 107c-20 -16 -36 -35.667 -48 -59s-18 -49 -18 -77v-1v-23v-85c0 -24 4.5 -46.5 13.5 -67.5
s21.333 -39.333 37 -55s34 -28 55 -37s43.5 -13.5 67.5 -13.5v-48c-30.667 -0 -59.334 5.83301 -86.001 17.5s-50 27.5 -70 47.5s-35.833 43.333 -47.5 70s-17.5 55.334 -17.5 86.001v85v23v1c0 34 7.16699 65.667 21.5 95s33.833 54.333 58.5 75
c6 5.33301 12.5 10.333 19.5 15s14.167 8.66699 21.5 12l36 -36l64 -64l64 64l36 36c7.33301 -3.33301 14.5 -7.33301 21.5 -12s13.5 -9.66699 19.5 -15c24.667 -20.667 44.167 -45.667 58.5 -75s21.5 -61 21.5 -95v-1v-23v-258c13.333 0 24.666 4.66699 33.999 14
s14 20.666 14 33.999v535z" />
    <glyph glyph-name="eightthai" unicode="&#xf8;" 
d="M502 221v-23.001v-1c0 -34 -7.16699 -65.667 -21.5 -95s-33.833 -54.333 -58.5 -75c-6 -5.33301 -12.5 -10.333 -19.5 -15s-14.167 -8.66699 -21.5 -12l-36 36l-64 64l-64 -64l-36 -36c-7.33301 3.33301 -14.5 7.33301 -21.5 12s-13.5 9.66699 -19.5 15
c-24.667 20.667 -44.167 45.667 -58.5 75s-21.5 61 -21.5 95v1v23v86c0 30.667 5.83301 59.334 17.5 86.001s27.5 50 47.5 70s43.333 35.667 70 47s55.334 17 86.001 17c18 0 35.667 2.5 53 7.5s33.5 12.167 48.5 21.5s28.5 20.333 40.5 33s21.333 26.667 28 42h51
c-7.33301 -22 -18.333 -42.333 -33 -61s-31.834 -34.667 -51.501 -48s-41.167 -23.833 -64.5 -31.5s-47.333 -11.5 -72 -11.5c-24 0 -46.5 -4.5 -67.5 -13.5s-39.333 -21.333 -55 -37s-28 -34 -37 -55s-13.5 -43.5 -13.5 -67.5v-85v-2v-21v-1c0 -28 6 -53.667 18 -77
s28 -43 48 -59l107 107l107 -107c20 16 36 35.667 48 59s18 49 18 77v1v23h-63v48h111v-48z" />
    <glyph glyph-name="eightthai" unicode="&#xe58;" 
d="M502 221v-23.001v-1c0 -34 -7.16699 -65.667 -21.5 -95s-33.833 -54.333 -58.5 -75c-6 -5.33301 -12.5 -10.333 -19.5 -15s-14.167 -8.66699 -21.5 -12l-36 36l-64 64l-64 -64l-36 -36c-7.33301 3.33301 -14.5 7.33301 -21.5 12s-13.5 9.66699 -19.5 15
c-24.667 20.667 -44.167 45.667 -58.5 75s-21.5 61 -21.5 95v1v23v86c0 30.667 5.83301 59.334 17.5 86.001s27.5 50 47.5 70s43.333 35.667 70 47s55.334 17 86.001 17c18 0 35.667 2.5 53 7.5s33.5 12.167 48.5 21.5s28.5 20.333 40.5 33s21.333 26.667 28 42h51
c-7.33301 -22 -18.333 -42.333 -33 -61s-31.834 -34.667 -51.501 -48s-41.167 -23.833 -64.5 -31.5s-47.333 -11.5 -72 -11.5c-24 0 -46.5 -4.5 -67.5 -13.5s-39.333 -21.333 -55 -37s-28 -34 -37 -55s-13.5 -43.5 -13.5 -67.5v-85v-2v-21v-1c0 -28 6 -53.667 18 -77
s28 -43 48 -59l107 107l107 -107c20 16 36 35.667 48 59s18 49 18 77v1v23h-63v48h111v-48z" />
    <glyph glyph-name="ninethai" unicode="&#xf9;" horiz-adv-x="598" 
d="M598 631c-7.33301 -22 -18.333 -42.3291 -33 -60.9961s-31.834 -34.667 -51.501 -48s-41.167 -23.833 -64.5 -31.5s-47.333 -11.5 -72 -11.5c-17.333 -0.666992 -32.5 -6.5 -45.5 -17.5s-21.167 -24.833 -24.5 -41.5l152 -402l-44 -17l-154 404l-4 10l-4 12l-3 7
c-5.33301 13.333 -14.166 24.166 -26.499 32.499s-26.166 12.5 -41.499 12.5c-20.667 0 -38.167 -7.33301 -52.5 -22s-21.5 -32 -21.5 -52v-259c0 -27.333 9.5 -50.5 28.5 -69.5s42.167 -28.5 69.5 -28.5v-48c-20 0 -39 3.83301 -57 11.5s-33.5 18 -46.5 31
s-23.333 28.5 -31 46.5s-11.5 37 -11.5 57v259c0 16.667 3.16699 32.5 9.5 47.5s15 28 26 39s24 19.667 39 26s30.833 9.5 47.5 9.5c20 0 38.667 -4.5 56 -13.5s31.666 -21.167 42.999 -36.5c11.333 15.333 25.5 27.5 42.5 36.5s35.5 13.5 55.5 13.5
c17.333 0 34.666 2.66699 51.999 8s33.5 12.666 48.5 21.999s28.333 20.166 40 32.499s20.834 26.166 27.501 41.499h51v0z" />
    <glyph glyph-name="ninethai" unicode="&#xe59;" horiz-adv-x="598" 
d="M598 631c-7.33301 -22 -18.333 -42.3291 -33 -60.9961s-31.834 -34.667 -51.501 -48s-41.167 -23.833 -64.5 -31.5s-47.333 -11.5 -72 -11.5c-17.333 -0.666992 -32.5 -6.5 -45.5 -17.5s-21.167 -24.833 -24.5 -41.5l152 -402l-44 -17l-154 404l-4 10l-4 12l-3 7
c-5.33301 13.333 -14.166 24.166 -26.499 32.499s-26.166 12.5 -41.499 12.5c-20.667 0 -38.167 -7.33301 -52.5 -22s-21.5 -32 -21.5 -52v-259c0 -27.333 9.5 -50.5 28.5 -69.5s42.167 -28.5 69.5 -28.5v-48c-20 0 -39 3.83301 -57 11.5s-33.5 18 -46.5 31
s-23.333 28.5 -31 46.5s-11.5 37 -11.5 57v259c0 16.667 3.16699 32.5 9.5 47.5s15 28 26 39s24 19.667 39 26s30.833 9.5 47.5 9.5c20 0 38.667 -4.5 56 -13.5s31.666 -21.167 42.999 -36.5c11.333 15.333 25.5 27.5 42.5 36.5s35.5 13.5 55.5 13.5
c17.333 0 34.666 2.66699 51.999 8s33.5 12.666 48.5 21.999s28.333 20.166 40 32.499s20.834 26.166 27.501 41.499h51v0z" />
    <glyph glyph-name="angkhankhuthai" unicode="&#xfa;" horiz-adv-x="573" 
d="M349 495c21.333 -20.667 38.165 -44.6641 50.498 -71.9971s18.5 -57 18.5 -89v-1v-23v-531h-48v531v23v1c0 21.333 -3.66699 41.666 -11 60.999s-17.666 36.666 -30.999 51.999c-13.333 -20 -30.666 -36 -51.999 -48s-44.666 -18 -69.999 -18
c-20 0 -38.833 3.83301 -56.5 11.5s-33.167 18 -46.5 31s-23.833 28.5 -31.5 46.5s-11.5 37 -11.5 57h48c0 -27.333 9.5 -50.5 28.5 -69.5s42.167 -28.5 69.5 -28.5s50.5 9.5 69.5 28.5s28.5 42.167 28.5 69.5h1c6 -3.33301 11.667 -6.83301 17 -10.5
s10.666 -7.83398 15.999 -12.501c2 -1.33301 3.83301 -2.83301 5.5 -4.5s3.5 -3.16699 5.5 -4.5zM464.999 400.003h48v-620h-48v620z" />
    <glyph glyph-name="angkhankhuthai" unicode="&#xe5a;" horiz-adv-x="573" 
d="M349 495c21.333 -20.667 38.165 -44.6641 50.498 -71.9971s18.5 -57 18.5 -89v-1v-23v-531h-48v531v23v1c0 21.333 -3.66699 41.666 -11 60.999s-17.666 36.666 -30.999 51.999c-13.333 -20 -30.666 -36 -51.999 -48s-44.666 -18 -69.999 -18
c-20 0 -38.833 3.83301 -56.5 11.5s-33.167 18 -46.5 31s-23.833 28.5 -31.5 46.5s-11.5 37 -11.5 57h48c0 -27.333 9.5 -50.5 28.5 -69.5s42.167 -28.5 69.5 -28.5s50.5 9.5 69.5 28.5s28.5 42.167 28.5 69.5h1c6 -3.33301 11.667 -6.83301 17 -10.5
s10.666 -7.83398 15.999 -12.501c2 -1.33301 3.83301 -2.83301 5.5 -4.5s3.5 -3.16699 5.5 -4.5zM464.999 400.003h48v-620h-48v620z" />
    <glyph glyph-name="khomutthai" unicode="&#xfb;" horiz-adv-x="660" 
 />
    <glyph glyph-name="khomutthai" unicode="&#xe5b;" horiz-adv-x="660" 
 />
    <glyph glyph-name="saraulowthai" unicode="&#xfc;" horiz-adv-x="0" 
d="M-63 -320h3v-60v-136h-48v136v12h-46v48h46h45v0z" />
    <glyph glyph-name="saraulowthai" unicode="&#xf718;" horiz-adv-x="0" 
d="M-63 -320h3v-60v-136h-48v136v12h-46v48h46h45v0z" />
    <glyph glyph-name="sarauulowthai" unicode="&#xfd;" horiz-adv-x="0" 
d="M-60 -320l-0.00195312 -124c0 -20 -7 -37 -21 -51s-31 -21 -51 -21s-37 7 -51 21s-21 31 -21 51v76h-46v48h46h29h19v-124c0 -6.66699 2.33301 -12.334 7 -17.001s10.334 -7 17.001 -7s12.334 2.33301 17.001 7s7 10.334 7 17.001v124h48z" />
    <glyph glyph-name="sarauulowthai" unicode="&#xf719;" horiz-adv-x="0" 
d="M-60 -320l-0.00195312 -124c0 -20 -7 -37 -21 -51s-31 -21 -51 -21s-37 7 -51 21s-21 31 -21 51v76h-46v48h46h29h19v-124c0 -6.66699 2.33301 -12.334 7 -17.001s10.334 -7 17.001 -7s12.334 2.33301 17.001 7s7 10.334 7 17.001v124h48z" />
    <glyph glyph-name="phinthulowthai" unicode="&#xfe;" horiz-adv-x="0" 
d="M-60 -356c0 -10 -3.5 -18.5 -10.5 -25.5s-15.5 -10.5 -25.5 -10.5s-18.5 3.5 -25.5 10.5s-10.5 15.5 -10.5 25.5s3.5 18.5 10.5 25.5s15.5 10.5 25.5 10.5s18.5 -3.5 25.5 -10.5s10.5 -15.5 10.5 -25.5z" />
    <glyph glyph-name="phinthulowthai" unicode="&#xf71a;" horiz-adv-x="0" 
d="M-60 -356c0 -10 -3.5 -18.5 -10.5 -25.5s-15.5 -10.5 -25.5 -10.5s-18.5 3.5 -25.5 10.5s-10.5 15.5 -10.5 25.5s3.5 18.5 10.5 25.5s15.5 10.5 25.5 10.5s18.5 -3.5 25.5 -10.5s10.5 -15.5 10.5 -25.5z" />
    <glyph glyph-name="Naipol" unicode="&#xff;" horiz-adv-x="948" 
 />
    <glyph glyph-name="nptp3.001march2007r" unicode="&#xe3e;" horiz-adv-x="0" 
 />
    <glyph glyph-name="ZWSP" unicode="&#x200b;" horiz-adv-x="0" 
 />
    <glyph glyph-name="uni25CC" unicode="&#x25cc;" horiz-adv-x="512" 
d="M257 46c6 0 11.5 -2.16699 16.5 -6.5s7.5 -9.83301 7.5 -16.5c0 -6 -2.5 -11.333 -7.5 -16s-10.5 -7 -16.5 -7c-6.66699 -0 -12.167 2.33301 -16.5 7s-6.5 10 -6.5 16c0 6.66699 2.16699 12.167 6.5 16.5s9.83301 6.5 16.5 6.5zM441 233
c7.33301 0 13.167 -2.33301 17.5 -7s6.5 -10 6.5 -16c0 -6.66699 -2 -12.334 -6 -17.001s-10 -7 -18 -7c-6 0 -11.167 2.33301 -15.5 7s-6.5 10.334 -6.5 17.001c0 6 2.16699 11.333 6.5 16s9.5 7 15.5 7zM71.001 233c5.33301 0 10.5 -2.33301 15.5 -7s7.5 -10 7.5 -16
c0 -6.66699 -2.33301 -12.334 -7 -17.001s-10 -7 -16 -7c-6.66699 0 -12.334 2.33301 -17.001 7s-7 10.334 -7 17.001c0 6 2.33301 11.333 7 16s10.334 7 17.001 7zM257.001 418c6 0 11.5 -2.16699 16.5 -6.5s7.5 -9.5 7.5 -15.5c0 -6.66699 -2.5 -12.167 -7.5 -16.5
s-10.5 -6.5 -16.5 -6.5c-6.66699 0 -12.167 2.16699 -16.5 6.5s-6.5 9.83301 -6.5 16.5c0 6 2.16699 11.167 6.5 15.5s9.83301 6.5 16.5 6.5zM126.001 363c6.66699 0 12.334 -2 17.001 -6s7 -10 7 -18c0 -6 -2.33301 -11.333 -7 -16s-10.334 -7 -17.001 -7
c-6 0 -11.333 2.33301 -16 7s-7 10 -7 16c0 8 2.33301 14 7 18s10 6 16 6zM387.001 363c6 0 11.333 -2 16 -6s7 -10 7 -18c0 -6 -2.16699 -11.333 -6.5 -16s-9.83301 -7 -16.5 -7s-12.334 2.33301 -17.001 7s-7 10 -7 16c0 8 2.33301 14 7 18s10.334 6 17.001 6z
M387.001 102c6 0 11.333 -2.16699 16 -6.5s7 -9.83301 7 -16.5s-2.16699 -12.167 -6.5 -16.5s-9.83301 -6.5 -16.5 -6.5s-12.334 2.16699 -17.001 6.5s-7 9.83301 -7 16.5s2.33301 12.167 7 16.5s10.334 6.5 17.001 6.5zM126.001 102c6.66699 0 12.334 -2.16699 17.001 -6.5
s7 -9.83301 7 -16.5s-2.33301 -12.167 -7 -16.5s-10.334 -6.5 -17.001 -6.5c-6 0 -11.333 2.16699 -16 6.5s-7 9.83301 -7 16.5s2.33301 12.167 7 16.5s10 6.5 16 6.5z" />
    <glyph glyph-name=".null" horiz-adv-x="0" 
 />
    <glyph glyph-name="nonmarkingreturn" horiz-adv-x="283" 
 />
    <glyph glyph-name="lochula.short" 
d="M502 185c0 -33.333 -7 -64.1709 -21 -92.5039s-32.667 -52.5 -56 -72.5c0 -0.666992 -0.333008 -1 -1 -1l-1 -1c-4 -3.33301 -8.16699 -6.5 -12.5 -9.5l-12.5 -8.5l-16 57l-101 370l-101 -370l-16 -57l-12.5 8.5c-4.33301 3 -8.5 6.16699 -12.5 9.5l-2 2v-1
c0 0.666992 -0.333008 1 -1 1c-23.333 20 -41.833 44.333 -55.5 73s-20.5 59.334 -20.5 92.001v1v23v422h48v-422v-23v-1c0 -36 10.333 -68.333 31 -97l117 430h50l117 -430c20.667 28.667 31 61 31 97v1v23v201c0 19.333 -6.83301 35.833 -20.5 49.5
s-30.167 20.5 -49.5 20.5v48c19.333 0 35.833 7 49.5 21s20.5 30.667 20.5 50v32h48v-32c0 -19.333 -4.33301 -37.166 -13 -53.499s-20 -30.166 -34 -41.499c14 -10.667 25.333 -24.167 34 -40.5s13 -34.166 13 -53.499v-201v-23v-1z" />
    <glyph glyph-name="saraamleft" horiz-adv-x="503" 
d="M443 0h-49.001v410c0 24 -4.5 46.5 -13.5 67.5s-21.333 39.333 -37 55s-34 28 -55 37s-43.5 13.5 -67.5 13.5s-46.5 -4.5 -67.5 -13.5s-39.333 -21.333 -55 -37s-28 -34 -37 -55s-13.5 -43.5 -13.5 -67.5h-48c0 30.667 5.83301 59.334 17.5 86.001s27.5 50 47.5 70
s43.333 35.833 70 47.5s55.334 17.5 86.001 17.5s59.5 -5.83301 86.5 -17.5s50.5 -27.5 70.5 -47.5s35.833 -43.333 47.5 -70s17.5 -55.334 17.5 -86.001v-410zM-227.001 853c20 0 37 -7 51 -21s21 -31 21 -51s-7 -37 -21 -51s-31 -21 -51 -21s-37 7 -51 21s-21 31 -21 51
s7 37 21 51s31 21 51 21zM-227.001 758c7.33301 0 13.166 2.33301 17.499 7s6.5 10.334 6.5 17.001s-2.16699 12.334 -6.5 17.001s-10.166 7 -17.499 7c-6.66699 0 -12.334 -2.33301 -17.001 -7s-7 -10.334 -7 -17.001s2.33301 -12.334 7 -17.001s10.334 -7 17.001 -7z" />
    <glyph glyph-name="yamakkanleftthai" horiz-adv-x="0" 
d="M-266 612c-10 8 -14.9951 17.6689 -14.9951 29.002c0 10.667 3.66699 20.834 11 30.501s16.666 18 27.999 25s24.166 12.5 38.499 16.5s28.5 6 42.5 6c10.667 0 21.167 -0.833008 31.5 -2.5s20.5 -4.16699 30.5 -7.5l10 -4v-32c-8.66699 2.66699 -16 5.16699 -22 7.5
s-11.667 4 -17 5s-10.5 1.83301 -15.5 2.5s-10.833 1 -17.5 1c-8.66699 0 -18.334 -1.33301 -29.001 -4s-20.5 -6.33398 -29.5 -11.001s-16.5 -9.83398 -22.5 -15.501s-9 -11.5 -9 -17.5c0 -8 12.333 -15 37 -21l12 -4v-25h-16c-0.666992 0 -2 0.166992 -4 0.5
s-4 0.5 -6 0.5c-6.66699 0 -13.667 -1.66699 -21 -5s-13.833 -7.5 -19.5 -12.5s-10.334 -10 -14.001 -15s-5.5 -9.16699 -5.5 -12.5c0 -10.667 4.66699 -19.334 14 -26.001s20.666 -10 33.999 -10c28 0 47.333 10 58 30l4 8h32l-10 -22c-16.667 -30.667 -44.667 -46 -84 -46
c-11.333 0 -21.833 1.66699 -31.5 5s-18 8 -25 14s-12.5 13 -16.5 21s-6 16.667 -6 26c0 26 17.667 47.667 53 65z" />
  </font>
</defs>
</svg>
