<?xml version="1.0" standalone="no"?>
<!DOCTYPE svg PUBLIC "-//W3C//DTD SVG 1.1//EN" "http://www.w3.org/Graphics/SVG/1.1/DTD/svg11.dtd" >
<svg xmlns="http://www.w3.org/2000/svg">
<metadata></metadata>
<defs>
<font id="arialregular" horiz-adv-x="1536" >
<font-face units-per-em="2048" ascent="1638" descent="-410" />
<missing-glyph horiz-adv-x="569" />
<glyph unicode="&#x651;&#x64b;" horiz-adv-x="433" d="M70 1345q0 26 8 55q5 18 19 54l21 8q0 -8 -2 -26t-2 -30q0 -22 9 -39.5t27 -17.5q43 0 69 56q12 25 30 100l21 7q9 -49 13 -60q12 -32 40 -32q38 0 60 50q18 41 18 86l21 6q4 -19 7.5 -43.5t3.5 -41.5q0 -76 -26 -124q-29 -54 -80 -54q-17 0 -33.5 6.5t-33.5 18.5 q-20 -34 -39 -53q-32 -32 -67 -32q-41 0 -62.5 28.5t-21.5 77.5zM70 1521q0 43 44 83q83 35 298 125q0 -48 -13.5 -59.5t-36.5 -31.5q-92 -37 -292 -117zM70 1673q0 43 44 83q83 35 298 123q0 -46 -51 -89q-91 -37 -291 -117z" />
<glyph unicode="&#x651;&#x64c;" horiz-adv-x="463" arabic-form="isolated" d="M48 1640q7 71 18 101q20 55 66 55q34 0 53 -33.5t19 -75.5q0 -17 -3.5 -34.5t-11.5 -50.5q69 20 133 66q-32 32 -41 44q-18 24 -18 51q0 47 37 92q46 55 96 56q29 -1 48 -20t14 -78q-4 -23 -10.5 -46.5t-28.5 -58.5q15 -12 23.5 -22.5t8.5 -23.5q0 -18 -1.5 -39.5 t-5.5 -47.5l-86 67q-46 -54 -104 -84q-71 -36 -158 -36l36 60q20 37 20 66q0 22 -10 41t-29 19q-21 0 -39 -24zM70 1345q0 26 7 51t20 58l21 8q0 -8 -2 -26t-2 -30q0 -22 9 -39.5t27 -17.5q43 0 69 56q12 25 30 101l21 6q8 -49 13 -60q12 -31 40 -31q38 0 60 50q18 41 18 85 l21 6q4 -19 7.5 -43.5t3.5 -42.5q0 -75 -26 -123q-29 -54 -80 -54q-18 0 -33 6t-34 19q-20 -34 -39 -53q-32 -32 -67 -32q-42 0 -63 28t-21 78zM326 1819q0 -18 18 -38q5 -6 35 -33q13 17 13 38q0 24 -11.5 43t-23.5 19q-19 0 -25 -8.5t-6 -20.5z" />
<glyph unicode="&#x651;&#x64d;" horiz-adv-x="433" arabic-form="isolated" d="M70 1636q0 25 8 54q5 18 19 54l21 8q0 -8 -2 -26t-2 -30q0 -23 8.5 -39.5t27.5 -16.5q43 0 69 56q13 27 30 100l21 6q9 -49 13 -60q12 -32 40 -32q38 0 60 50q18 41 18 86l21 7q4 -24 7.5 -46t3.5 -40q0 -76 -26 -124q-29 -53 -80 -53q-17 0 -33.5 6.5t-33.5 18.5 q-19 -34 -39 -53q-32 -31 -67 -31q-42 0 -63 28t-21 77zM76 1239q0 43 43 84q84 35 299 125q0 -47 -51 -92q-90 -36 -291 -117zM76 1364q0 44 43 85q84 34 299 122q0 -46 -52 -90q-89 -35 -290 -117z" />
<glyph unicode="&#x651;&#x64e;" horiz-adv-x="433" arabic-form="isolated" d="M70 1345q0 26 8 55q5 18 19 54l21 8q0 -8 -2 -26t-2 -30q0 -22 9 -39.5t27 -17.5q43 0 69 56q12 25 30 101l21 6q8 -49 13 -60q12 -31 40 -31q38 0 60 50q18 41 18 85l21 6q4 -19 7.5 -43.5t3.5 -42.5q0 -75 -26 -123q-29 -54 -80 -54q-17 0 -33.5 6.5t-33.5 18.5 q-20 -34 -39 -53q-32 -32 -67 -32q-42 0 -63 28t-21 78zM76 1514q0 42 45 83q82 34 297 124q0 -46 -52 -92q-89 -35 -290 -115z" />
<glyph unicode="&#x651;&#x64f;" horiz-adv-x="433" arabic-form="isolated" d="M64 1522q76 34 107 49q48 23 106 56q-23 22 -34 37q-17 23 -17 46q0 43 35.5 85.5t80.5 42.5q29 0 52.5 -20.5t23.5 -49.5q0 -21 -10 -44q-3 -7 -23 -42q32 -15 38 -26q10 -17 10 -71q-35 0 -74 9q-8 2 -43 12q-57 -49 -80 -63q-60 -38 -116 -38q-14 0 -27.5 4.5 t-28.5 12.5zM70 1347q0 26 8 55q5 18 19 54l21 8q0 -8 -2 -26t-2 -30q0 -22 9 -39.5t27 -17.5q43 0 69 56q12 25 30 100l21 7q9 -50 13 -61q12 -31 40 -31q38 0 60 50q18 41 18 86l21 6q4 -20 7.5 -44.5t3.5 -41.5q0 -75 -26 -123q-29 -54 -80 -54q-17 0 -33.5 6.5 t-33.5 18.5q-20 -34 -39 -53q-32 -32 -67 -32q-42 0 -63 28t-21 78zM287 1775q0 -21 10 -35.5t45 -33.5q3 7 6.5 16t3.5 15q0 21 -15 41t-37 20q-7 0 -10 -7t-3 -16z" />
<glyph unicode="&#x651;&#x650;" horiz-adv-x="433" arabic-form="isolated" d="M70 1532q0 25 8 54q5 18 19 53l21 9q0 -9 -2 -27t-2 -30q0 -22 9 -38.5t27 -16.5q43 0 69 55q12 26 30 100l21 6q8 -49 13 -60q12 -31 40 -31q38 0 60 50q18 41 18 85l21 6q4 -19 7.5 -43.5t3.5 -42.5q0 -75 -26 -122q-29 -53 -80 -53q-18 0 -33 6t-34 19 q-20 -34 -39 -53q-32 -32 -67 -32q-42 0 -63 28t-21 78zM76 1239q0 43 44 83q83 35 298 125q0 -47 -51 -92q-90 -36 -291 -116z" />
<glyph unicode="&#xfedf;&#xfee0;&#xfeea;" horiz-adv-x="1262" arabic-form="isolated" d="M21 352q0 84 114 190.5t278 182.5q-4 15 -9.5 41t-5.5 41q0 34 23 76q19 34 51 72q13 -82 27 -164q21 -123 43 -229q12 -55 45.5 -79t90.5 -24q46 0 71.5 12.5t64.5 72.5l-59 273q-7 32 -10 52q-7 39 -7 56q0 35 23 77q19 34 51 71q9 -51 20.5 -110.5t34.5 -173.5 l36 -172q16 -73 48 -111q39 -46 105 -46q28 0 45.5 22.5t22.5 61.5l-58 273q-7 42 -9 52q-7 41 -7 56q0 34 23 77q20 37 49 71q4 -25 34 -160q36 -164 52 -248q27 -142 27 -191q0 -37 -5 -68q-8 -50 -28 -88l-13 -25q-119 0 -195 35q-61 28 -107 87q-40 -68 -96 -97 q-48 -25 -111 -25q-65 0 -126.5 38t-83.5 98q-40 -59 -96 -97.5t-109 -38.5q-112 0 -178 16.5t-66 42.5zM209 457q22 -9 49.5 -14t77.5 -5q28 0 58 16.5t55 45.5l-19 111q-88 -32 -134 -63q-52 -35 -87 -91zM582 1174q0 18 4 40.5t6 34.5l30 12q0 -48 14.5 -65.5t46.5 -17.5 q21 0 44.5 42.5t29.5 82.5l23 6q11 -40 17 -47q14 -19 52 -19q27 0 46 41q12 27 20 65l25 6q5 -20 5 -40q0 -72 -26.5 -125.5t-67.5 -53.5q-23 0 -41.5 5.5t-41.5 18.5q-12 -30 -37 -54q-32 -31 -65 -31q-42 0 -63 27t-21 72zM601 1526q9 42 46 42t58 -36q31 -57 36 -69 q17 -42 24 -102l-21 -8q-25 61 -76 114q-13 14 -67 59z" />
<glyph unicode="&#xfedf;&#xfe82;" horiz-adv-x="1114" arabic-form="isolated" d="M64 1628q25 36 36 45q23 20 61 20q9 0 109 -32q50 -16 83 -16q53 0 105 23l14 -14q-28 -32 -57 -49q-41 -24 -89 -24q-50 0 -95 15q-99 33 -105 33q-12 0 -24 -3.5t-27 -10.5zM83 1316q0 62 8 97q12 53 41 53q41 0 119 -78q69 -70 154 -184q75 -101 148 -218l102 -164 q45 -74 92 -168q67 135 92 273q22 120 22 306l-57 33q0 66 11.5 119.5t32.5 97.5l23 -6q4 -43 48 -69q24 -14 61.5 -32t57.5 -26l-48 -180l-59 29l2 -91q0 -134 -34 -260q-37 -138 -117 -273q38 -70 53 -110q23 -63 23 -128q0 -37 -2 -63t-9 -61q-106 -24 -226.5 -37.5 t-234.5 -13.5q1 19 1 32q5 76 24 141q170 91 287 236q-70 132 -102 187q-35 60 -119 187q-31 43 -55 69q-33 35 -52 35q-13 0 -43 -15q-16 -8 -27 -8q-22 0 -69 44q-41 39 -86 96q-36 46 -49 76.5t-13 73.5zM525 323q118 0 168 7q85 12 85 47q0 22 -8.5 45.5t-37.5 77.5 q-30 -39 -89.5 -90t-117.5 -87z" />
<glyph unicode="&#xfee0;&#xfe82;" horiz-adv-x="1230" arabic-form="final" d="M64 1628q25 36 36 45q23 20 61 20q9 0 109 -32q50 -16 83 -16q53 0 105 23l14 -14q-28 -32 -57 -49q-41 -24 -89 -24q-50 0 -95 15q-99 33 -105 33q-12 0 -24 -3.5t-27 -10.5zM65 242v28q269 81 401 140q213 94 323 217q133 148 133 351q0 98 -12.5 183t-34.5 174l33 84 q20 49 37 83q26 -144 49 -311q16 -115 31 -247q19 -162 33 -261q18 -126 54 -180q24 -36 48 -36h131v-174h-131q-84 0 -135 91q-61 110 -61 333q0 16 -3.5 43t-3.5 34q-96 -267 -171 -366q-89 -116 -251 -154q-138 -32 -470 -32zM111 1403q0 63 41 63q72 0 225 -91 q171 -101 287 -236q143 -165 143 -323q0 -20 -2 -34t-10 -35q-56 125 -166 258q-122 147 -192 147q-15 0 -30 -26t-35 -26q-27 0 -85 35q-73 44 -117 102q-59 78 -59 166z" />
<glyph unicode="&#xfedf;&#xfe84;" horiz-adv-x="1114" arabic-form="isolated" d="M38 1501q0 46 100 81q-31 16 -47 31q-21 19 -21 40q0 31 53 87q59 62 104 62q20 0 34.5 -13.5t14.5 -35.5q0 -14 -6 -28.5t-17 -32.5q-31 28 -67 28q-22 0 -43.5 -9t-21.5 -21q0 -15 46.5 -41t79.5 -26q22 0 31.5 1.5t39.5 13.5q0 -25 -31 -45q-21 -13 -63 -28zM83 1316 q0 62 8 97q12 53 41 53q41 0 119 -78q69 -70 154 -184q75 -101 148 -218l102 -164q45 -74 92 -168q67 135 92 273q22 120 22 306l-57 33q0 66 11.5 119.5t32.5 97.5l23 -6q4 -43 48 -69q24 -14 61.5 -32t57.5 -26l-48 -180l-59 29l2 -91q0 -134 -34 -260q-37 -138 -117 -273 q38 -70 53 -110q23 -63 23 -128q0 -37 -2 -63t-9 -61q-106 -24 -226.5 -37.5t-234.5 -13.5q1 19 1 32q5 76 24 141q170 91 287 236q-70 132 -102 187q-35 60 -119 187q-31 43 -55 69q-33 35 -52 35q-13 0 -43 -15q-16 -8 -27 -8q-22 0 -69 44q-41 39 -86 96q-36 46 -49 76.5 t-13 73.5zM525 323q118 0 168 7q85 12 85 47q0 22 -8.5 45.5t-37.5 77.5q-30 -39 -89.5 -90t-117.5 -87z" />
<glyph unicode="&#xfee0;&#xfe84;" horiz-adv-x="1230" arabic-form="final" d="M48 1501q0 46 100 81q-31 16 -47 31q-21 19 -21 40q0 31 53 87q59 62 104 62q20 0 34.5 -13.5t14.5 -35.5q0 -14 -6 -28.5t-17 -32.5q-31 28 -67 28q-22 0 -43.5 -9t-21.5 -21q0 -15 46.5 -41t79.5 -26q22 0 31.5 1.5t39.5 13.5q0 -25 -31 -45q-21 -13 -63 -28zM65 242 v28q269 81 401 140q213 94 323 217q133 148 133 351q0 98 -12.5 183t-34.5 174l33 84q20 49 37 83q26 -144 49 -311q16 -115 31 -247q19 -162 33 -261q18 -126 54 -180q24 -36 48 -36h131v-174h-131q-84 0 -135 91q-61 110 -61 333q0 16 -3.5 43t-3.5 34q-96 -267 -171 -366 q-89 -116 -251 -154q-138 -32 -470 -32zM111 1403q0 63 41 63q72 0 225 -91q171 -101 287 -236q143 -165 143 -323q0 -20 -2 -34t-10 -35q-56 125 -166 258q-122 147 -192 147q-15 0 -30 -26t-35 -26q-27 0 -85 35q-73 44 -117 102q-59 78 -59 166z" />
<glyph unicode="&#xfedf;&#xfe88;" horiz-adv-x="1114" arabic-form="isolated" d="M83 1316q0 62 8 97q12 53 41 53q41 0 119 -78q69 -70 154 -184q75 -101 148 -218l102 -164q45 -74 92 -168q67 135 92 273q22 120 22 306l-57 33q0 66 11.5 119.5t32.5 97.5l23 -6q4 -43 48 -69q24 -14 61.5 -32t57.5 -26l-48 -180l-59 29l2 -91q0 -134 -34 -260 q-37 -138 -117 -273q38 -70 53 -110q23 -63 23 -128q0 -37 -2 -63t-9 -61q-106 -24 -226.5 -37.5t-234.5 -13.5q1 19 1 32q5 76 24 141q170 91 287 236q-70 132 -102 187q-35 60 -119 187q-31 43 -55 69q-33 35 -52 35q-13 0 -43 -15q-16 -8 -27 -8q-22 0 -69 44 q-41 39 -86 96q-36 46 -49 76.5t-13 73.5zM343 -227q0 46 100 81q-31 16 -47 31q-21 19 -21 40q0 31 53 87q59 62 104 62q20 0 34.5 -13.5t14.5 -35.5q0 -14 -6 -28.5t-17 -32.5q-31 28 -67 28q-22 0 -43.5 -9t-21.5 -21q0 -15 46.5 -41t79.5 -26q22 0 31.5 1.5t39.5 13.5 q0 -25 -31 -45q-21 -13 -63 -28zM525 323q118 0 168 7q85 12 85 47q0 22 -8.5 45.5t-37.5 77.5q-30 -39 -89.5 -90t-117.5 -87z" />
<glyph unicode="&#xfee0;&#xfe88;" horiz-adv-x="1230" arabic-form="final" d="M65 242v28q269 81 401 140q213 94 323 217q133 148 133 351q0 98 -12.5 183t-34.5 174l33 84q20 49 37 83q26 -144 49 -311q16 -115 31 -247q19 -162 33 -261q18 -126 54 -180q24 -36 48 -36h131v-174h-131q-84 0 -135 91q-61 110 -61 333q0 16 -3.5 43t-3.5 34 q-96 -267 -171 -366q-89 -116 -251 -154q-138 -32 -470 -32zM111 1403q0 63 41 63q72 0 225 -91q171 -101 287 -236q143 -165 143 -323q0 -20 -2 -34t-10 -35q-56 125 -166 258q-122 147 -192 147q-15 0 -30 -26t-35 -26q-27 0 -85 35q-73 44 -117 102q-59 78 -59 166z M184 -227q0 46 100 81q-31 16 -47 31q-21 19 -21 40q0 31 53 87q59 62 104 62q20 0 34.5 -13.5t14.5 -35.5q0 -14 -6 -28.5t-17 -32.5q-31 28 -67 28q-22 0 -43.5 -9t-21.5 -21q0 -15 46.5 -41t79.5 -26q22 0 31.5 1.5t39.5 13.5q0 -25 -31 -45q-21 -13 -63 -28z" />
<glyph unicode="&#xfedf;&#xfe8e;" horiz-adv-x="1114" arabic-form="isolated" d="M83 1316q0 62 8 97q12 53 41 53q41 0 119 -78q69 -70 154 -184q75 -101 148 -218l102 -164q45 -74 92 -168q67 135 92 273q22 120 22 306l-57 33q0 66 11.5 119.5t32.5 97.5l23 -6q4 -43 48 -69q24 -14 61.5 -32t57.5 -26l-48 -180l-59 29l2 -91q0 -134 -34 -260 q-37 -138 -117 -273q38 -70 53 -110q23 -63 23 -128q0 -37 -2 -63t-9 -61q-106 -24 -226.5 -37.5t-234.5 -13.5q1 19 1 32q5 76 24 141q170 91 287 236q-70 132 -102 187q-35 60 -119 187q-31 43 -55 69q-33 35 -52 35q-13 0 -43 -15q-16 -8 -27 -8q-22 0 -69 44 q-41 39 -86 96q-36 46 -49 76.5t-13 73.5zM525 323q118 0 168 7q85 12 85 47q0 22 -8.5 45.5t-37.5 77.5q-30 -39 -89.5 -90t-117.5 -87z" />
<glyph unicode="&#xfee0;&#xfe8e;" horiz-adv-x="1230" arabic-form="final" d="M65 242v28q269 81 401 140q213 94 323 217q133 148 133 351q0 98 -12.5 183t-34.5 174l33 84q20 49 37 83q26 -144 49 -311q16 -115 31 -247q19 -162 33 -261q18 -126 54 -180q24 -36 48 -36h131v-174h-131q-84 0 -135 91q-61 110 -61 333q0 16 -3.5 43t-3.5 34 q-96 -267 -171 -366q-89 -116 -251 -154q-138 -32 -470 -32zM111 1403q0 63 41 63q72 0 225 -91q171 -101 287 -236q143 -165 143 -323q0 -20 -2 -34t-10 -35q-56 125 -166 258q-122 147 -192 147q-15 0 -30 -26t-35 -26q-27 0 -85 35q-73 44 -117 102q-59 78 -59 166z" />
<glyph unicode="&#x67e;" horiz-adv-x="1461" arabic-form="final" d="M128 623q0 93 42 190q15 35 72 133l30 -19q-22 -46 -43 -92q-29 -71 -29 -127q0 -118 124 -183q111 -58 281 -58h847v27q0 112 -27 182.5t-92 120.5l77 163q44 -55 53 -69q68 -112 68 -326v-272h-954q-192 0 -306 67q-143 84 -143 263zM620 -95l78 144l162 -86l-75 -143z M817 -273l77 146l160 -86l-74 -146zM850 -5l76 145l162 -84l-74 -145z" />
<glyph unicode="&#x67e;" horiz-adv-x="500" arabic-form="initial" d="M-3 -95l78 144l162 -86l-75 -143zM1 293v174h497q0 118 -28 180q-19 43 -94 124l78 163q72 -91 90 -142q27 -77 27 -255v-244h-570zM194 -273l77 146l160 -86l-74 -146zM227 -5l76 145l162 -84l-74 -145z" />
<glyph unicode="&#x67e;" horiz-adv-x="500" arabic-form="medial" d="M-3 -95l78 144l162 -86l-75 -143zM1 293v174h497q0 118 -28 180q-19 43 -94 124l78 163q72 -91 90 -142q27 -77 27 -255v-244h-570zM194 -273l77 146l160 -86l-74 -146zM227 -5l76 145l162 -84l-74 -145z" />
<glyph unicode="&#x686;" horiz-adv-x="1077" arabic-form="final" d="M54 80q0 171 85 299q66 100 193 183q37 25 206 115q-40 5 -84.5 8.5t-80.5 3.5q-101 0 -164 -9q-21 -3 -131 -27q34 98 71 136q83 84 260 84q97 0 210 -18.5t190 -18.5q51 0 99.5 4t101.5 11l-40 -170q-41 -5 -93 -14q-33 -6 -91 -17l-2 -56q0 -82 50 -110 q31 -17 106 -17h207v-174h-207q-121 0 -172 45t-51 149q0 39 10 97q4 22 11 58q-171 -52 -258 -89q-160 -68 -248 -154q-111 -108 -111 -246q0 -215 224 -323q195 -94 521 -94h184l6 -11l-226 -159h-58q-216 0 -359 40q-171 48 -259 154q-100 121 -100 320zM252 97l78 144 l162 -86l-75 -143zM449 -81l77 146l160 -86l-74 -146zM482 187l76 145l162 -84l-74 -145z" />
<glyph unicode="&#x686;" horiz-adv-x="1085" arabic-form="initial" d="M0 293v174h805q-102 79 -172 123q-87 55 -159 80q-81 28 -164 28q-51 0 -103 -7q29 74 76 119q68 65 172 65q102 0 241 -100q69 -50 225 -190q121 -109 164 -118h60v-174h-1145zM298 -95l78 144l162 -86l-75 -143zM495 -273l77 146l160 -86l-74 -146zM528 -5l76 145 l162 -84l-74 -145z" />
<glyph unicode="&#x686;" horiz-adv-x="1085" arabic-form="medial" d="M0 293v174h805q-102 79 -172 123q-87 55 -159 80q-81 28 -164 28q-51 0 -103 -7q29 74 76 119q68 65 172 65q102 0 241 -100q69 -50 225 -190q121 -109 164 -118h60v-174h-1145zM298 -95l78 144l162 -86l-75 -143zM495 -273l77 146l160 -86l-74 -146zM528 -5l76 145 l162 -84l-74 -145z" />
<glyph unicode="&#x698;" horiz-adv-x="1001" arabic-form="final" d="M144 -65l17 40q66 -13 137.5 -26.5t129.5 -13.5q128 0 267 82q126 75 215 189.5t89 206.5q0 79 -46 166q-37 70 -104 144l57 157q82 -76 121 -152q44 -86 44 -192v-243q0 -110 -94 -228q-82 -104 -204 -179q-116 -72 -191 -72q-69 0 -149 20q-61 15 -146 47 q-72 27 -143 54zM577 1066l74 145l164 -84l-76 -145zM611 1335l74 146l163 -86l-77 -146zM805 1159l75 143l165 -85l-78 -144z" />
<glyph unicode="&#x6a9;" horiz-adv-x="1663" arabic-form="isolated" d="M90 558q0 88 47 200q13 31 55 115l34 -20q-34 -78 -44.5 -120t-10.5 -80q0 -109 115 -153q86 -33 252 -33h1079q-70 106 -160 184.5t-243 169.5l-33 -31l-118 90q-62 52 -62 81q0 172 84 270q78 90 269 162l282 110v-173l-209 -70q-125 -41 -202 -75q-98 -43 -98 -66 t64 -71q40 -30 81 -60q152 -115 265 -241q122 -135 196 -280v-174h-1195q-239 0 -340 57q-108 61 -108 208z" />
<glyph unicode="&#x6a9;" horiz-adv-x="1910" arabic-form="final" d="M90 558q0 88 47 200q13 31 55 115l34 -20q-34 -78 -44.5 -120t-10.5 -80q0 -109 115 -153q86 -33 252 -33h426q159 0 267 41q129 49 129 138q0 67 -49 113q-25 24 -97 62l-33 -31l-118 90q-62 52 -62 81q0 172 84 270q78 90 269 162l282 110v-173l-209 -70 q-171 -58 -241 -93q-59 -30 -59 -48q0 -23 64 -71q40 -30 81 -60q88 -67 159 -132q61 -56 114 -116q33 -37 106 -127q47 -57 92 -95q61 -51 106 -51h131v-174h-123q-82 0 -172 84q-44 41 -125 146q-49 63 -60 76q-25 30 -76 79q0 -178 -111 -278q-119 -107 -354 -107h-421 q-239 0 -340 57q-108 61 -108 208z" />
<glyph unicode="&#x6a9;" horiz-adv-x="807" arabic-form="initial" d="M0 293v174h761q-70 106 -160 184.5t-243 169.5l-33 -31l-118 90q-62 52 -62 81q0 172 84 270q78 90 269 162l282 110v-173l-209 -70q-125 -41 -202 -75q-98 -43 -98 -66t64 -71q40 -30 81 -60q152 -115 265 -241q122 -135 196 -280v-174h-877z" />
<glyph unicode="&#x6a9;" horiz-adv-x="1054" arabic-form="medial" d="M0 293v174h108q159 0 267 41q129 49 129 138q0 67 -49 113q-25 24 -97 62l-33 -31l-118 90q-62 52 -62 81q0 172 84 270q78 90 269 162l282 110v-173l-209 -70q-125 -41 -202 -75q-98 -43 -98 -66t64 -71q40 -30 81 -60q88 -67 159 -132q61 -56 114 -116q33 -37 106 -127 q47 -57 92 -95q61 -51 106 -51h131v-174h-123q-82 0 -172 84q-44 41 -125 146q-49 63 -60 76q-25 30 -76 79q0 -178 -111 -278q-119 -107 -354 -107h-103z" />
<glyph unicode="&#x6af;" horiz-adv-x="1910" arabic-form="final" d="M90 558q0 88 47 200q13 31 55 115l34 -20q-34 -78 -44.5 -120t-10.5 -80q0 -109 115 -153q86 -33 252 -33h426q159 0 267 41q129 49 129 138q0 67 -49 113q-25 24 -97 62l-33 -31l-118 90q-62 52 -62 81q0 172 84 270q78 90 269 162l282 110v-173l-209 -70 q-171 -58 -241 -93q-59 -30 -59 -48q0 -23 64 -71q40 -30 81 -60q88 -67 159 -132q61 -56 114 -116q33 -37 106 -127q47 -57 92 -95q61 -51 106 -51h131v-174h-123q-82 0 -172 84q-44 41 -125 146q-49 63 -60 76q-25 30 -76 79q0 -178 -111 -278q-119 -107 -354 -107h-421 q-239 0 -340 57q-108 61 -108 208zM980 1298v106q32 36 128 99t230 133q150 79 298 140v-169q-216 -79 -400 -168q-163 -78 -256 -141z" />
<glyph unicode="&#x6af;" horiz-adv-x="807" arabic-form="initial" d="M0 293v174h761q-70 106 -160 184.5t-243 169.5l-33 -31l-118 90q-62 52 -62 81q0 172 84 270q78 90 269 162l282 110v-173l-209 -70q-125 -41 -202 -75q-98 -43 -98 -66t64 -71q40 -30 81 -60q152 -115 265 -241q122 -135 196 -280v-174h-877zM124 1316v106q32 36 128 99 t230 133q150 79 298 140v-169q-216 -79 -400 -168q-163 -78 -256 -141z" />
<glyph unicode="&#x6af;" horiz-adv-x="1054" arabic-form="medial" d="M0 293v174h108q159 0 267 41q129 49 129 138q0 67 -49 113q-25 24 -97 62l-33 -31l-118 90q-62 52 -62 81q0 172 84 270q78 90 269 162l282 110v-173l-209 -70q-125 -41 -202 -75q-98 -43 -98 -66t64 -71q40 -30 81 -60q88 -67 159 -132q61 -56 114 -116q33 -37 106 -127 q47 -57 92 -95q61 -51 106 -51h131v-174h-123q-82 0 -172 84q-44 41 -125 146q-49 63 -60 76q-25 30 -76 79q0 -178 -111 -278q-119 -107 -354 -107h-103zM124 1316v106q32 36 128 99t230 133q150 79 298 140v-169q-216 -79 -400 -168q-163 -78 -256 -141z" />
<glyph unicode="&#x6cc;" horiz-adv-x="1307" arabic-form="isolated" d="M50 206q0 104 34 218q26 87 72 182q3 6 63 119l42 -17q-63 -112 -96.5 -209.5t-33.5 -172.5q0 -122 84.5 -183t241.5 -61q120 0 279 48q136 41 245 98t109 84q0 19 -12.5 25t-40.5 6h-234q-43 0 -76 31t-33 80q0 67 55 182q60 125 145 209q102 101 205 101q66 0 104 -40 t38 -106q0 -32 -6 -65.5t-8 -47.5q-35 45 -83.5 71t-98.5 26q-87 0 -183 -101q-88 -93 -88 -148q0 -19 21.5 -28.5t74.5 -9.5h80q72 0 106.5 -1.5t82.5 -9.5t48 -73q0 -251 -219 -382q-201 -120 -544 -120q-178 0 -272 69q-102 75 -102 226z" />
<glyph unicode="&#x6cc;" horiz-adv-x="1205" arabic-form="final" d="M106 70q0 116 64 246q23 47 121 201l40 -20q-38 -65 -75 -129q-57 -110 -57 -180q0 -123 128 -187q122 -61 335 -61q143 0 252 22q134 27 134 74q0 17 -15 25.5t-50 8.5q-27 3 -84.5 6.5t-75.5 3.5q-63 0 -90 16.5t-27 49.5q0 124 73 203q60 64 161 95q76 23 160 23h175 v-174h-175q-154 0 -231.5 -8t-77.5 -32q0 -33 93 -33q41 0 65 -2t105 -11q48 -6 66 -15q29 -15 29 -52q0 -187 -123 -272q-134 -93 -443 -93q-215 0 -342 73q-135 78 -135 222z" />
<glyph unicode="&#x621;" horiz-adv-x="845" arabic-form="isolated" d="M121 450q0 32 40 116q48 100 110 167q80 86 161 86q75 0 124 -43q11 -9 51 -55l-52 -131q-37 25 -44 30q-61 39 -100 39q-48 0 -100 -27t-52 -61q0 -41 60 -79q47 -29 142 -63q139 67 283 108l-48 -164q-152 -38 -250 -85q-113 -54 -206 -141l-31 17q13 46 35 85 q19 34 44 61l-116 66q-51 34 -51 74z" />
<glyph unicode="&#x622;" horiz-adv-x="424" arabic-form="isolated" d="M14 1628q25 36 36 45q23 20 61 20q9 0 109 -32q50 -16 83 -16q53 0 105 23l14 -14q-28 -32 -57 -49q-41 -24 -89 -24q-50 0 -95 15q-99 33 -105 33q-12 0 -24 -3.5t-27 -10.5zM147 1325q20 44 45.5 95t48.5 96q16 -114 40.5 -312t38.5 -357q18 -198 18 -299 q0 -80 -29 -155q-15 -40 -65 -127l-18 10q3 29 5.5 67t2.5 51q0 104 -16.5 290.5t-39.5 389.5q-14 123 -31 251z" />
<glyph unicode="&#x622;" horiz-adv-x="470" arabic-form="final" d="M34 1628q25 36 36 45q23 20 61 20q9 0 109 -32q50 -16 83 -16q53 0 105 23l14 -14q-28 -32 -57 -49q-41 -24 -89 -24q-50 0 -95 15q-99 33 -105 33q-12 0 -24 -3.5t-27 -10.5zM89 1322l123 194q39 -120 55 -287q10 -104 20 -492q18 -178 52 -228q28 -42 61 -42h140v-174 h-140q-68 0 -109 55q-36 48 -54.5 143t-28.5 234q-6 113 -12.5 232t-17 180.5t-28.5 100.5q-22 48 -61 84z" />
<glyph unicode="&#x623;" horiz-adv-x="470" arabic-form="final" d="M86 1501q0 46 100 81q-31 16 -47 31q-21 19 -21 40q0 31 53 87q59 62 104 62q20 0 34.5 -13.5t14.5 -35.5q0 -14 -6 -28.5t-17 -32.5q-31 28 -67 28q-22 0 -43.5 -9t-21.5 -21q0 -15 46.5 -41t79.5 -26q22 0 31.5 1.5t39.5 13.5q0 -25 -31 -45q-21 -13 -63 -28zM89 1322 l123 194q39 -120 55 -287q10 -104 20 -492q18 -178 52 -228q28 -42 61 -42h140v-174h-140q-68 0 -109 55q-36 48 -54.5 143t-28.5 234q-6 113 -12.5 232t-17 180.5t-28.5 100.5q-22 48 -61 84z" />
<glyph unicode="&#x624;" horiz-adv-x="885" arabic-form="final" d="M120 -59l17 35q56 -13 117.5 -27.5t110.5 -14.5q122 0 231 62q85 49 170 142q43 47 122 153q-135 0 -202 43q-76 49 -76 161q0 103 48 191q56 102 142 102q87 0 125 -101q30 -79 30 -220v-114q0 -165 -122 -328q-136 -182 -314 -182q-66 0 -136 15q-51 11 -133 38 q-65 23 -130 45zM435 836q0 46 100 81q-31 16 -47 31q-21 19 -21 40q0 31 53 87q59 62 104 62q20 0 34.5 -13.5t14.5 -35.5q0 -14 -6 -28.5t-17 -32.5q-31 28 -67 28q-22 0 -43.5 -9t-21.5 -21q0 -15 46.5 -41t79.5 -26q22 0 31.5 1.5t39.5 13.5q0 -25 -31 -45 q-21 -13 -63 -28zM704 562q0 -49 44 -74.5t144 -25.5q-22 96 -53 133q-27 32 -66 32q-28 0 -48.5 -18.5t-20.5 -46.5z" />
<glyph unicode="&#x625;" horiz-adv-x="470" arabic-form="final" d="M89 1322l123 194q39 -120 55 -287q10 -104 20 -492q18 -178 52 -228q28 -42 61 -42h140v-174h-140q-68 0 -109 55q-36 48 -54.5 143t-28.5 234q-6 113 -12.5 232t-17 180.5t-28.5 100.5q-22 48 -61 84zM95 -192q0 46 100 81q-31 16 -47 31q-21 19 -21 40q0 31 53 87 q59 62 104 62q20 0 34.5 -13.5t14.5 -35.5q0 -14 -6 -28.5t-17 -32.5q-31 28 -67 28q-22 0 -43.5 -9t-21.5 -21q0 -15 46.5 -41t79.5 -26q22 0 31.5 1.5t39.5 13.5q0 -25 -31 -45q-21 -13 -63 -28z" />
<glyph unicode="&#x626;" horiz-adv-x="1205" arabic-form="final" d="M106 70q0 116 64 246q23 47 121 201l40 -20q-38 -65 -75 -129q-57 -110 -57 -180q0 -123 128 -187q122 -61 335 -61q143 0 252 22q134 27 134 74q0 17 -15 25.5t-50 8.5q-27 3 -84.5 6.5t-75.5 3.5q-63 0 -90 16.5t-27 49.5q0 124 73 203q60 64 161 95q76 23 160 23h175 v-174h-175q-154 0 -231.5 -8t-77.5 -32q0 -33 93 -33q41 0 65 -2t105 -11q48 -6 66 -15q29 -15 29 -52q0 -187 -123 -272q-134 -93 -443 -93q-215 0 -342 73q-135 78 -135 222zM142 705q0 46 100 81q-31 16 -47 31q-21 19 -21 40q0 31 53 87q59 62 104 62q20 0 34.5 -13.5 t14.5 -35.5q0 -14 -6 -28.5t-17 -32.5q-31 28 -67 28q-22 0 -43.5 -9t-21.5 -21q0 -15 46.5 -41t79.5 -26q22 0 31.5 1.5t39.5 13.5q0 -25 -31 -45q-21 -13 -63 -28z" />
<glyph unicode="&#x626;" horiz-adv-x="500" arabic-form="initial" d="M0 293v174h497q0 118 -28 180q-19 43 -94 124l78 163q72 -91 90 -142q27 -77 27 -255v-244h-570zM182 1068q0 46 100 81q-31 16 -47 31q-21 19 -21 40q0 31 53 87q59 62 104 62q20 0 34.5 -13.5t14.5 -35.5q0 -14 -6 -28.5t-17 -32.5q-31 28 -67 28q-22 0 -43.5 -9 t-21.5 -21q0 -15 46.5 -41t79.5 -26q22 0 31.5 1.5t39.5 13.5q0 -25 -31 -45q-21 -13 -63 -28z" />
<glyph unicode="&#x626;" horiz-adv-x="500" arabic-form="medial" d="M0 293v174h497q0 118 -28 180q-19 43 -94 124l78 163q72 -91 90 -142q27 -77 27 -255v-244h-570zM182 1068q0 46 100 81q-31 16 -47 31q-21 19 -21 40q0 31 53 87q59 62 104 62q20 0 34.5 -13.5t14.5 -35.5q0 -14 -6 -28.5t-17 -32.5q-31 28 -67 28q-22 0 -43.5 -9 t-21.5 -21q0 -15 46.5 -41t79.5 -26q22 0 31.5 1.5t39.5 13.5q0 -25 -31 -45q-21 -13 -63 -28z" />
<glyph unicode="&#x627;" horiz-adv-x="470" arabic-form="final" d="M89 1322l123 194q39 -120 55 -287q10 -104 20 -492q18 -178 52 -228q28 -42 61 -42h140v-174h-140q-68 0 -109 55q-36 48 -54.5 143t-28.5 234q-6 113 -12.5 232t-17 180.5t-28.5 100.5q-22 48 -61 84z" />
<glyph unicode="&#x628;" horiz-adv-x="1461" arabic-form="final" d="M128 623q0 93 42 190q15 35 72 133l30 -19q-22 -46 -43 -92q-29 -71 -29 -127q0 -118 124 -183q111 -58 281 -58h847v27q0 112 -27 182.5t-92 120.5l77 163q44 -55 53 -69q68 -112 68 -326v-272h-954q-192 0 -306 67q-143 84 -143 263zM718 -11l74 146l166 -85l-78 -145z " />
<glyph unicode="&#x628;" horiz-adv-x="500" arabic-form="initial" d="M0 293v174h497q0 118 -28 180q-19 43 -94 124l78 163q72 -91 90 -142q27 -77 27 -255v-244h-570zM228 -11l74 146l166 -85l-78 -145z" />
<glyph unicode="&#x628;" horiz-adv-x="500" arabic-form="medial" d="M0 293v174h497q0 118 -28 180q-19 43 -94 124l78 163q72 -91 90 -142q27 -77 27 -255v-244h-570zM228 -11l74 146l166 -85l-78 -145z" />
<glyph unicode="&#x629;" horiz-adv-x="768" arabic-form="final" d="M61 590q0 86 112 190.5t280 182.5q-2 8 -8.5 42t-6.5 42q0 34 23 76q19 34 50 70q10 -62 20.5 -120t24.5 -120l30 -172q25 -142 45 -210q31 -104 64 -104h143v-174h-143q-72 0 -127 123q-41 92 -66 237q-30 -56 -76 -87t-97 -31q-115 0 -191.5 15.5t-76.5 39.5zM117 1337 l74 145l164 -84l-76 -145zM249 696q21 -9 49 -14t77 -5q60 0 114 63l-19 109q-87 -31 -137 -64.5t-84 -88.5zM345 1430l75 143l165 -85l-78 -144z" />
<glyph unicode="&#x62a;" horiz-adv-x="1461" arabic-form="final" d="M128 623q0 93 42 190q15 35 72 133l30 -19q-22 -46 -43 -92q-29 -71 -29 -127q0 -118 124 -183q111 -58 281 -58h847v27q0 112 -27 182.5t-92 120.5l77 163q44 -55 53 -69q68 -112 68 -326v-272h-954q-192 0 -306 67q-143 84 -143 263zM593 1050l74 145l164 -84l-76 -145 zM821 1143l75 143l165 -85l-78 -144z" />
<glyph unicode="&#x62a;" horiz-adv-x="500" arabic-form="initial" d="M0 293v174h497q0 118 -28 180q-19 43 -94 124l78 163q72 -91 90 -142q27 -77 27 -255v-244h-570zM37 1130l74 145l164 -84l-76 -145zM265 1223l75 143l165 -85l-78 -144z" />
<glyph unicode="&#x62a;" horiz-adv-x="500" arabic-form="medial" d="M0 293v174h497q0 118 -28 180q-19 43 -94 124l78 163q72 -91 90 -142q27 -77 27 -255v-244h-570zM37 1130l74 145l164 -84l-76 -145zM265 1223l75 143l165 -85l-78 -144z" />
<glyph unicode="&#x62b;" horiz-adv-x="1461" arabic-form="final" d="M128 623q0 93 42 190q15 35 72 133l30 -19q-22 -46 -43 -92q-29 -71 -29 -127q0 -118 124 -183q111 -58 281 -58h847v27q0 112 -27 182.5t-92 120.5l77 163q44 -55 53 -69q68 -112 68 -326v-272h-954q-192 0 -306 67q-143 84 -143 263zM593 1050l74 145l164 -84l-76 -145 zM627 1319l74 146l163 -86l-77 -146zM821 1143l75 143l165 -85l-78 -144z" />
<glyph unicode="&#x62b;" horiz-adv-x="500" arabic-form="initial" d="M0 293v174h497q0 118 -28 180q-19 43 -94 124l78 163q72 -91 90 -142q27 -77 27 -255v-244h-570zM37 1130l74 145l164 -84l-76 -145zM71 1399l74 146l163 -86l-77 -146zM265 1223l75 143l165 -85l-78 -144z" />
<glyph unicode="&#x62b;" horiz-adv-x="500" arabic-form="medial" d="M0 293v174h497q0 118 -28 180q-19 43 -94 124l78 163q72 -91 90 -142q27 -77 27 -255v-244h-570zM37 1130l74 145l164 -84l-76 -145zM71 1399l74 146l163 -86l-77 -146zM265 1223l75 143l165 -85l-78 -144z" />
<glyph unicode="&#x62c;" horiz-adv-x="1077" arabic-form="final" d="M54 80q0 171 85 299q66 100 193 183q37 25 206 115q-40 5 -84.5 8.5t-80.5 3.5q-101 0 -164 -9q-21 -3 -131 -27q34 98 71 136q83 84 260 84q97 0 210 -18.5t190 -18.5q51 0 99.5 4t101.5 11l-40 -170q-41 -5 -93 -14q-33 -6 -91 -17l-2 -56q0 -82 50 -110 q31 -17 106 -17h207v-174h-207q-121 0 -172 45t-51 149q0 39 10 97q4 22 11 58q-171 -52 -258 -89q-160 -68 -248 -154q-111 -108 -111 -246q0 -215 224 -323q195 -94 521 -94h184l6 -11l-226 -159h-58q-216 0 -359 40q-171 48 -259 154q-100 121 -100 320zM465 124l77 146 l161 -85l-77 -146z" />
<glyph unicode="&#x62c;" horiz-adv-x="1085" arabic-form="initial" d="M0 293v174h805q-102 79 -172 123q-87 55 -159 80q-81 28 -164 28q-51 0 -103 -7q29 74 76 119q68 65 172 65q102 0 241 -100q69 -50 225 -190q121 -109 164 -118h60v-174h-1145zM398 16l78 146l160 -86l-75 -144z" />
<glyph unicode="&#x62c;" horiz-adv-x="1085" arabic-form="medial" d="M0 293v174h805q-102 79 -172 123q-87 55 -159 80q-81 28 -164 28q-51 0 -103 -7q29 74 76 119q68 65 172 65q102 0 241 -100q69 -50 225 -190q121 -109 164 -118h60v-174h-1145zM398 16l78 146l160 -86l-75 -144z" />
<glyph unicode="&#x62d;" horiz-adv-x="1077" arabic-form="final" d="M54 80q0 171 85 299q66 100 193 183q37 25 206 115q-40 5 -84.5 8.5t-80.5 3.5q-101 0 -164 -9q-21 -3 -131 -27q34 98 71 136q83 84 260 84q97 0 210 -18.5t190 -18.5q51 0 99.5 4t101.5 11l-40 -170q-41 -5 -93 -14q-33 -6 -91 -17l-2 -56q0 -82 50 -110 q31 -17 106 -17h207v-174h-207q-121 0 -172 45t-51 149q0 39 10 97q4 22 11 58q-171 -52 -258 -89q-160 -68 -248 -154q-111 -108 -111 -246q0 -215 224 -323q195 -94 521 -94h184l6 -11l-226 -159h-58q-216 0 -359 40q-171 48 -259 154q-100 121 -100 320z" />
<glyph unicode="&#x62d;" horiz-adv-x="1085" arabic-form="initial" d="M0 293v174h805q-102 79 -172 123q-87 55 -159 80q-81 28 -164 28q-51 0 -103 -7q29 74 76 119q68 65 172 65q102 0 241 -100q69 -50 225 -190q121 -109 164 -118h60v-174h-1145z" />
<glyph unicode="&#x62d;" horiz-adv-x="1085" arabic-form="medial" d="M0 293v174h805q-102 79 -172 123q-87 55 -159 80q-81 28 -164 28q-51 0 -103 -7q29 74 76 119q68 65 172 65q102 0 241 -100q69 -50 225 -190q121 -109 164 -118h60v-174h-1145z" />
<glyph unicode="&#x62e;" horiz-adv-x="1077" arabic-form="final" d="M54 80q0 171 85 299q66 100 193 183q37 25 206 115q-40 5 -84.5 8.5t-80.5 3.5q-101 0 -164 -9q-21 -3 -131 -27q34 98 71 136q83 84 260 84q97 0 210 -18.5t190 -18.5q51 0 99.5 4t101.5 11l-40 -170q-41 -5 -93 -14q-33 -6 -91 -17l-2 -56q0 -82 50 -110 q31 -17 106 -17h207v-174h-207q-121 0 -172 45t-51 149q0 39 10 97q4 22 11 58q-171 -52 -258 -89q-160 -68 -248 -154q-111 -108 -111 -246q0 -215 224 -323q195 -94 521 -94h184l6 -11l-226 -159h-58q-216 0 -359 40q-171 48 -259 154q-100 121 -100 320zM442 1163l75 146 l163 -85l-77 -145z" />
<glyph unicode="&#x62e;" horiz-adv-x="1085" arabic-form="initial" d="M0 293v174h805q-102 79 -172 123q-87 55 -159 80q-81 28 -164 28q-51 0 -103 -7q29 74 76 119q68 65 172 65q102 0 241 -100q69 -50 225 -190q121 -109 164 -118h60v-174h-1145zM428 1163l74 146l164 -85l-76 -145z" />
<glyph unicode="&#x62e;" horiz-adv-x="1085" arabic-form="medial" d="M0 293v174h805q-102 79 -172 123q-87 55 -159 80q-81 28 -164 28q-51 0 -103 -7q29 74 76 119q68 65 172 65q102 0 241 -100q69 -50 225 -190q121 -109 164 -118h60v-174h-1145zM428 1163l74 146l164 -85l-76 -145z" />
<glyph unicode="&#x62f;" horiz-adv-x="691" arabic-form="final" d="M165 404q0 38 4 69t15 68h23q11 -41 40 -59q24 -15 66 -15h387q0 179 -50 288q-62 136 -207 181l15 194q173 -85 245 -271q58 -150 58 -392v-174h-448q-57 0 -102.5 33t-45.5 78z" />
<glyph unicode="&#x630;" horiz-adv-x="691" arabic-form="final" d="M165 404q0 38 4 69t15 68h23q11 -41 40 -59q24 -15 66 -15h387q0 179 -50 288q-62 136 -207 181l15 194q173 -85 245 -271q58 -150 58 -392v-174h-448q-57 0 -102.5 33t-45.5 78zM257 1410l73 145l165 -86l-78 -145z" />
<glyph unicode="&#x631;" horiz-adv-x="1001" arabic-form="final" d="M144 -65l17 40q66 -13 137.5 -26.5t129.5 -13.5q128 0 267 82q126 75 215 189.5t89 206.5q0 79 -46 166q-37 70 -104 144l57 157q82 -76 121 -152q44 -86 44 -192v-243q0 -110 -94 -228q-82 -104 -204 -179q-116 -72 -191 -72q-69 0 -149 20q-61 15 -146 47 q-72 27 -143 54z" />
<glyph unicode="&#x632;" horiz-adv-x="1001" arabic-form="final" d="M144 -65l17 40q66 -13 137.5 -26.5t129.5 -13.5q128 0 267 82q126 75 215 189.5t89 206.5q0 79 -46 166q-37 70 -104 144l57 157q82 -76 121 -152q44 -86 44 -192v-243q0 -110 -94 -228q-82 -104 -204 -179q-116 -72 -191 -72q-69 0 -149 20q-61 15 -146 47 q-72 27 -143 54zM683 1163l75 146l163 -85l-77 -145z" />
<glyph unicode="&#x633;" horiz-adv-x="1682" arabic-form="final" d="M132 158q0 86 21 174t57 177q22 54 76 166l40 -18q-70 -144 -92.5 -227t-22.5 -152q0 -124 88.5 -188.5t252.5 -64.5q192 0 343 67q188 83 188 232q0 100 -37 190q-29 71 -82 136l83 205q50 -82 68 -145q25 -89 25 -243h123q95 0 135 29q35 25 35 77q0 29 -3.5 58.5 t-10.5 64.5l40 60l16 -97q22 -98 59 -141q41 -48 116 -48q23 0 35.5 14.5t12.5 36.5q0 50 -31 107q-23 42 -61 84l67 109q47 -77 57 -105q22 -63 22 -183v-240h-79q-60 0 -105.5 16.5t-92.5 52.5q-42 -38 -75 -51q-47 -18 -137 -18h-123q0 -92 -44 -179q-57 -113 -174 -179 q-147 -83 -368 -83q-200 0 -306 70q-116 77 -116 236z" />
<glyph unicode="&#x633;" horiz-adv-x="1087" arabic-form="initial" d="M0 293v174h193q81 0 116 14q58 23 58 92q0 29 -3 58t-11 65l41 60q28 -92 46 -134q32 -73 70 -110q46 -45 110 -45h67q75 0 111 23q40 26 40 83q0 31 -4 60t-11 63l42 60l21 -94q27 -111 66 -154q34 -38 92 -38q27 0 43.5 16.5t16.5 42.5q0 56 -41 118q-7 10 -49 65 l65 109q41 -62 56 -107q22 -68 22 -181v-240h-77q-64 0 -110 17.5t-84 49.5q-47 -37 -82 -49q-51 -18 -140 -18h-65q-52 0 -104 20q-34 13 -84 43q-48 -36 -88 -49.5t-130 -13.5h-193z" />
<glyph unicode="&#x633;" horiz-adv-x="1087" arabic-form="medial" d="M0 293v174h193q81 0 116 14q58 23 58 92q0 29 -3 58t-11 65l41 60q28 -92 46 -134q32 -73 70 -110q46 -45 110 -45h67q75 0 111 23q40 26 40 83q0 31 -4 60t-11 63l42 60l21 -94q27 -111 66 -154q34 -38 92 -38q27 0 43.5 16.5t16.5 42.5q0 56 -41 118q-7 10 -49 65 l65 109q41 -62 56 -107q22 -68 22 -181v-240h-77q-64 0 -110 17.5t-84 49.5q-47 -37 -82 -49q-51 -18 -140 -18h-65q-52 0 -104 20q-34 13 -84 43q-48 -36 -88 -49.5t-130 -13.5h-193z" />
<glyph unicode="&#x634;" horiz-adv-x="1682" arabic-form="final" d="M132 158q0 86 21 174t57 177q22 54 76 166l40 -18q-70 -144 -92.5 -227t-22.5 -152q0 -124 88.5 -188.5t252.5 -64.5q192 0 343 67q188 83 188 232q0 100 -37 190q-29 71 -82 136l83 205q50 -82 68 -145q25 -89 25 -243h123q95 0 135 29q35 25 35 77q0 29 -3.5 58.5 t-10.5 64.5l40 60l16 -97q22 -98 59 -141q41 -48 116 -48q23 0 35.5 14.5t12.5 36.5q0 50 -31 107q-23 42 -61 84l67 109q47 -77 57 -105q22 -63 22 -183v-240h-79q-60 0 -105.5 16.5t-92.5 52.5q-42 -38 -75 -51q-47 -18 -137 -18h-123q0 -92 -44 -179q-57 -113 -174 -179 q-147 -83 -368 -83q-200 0 -306 70q-116 77 -116 236zM1205 1050l74 145l164 -84l-76 -145zM1239 1319l74 146l163 -86l-77 -146zM1433 1143l75 143l165 -85l-78 -144z" />
<glyph unicode="&#x634;" horiz-adv-x="1087" arabic-form="initial" d="M0 293v174h193q81 0 116 14q58 23 58 92q0 29 -3 58t-11 65l41 60q28 -92 46 -134q32 -73 70 -110q46 -45 110 -45h67q75 0 111 23q40 26 40 83q0 31 -4 60t-11 63l42 60l21 -94q27 -111 66 -154q34 -38 92 -38q27 0 43.5 16.5t16.5 42.5q0 56 -41 118q-7 10 -49 65 l65 109q41 -62 56 -107q22 -68 22 -181v-240h-77q-64 0 -110 17.5t-84 49.5q-47 -37 -82 -49q-51 -18 -140 -18h-65q-52 0 -104 20q-34 13 -84 43q-48 -36 -88 -49.5t-130 -13.5h-193zM600 1050l74 145l164 -84l-76 -145zM634 1319l74 146l163 -86l-77 -146zM828 1143 l75 143l165 -85l-78 -144z" />
<glyph unicode="&#x634;" horiz-adv-x="1087" arabic-form="medial" d="M0 293v174h193q81 0 116 14q58 23 58 92q0 29 -3 58t-11 65l41 60q28 -92 46 -134q32 -73 70 -110q46 -45 110 -45h67q75 0 111 23q40 26 40 83q0 31 -4 60t-11 63l42 60l21 -94q27 -111 66 -154q34 -38 92 -38q27 0 43.5 16.5t16.5 42.5q0 56 -41 118q-7 10 -49 65 l65 109q41 -62 56 -107q22 -68 22 -181v-240h-77q-64 0 -110 17.5t-84 49.5q-47 -37 -82 -49q-51 -18 -140 -18h-65q-52 0 -104 20q-34 13 -84 43q-48 -36 -88 -49.5t-130 -13.5h-193zM600 1050l74 145l164 -84l-76 -145zM634 1319l74 146l163 -86l-77 -146zM828 1143 l75 143l165 -85l-78 -144z" />
<glyph unicode="&#x635;" horiz-adv-x="2249" arabic-form="final" d="M132 158q0 86 21 174t57 177q22 54 76 166l40 -18q-70 -144 -92.5 -227t-22.5 -152q0 -124 88.5 -188.5t252.5 -64.5q192 0 343 67q188 83 188 232q0 100 -37 190q-29 71 -82 136l83 205q50 -82 68 -145q25 -89 25 -243h18q119 0 221 38q88 33 185 104q148 103 177 122 q82 52 147 74q74 25 163 25q137 0 205 -79q63 -73 63 -205v-253h-1188q-30 -208 -144 -312q-142 -129 -433 -129q-200 0 -306 70q-116 77 -116 236zM1486 467h461q96 0 153 19.5t57 57.5q0 49 -61.5 76.5t-143.5 27.5q-72 0 -161 -32q-63 -23 -160 -73q-73 -38 -145 -76z " />
<glyph unicode="&#x635;" horiz-adv-x="1733" arabic-form="initial" d="M0 293v174h193q81 0 116 14q58 23 58 92q0 29 -3.5 58.5t-10.5 64.5l41 60q35 -136 96 -210q65 -79 153 -79q84 0 197 38q122 41 210 104q143 102 175 122q81 52 147 74q74 25 162 25q136 0 205 -79q64 -73 64 -205v-253h-1202q-54 0 -103 18q-37 14 -87 45 q-42 -36 -84 -49.5t-134 -13.5h-193zM970 467h461q109 0 159 19t50 58q0 49 -61 76.5t-142 27.5q-100 0 -242 -67q-113 -57 -225 -114z" />
<glyph unicode="&#x635;" horiz-adv-x="1733" arabic-form="medial" d="M0 293v174h193q81 0 116 14q58 23 58 92q0 29 -3.5 58.5t-10.5 64.5l41 60q35 -136 96 -210q65 -79 153 -79q84 0 197 38q122 41 210 104q143 102 175 122q81 52 147 74q74 25 162 25q136 0 205 -79q64 -73 64 -205v-253h-1202q-54 0 -103 18q-37 14 -87 45 q-42 -36 -84 -49.5t-134 -13.5h-193zM970 467h461q109 0 159 19t50 58q0 49 -61 76.5t-142 27.5q-100 0 -242 -67q-113 -57 -225 -114z" />
<glyph unicode="&#x636;" horiz-adv-x="2249" arabic-form="final" d="M132 158q0 86 21 174t57 177q22 54 76 166l40 -18q-70 -144 -92.5 -227t-22.5 -152q0 -124 88.5 -188.5t252.5 -64.5q192 0 343 67q188 83 188 232q0 100 -37 190q-29 71 -82 136l83 205q50 -82 68 -145q25 -89 25 -243h18q119 0 221 38q88 33 185 104q148 103 177 122 q82 52 147 74q74 25 163 25q137 0 205 -79q63 -73 63 -205v-253h-1188q-30 -208 -144 -312q-142 -129 -433 -129q-200 0 -306 70q-116 77 -116 236zM1415 1063l74 146l164 -85l-76 -145zM1486 467h461q96 0 153 19.5t57 57.5q0 49 -61.5 76.5t-143.5 27.5q-72 0 -161 -32 q-63 -23 -160 -73q-73 -38 -145 -76z" />
<glyph unicode="&#x636;" horiz-adv-x="1733" arabic-form="initial" d="M0 293v174h193q81 0 116 14q58 23 58 92q0 29 -3.5 58.5t-10.5 64.5l41 60q35 -136 96 -210q65 -79 153 -79q84 0 197 38q122 41 210 104q143 102 175 122q81 52 147 74q74 25 162 25q136 0 205 -79q64 -73 64 -205v-253h-1202q-54 0 -103 18q-37 14 -87 45 q-42 -36 -84 -49.5t-134 -13.5h-193zM929 1063l74 146l164 -85l-76 -145zM970 467h461q109 0 159 19t50 58q0 49 -61 76.5t-142 27.5q-100 0 -242 -67q-113 -57 -225 -114z" />
<glyph unicode="&#x636;" horiz-adv-x="1733" arabic-form="medial" d="M0 293v174h193q81 0 116 14q58 23 58 92q0 29 -3.5 58.5t-10.5 64.5l41 60q35 -136 96 -210q65 -79 153 -79q84 0 197 38q122 41 210 104q143 102 175 122q81 52 147 74q74 25 162 25q136 0 205 -79q64 -73 64 -205v-253h-1202q-54 0 -103 18q-37 14 -87 45 q-42 -36 -84 -49.5t-134 -13.5h-193zM929 1063l74 146l164 -85l-76 -145zM970 467h461q109 0 159 19t50 58q0 49 -61 76.5t-142 27.5q-100 0 -242 -67q-113 -57 -225 -114z" />
<glyph unicode="&#x637;" horiz-adv-x="1191" arabic-form="final" d="M0 293v174l153 1q68 0 127 18q68 21 154 74q18 44 29 94.5t11 97.5q0 107 -20 236q-15 94 -45 221q-16 66 -42 161l-62 31q7 60 20.5 116t37.5 108q16 -47 73 -73q47 -21 120 -28q-10 -103 -15 -131t-19 -69q-7 1 -37 10l-13 4q35 -117 57.5 -240.5t22.5 -207.5 q0 -71 -14 -158q-5 -31 -18 -96q175 101 224 124q148 70 254 70q135 0 202 -79q61 -72 61 -205v-253h-1261zM432 467h435q236 0 236 77q0 51 -52.5 77.5t-150.5 26.5q-73 0 -168 -32q-78 -26 -166 -72q-65 -34 -134 -77z" />
<glyph unicode="&#x637;" horiz-adv-x="1191" arabic-form="initial" d="M0 293v174l153 1q68 0 127 18q68 21 154 74q18 44 29 94.5t11 97.5q0 107 -20 236q-15 94 -45 221q-16 66 -42 161l-62 31q7 60 20.5 116t37.5 108q16 -47 73 -73q47 -21 120 -28q-10 -103 -15 -131t-19 -69q-7 1 -37 10l-13 4q35 -117 57.5 -240.5t22.5 -207.5 q0 -71 -14 -158q-5 -31 -18 -96q175 101 224 124q148 70 254 70q135 0 202 -79q61 -72 61 -205v-253h-1261zM432 467h435q236 0 236 77q0 51 -52.5 77.5t-150.5 26.5q-73 0 -168 -32q-78 -26 -166 -72q-65 -34 -134 -77z" />
<glyph unicode="&#x637;" horiz-adv-x="1191" arabic-form="medial" d="M0 293v174l153 1q68 0 127 18q68 21 154 74q18 44 29 94.5t11 97.5q0 107 -20 236q-15 94 -45 221q-16 66 -42 161l-62 31q7 60 20.5 116t37.5 108q16 -47 73 -73q47 -21 120 -28q-10 -103 -15 -131t-19 -69q-7 1 -37 10l-13 4q35 -117 57.5 -240.5t22.5 -207.5 q0 -71 -14 -158q-5 -31 -18 -96q175 101 224 124q148 70 254 70q135 0 202 -79q61 -72 61 -205v-253h-1261zM432 467h435q236 0 236 77q0 51 -52.5 77.5t-150.5 26.5q-73 0 -168 -32q-78 -26 -166 -72q-65 -34 -134 -77z" />
<glyph unicode="&#x638;" horiz-adv-x="1191" arabic-form="final" d="M0 293v174l153 1q68 0 127 18q68 21 154 74q18 44 29 94.5t11 97.5q0 107 -20 236q-15 94 -45 221q-16 66 -42 161l-62 31q7 60 20.5 116t37.5 108q16 -47 73 -73q47 -21 120 -28q-10 -103 -15 -131t-19 -69q-7 1 -37 10l-13 4q35 -117 57.5 -240.5t22.5 -207.5 q0 -71 -14 -158q-5 -31 -18 -96q175 101 224 124q148 70 254 70q135 0 202 -79q61 -72 61 -205v-253h-1261zM432 467h435q236 0 236 77q0 51 -52.5 77.5t-150.5 26.5q-73 0 -168 -32q-78 -26 -166 -72q-65 -34 -134 -77zM750 1163l74 146l165 -85l-77 -145z" />
<glyph unicode="&#x638;" horiz-adv-x="1191" arabic-form="initial" d="M0 293v174l153 1q68 0 127 18q68 21 154 74q18 44 29 94.5t11 97.5q0 107 -20 236q-15 94 -45 221q-16 66 -42 161l-62 31q7 60 20.5 116t37.5 108q16 -47 73 -73q47 -21 120 -28q-10 -103 -15 -131t-19 -69q-7 1 -37 10l-13 4q35 -117 57.5 -240.5t22.5 -207.5 q0 -71 -14 -158q-5 -31 -18 -96q175 101 224 124q148 70 254 70q135 0 202 -79q61 -72 61 -205v-253h-1261zM432 467h435q236 0 236 77q0 51 -52.5 77.5t-150.5 26.5q-73 0 -168 -32q-78 -26 -166 -72q-65 -34 -134 -77zM750 1163l74 146l165 -85l-77 -145z" />
<glyph unicode="&#x638;" horiz-adv-x="1191" arabic-form="medial" d="M0 293v174l153 1q68 0 127 18q68 21 154 74q18 44 29 94.5t11 97.5q0 107 -20 236q-15 94 -45 221q-16 66 -42 161l-62 31q7 60 20.5 116t37.5 108q16 -47 73 -73q47 -21 120 -28q-10 -103 -15 -131t-19 -69q-7 1 -37 10l-13 4q35 -117 57.5 -240.5t22.5 -207.5 q0 -71 -14 -158q-5 -31 -18 -96q175 101 224 124q148 70 254 70q135 0 202 -79q61 -72 61 -205v-253h-1261zM432 467h435q236 0 236 77q0 51 -52.5 77.5t-150.5 26.5q-73 0 -168 -32q-78 -26 -166 -72q-65 -34 -134 -77zM750 1163l74 146l165 -85l-77 -145z" />
<glyph unicode="&#x639;" horiz-adv-x="922" arabic-form="final" d="M54 25q0 137 53 254q42 93 126 187q40 45 147 145q-10 34 -28.5 50t-39.5 16q-26 0 -51 -35h-17q21 105 44 145q56 96 184 96q86 0 148 -42q69 -47 69 -122q0 -49 -38 -83q-35 -28 -57 -46q56 -67 107.5 -95t128.5 -28h162v-174h-162q-153 0 -237.5 46t-135.5 152 q-73 -47 -132 -97q-80 -68 -125 -133q-56 -81 -56 -156q0 -169 169 -262q130 -71 357 -96q120 -13 321 -13l4 -8l-202 -160q-187 0 -294 17q-194 31 -304 120q-141 115 -141 322z" />
<glyph unicode="&#x639;" horiz-adv-x="1077" arabic-form="initial" d="M0 293v174h240q-29 47 -47 106.5t-18 115.5q0 118 98.5 198t253.5 80q123 0 203 -60q34 -25 115 -123l-19 -17q-69 19 -124 28.5t-114 9.5q-138 0 -216.5 -30.5t-78.5 -80.5q0 -49 49.5 -109.5t127.5 -107.5q164 25 269 48.5t294 79.5l-69 -182q-151 -55 -349.5 -92.5 t-365.5 -37.5h-249z" />
<glyph unicode="&#x639;" horiz-adv-x="807" arabic-form="medial" d="M0 293v174h90q84 0 156 18q82 21 161 67l-42 54q-32 38 -72 38q-18 0 -32 -6.5t-31 -28.5h-21v59q0 110 58 151q53 37 184 37q113 0 184 -30q93 -39 93 -120q0 -43 -37 -89q-27 -34 -99 -94q16 -24 61.5 -40t76.5 -16h147v-174h-147q-65 0 -132 31q-80 37 -116 103 q-67 -60 -153 -93q-105 -41 -239 -41h-90z" />
<glyph unicode="&#x63a;" horiz-adv-x="922" arabic-form="final" d="M54 25q0 137 53 254q42 93 126 187q40 45 147 145q-10 34 -28.5 50t-39.5 16q-26 0 -51 -35h-17q21 105 44 145q56 96 184 96q86 0 148 -42q69 -47 69 -122q0 -49 -38 -83q-35 -28 -57 -46q56 -67 107.5 -95t128.5 -28h162v-174h-162q-153 0 -237.5 46t-135.5 152 q-73 -47 -132 -97q-80 -68 -125 -133q-56 -81 -56 -156q0 -169 169 -262q130 -71 357 -96q120 -13 321 -13l4 -8l-202 -160q-187 0 -294 17q-194 31 -304 120q-141 115 -141 322zM361 1163l75 146l163 -85l-76 -145z" />
<glyph unicode="&#x63a;" horiz-adv-x="1077" arabic-form="initial" d="M0 293v174h240q-29 47 -47 106.5t-18 115.5q0 118 98.5 198t253.5 80q123 0 203 -60q34 -25 115 -123l-19 -17q-69 19 -124 28.5t-114 9.5q-138 0 -216.5 -30.5t-78.5 -80.5q0 -49 49.5 -109.5t127.5 -107.5q164 25 269 48.5t294 79.5l-69 -182q-151 -55 -349.5 -92.5 t-365.5 -37.5h-249zM375 1163l76 146l162 -85l-75 -145z" />
<glyph unicode="&#x63a;" horiz-adv-x="807" arabic-form="medial" d="M0 293v174h90q84 0 156 18q82 21 161 67l-42 54q-32 38 -72 38q-18 0 -32 -6.5t-31 -28.5h-21v59q0 110 58 151q53 37 184 37q113 0 184 -30q93 -39 93 -120q0 -43 -37 -89q-27 -34 -99 -94q16 -24 61.5 -40t76.5 -16h147v-174h-147q-65 0 -132 31q-80 37 -116 103 q-67 -60 -153 -93q-105 -41 -239 -41h-90zM298 1163l75 146l163 -85l-76 -145z" />
<glyph unicode="&#x641;" horiz-adv-x="1615" arabic-form="final" d="M109 634q0 89 51 208q37 81 55 121l40 -23q-43 -87 -57 -132.5t-14 -82.5q0 -132 144 -195t458 -63h737q-117 32 -172 74q-63 48 -63 119q0 93 62 199q70 119 155 119q99 0 143 -117q37 -98 37 -279v-289h-917q-211 0 -340 26q-154 31 -233 103q-86 78 -86 212z M1242 1249l83 146l161 -86l-82 -148zM1425 708q0 -49 41 -74q30 -18 115 -38q0 87 -19 134q-23 56 -70 56q-34 0 -50.5 -20.5t-16.5 -57.5z" />
<glyph unicode="&#x641;" horiz-adv-x="548" arabic-form="initial" d="M0 293v174h533q0 89 -21 167q-52 -17 -80 -24q-46 -12 -81 -12q-73 0 -119 37q-53 42 -53 121q0 139 50 243q56 116 146 116q122 0 188 -191q55 -158 55 -371v-260h-618zM247 1341l74 146l164 -86l-77 -146zM268 860q0 -80 88 -80q23 0 49 9t50 24q-14 36 -45 73 q-42 50 -80 50q-27 0 -44.5 -22.5t-17.5 -53.5z" />
<glyph unicode="&#x641;" horiz-adv-x="538" arabic-form="medial" d="M0 293v174h343q62 0 105.5 4.5t94.5 19.5q-172 25 -223 47q-115 50 -115 170q0 105 55 198q62 105 151 105q102 0 155 -130q42 -103 42 -243v-345h-608zM293 1307l83 140l145 -92l-88 -144zM307 762q0 -76 79 -102q28 -9 132 -18q-23 80 -44 119q-41 75 -99 75 q-28 0 -48 -22t-20 -52z" />
<glyph unicode="&#x642;" horiz-adv-x="1191" arabic-form="final" d="M140 185q0 118 38 248q35 120 100 240l42 -18q-29 -70 -49 -124q-27 -74 -39 -127q-15 -67 -15 -130q0 -130 110 -192q102 -57 301 -57q213 0 373 70q185 81 185 219q0 51 -3.5 73.5t-12.5 45.5q-38 -18 -76.5 -28.5t-77.5 -10.5q-88 0 -143 40q-67 48 -67 145 q0 113 58 216q65 116 154 116q117 0 185 -160q58 -136 58 -315v-194q0 -198 -190 -302q-171 -93 -454 -93q-223 0 -345 80q-132 87 -132 258zM676 1163l74 145l164 -84l-76 -145zM902 650q0 -31 29 -49t66 -18q26 0 48.5 7.5t56.5 22.5q-26 62 -37 77q-28 41 -70 41 q-48 0 -70.5 -23t-22.5 -58zM904 1256l75 143l165 -85l-78 -144z" />
<glyph unicode="&#x642;" horiz-adv-x="548" arabic-form="initial" d="M0 293v174h533q0 89 -21 167q-52 -17 -80 -24q-46 -12 -81 -12q-73 0 -119 37q-53 42 -53 121q0 139 50 243q56 116 146 116q122 0 188 -191q55 -158 55 -371v-260h-618zM118 1280l74 145l164 -84l-76 -145zM268 860q0 -80 88 -80q23 0 49 9t50 24q-14 36 -45 73 q-42 50 -80 50q-27 0 -44.5 -22.5t-17.5 -53.5zM346 1373l75 143l165 -85l-78 -144z" />
<glyph unicode="&#x642;" horiz-adv-x="538" arabic-form="medial" d="M0 293v174h343q62 0 105.5 4.5t94.5 19.5q-172 25 -223 47q-115 50 -115 170q0 105 55 198q62 105 151 105q102 0 155 -130q42 -103 42 -243v-345h-608zM134 1292l83 134l119 -79l-79 -136zM307 762q0 -76 79 -102q28 -9 132 -18q-23 80 -44 119q-41 75 -99 75 q-28 0 -48 -22t-20 -52zM355 1355l86 133l124 -81l-85 -134z" />
<glyph unicode="&#x643;" horiz-adv-x="1231" arabic-form="final" d="M115 558q0 88 47 200q13 31 55 115l34 -20q-34 -78 -44.5 -120t-10.5 -80q0 -109 115 -153q86 -33 252 -33h637l-125 848l-52 25q0 69 12 129.5t36 117.5l15 -11q0 -58 72 -87l108 -40q0 -46 -11.5 -103t-23.5 -89l-48 16l118 -784v-196h-738q-239 0 -340 57 q-108 61 -108 208zM390 729l17 21q24 0 58 -3q79 -7 98 -7q115 0 197.5 33.5t82.5 79.5q0 21 -17 36t-40 15q-26 0 -40 -1l-70 -5q-25 0 -42.5 13t-17.5 44q0 84 87.5 201t183.5 149l-19 -131q-69 -19 -106 -41q-60 -35 -60 -84q0 -17 16 -24.5t37 -7.5q18 0 32 2l54 7 q52 0 73 -27t21 -95q0 -109 -73 -169t-205 -60q-61 0 -135 17q-45 10 -132 37z" />
<glyph unicode="&#x643;" horiz-adv-x="807" arabic-form="initial" d="M0 293v174h761q-70 106 -160 184.5t-243 169.5l-33 -31l-118 90q-62 52 -62 81q0 172 84 270q78 90 269 162l282 110v-173l-209 -70q-125 -41 -202 -75q-98 -43 -98 -66t64 -71q40 -30 81 -60q152 -115 265 -241q122 -135 196 -280v-174h-877z" />
<glyph unicode="&#x643;" horiz-adv-x="807" arabic-form="medial" d="M0 293v174h761q-70 106 -160 184.5t-243 169.5l-33 -31l-118 90q-62 52 -62 81q0 172 84 270q78 90 269 162l282 110v-173l-209 -70q-125 -41 -202 -75q-98 -43 -98 -66t64 -71q40 -30 81 -60q152 -115 265 -241q122 -135 196 -280v-174h-877z" />
<glyph unicode="&#x644;" horiz-adv-x="1037" arabic-form="final" d="M141 318q0 86 25 179q21 79 64 173q31 68 84 164l32 -19q-37 -67 -62 -120q-33 -71 -49 -127q-19 -68 -19 -132q0 -123 89.5 -186t248.5 -63q169 0 313 58q158 64 158 153q0 97 -31 329q-24 178 -59 398l-33 194l-46 24q0 134 55 244h17q4 -38 14 -56.5t33 -27.5 q31 -13 68 -31q27 -13 47 -23q0 -70 -5 -102t-20 -90l-57 18q2 -22 29 -201q31 -209 46 -339q24 -208 24 -318q0 -160 -75 -254q-67 -83 -197 -119q-110 -30 -279 -30q-193 0 -299 71q-116 78 -116 233z" />
<glyph unicode="&#x644;" horiz-adv-x="424" arabic-form="initial" d="M0 293v174h393l-119 848l-52 25q0 69 12 129.5t36 117.5l15 -11q0 -58 65 -87q50 -20 101 -40q0 -50 -8 -107t-19 -85l-48 16l118 -784v-196h-494z" />
<glyph unicode="&#x644;" horiz-adv-x="424" arabic-form="medial" d="M0 293v174h393l-119 848l-52 25q0 69 12 129.5t36 117.5l15 -11q0 -58 65 -87q50 -20 101 -40q0 -50 -8 -107t-19 -85l-48 16l118 -784v-196h-494z" />
<glyph unicode="&#x645;" horiz-adv-x="692" arabic-form="final" d="M105 125q0 128 53.5 196.5t164.5 101.5q88 26 265 44q-63 64 -78 76q-51 40 -103 40q-33 0 -63 -20q-24 -16 -58 -55l-46 29q30 75 68 120q63 74 149 74q62 0 124 -46q51 -38 104 -106q26 -33 77 -112v-174h-119q-166 0 -290 -31q-157 -39 -157 -112q0 -66 22.5 -141 t46 -152t23.5 -141q0 -38 -5.5 -69t-19.5 -81q-26 83 -51 166q-48 158 -71 239q-36 128 -36 154z" />
<glyph unicode="&#x645;" horiz-adv-x="807" arabic-form="initial" d="M0 293v174h153q91 0 162 46q55 36 100 101q61 88 150 153q80 58 147 74q69 -105 110 -189q55 -114 55 -185v-174h-104q-67 0 -151 30q-97 35 -171 96q-58 -71 -118.5 -98.5t-176.5 -27.5h-156zM528 585q36 -39 101.5 -70t123.5 -38l9 13q-13 58 -40 114q-23 47 -61 97 q-48 -12 -81 -45q-22 -21 -52 -71z" />
<glyph unicode="&#x645;" horiz-adv-x="807" arabic-form="medial" d="M0 293v174h153q91 0 162 46q55 36 100 101q61 88 150 153q80 58 147 74q69 -105 110 -189q55 -114 55 -185v-174h-104q-67 0 -151 30q-97 35 -171 96q-58 -71 -118.5 -98.5t-176.5 -27.5h-156zM528 585q36 -39 101.5 -70t123.5 -38l9 13q-13 58 -40 114q-23 47 -61 97 q-48 -12 -81 -45q-22 -21 -52 -71z" />
<glyph unicode="&#x646;" horiz-adv-x="1077" arabic-form="final" d="M139 158q0 86 21 174t57 177q22 54 76 166l40 -18q-70 -144 -92.5 -227t-22.5 -152q0 -124 88.5 -188.5t252.5 -64.5q189 0 335 67q181 83 181 232q0 102 -30 190q-26 78 -74 136l83 205q53 -81 73 -165t20 -223v-174q0 -223 -131 -328q-141 -113 -455 -113 q-200 0 -306 70q-116 77 -116 236zM544 1003l72 139l159 -82l-75 -143z" />
<glyph unicode="&#x646;" horiz-adv-x="500" arabic-form="initial" d="M0 293v174h497q0 118 -28 180q-19 43 -94 124l78 163q72 -91 90 -142q27 -77 27 -255v-244h-570zM252 1157l74 145l164 -84l-76 -145z" />
<glyph unicode="&#x646;" horiz-adv-x="500" arabic-form="medial" d="M0 293v174h497q0 118 -28 180q-19 43 -94 124l78 163q72 -91 90 -142q27 -77 27 -255v-244h-570zM252 1157l74 145l164 -84l-76 -145z" />
<glyph unicode="&#x647;" horiz-adv-x="578" arabic-form="isolated" d="M54 389q0 70 35 162q32 78 65 157l-15 4l61 169q181 -95 216 -120q120 -84 120 -173q0 -141 -46 -212q-71 -110 -260 -110q-73 0 -121 29q-55 33 -55 94zM156 529q0 -51 28.5 -79.5t76.5 -28.5q56 0 122 31.5t66 57.5q0 38 -110 101q-47 27 -101 53q-45 -49 -54 -61 q-28 -39 -28 -74z" />
<glyph unicode="&#x647;" horiz-adv-x="768" arabic-form="final" d="M61 590q0 86 112 190.5t280 182.5q-2 8 -8.5 42t-6.5 42q0 34 23 76q19 34 50 70q10 -62 20.5 -120t24.5 -120l30 -172q25 -142 45 -210q31 -104 64 -104h143v-174h-143q-72 0 -127 123q-41 92 -66 237q-30 -56 -76 -87t-97 -31q-115 0 -191.5 15.5t-76.5 39.5zM249 696 q21 -9 49 -14t77 -5q60 0 114 63l-19 109q-87 -31 -137 -64.5t-84 -88.5z" />
<glyph unicode="&#x647;" horiz-adv-x="922" arabic-form="initial" d="M0 293v174h90q41 0 79 6.5t103 23.5q-26 19 -52 39q-28 25 -28 49q0 17 1.5 25t13.5 30l99 173q20 35 36.5 48.5t45.5 21.5q-69 47 -69 67t44 103q15 28 46 83q64 -61 161 -177q123 -146 194 -261q94 -152 94 -236q0 -58 -36 -129q-39 -77 -78 -77q-41 0 -153 52 q-103 48 -174 94q-116 -66 -169 -85q-67 -24 -158 -24h-90zM295 673q0 -41 122 -108q43 28 64 54q25 30 25 60q0 43 -18 68q-21 30 -67 30t-86 -30.5t-40 -73.5zM527 502q60 -31 121 -61q50 -22 71 -22q12 0 20 9t8 22q0 35 -56 109q-35 47 -86 100q0 -49 -20.5 -91.5 t-57.5 -65.5z" />
<glyph unicode="&#x647;" horiz-adv-x="807" arabic-form="medial" d="M0 293v174h253q35 93 77 173q53 101 111 165q67 74 126 74q31 0 54.5 -54t23.5 -115q0 -88 -46 -143q-27 -33 -162 -100h440v-174h-366q64 -30 109 -85q57 -69 57 -150q0 -78 -24 -125q-30 -59 -94 -59q-120 0 -220 83q-120 100 -120 264l2 72h-221zM283 302 q0 -110 53 -181q64 -86 191 -86q24 0 41.5 10t17.5 29q0 79 -116 152q-95 60 -187 76zM321 487q91 25 153 63q72 44 72 86q0 95 -40 95q-43 0 -103 -94q-29 -45 -82 -150z" />
<glyph unicode="&#x648;" horiz-adv-x="885" arabic-form="final" d="M120 -59l17 35q56 -13 117.5 -27.5t110.5 -14.5q122 0 231 62q85 49 170 142q43 47 122 153q-135 0 -202 43q-76 49 -76 161q0 103 48 191q56 102 142 102q87 0 125 -101q30 -79 30 -220v-114q0 -165 -122 -328q-136 -182 -314 -182q-66 0 -136 15q-51 11 -133 38 q-65 23 -130 45zM704 562q0 -49 44 -74.5t144 -25.5q-22 96 -53 133q-27 32 -66 32q-28 0 -48.5 -18.5t-20.5 -46.5z" />
<glyph unicode="&#x649;" horiz-adv-x="1205" arabic-form="final" d="M106 70q0 116 64 246q23 47 121 201l40 -20q-38 -65 -75 -129q-57 -110 -57 -180q0 -123 128 -187q122 -61 335 -61q143 0 252 22q134 27 134 74q0 17 -15 25.5t-50 8.5q-27 3 -84.5 6.5t-75.5 3.5q-63 0 -90 16.5t-27 49.5q0 124 73 203q60 64 161 95q76 23 160 23h175 v-174h-175q-154 0 -231.5 -8t-77.5 -32q0 -33 93 -33q41 0 65 -2t105 -11q48 -6 66 -15q29 -15 29 -52q0 -187 -123 -272q-134 -93 -443 -93q-215 0 -342 73q-135 78 -135 222z" />
<glyph unicode="&#x64a;" horiz-adv-x="1205" arabic-form="final" d="M106 70q0 116 64 246q23 47 121 201l40 -20q-38 -65 -75 -129q-57 -110 -57 -180q0 -123 128 -187q122 -61 335 -61q143 0 252 22q134 27 134 74q0 17 -15 25.5t-50 8.5q-27 3 -84.5 6.5t-75.5 3.5q-63 0 -90 16.5t-27 49.5q0 124 73 203q60 64 161 95q76 23 160 23h175 v-174h-175q-154 0 -231.5 -8t-77.5 -32q0 -33 93 -33q41 0 65 -2t105 -11q48 -6 66 -15q29 -15 29 -52q0 -187 -123 -272q-134 -93 -443 -93q-215 0 -342 73q-135 78 -135 222zM447 -363l93 94l114 -79l-91 -86zM656 -363l90 94l115 -79l-93 -86z" />
<glyph unicode="&#x64a;" horiz-adv-x="500" arabic-form="initial" d="M0 293v174h497q0 118 -28 180q-19 43 -94 124l78 163q72 -91 90 -142q27 -77 27 -255v-244h-570zM97 -58l74 145l164 -84l-76 -145zM325 35l75 143l165 -85l-78 -144z" />
<glyph unicode="&#x64a;" horiz-adv-x="500" arabic-form="medial" d="M0 293v174h497q0 118 -28 180q-19 43 -94 124l78 163q72 -91 90 -142q27 -77 27 -255v-244h-570zM97 -58l74 145l164 -84l-76 -145zM325 35l75 143l165 -85l-78 -144z" />
<glyph unicode="&#xd;" horiz-adv-x="569" />
<glyph unicode=" "  horiz-adv-x="569" />
<glyph unicode="&#x09;" horiz-adv-x="569" />
<glyph unicode="&#xa0;" horiz-adv-x="569" />
<glyph unicode="!" horiz-adv-x="569" d="M176 1141v325h223v-325l-52 -777h-116zM184 0v205h207v-205h-207z" />
<glyph unicode="&#x22;" horiz-adv-x="727" d="M94 1226v240h205v-240l-45 -279h-110zM426 1226v240h205v-240l-48 -279h-108z" />
<glyph unicode="#" horiz-adv-x="1139" d="M21 401v149h199l74 363h-273v149h303l87 429h150l-87 -429h315l87 429h151l-87 -429h173v-149h-203l-75 -363h278v-149h-308l-87 -426h-150l86 426h-314l-87 -426h-150l87 426h-169zM370 550h314l75 363h-315z" />
<glyph unicode="$" horiz-adv-x="1139" d="M73 407l181 34q21 -145 74 -213q76 -96 182 -107v573q-111 21 -227 86q-86 48 -132.5 133t-46.5 193q0 192 136 311q91 80 270 98v86h106v-86q157 -15 249 -92q118 -98 142 -269l-186 -28q-16 106 -66.5 162.5t-138.5 74.5v-519q136 -34 180 -53q84 -37 137 -90 t81.5 -126t28.5 -158q0 -187 -119 -312t-308 -134v-182h-106v180q-135 17 -219.5 60.5t-146 140.5t-71.5 237zM284 1120q0 -92 51.5 -154t174.5 -99v498q-105 -16 -165.5 -84t-60.5 -161zM616 121q105 13 173.5 91t68.5 193q0 98 -48.5 157.5t-193.5 106.5v-548z" />
<glyph unicode="%" horiz-adv-x="1821" d="M119 1114q0 157 79 267t229 110q138 0 228.5 -98.5t90.5 -289.5q0 -186 -91.5 -286.5t-225.5 -100.5q-133 0 -221.5 99t-88.5 299zM276 1096q0 -141 45 -198.5t111 -57.5q68 0 112.5 58t44.5 212q0 142 -45 199.5t-112 57.5t-111.5 -58t-44.5 -213zM433 -54l802 1545h146 l-799 -1545h-149zM1067 344q0 158 79 267.5t230 109.5q138 0 228.5 -98.5t90.5 -289.5q0 -186 -91.5 -286.5t-226.5 -100.5q-133 0 -221.5 99.5t-88.5 298.5zM1224 326q0 -140 45 -198t111 -58q69 0 113.5 58t44.5 212q0 142 -45 199.5t-112 57.5q-68 0 -112.5 -58 t-44.5 -213z" />
<glyph unicode="&#x26;" horiz-adv-x="1366" d="M88 404q0 136 87.5 245.5t261.5 192.5q-99 114 -132 185t-33 137q0 132 103.5 229.5t260.5 97.5q150 0 245.5 -92t95.5 -221q0 -209 -277 -357l263 -335q45 88 70 204l187 -40q-48 -192 -130 -316q101 -134 229 -225l-121 -143q-109 70 -225 207q-89 -99 -194 -148.5 t-227 -49.5q-225 0 -357 152q-107 124 -107 277zM282 415q0 -89 71 -185t201 -96q81 0 167.5 50.5t138.5 130.5l-330 409q-146 -87 -197 -161.5t-51 -147.5zM457 1181q0 -34 17.5 -71.5t52.5 -79.5l80 -93q117 69 151.5 121t34.5 115q0 75 -47.5 122.5t-118.5 47.5 q-73 0 -121.5 -47t-48.5 -115z" />
<glyph unicode="'" horiz-adv-x="391" d="M90 1221v245h205v-245l-48 -274h-111z" />
<glyph unicode="(" horiz-adv-x="682" d="M124 531q0 238 77 456q90 253 278 504h129q-121 -208 -160 -297q-61 -138 -96 -288q-43 -187 -43 -376q0 -481 299 -961h-129q-149 188 -252 440t-103 522z" />
<glyph unicode=")" horiz-adv-x="682" d="M124 -431q299 480 299 961q0 188 -43 373q-34 150 -95 288q-39 90 -161 300h129q188 -251 278 -504q77 -218 77 -456q0 -270 -103.5 -522t-251.5 -440h-129z" />
<glyph unicode="*" horiz-adv-x="797" d="M64 1197l46 142q159 -56 231 -97q-19 181 -20 249h145q-3 -99 -23 -248q103 52 236 96l46 -142q-127 -42 -249 -56q61 -53 172 -189l-120 -85q-58 79 -137 215q-74 -141 -130 -215l-118 85q116 143 166 189q-129 25 -245 56z" />
<glyph unicode="+" horiz-adv-x="1196" d="M114 639v168h399v399h170v-399h399v-168h-399v-402h-170v402h-399z" />
<glyph unicode="," horiz-adv-x="569" d="M170 -213q57 25 84 73.5t30 139.5h-102v205h205v-205q0 -113 -40 -182.5t-127 -107.5z" />
<glyph unicode="-" horiz-adv-x="682" d="M65 440v181h553v-181h-553z" />
<glyph unicode="." horiz-adv-x="569" d="M186 0v205h205v-205h-205z" />
<glyph unicode="/" horiz-adv-x="569" d="M0 -25l425 1516h144l-424 -1516h-145z" />
<glyph unicode="0" horiz-adv-x="1139" d="M85 723q0 260 53.5 418.5t159 244.5t265.5 86q118 0 207 -47.5t147 -137t91 -218t33 -346.5q0 -258 -53 -416.5t-158.5 -245t-266.5 -86.5q-212 0 -333 152q-145 183 -145 596zM270 723q0 -361 84.5 -480.5t208.5 -119.5t208.5 120t84.5 480q0 362 -84.5 481t-210.5 119 q-124 0 -198 -105q-93 -134 -93 -495z" />
<glyph unicode="1" horiz-adv-x="1139" d="M223 930v174q151 71 264 172t160 196h116v-1472h-180v1147q-65 -62 -170.5 -124t-189.5 -93z" />
<glyph unicode="2" horiz-adv-x="1139" d="M62 0q-2 65 21 125q37 99 118.5 195t235.5 222q239 196 323 310.5t84 216.5q0 107 -76.5 180.5t-199.5 73.5q-130 0 -208 -78t-79 -216l-185 19q19 207 143 315.5t333 108.5q211 0 334 -117t123 -290q0 -88 -36 -173t-119.5 -179t-277.5 -258q-162 -136 -208 -184.5 t-76 -97.5h719v-173h-969z" />
<glyph unicode="3" horiz-adv-x="1139" d="M86 387l180 24q31 -153 105.5 -220.5t181.5 -67.5q127 0 214.5 88t87.5 218q0 124 -81 204.5t-206 80.5q-51 0 -127 -20l20 158q18 -2 29 -2q115 0 207 60t92 185q0 99 -67 164t-173 65q-105 0 -175 -66t-90 -198l-180 32q33 181 150 280.5t291 99.5q120 0 221 -51.5 t154.5 -140.5t53.5 -189q0 -95 -51 -173t-151 -124q130 -30 202 -124.5t72 -236.5q0 -192 -140 -325.5t-354 -133.5q-193 0 -320.5 115t-145.5 298z" />
<glyph unicode="4" horiz-adv-x="1139" d="M26 351v165l669 950h147v-950h198v-165h-198v-351h-180v351h-636zM203 516h459v661z" />
<glyph unicode="5" horiz-adv-x="1139" d="M85 384l189 16q21 -138 97.5 -207.5t184.5 -69.5q130 0 220 98t90 260q0 154 -86.5 243t-226.5 89q-87 0 -157 -39.5t-110 -102.5l-169 22l142 753h729v-172h-585l-79 -394q132 92 277 92q192 0 324 -133t132 -342q0 -199 -116 -344q-141 -178 -385 -178 q-200 0 -326.5 112t-144.5 297z" />
<glyph unicode="6" horiz-adv-x="1139" d="M77 686q0 425 157 618q137 168 369 168q173 0 283.5 -97t132.5 -268l-179 -14q-24 106 -68 154q-73 77 -180 77q-86 0 -151 -48q-85 -62 -134 -181t-51 -339q65 99 159 147t197 48q180 0 306.5 -132.5t126.5 -342.5q0 -138 -59.5 -256.5t-163.5 -181.5t-236 -63 q-225 0 -367 165.5t-142 545.5zM284 475q0 -93 39.5 -178t110.5 -129.5t149 -44.5q114 0 196 92t82 250q0 152 -81 239.5t-204 87.5q-122 0 -207 -87.5t-85 -229.5z" />
<glyph unicode="7" horiz-adv-x="1139" d="M97 1274v173h949v-140q-140 -149 -277.5 -396t-212.5 -508q-54 -184 -69 -403h-185q3 173 68 418t186.5 472.5t258.5 383.5h-718z" />
<glyph unicode="8" horiz-adv-x="1139" d="M83 424q0 143 72.5 239.5t206.5 131.5q-112 41 -166 117t-54 182q0 160 115 269t306 109q192 0 309 -111.5t117 -271.5q0 -102 -53.5 -177.5t-162.5 -116.5q135 -44 205.5 -142t70.5 -234q0 -188 -133 -316t-350 -128t-350 128.5t-133 320.5zM268 423q0 -77 36.5 -149 t108.5 -111.5t155 -39.5q129 0 213 83t84 211q0 130 -86.5 215t-216.5 85q-127 0 -210.5 -84t-83.5 -210zM326 1100q0 -104 67 -170t174 -66q104 0 170.5 65.5t66.5 160.5q0 99 -68.5 166.5t-170.5 67.5q-103 0 -171 -66t-68 -158z" />
<glyph unicode="9" horiz-adv-x="1139" d="M85 977q0 223 131.5 359t329.5 136q143 0 261.5 -77t180 -219.5t61.5 -412.5q0 -281 -61 -447.5t-181.5 -253.5t-282.5 -87q-172 0 -281 95.5t-131 268.5l173 16q22 -122 84 -177t159 -55q83 0 145.5 38t102.5 101.5t67 171.5t27 220q0 12 -1 36q-54 -86 -147.5 -139.5 t-202.5 -53.5q-182 0 -308 132t-126 348zM270 971q0 -140 84.5 -227.5t208.5 -87.5q125 0 205.5 87.5t80.5 242.5t-82.5 246t-198.5 91q-120 0 -209 -98t-89 -254z" />
<glyph unicode=":" horiz-adv-x="569" d="M185 0v205h205v-205h-205zM185 857v205h205v-205h-205z" />
<glyph unicode=";" horiz-adv-x="569" d="M170 -213q57 25 84 73.5t30 139.5h-102v205h205v-205q0 -113 -40 -182.5t-127 -107.5zM182 857v205h205v-205h-205z" />
<glyph unicode="&#x3c;" horiz-adv-x="1196" d="M112 641v168l971 410v-179l-770 -316l770 -319v-179z" />
<glyph unicode="=" horiz-adv-x="1196" d="M114 417v168h968v-168h-968zM114 862v168h968v-168h-968z" />
<glyph unicode="&#x3e;" horiz-adv-x="1196" d="M112 226v179l769 319l-769 316v179l971 -410v-168z" />
<glyph unicode="?" horiz-adv-x="1139" d="M90 1068q25 205 148.5 314t326.5 109q215 0 343 -117t128 -283q0 -96 -45 -177t-176 -197q-88 -78 -115 -115t-40 -85t-15 -156h-173q-1 36 -1 54q0 106 30 183q22 58 71 117q36 43 129.5 125.5t121.5 131.5t28 107q0 105 -82 184.5t-201 79.5q-115 0 -192 -72t-101 -225 zM461 0v205h205v-205h-205z" />
<glyph unicode="@" horiz-adv-x="2079" d="M111 469q0 244 100 465q122 271 346.5 415t544.5 144q248 0 445.5 -101.5t311.5 -302.5q97 -173 97 -376q0 -290 -204 -515q-182 -202 -398 -202q-69 0 -111.5 21t-62.5 60q-13 25 -19 86q-65 -75 -145.5 -120.5t-161.5 -45.5q-89 0 -173 52t-136.5 160t-52.5 237 q0 159 81.5 318.5t202.5 239.5t235 80q87 0 166 -45.5t136 -138.5l34 155h179l-144 -671q-30 -140 -30 -155q0 -27 20.5 -46.5t49.5 -19.5q53 0 139 61q114 80 180.5 214.5t66.5 277.5q0 167 -85.5 312t-255 232t-374.5 87q-234 0 -427.5 -109.5t-300 -314t-106.5 -438.5 q0 -245 106.5 -422t308 -261.5t446.5 -84.5q262 0 439 88t265 214h181q-51 -105 -175 -214t-295 -172.5t-412 -63.5q-222 0 -409.5 57t-319.5 171.5t-199 263.5q-84 189 -84 408zM677 434q0 -137 65 -213t149 -76q56 0 118 33.5t118.5 99.5t92.5 167.5t36 203.5 q0 136 -67.5 211t-164.5 75q-64 0 -120.5 -32.5t-109.5 -104.5t-85 -175t-32 -189z" />
<glyph unicode="A" horiz-adv-x="1366" d="M-3 0l563 1466h209l600 -1466h-221l-171 444h-613l-161 -444h-206zM420 602h497l-153 406q-70 185 -104 304q-28 -141 -79 -280z" />
<glyph unicode="B" horiz-adv-x="1366" d="M150 0v1466h550q168 0 269.5 -44.5t159 -137t57.5 -193.5q0 -94 -51 -177t-154 -134q133 -39 204.5 -133t71.5 -222q0 -103 -43.5 -191.5t-107.5 -136.5t-160.5 -72.5t-236.5 -24.5h-559zM344 173h365q94 0 132 7q67 12 112 40t74 81.5t29 123.5q0 82 -42 142.5 t-116.5 85t-214.5 24.5h-339v-504zM344 850h317q129 0 185 17q74 22 111.5 73t37.5 128q0 73 -35 128.5t-100 76t-223 20.5h-293v-443z" />
<glyph unicode="C" horiz-adv-x="1479" d="M102 744q0 229 87.5 399.5t249 259t355.5 88.5q220 0 370 -112t209 -315l-191 -45q-51 160 -148 233t-244 73q-169 0 -282.5 -81t-159.5 -217.5t-46 -281.5q0 -187 54.5 -326.5t169.5 -208.5t249 -69q163 0 276 94t153 279l194 -49q-61 -239 -219.5 -364.5t-387.5 -125.5 q-237 0 -385.5 96.5t-226 279.5t-77.5 393z" />
<glyph unicode="D" horiz-adv-x="1479" d="M158 0v1466h505q171 0 261 -21q126 -29 215 -105q116 -98 173.5 -250.5t57.5 -348.5q0 -167 -39 -296t-100 -213.5t-133.5 -133t-175 -73.5t-235.5 -25h-529zM352 173h313q145 0 227.5 27t131.5 76q69 69 107.5 185.5t38.5 282.5q0 230 -75.5 353.5t-183.5 165.5 q-78 30 -251 30h-308v-1120z" />
<glyph unicode="E" horiz-adv-x="1366" d="M162 0v1466h1060v-173h-866v-449h811v-172h-811v-499h900v-173h-1094z" />
<glyph unicode="F" horiz-adv-x="1251" d="M168 0v1466h989v-173h-795v-454h688v-173h-688v-666h-194z" />
<glyph unicode="G" horiz-adv-x="1593" d="M109 726q0 214 89.5 399.5t257.5 275.5t387 90q159 0 287.5 -51.5t201.5 -143.5t111 -240l-175 -48q-33 112 -82 176t-140 102.5t-202 38.5q-133 0 -230 -40.5t-156.5 -106.5t-92.5 -145q-56 -136 -56 -295q0 -196 67.5 -328t196.5 -196t274 -64q126 0 246 48.5 t182 103.5v273h-431v172l621 1v-544q-143 -114 -295 -171.5t-312 -57.5q-216 0 -392.5 92.5t-266.5 267.5t-90 391z" />
<glyph unicode="H" horiz-adv-x="1479" d="M164 0v1466h194v-602h762v602h194v-1466h-194v691h-762v-691h-194z" />
<glyph unicode="I" horiz-adv-x="569" d="M191 0v1466h194v-1466h-194z" />
<glyph unicode="J" horiz-adv-x="1024" d="M59 416l175 24q7 -168 63 -230t155 -62q73 0 126 33.5t73 91t20 183.5v1010h194v-999q0 -184 -44.5 -285t-141 -154t-226.5 -53q-193 0 -295 111q-99 107 -99 314v16z" />
<glyph unicode="K" horiz-adv-x="1366" d="M150 0v1466h194v-727l728 727h263l-615 -594l642 -872h-256l-522 742l-240 -234v-508h-194z" />
<glyph unicode="L" horiz-adv-x="1139" d="M150 0v1466h194v-1293h722v-173h-916z" />
<glyph unicode="M" horiz-adv-x="1706" d="M152 0v1466h292l347 -1038q48 -145 70 -217q25 80 78 235l351 1020h261v-1466h-187v1227l-426 -1227h-175l-424 1248v-1248h-187z" />
<glyph unicode="N" horiz-adv-x="1479" d="M156 0v1466h199l770 -1151v1151h186v-1466h-199l-770 1152v-1152h-186z" />
<glyph unicode="O" horiz-adv-x="1593" d="M99 714q0 365 196 571.5t506 206.5q203 0 366 -97t248.5 -270.5t85.5 -393.5q0 -223 -90 -399t-255 -266.5t-356 -90.5q-207 0 -370 100t-247 273t-84 366zM299 711q0 -265 142.5 -417.5t357.5 -152.5q219 0 360.5 154t141.5 437q0 179 -60.5 312.5t-177 207t-261.5 73.5 q-206 0 -354.5 -141.5t-148.5 -472.5z" />
<glyph unicode="P" horiz-adv-x="1366" d="M158 0v1466h553q146 0 223 -14q108 -18 181 -68.5t117.5 -141.5t44.5 -200q0 -187 -119 -316.5t-430 -129.5h-376v-596h-194zM352 769h379q188 0 267 70t79 197q0 92 -46.5 157.5t-122.5 86.5q-49 13 -181 13h-375v-524z" />
<glyph unicode="Q" horiz-adv-x="1593" d="M88 733q0 217 88 395t250.5 271t363.5 93q203 0 366 -96.5t248.5 -270t85.5 -391.5q0 -181 -55 -325.5t-166 -251.5q135 -93 249 -136l-57 -135q-158 57 -315 180q-163 -91 -360 -91q-199 0 -361 96t-249.5 270t-87.5 392zM288 733q0 -286 141.5 -439t361.5 -153 q104 0 196 39q-91 59 -192 84l47 141q168 -47 277 -140q171 156 171 469q0 178 -60.5 311t-177 206.5t-261.5 73.5q-217 0 -360 -148.5t-143 -443.5z" />
<glyph unicode="R" horiz-adv-x="1479" d="M161 0v1466h650q196 0 298 -39.5t163 -139.5t61 -221q0 -156 -101 -263t-312 -136q77 -37 117 -73q85 -78 161 -195l255 -399h-244l-194 305q-85 132 -140 202t-98.5 98t-88.5 39q-33 7 -108 7h-225v-651h-194zM355 819h417q133 0 208 27.5t114 88t39 131.5 q0 104 -75.5 171t-238.5 67h-464v-485z" />
<glyph unicode="S" horiz-adv-x="1366" d="M92 471l183 16q13 -110 60.5 -180.5t147.5 -114t225 -43.5q111 0 196 33t126.5 90.5t41.5 125.5q0 69 -40 120.5t-132 86.5q-59 23 -261 71.5t-283 91.5q-105 55 -156.5 136.5t-51.5 182.5q0 111 63 207.5t184 146.5t269 50q163 0 287.5 -52.5t191.5 -154.5t72 -231 l-186 -14q-15 139 -101.5 210t-255.5 71q-176 0 -256.5 -64.5t-80.5 -155.5q0 -79 57 -130q56 -51 292.5 -104.5t324.5 -93.5q128 -59 189 -149.5t61 -208.5q0 -117 -67 -220.5t-192.5 -161t-282.5 -57.5q-199 0 -333.5 58t-211 174.5t-80.5 263.5z" />
<glyph unicode="T" horiz-adv-x="1251" d="M48 1293v173h1162v-173h-485v-1293h-194v1293h-483z" />
<glyph unicode="U" horiz-adv-x="1479" d="M161 619v847h194v-846q0 -191 35.5 -281.5t122 -139.5t211.5 -49q214 0 305 97t91 373v846h194v-847q0 -221 -50 -351t-180.5 -211.5t-342.5 -81.5q-206 0 -337 71t-187 205.5t-56 367.5z" />
<glyph unicode="V" horiz-adv-x="1366" d="M9 1466h210l381 -1065q46 -128 77 -240q34 120 79 240l396 1065h198l-574 -1466h-199z" />
<glyph unicode="W" horiz-adv-x="1933" d="M25 1466h199l223 -961q36 -151 62 -300q56 235 66 271l279 990h234l210 -742q79 -276 114 -519q28 139 73 319l230 942h195l-402 -1466h-187l-309 1117q-39 140 -46 172q-23 -101 -43 -172l-311 -1117h-198z" />
<glyph unicode="X" horiz-adv-x="1366" d="M9 0l567 764l-500 702h231l266 -376q83 -117 118 -180q49 80 116 167l295 389h211l-515 -691l555 -775h-240l-369 523q-31 45 -64 98q-49 -80 -70 -110l-368 -511h-233z" />
<glyph unicode="Y" horiz-adv-x="1366" d="M6 1466h236l289 -442q80 -124 149 -248q66 115 160 259l284 431h226l-585 -845v-621h-194v621z" />
<glyph unicode="Z" horiz-adv-x="1251" d="M41 0v180l751 939q80 100 152 174h-818v173h1050v-173l-823 -1017l-89 -103h936v-173h-1159z" />
<glyph unicode="[" horiz-adv-x="569" d="M139 -407v1873h397v-149h-217v-1575h217v-149h-397z" />
<glyph unicode="\" horiz-adv-x="569" d="M0 1491h145l424 -1516h-144z" />
<glyph unicode="]" horiz-adv-x="569" d="M39 -258h217v1575h-217v149h397v-1873h-397v149z" />
<glyph unicode="^" horiz-adv-x="961" d="M54 690l353 801h145l355 -801h-181l-247 597l-240 -597h-185z" />
<glyph unicode="_" horiz-adv-x="1139" d="M-31 -277h1193v-130h-1193v130z" />
<glyph unicode="`" horiz-adv-x="682" d="M89 1474h241l135 -280h-145z" />
<glyph unicode="a" horiz-adv-x="1139" d="M74 280q0 78 35.5 142.5t93 103.5t129.5 59q53 14 160 27q218 26 321 62q1 37 1 47q0 110 -51 155q-69 61 -205 61q-127 0 -187.5 -44.5t-89.5 -157.5l-176 24q24 113 79 182.5t159 107t241 37.5q136 0 221 -32t125 -80.5t56 -122.5q9 -46 9 -166v-240 q0 -251 11.5 -317.5t45.5 -127.5h-188q-28 56 -36 131q-100 -85 -192.5 -120t-198.5 -35q-175 0 -269 85.5t-94 218.5zM266 285q0 -72 54.5 -120t159.5 -48q104 0 185 45.5t119 124.5q29 61 29 180v66q-98 -40 -294 -68q-111 -16 -157 -36t-71 -58.5t-25 -85.5z" />
<glyph unicode="b" horiz-adv-x="1139" d="M134 0v1466h180v-523q114 143 291 143q98 0 185.5 -39.5t144 -111t88.5 -172.5t32 -216q0 -273 -135 -422t-324 -149q-188 0 -295 157v-133h-167zM299 539q0 -191 52 -276q85 -139 230 -139q118 0 204 102.5t86 305.5q0 208 -82.5 307t-199.5 99q-118 0 -204 -102.5 t-86 -296.5z" />
<glyph unicode="c" horiz-adv-x="1024" d="M80 527q0 172 57 301t173.5 193.5t253.5 64.5q173 0 283 -87.5t141 -248.5l-175 -27q-25 107 -88.5 161t-153.5 54q-136 0 -221 -97.5t-85 -308.5q0 -214 82 -311t214 -97q106 0 177 65t90 200l177 -23q-29 -183 -148.5 -286.5t-293.5 -103.5q-218 0 -350.5 142.5 t-132.5 408.5z" />
<glyph unicode="d" horiz-adv-x="1139" d="M70 530q0 159 53 288.5t159 198.5t237 69q96 0 171 -40.5t122 -105.5v526h179v-1466h-167v134q-101 -158 -297 -158q-127 0 -233.5 70t-165 195.5t-58.5 288.5zM255 530q0 -204 86 -305t203 -101q118 0 200.5 96.5t82.5 294.5q0 218 -84 320t-207 102q-120 0 -200.5 -98 t-80.5 -309z" />
<glyph unicode="e" horiz-adv-x="1139" d="M75 522q0 268 138 416t358 148q213 0 348 -145t135 -408q0 -16 -1 -48h-792q10 -175 99 -268t222 -93q99 0 169 52t111 166l186 -23q-44 -163 -163 -253t-304 -90q-233 0 -369.5 143.5t-136.5 402.5zM271 633h593q-12 134 -68 201q-86 104 -223 104q-124 0 -208.5 -83 t-93.5 -222z" />
<glyph unicode="f" horiz-adv-x="569" d="M19 922v140h159v113q0 107 19 159q26 70 91.5 113.5t183.5 43.5q76 0 168 -18l-27 -157q-56 10 -106 10q-82 0 -116 -35t-34 -131v-98h207v-140h-207v-922h-179v922h-159z" />
<glyph unicode="g" horiz-adv-x="1139" d="M66 537q0 152 55 280.5t159.5 198.5t245.5 70q188 0 310 -152v128h166v-918q0 -248 -50.5 -351.5t-160 -163.5t-269.5 -60q-190 0 -307 85q-113 83 -113 247v11l175 -26q11 -81 61 -118q67 -50 183 -50q125 0 193 50t92 140q13 51 13 208v23q-118 -139 -294 -139 q-219 0 -339 158t-120 379zM251 550q0 -209 83 -305t208 -96q124 0 208 95.5t84 299.5q0 195 -86.5 294t-208.5 99q-120 0 -204 -97.5t-84 -289.5z" />
<glyph unicode="h" horiz-adv-x="1139" d="M135 0v1466h180v-526q126 146 318 146q118 0 205 -46.5t124.5 -128.5t37.5 -238v-673h-180v673q0 135 -58.5 196.5t-165.5 61.5q-80 0 -150.5 -41.5t-100.5 -112.5t-30 -196v-581h-180z" />
<glyph unicode="i" horiz-adv-x="455" d="M136 0v1062h180v-1062h-180zM136 1259v207h180v-207h-180z" />
<glyph unicode="j" horiz-adv-x="455" d="M-94 -412l34 153q54 -14 85 -14q55 0 82 36.5t27 182.5v1116h180v-1120q0 -196 -51 -273q-65 -100 -216 -100q-73 0 -141 19zM134 1257v209h180v-209h-180z" />
<glyph unicode="k" horiz-adv-x="1024" d="M136 0v1466h180v-836l426 432h233l-406 -394l447 -668h-222l-351 543l-127 -122v-421h-180z" />
<glyph unicode="l" horiz-adv-x="455" d="M131 0v1466h180v-1466h-180z" />
<glyph unicode="m" horiz-adv-x="1706" d="M135 0v1062h161v-149q50 78 133 125.5t189 47.5q118 0 193.5 -49t106.5 -137q126 186 328 186q158 0 243 -87.5t85 -269.5v-729h-179v669q0 108 -17.5 155.5t-63.5 76.5t-108 29q-112 0 -186 -74.5t-74 -238.5v-617h-180v690q0 120 -44 180t-144 60q-76 0 -140.5 -40 t-93.5 -117t-29 -222v-551h-180z" />
<glyph unicode="n" horiz-adv-x="1139" d="M135 0v1062h162v-151q117 175 338 175q96 0 176.5 -34.5t120.5 -90.5t56 -133q10 -50 10 -175v-653h-180v646q0 110 -21 164.5t-74.5 87t-125.5 32.5q-115 0 -198.5 -73t-83.5 -277v-580h-180z" />
<glyph unicode="o" horiz-adv-x="1139" d="M68 531q0 295 164 437q137 118 334 118q219 0 358 -143.5t139 -396.5q0 -205 -61.5 -322.5t-179 -182.5t-256.5 -65q-223 0 -360.5 143t-137.5 412zM253 531q0 -204 89 -305.5t224 -101.5q134 0 223 102t89 311q0 197 -89.5 298.5t-222.5 101.5q-135 0 -224 -101 t-89 -305z" />
<glyph unicode="p" horiz-adv-x="1139" d="M135 -407v1469h164v-138q58 81 131 121.5t177 40.5q136 0 240 -70t157 -197.5t53 -279.5q0 -163 -58.5 -293.5t-170 -200t-234.5 -69.5q-90 0 -161.5 38t-117.5 96v-517h-180zM298 525q0 -205 83 -303t201 -98q120 0 205.5 101.5t85.5 314.5q0 203 -83.5 304t-199.5 101 q-115 0 -203.5 -107.5t-88.5 -312.5z" />
<glyph unicode="q" horiz-adv-x="1139" d="M72 541q0 160 55.5 287t161 192.5t231.5 65.5q197 0 310 -166v142h162v-1469h-180v520q-42 -59 -117.5 -98t-160.5 -39q-189 0 -325.5 151t-136.5 414zM257 534q0 -205 86 -307.5t206 -102.5q115 0 198 97.5t83 296.5q0 212 -87.5 319t-205.5 107q-117 0 -198.5 -99.5 t-81.5 -310.5z" />
<glyph unicode="r" horiz-adv-x="682" d="M133 0v1062h162v-161q62 113 114.5 149t115.5 36q91 0 185 -58l-62 -167q-66 39 -132 39q-59 0 -106 -35.5t-67 -98.5q-30 -96 -30 -210v-556h-180z" />
<glyph unicode="s" horiz-adv-x="1024" d="M63 317l178 28q15 -107 83.5 -164t191.5 -57q124 0 184 50.5t60 118.5q0 61 -53 96q-37 24 -184 61q-198 50 -274.5 86.5t-116 101t-39.5 142.5q0 71 32.5 131.5t88.5 100.5q42 31 114.5 52.5t155.5 21.5q125 0 219.5 -36t139.5 -97.5t62 -164.5l-176 -24 q-12 82 -69.5 128t-162.5 46q-124 0 -177 -41t-53 -96q0 -35 22 -63q22 -29 69 -48q27 -10 159 -46q191 -51 266.5 -83.5t118.5 -94.5t43 -154q0 -90 -52.5 -169.5t-151.5 -123t-224 -43.5q-207 0 -315.5 86t-138.5 255z" />
<glyph unicode="t" horiz-adv-x="569" d="M36 922v140h132v263l179 108v-371h181v-140h-181v-621q0 -77 9.5 -99t31 -35t61.5 -13q30 0 79 7l26 -159q-76 -16 -136 -16q-98 0 -152 31t-76 81.5t-22 212.5v611h-132z" />
<glyph unicode="u" horiz-adv-x="1139" d="M131 404v658h180v-589q0 -141 11 -190q17 -71 72 -111.5t136 -40.5t152 41.5t100.5 113t29.5 207.5v569h180v-1062h-161v156q-124 -180 -337 -180q-94 0 -175.5 36t-121 90.5t-55.5 133.5q-11 53 -11 168z" />
<glyph unicode="v" horiz-adv-x="1024" d="M26 1062h190l228 -636q37 -103 68 -214q24 84 67 202l236 648h185l-402 -1062h-168z" />
<glyph unicode="w" horiz-adv-x="1479" d="M6 1062h186l169 -613l63 -228q4 17 55 219l169 622h185l159 -616l53 -203l61 205l182 614h175l-332 -1062h-187l-169 636l-41 181l-215 -817h-188z" />
<glyph unicode="x" horiz-adv-x="1024" d="M15 0l388 552l-359 510h225l163 -249q46 -71 74 -119q44 66 81 117l179 251h215l-367 -500l395 -562h-221l-218 330l-58 89l-279 -419h-218z" />
<glyph unicode="y" horiz-adv-x="1024" d="M33 1062h194l221 -615q43 -117 77 -246q31 124 74 242l227 619h180l-404 -1080q-65 -175 -101 -241q-48 -89 -110 -130.5t-148 -41.5q-52 0 -116 22l-20 169q59 -16 103 -16q60 0 96 20t59 56q17 27 55 134q5 15 16 44z" />
<glyph unicode="z" horiz-adv-x="1024" d="M40 0v146l676 776q-115 -6 -203 -6h-433v146h868v-119l-575 -674l-111 -123q121 9 227 9h491v-155h-940z" />
<glyph unicode="{" horiz-adv-x="684" d="M57 449v163q77 2 125.5 41.5t64.5 108.5t17 236t6 220q9 84 33.5 135t60.5 81.5t92 46.5q38 10 124 10h56v-157h-31q-104 0 -138 -37.5t-34 -167.5q0 -262 -11 -331q-18 -107 -61.5 -165t-136.5 -103q110 -46 159.5 -140.5t49.5 -309.5q0 -195 4 -232q8 -68 40.5 -95 t127.5 -27h31v-157h-56q-98 0 -142 16q-64 23 -106 74.5t-54.5 130.5t-13.5 259t-17 249t-64.5 109t-125.5 42z" />
<glyph unicode="|" horiz-adv-x="532" d="M188 -431v1922h157v-1922h-157z" />
<glyph unicode="}" horiz-adv-x="684" d="M47 -274h31q104 0 138 37.5t34 168.5q0 250 9 317q16 111 64 177.5t136 103.5q-115 55 -162 145.5t-47 305.5q0 195 -5 233q-7 67 -39.5 93.5t-127.5 26.5h-31v157h56q98 0 142 -16q64 -22 106 -74t54.5 -131t13.5 -259t17 -248.5t64.5 -108.5t125.5 -42v-163 q-77 -2 -125.5 -42t-64.5 -108.5t-17 -235.5t-6 -220q-9 -85 -33.5 -135.5t-60.5 -81t-92 -46.5q-38 -11 -124 -11h-56v157z" />
<glyph unicode="~" horiz-adv-x="1196" d="M87 557v205q106 120 278 120q60 0 126 -17.5t188 -69.5q69 -29 103.5 -38t69.5 -9q65 0 134.5 39t123.5 98v-212q-64 -60 -129.5 -87t-147.5 -27q-60 0 -114.5 14t-173 67t-197.5 53q-64 0 -120.5 -27.5t-140.5 -108.5z" />
<glyph unicode="&#xa1;" horiz-adv-x="682" d="M232 -79l52 776h116l55 -776v-325h-223v325zM240 857v205h207v-205h-207z" />
<glyph unicode="&#xa2;" horiz-adv-x="1139" d="M107 526q0 178 58.5 305.5t175 191.5t237.5 64q36 0 100 -8l113 387l110 -32l-112 -387q99 -43 152 -115.5t74 -181.5l-175 -27q-26 112 -96 171l-222 -766q33 -9 61 -9q104 0 179.5 71t92.5 199l179 -20q-33 -185 -156.5 -291t-291.5 -106q-49 0 -103 14l-118 -395 l-112 32l115 398q-115 55 -188 183.5t-73 321.5zM292 535q0 -132 32 -223t91 -135l223 763q-32 3 -50 3q-82 0 -153.5 -45.5t-107 -141t-35.5 -221.5z" />
<glyph unicode="&#xa3;" horiz-adv-x="1139" d="M27 145q96 53 163 151.5t67 240.5q0 61 -17 124h-196v148h154q-33 112 -42 163.5t-9 100.5q0 208 154 325q124 93 300 93q181 0 298.5 -99.5t144.5 -279.5l-179 -27q-15 120 -89.5 189t-178.5 69q-111 0 -184.5 -71.5t-73.5 -172.5q0 -111 57 -290h315v-148h-284 q19 -44 19 -88q0 -87 -41.5 -184t-136.5 -198q79 22 144 22q83 0 187 -25q172 -41 233 -41q74 0 192 56l58 -165q-92 -39 -142.5 -51t-100.5 -12q-42 0 -85 8q-27 5 -129.5 36.5t-132.5 37.5q-47 8 -94 8q-72 0 -153.5 -25t-148.5 -68z" />
<glyph unicode="&#xa4;" horiz-adv-x="1139" d="M74 354l139 136q-71 110 -71 236q0 125 71 235l-139 136l115 119l139 -139q106 72 237 72q132 0 237 -72l139 139l116 -119l-139 -136q71 -110 71 -235q0 -126 -71 -236l139 -136l-116 -119l-139 140q-105 -73 -237 -73q-131 0 -237 73l-139 -140zM305 726 q0 -108 76 -184t183 -76t183 76t76 184q0 107 -75.5 183t-183.5 76q-107 0 -183 -76t-76 -183z" />
<glyph unicode="&#xa5;" horiz-adv-x="1139" d="M-3 1466h200l290 -516q49 -88 76 -154q23 53 82 163l274 507h214l-405 -711h341v-148h-412v-143h412v-139h-412v-325h-180v325h-415v139h415v143h-415v148h341z" />
<glyph unicode="&#xa6;" horiz-adv-x="532" d="M188 360h157v-791h-157v791zM188 701v790h157v-790h-157z" />
<glyph unicode="&#xa7;" horiz-adv-x="1139" d="M81 644q0 96 60 174t165 109q-71 68 -100 125.5t-29 122.5q0 128 100 222t265 94q187 0 292 -89t126 -258l-187 -19q-21 122 -73.5 170t-141.5 48q-92 0 -148.5 -49.5t-56.5 -109.5q0 -52 36 -96q56 -68 306 -220q157 -96 212 -141q71 -60 104.5 -124t33.5 -139 q0 -113 -73 -193q-42 -46 -154 -93q80 -61 119.5 -131t39.5 -150q0 -88 -50 -166.5t-144 -120t-203 -41.5q-191 0 -303 95.5t-134 265.5l181 26q28 -130 89 -182.5t166 -52.5q102 0 159.5 52t57.5 122q0 51 -36 94q-62 75 -340 245q-148 91 -206.5 142.5t-95.5 121.5 t-37 146zM244 664q0 -63 46 -120t207 -152q134 -79 231 -148q74 38 110.5 88.5t36.5 98.5q0 57 -52 120q-53 63 -225 169q-137 84 -204 138q-81 -46 -115.5 -92t-34.5 -102z" />
<glyph unicode="&#xa8;" horiz-adv-x="682" d="M61 1270v205h188v-205h-188zM434 1270v205h188v-205h-188z" />
<glyph unicode="&#xa9;" horiz-adv-x="1509" d="M3 736q0 197 101.5 378.5t282.5 279t371 97.5t371 -97.5t282 -279t101 -378.5q0 -195 -99.5 -375t-279 -279.5t-375.5 -99.5t-375.5 99.5t-279.5 279.5t-100 375zM128 736q0 -163 83.5 -312.5t233.5 -233t313 -83.5t313 83.5t233 233t83 312.5q0 164 -84.5 315.5 t-235.5 233t-309 81.5q-159 0 -309.5 -81.5t-235.5 -233t-85 -315.5zM363 734q0 132 50 229.5t142.5 147t211.5 49.5q133 0 221 -63.5t120 -172.5l-119 -29q-30 74 -88.5 113.5t-137.5 39.5q-115 0 -189.5 -82t-74.5 -235t70.5 -231.5t182.5 -78.5q90 0 158 52t90 141 l123 -36q-30 -125 -127.5 -199.5t-236.5 -74.5q-176 0 -286 114t-110 316z" />
<glyph unicode="&#xaa;" horiz-adv-x="758" d="M47 965q0 48 16 84t47.5 64t81.5 45q35 11 99 21l147 22q72 14 96 20q-1 70 -14 94t-48.5 41.5t-94.5 17.5q-79 0 -118 -32.5t-48 -92.5l-137 34q12 89 88 148.5t217 59.5q164 0 232 -61q67 -62 67 -181v-240l-1 -61q0 -134 41 -184h-148q-20 40 -22 89 q-122 -107 -256 -107q-113 0 -179 61.5t-66 157.5zM196 965q0 -41 34 -70t96 -29q73 0 127 39t72 96q7 20 8 103q-53 -14 -192 -36q-90 -14 -117 -39q-28 -26 -28 -64z" />
<glyph unicode="&#xab;" horiz-adv-x="1139" d="M134 528l319 456h148l-261 -456l259 -456h-146zM526 528l313 456h152l-264 -456l264 -456h-152z" />
<glyph unicode="&#xac;" horiz-adv-x="1196" d="M114 862v168h968v-606h-170v438h-798z" />
<glyph unicode="&#xad;" horiz-adv-x="682" d="M65 440v181h553v-181h-553z" />
<glyph unicode="&#xae;" horiz-adv-x="1509" d="M3 736q0 197 101.5 378.5t282.5 279t371 97.5t371 -97.5t282 -279t101 -378.5q0 -195 -99.5 -375t-279 -279.5t-375.5 -99.5t-375.5 99.5t-279.5 279.5t-100 375zM128 736q0 -163 83.5 -312.5t233.5 -233t313 -83.5t313 83.5t233 233t83 312.5q0 164 -84.5 315.5 t-235.5 233t-309 81.5q-159 0 -309.5 -81.5t-235.5 -233t-85 -315.5zM427 319v812h279q143 0 207 -22.5t102 -78.5t38 -119q0 -89 -63.5 -155t-168.5 -74q43 -18 69 -43q49 -48 120 -161l99 -159h-160l-72 128q-85 151 -137 189q-36 28 -105 28h-77v-345h-131zM558 776h159 q114 0 155.5 34t41.5 90q0 36 -20 64.5t-55.5 42.5t-131.5 14h-149v-245z" />
<glyph unicode="&#xaf;" horiz-adv-x="1131" d="M-31 1566v129h1193v-129h-1193z" />
<glyph unicode="&#xb0;" horiz-adv-x="819" d="M128 1214q0 115 81.5 196t195.5 81q116 0 197 -81t81 -196t-81.5 -196.5t-196.5 -81.5q-114 0 -195.5 81t-81.5 197zM237 1214q0 -70 49.5 -119.5t119.5 -49.5q69 0 118.5 49.5t49.5 119.5t-49.5 119.5t-118.5 49.5q-70 0 -119.5 -49.5t-49.5 -119.5z" />
<glyph unicode="&#xb1;" horiz-adv-x="1124" d="M78 0v168h968v-168h-968zM78 663v167h399v399h170v-399h399v-167h-399v-403h-170v403h-399z" />
<glyph unicode="&#xb2;" horiz-adv-x="682" d="M25 733q6 57 47 114q63 86 207 190.5t171 134.5q37 41 37 84q0 48 -35 79t-103 31q-66 0 -98.5 -23.5t-53.5 -90.5l-151 16q29 111 100.5 163.5t205.5 52.5q151 0 221.5 -59t70.5 -144q0 -84 -59 -159q-45 -56 -205 -171q-83 -61 -118 -97h386v-121h-623z" />
<glyph unicode="&#xb3;" horiz-adv-x="682" d="M33 929l146 15q20 -60 52 -82q43 -30 102 -30q71 0 114 39t43 94q0 50 -36 80t-123 30q-12 0 -33 -2q-14 -1 -22 -1l22 110q81 -1 118.5 29t37.5 73q0 37 -30 63t-89 26q-56 0 -87.5 -22t-54.5 -80l-143 23q41 106 103.5 148t182.5 42q144 0 209.5 -53.5t65.5 -133.5 q0 -55 -35.5 -98t-102.5 -62q89 -22 131 -72.5t42 -118.5q0 -93 -79 -162t-225 -69q-140 0 -214 55.5t-95 158.5z" />
<glyph unicode="&#xb4;" horiz-adv-x="682" d="M222 1194l133 280h236l-220 -280h-149z" />
<glyph unicode="&#xb5;" horiz-adv-x="1180" d="M160 -407v1469h178v-450q0 -245 26 -317.5t84.5 -114.5t134.5 -42q80 0 143 44t89 113.5t26 313.5v453h177v-1062h-161v126q-52 -80 -103 -110q-70 -41 -163 -41q-83 0 -147 33q-48 25 -106 99v-514h-178z" />
<glyph unicode="&#xb6;" horiz-adv-x="1100" d="M1 1044q0 193 120.5 307.5t352.5 114.5h633v-173h-144v-1700h-170v1700h-223v-1700h-165v1045q-187 10 -295.5 121.5t-108.5 284.5z" />
<glyph unicode="&#xb7;" horiz-adv-x="682" d="M497 637v205h205v-205h-205z" />
<glyph unicode="&#xb8;" horiz-adv-x="682" d="M107 -409l11 117q64 -4 94 -4q94 0 132 26q29 20 29 49q0 18 -11.5 32t-42.5 24t-103 11l52 177h134l-33 -107q85 -10 128 -52.5t43 -94.5q0 -75 -72 -132.5t-217 -57.5q-82 0 -144 12z" />
<glyph unicode="&#xb9;" horiz-adv-x="682" d="M107 1174v123q62 20 138 73t123 114h108v-751h-145v554q-102 -81 -224 -113z" />
<glyph unicode="&#xba;" horiz-adv-x="748" d="M45 1111q0 180 91.5 280t236.5 100t236.5 -100t91.5 -276q0 -175 -92 -275t-235 -100q-145 0 -237 98t-92 273zM193 1115q0 -126 50.5 -184.5t129.5 -58.5q80 0 130 58.5t50 189.5q0 122 -50.5 180t-129.5 58q-81 0 -130.5 -57t-49.5 -186z" />
<glyph unicode="&#xbb;" horiz-adv-x="1139" d="M140 72l264 456l-264 456h151l314 -456l-314 -456h-151zM530 984h148l319 -456l-319 -456h-147l260 456z" />
<glyph unicode="&#xbc;" horiz-adv-x="1708" d="M107 1174v123q62 20 138 73t123 114h108v-751h-145v554q-102 -81 -224 -113zM252 -57l1102 1548h156l-1101 -1548h-157zM1047 123v123l405 474h122v-489h104v-108h-104v-154h-144v154h-383zM1200 231h230v263z" />
<glyph unicode="&#xbd;" horiz-adv-x="1708" d="M107 1174v123q62 20 138 73t123 114h108v-751h-145v554q-102 -81 -224 -113zM228 -57l1101 1548h157l-1101 -1548h-157zM1049 -31q6 56 48 113q62 87 206 191t171 135q37 41 37 84q0 48 -34.5 78.5t-103.5 30.5q-66 0 -98.5 -23.5t-53.5 -89.5l-151 15q29 112 101 164.5 t205 52.5q151 0 221.5 -59t70.5 -144q0 -84 -59 -159q-45 -56 -204 -172q-84 -61 -119 -96h386v-121h-623z" />
<glyph unicode="&#xbe;" horiz-adv-x="1708" d="M33 929l146 15q20 -60 52 -82q43 -30 102 -30q71 0 114 39t43 94q0 50 -36 80t-120 30q-50 -3 -58 -3l22 110q81 -1 118.5 29t37.5 73q0 37 -30 63t-89 26q-56 0 -87.5 -22t-54.5 -80l-143 23q41 106 103.5 148t182.5 42q144 0 209.5 -53.5t65.5 -133.5q0 -55 -35.5 -98 t-102.5 -62q89 -22 131 -72.5t42 -118.5q0 -93 -79 -162t-225 -69q-140 0 -214 55.5t-95 158.5zM252 -57l1101 1548h157l-1101 -1548h-157zM1047 123v123l404 474h123v-489h104v-108h-104v-154h-145v154h-382zM1200 231h229v263z" />
<glyph unicode="&#xbf;" horiz-adv-x="1251" d="M158 -29q0 97 44.5 177t175.5 196q89 79 116 116t39.5 85t14.5 156h173q1 -34 1 -51q0 -110 -30 -187q-22 -58 -71 -117q-36 -43 -129.5 -125t-121 -131t-27.5 -107q0 -106 82 -185t201 -79q114 0 191.5 72t101.5 224l184 -21q-25 -203 -148.5 -313t-325.5 -110 q-216 0 -343.5 117t-127.5 283zM528 857v205h205v-205h-205z" />
<glyph unicode="&#xc0;" horiz-adv-x="1366" d="M-3 0l563 1466h209l600 -1466h-221l-171 444h-613l-161 -444h-206zM420 602h497l-153 406q-70 185 -104 304q-28 -141 -79 -280zM448 1836h241l135 -280h-145z" />
<glyph unicode="&#xc1;" horiz-adv-x="1366" d="M-3 0l563 1466h209l600 -1466h-221l-171 444h-613l-161 -444h-206zM420 602h497l-153 406q-70 185 -104 304q-28 -141 -79 -280zM541 1556l133 280h236l-220 -280h-149z" />
<glyph unicode="&#xc2;" horiz-adv-x="1366" d="M-3 0l563 1466h209l600 -1466h-221l-171 444h-613l-161 -444h-206zM345 1556l216 280h192l225 -280h-204l-110 170l-113 -170h-206zM420 602h497l-153 406q-70 185 -104 304q-28 -141 -79 -280z" />
<glyph unicode="&#xc3;" horiz-adv-x="1366" d="M-3 0l563 1466h209l600 -1466h-221l-171 444h-613l-161 -444h-206zM349 1556q-1 104 57 166q57 62 146 62q62 0 169 -54q59 -30 94 -30q32 0 49 17.5t24 69.5h130q-3 -114 -57.5 -171t-138.5 -57q-63 0 -166 56q-67 36 -98 36q-34 0 -55 -24q-22 -24 -21 -71h-133z M420 602h497l-153 406q-70 185 -104 304q-28 -141 -79 -280z" />
<glyph unicode="&#xc4;" horiz-adv-x="1366" d="M-3 0l563 1466h209l600 -1466h-221l-171 444h-613l-161 -444h-206zM379 1556v205h188v-205h-188zM420 602h497l-153 406q-70 185 -104 304q-28 -141 -79 -280zM752 1556v205h188v-205h-188z" />
<glyph unicode="&#xc5;" horiz-adv-x="1366" d="M-3 0l563 1466h209l600 -1466h-221l-171 444h-613l-161 -444h-206zM420 602h497l-153 406q-70 185 -104 304q-28 -141 -79 -280zM481 1601q0 73 53.5 126t126.5 53q74 0 127 -53.5t53 -129.5q0 -77 -53 -130t-126 -53q-75 0 -128 53.5t-53 133.5zM557 1600 q0 -47 31.5 -79t74.5 -32t74.5 32t31.5 77t-31 77t-75 32q-43 0 -74.5 -31.5t-31.5 -75.5z" />
<glyph unicode="&#xc6;" horiz-adv-x="2048" d="M1 0l705 1466h1203v-173h-737v-451h685v-172h-685v-497h764v-173h-959v423h-566l-200 -423h-210zM493 595h484v698h-145z" />
<glyph unicode="&#xc7;" horiz-adv-x="1479" d="M102 744q0 229 87.5 399.5t249 259t355.5 88.5q220 0 370 -112t209 -315l-191 -45q-51 160 -148 233t-244 73q-169 0 -282.5 -81t-159.5 -217.5t-46 -281.5q0 -187 54.5 -326.5t169.5 -208.5t249 -69q163 0 276 94t153 279l194 -49q-61 -239 -219.5 -364.5t-387.5 -125.5 q-237 0 -385.5 96.5t-226 279.5t-77.5 393zM511 -409l11 117q64 -4 94 -4q94 0 132 26q29 20 29 49q0 18 -11.5 32t-42.5 24t-103 11l52 177h134l-33 -107q85 -10 128 -52.5t43 -94.5q0 -75 -72 -132.5t-217 -57.5q-82 0 -144 12z" />
<glyph unicode="&#xc8;" horiz-adv-x="1366" d="M162 0v1466h1060v-173h-866v-449h811v-172h-811v-499h900v-173h-1094zM474 1836h241l135 -280h-145z" />
<glyph unicode="&#xc9;" horiz-adv-x="1366" d="M162 0v1466h1060v-173h-866v-449h811v-172h-811v-499h900v-173h-1094zM562 1556l133 280h236l-220 -280h-149z" />
<glyph unicode="&#xca;" horiz-adv-x="1366" d="M162 0v1466h1060v-173h-866v-449h811v-172h-811v-499h900v-173h-1094zM388 1556l216 280h192l225 -280h-204l-110 170l-113 -170h-206z" />
<glyph unicode="&#xcb;" horiz-adv-x="1366" d="M162 0v1466h1060v-173h-866v-449h811v-172h-811v-499h900v-173h-1094zM425 1556v205h188v-205h-188zM798 1556v205h188v-205h-188z" />
<glyph unicode="&#xcc;" horiz-adv-x="569" d="M54 1836h241l135 -280h-145zM191 0v1466h194v-1466h-194z" />
<glyph unicode="&#xcd;" horiz-adv-x="569" d="M141 1556l133 280h236l-220 -280h-149zM191 0v1466h194v-1466h-194z" />
<glyph unicode="&#xce;" horiz-adv-x="569" d="M-32 1556l216 280h192l225 -280h-204l-110 170l-113 -170h-206zM191 0v1466h194v-1466h-194z" />
<glyph unicode="&#xcf;" horiz-adv-x="569" d="M4 1556v205h188v-205h-188zM191 0v1466h194v-1466h-194zM377 1556v205h188v-205h-188z" />
<glyph unicode="&#xd0;" horiz-adv-x="1479" d="M-3 667v132h161v667h506q170 0 260 -21q126 -29 215 -105q116 -98 173.5 -250.5t57.5 -348.5q0 -224 -71 -385.5t-170 -234.5t-228 -104q-71 -17 -214 -17h-529v667h-161zM352 173h313q146 0 228 27t130 75q69 69 108 185t39 283q0 172 -38.5 275t-100.5 165t-138 86 t-233 24h-308v-494h404v-132h-404v-494z" />
<glyph unicode="&#xd1;" horiz-adv-x="1479" d="M156 0v1466h199l770 -1151v1151h186v-1466h-199l-770 1152v-1152h-186zM430 1556q-1 104 57 166q57 62 146 62q62 0 169 -54q59 -30 94 -30q32 0 49 17.5t24 69.5h130q-3 -114 -57.5 -171t-138.5 -57q-63 0 -166 56q-67 36 -98 36q-34 0 -55 -24q-22 -24 -21 -71h-133z " />
<glyph unicode="&#xd2;" horiz-adv-x="1593" d="M99 714q0 365 196 571.5t506 206.5q203 0 366 -97t248.5 -270.5t85.5 -393.5q0 -223 -90 -399t-255 -266.5t-356 -90.5q-207 0 -370 100t-247 273t-84 366zM299 711q0 -265 142.5 -417.5t357.5 -152.5q219 0 360.5 154t141.5 437q0 179 -60.5 312.5t-177 207t-261.5 73.5 q-206 0 -354.5 -141.5t-148.5 -472.5zM540 1836h241l135 -280h-145z" />
<glyph unicode="&#xd3;" horiz-adv-x="1593" d="M99 714q0 365 196 571.5t506 206.5q203 0 366 -97t248.5 -270.5t85.5 -393.5q0 -223 -90 -399t-255 -266.5t-356 -90.5q-207 0 -370 100t-247 273t-84 366zM299 711q0 -265 142.5 -417.5t357.5 -152.5q219 0 360.5 154t141.5 437q0 179 -60.5 312.5t-177 207t-261.5 73.5 q-206 0 -354.5 -141.5t-148.5 -472.5zM677 1556l133 280h236l-220 -280h-149z" />
<glyph unicode="&#xd4;" horiz-adv-x="1593" d="M99 714q0 365 196 571.5t506 206.5q203 0 366 -97t248.5 -270.5t85.5 -393.5q0 -223 -90 -399t-255 -266.5t-356 -90.5q-207 0 -370 100t-247 273t-84 366zM299 711q0 -265 142.5 -417.5t357.5 -152.5q219 0 360.5 154t141.5 437q0 179 -60.5 312.5t-177 207t-261.5 73.5 q-206 0 -354.5 -141.5t-148.5 -472.5zM479 1556l216 280h192l225 -280h-204l-110 170l-113 -170h-206z" />
<glyph unicode="&#xd5;" horiz-adv-x="1593" d="M99 714q0 365 196 571.5t506 206.5q203 0 366 -97t248.5 -270.5t85.5 -393.5q0 -223 -90 -399t-255 -266.5t-356 -90.5q-207 0 -370 100t-247 273t-84 366zM299 711q0 -265 142.5 -417.5t357.5 -152.5q219 0 360.5 154t141.5 437q0 179 -60.5 312.5t-177 207t-261.5 73.5 q-206 0 -354.5 -141.5t-148.5 -472.5zM466 1556q-1 104 57 166q57 62 146 62q62 0 169 -54q59 -30 94 -30q32 0 49 17.5t24 69.5h130q-3 -114 -57.5 -171t-138.5 -57q-63 0 -166 56q-67 36 -98 36q-34 0 -55 -24q-22 -24 -21 -71h-133z" />
<glyph unicode="&#xd6;" horiz-adv-x="1593" d="M99 714q0 365 196 571.5t506 206.5q203 0 366 -97t248.5 -270.5t85.5 -393.5q0 -223 -90 -399t-255 -266.5t-356 -90.5q-207 0 -370 100t-247 273t-84 366zM299 711q0 -265 142.5 -417.5t357.5 -152.5q219 0 360.5 154t141.5 437q0 179 -60.5 312.5t-177 207t-261.5 73.5 q-206 0 -354.5 -141.5t-148.5 -472.5zM516 1556v205h188v-205h-188zM889 1556v205h188v-205h-188z" />
<glyph unicode="&#xd7;" horiz-adv-x="1196" d="M161 409l315 315l-314 314l122 122l314 -314l313 313l120 -121l-312 -313l314 -314l-122 -122l-314 314l-315 -315z" />
<glyph unicode="&#xd8;" horiz-adv-x="1593" d="M83 25l176 197q-98 149 -131 254.5t-33 253.5q0 226 90 402.5t252.5 267.5t361.5 91q134 0 234.5 -35.5t216.5 -123.5l168 188l99 -84l-176 -198q86 -128 116 -224q40 -126 40 -282q0 -225 -91 -401t-255.5 -266t-349.5 -90q-138 0 -250 39q-86 30 -201 115l-168 -188z M295 733q0 -116 22 -206q16 -67 67 -165l746 835q-94 74 -164.5 101t-165.5 27q-219 0 -362 -148.5t-143 -443.5zM469 262q77 -63 142 -88q85 -33 184 -33q218 0 360 154t142 432q0 208 -85 367z" />
<glyph unicode="&#xd9;" horiz-adv-x="1479" d="M161 619v847h194v-846q0 -191 35.5 -281.5t122 -139.5t211.5 -49q214 0 305 97t91 373v846h194v-847q0 -221 -50 -351t-180.5 -211.5t-342.5 -81.5q-206 0 -337 71t-187 205.5t-56 367.5zM478 1836h241l135 -280h-145z" />
<glyph unicode="&#xda;" horiz-adv-x="1479" d="M161 619v847h194v-846q0 -191 35.5 -281.5t122 -139.5t211.5 -49q214 0 305 97t91 373v846h194v-847q0 -221 -50 -351t-180.5 -211.5t-342.5 -81.5q-206 0 -337 71t-187 205.5t-56 367.5zM614 1556l133 280h236l-220 -280h-149z" />
<glyph unicode="&#xdb;" horiz-adv-x="1479" d="M161 619v847h194v-846q0 -191 35.5 -281.5t122 -139.5t211.5 -49q214 0 305 97t91 373v846h194v-847q0 -221 -50 -351t-180.5 -211.5t-342.5 -81.5q-206 0 -337 71t-187 205.5t-56 367.5zM417 1556l216 280h192l225 -280h-204l-110 170l-113 -170h-206z" />
<glyph unicode="&#xdc;" horiz-adv-x="1479" d="M161 619v847h194v-846q0 -191 35.5 -281.5t122 -139.5t211.5 -49q214 0 305 97t91 373v846h194v-847q0 -221 -50 -351t-180.5 -211.5t-342.5 -81.5q-206 0 -337 71t-187 205.5t-56 367.5zM454 1556v205h188v-205h-188zM827 1556v205h188v-205h-188z" />
<glyph unicode="&#xdd;" horiz-adv-x="1366" d="M6 1466h236l289 -442q80 -124 149 -248q66 115 160 259l284 431h226l-585 -845v-621h-194v621zM555 1556l133 280h236l-220 -280h-149z" />
<glyph unicode="&#xde;" horiz-adv-x="1366" d="M158 0v1466h194v-298h359q146 0 224 -14q108 -19 181 -69.5t117 -141.5t44 -200q0 -186 -119 -315.5t-430 -129.5h-376v-298h-194zM352 471h379q188 0 267 70t79 196q0 91 -46 157t-122 87q-49 14 -182 14h-375v-524z" />
<glyph unicode="&#xdf;" horiz-adv-x="1251" d="M153 0v999q0 183 44.5 281.5t148.5 154.5t234 56q173 0 272 -86.5t99 -200.5q0 -51 -18 -105t-64 -134.5t-58 -112t-12 -55.5q0 -32 22 -63q21 -32 121 -97q136 -89 181 -143q64 -77 64 -182q0 -139 -102.5 -238t-262.5 -99q-126 0 -221 67.5t-142 173.5l155 72 q50 -93 100 -129t105 -36q76 0 130 52t54 122q0 56 -32 96q-21 26 -112 88q-166 114 -205 171q-40 57 -40 117q0 39 13.5 79t65 128t67.5 132t16 78q0 62 -54.5 109.5t-145.5 47.5q-107 0 -175 -66t-68 -286v-991h-180z" />
<glyph unicode="&#xe0;" horiz-adv-x="1139" d="M74 280q0 78 35.5 142.5t93 103.5t129.5 59q53 14 160 27q218 26 321 62q1 37 1 47q0 110 -51 155q-69 61 -205 61q-127 0 -187.5 -44.5t-89.5 -157.5l-176 24q24 113 79 182.5t159 107t241 37.5q136 0 221 -32t125 -80.5t56 -122.5q9 -46 9 -166v-240 q0 -251 11.5 -317.5t45.5 -127.5h-188q-28 56 -36 131q-100 -85 -192.5 -120t-198.5 -35q-175 0 -269 85.5t-94 218.5zM266 285q0 -72 54.5 -120t159.5 -48q104 0 185 45.5t119 124.5q29 61 29 180v66q-98 -40 -294 -68q-111 -16 -157 -36t-71 -58.5t-25 -85.5zM339 1474 h241l135 -280h-145z" />
<glyph unicode="&#xe1;" horiz-adv-x="1139" d="M74 280q0 78 35.5 142.5t93 103.5t129.5 59q53 14 160 27q218 26 321 62q1 37 1 47q0 110 -51 155q-69 61 -205 61q-127 0 -187.5 -44.5t-89.5 -157.5l-176 24q24 113 79 182.5t159 107t241 37.5q136 0 221 -32t125 -80.5t56 -122.5q9 -46 9 -166v-240 q0 -251 11.5 -317.5t45.5 -127.5h-188q-28 56 -36 131q-100 -85 -192.5 -120t-198.5 -35q-175 0 -269 85.5t-94 218.5zM266 285q0 -72 54.5 -120t159.5 -48q104 0 185 45.5t119 124.5q29 61 29 180v66q-98 -40 -294 -68q-111 -16 -157 -36t-71 -58.5t-25 -85.5zM463 1194 l133 280h236l-220 -280h-149z" />
<glyph unicode="&#xe2;" horiz-adv-x="1139" d="M74 280q0 78 35.5 142.5t93 103.5t129.5 59q53 14 160 27q218 26 321 62q1 37 1 47q0 110 -51 155q-69 61 -205 61q-127 0 -187.5 -44.5t-89.5 -157.5l-176 24q24 113 79 182.5t159 107t241 37.5q136 0 221 -32t125 -80.5t56 -122.5q9 -46 9 -166v-240 q0 -251 11.5 -317.5t45.5 -127.5h-188q-28 56 -36 131q-100 -85 -192.5 -120t-198.5 -35q-175 0 -269 85.5t-94 218.5zM247 1194l216 280h192l225 -280h-204l-110 170l-113 -170h-206zM266 285q0 -72 54.5 -120t159.5 -48q104 0 185 45.5t119 124.5q29 61 29 180v66 q-98 -40 -294 -68q-111 -16 -157 -36t-71 -58.5t-25 -85.5z" />
<glyph unicode="&#xe3;" horiz-adv-x="1139" d="M74 280q0 78 35.5 142.5t93 103.5t129.5 59q53 14 160 27q218 26 321 62q1 37 1 47q0 110 -51 155q-69 61 -205 61q-127 0 -187.5 -44.5t-89.5 -157.5l-176 24q24 113 79 182.5t159 107t241 37.5q136 0 221 -32t125 -80.5t56 -122.5q9 -46 9 -166v-240 q0 -251 11.5 -317.5t45.5 -127.5h-188q-28 56 -36 131q-100 -85 -192.5 -120t-198.5 -35q-175 0 -269 85.5t-94 218.5zM229 1219q-1 104 57 166q57 62 146 62q62 0 169 -54q59 -30 94 -30q32 0 49 17.5t24 69.5h130q-3 -114 -57.5 -171t-138.5 -57q-63 0 -166 56 q-67 36 -98 36q-34 0 -55 -24q-22 -24 -21 -71h-133zM266 285q0 -72 54.5 -120t159.5 -48q104 0 185 45.5t119 124.5q29 61 29 180v66q-98 -40 -294 -68q-111 -16 -157 -36t-71 -58.5t-25 -85.5z" />
<glyph unicode="&#xe4;" horiz-adv-x="1139" d="M74 280q0 78 35.5 142.5t93 103.5t129.5 59q53 14 160 27q218 26 321 62q1 37 1 47q0 110 -51 155q-69 61 -205 61q-127 0 -187.5 -44.5t-89.5 -157.5l-176 24q24 113 79 182.5t159 107t241 37.5q136 0 221 -32t125 -80.5t56 -122.5q9 -46 9 -166v-240 q0 -251 11.5 -317.5t45.5 -127.5h-188q-28 56 -36 131q-100 -85 -192.5 -120t-198.5 -35q-175 0 -269 85.5t-94 218.5zM266 285q0 -72 54.5 -120t159.5 -48q104 0 185 45.5t119 124.5q29 61 29 180v66q-98 -40 -294 -68q-111 -16 -157 -36t-71 -58.5t-25 -85.5zM283 1270 v205h188v-205h-188zM656 1270v205h188v-205h-188z" />
<glyph unicode="&#xe5;" horiz-adv-x="1139" d="M74 280q0 78 35.5 142.5t93 103.5t129.5 59q53 14 160 27q218 26 321 62q1 37 1 47q0 110 -51 155q-69 61 -205 61q-127 0 -187.5 -44.5t-89.5 -157.5l-176 24q24 113 79 182.5t159 107t241 37.5q136 0 221 -32t125 -80.5t56 -122.5q9 -46 9 -166v-240 q0 -251 11.5 -317.5t45.5 -127.5h-188q-28 56 -36 131q-100 -85 -192.5 -120t-198.5 -35q-175 0 -269 85.5t-94 218.5zM266 285q0 -72 54.5 -120t159.5 -48q104 0 185 45.5t119 124.5q29 61 29 180v66q-98 -40 -294 -68q-111 -16 -157 -36t-71 -58.5t-25 -85.5zM383 1338 q0 73 53.5 126t126.5 53q74 0 127 -53.5t53 -129.5q0 -77 -53 -130t-126 -53q-75 0 -128 53.5t-53 133.5zM459 1337q0 -47 31.5 -79t74.5 -32t74.5 32t31.5 77t-31 77t-75 32q-43 0 -74.5 -31.5t-31.5 -75.5z" />
<glyph unicode="&#xe6;" horiz-adv-x="1821" d="M68 280q0 86 49.5 161.5t138 114.5t282.5 64q150 20 252 49q1 25 1 41q0 126 -52.5 176.5t-183.5 50.5q-87 0 -147 -21t-88.5 -59.5t-47.5 -123.5l-175 21q28 117 80.5 185.5t150.5 107.5t229 39q167 0 269 -50q59 -29 99 -93q64 70 145 106.5t196 36.5q162 0 268 -78.5 t155 -207.5t49 -254q0 -19 -2 -61h-767q2 -144 35.5 -209t107 -108.5t161.5 -43.5q103 0 174.5 59t98.5 166l188 -24q-50 -167 -170 -258t-298 -91q-127 0 -222.5 48t-172.5 150q-104 -102 -210.5 -150t-229.5 -48q-172 0 -267.5 88.5t-95.5 215.5zM259 286q0 -71 53 -119.5 t154 -48.5q115 0 200.5 57t111.5 142q15 52 15 216q-79 -34 -322 -73q-109 -17 -153 -51q-59 -47 -59 -123zM969 633h584q-14 158 -90 231t-198 73q-126 0 -206.5 -80t-89.5 -224z" />
<glyph unicode="&#xe7;" horiz-adv-x="1024" d="M80 527q0 172 57 301t173.5 193.5t253.5 64.5q173 0 283 -87.5t141 -248.5l-175 -27q-25 107 -88.5 161t-153.5 54q-136 0 -221 -97.5t-85 -308.5q0 -214 82 -311t214 -97q106 0 177 65t90 200l177 -23q-29 -183 -148.5 -286.5t-293.5 -103.5q-218 0 -350.5 142.5 t-132.5 408.5zM302 -389l11 117q64 -4 94 -4q94 0 132 26q29 20 29 49q0 18 -11.5 32t-42.5 24t-103 11l52 177h134l-33 -107q85 -10 128 -52.5t43 -94.5q0 -75 -72 -132.5t-217 -57.5q-82 0 -144 12z" />
<glyph unicode="&#xe8;" horiz-adv-x="1139" d="M75 522q0 268 138 416t358 148q213 0 348 -145t135 -408q0 -16 -1 -48h-792q10 -175 99 -268t222 -93q99 0 169 52t111 166l186 -23q-44 -163 -163 -253t-304 -90q-233 0 -369.5 143.5t-136.5 402.5zM271 633h593q-12 134 -68 201q-86 104 -223 104q-124 0 -208.5 -83 t-93.5 -222zM310 1474h241l135 -280h-145z" />
<glyph unicode="&#xe9;" horiz-adv-x="1139" d="M75 522q0 268 138 416t358 148q213 0 348 -145t135 -408q0 -16 -1 -48h-792q10 -175 99 -268t222 -93q99 0 169 52t111 166l186 -23q-44 -163 -163 -253t-304 -90q-233 0 -369.5 143.5t-136.5 402.5zM271 633h593q-12 134 -68 201q-86 104 -223 104q-124 0 -208.5 -83 t-93.5 -222zM465 1194l133 280h236l-220 -280h-149z" />
<glyph unicode="&#xea;" horiz-adv-x="1139" d="M75 522q0 268 138 416t358 148q213 0 348 -145t135 -408q0 -16 -1 -48h-792q10 -175 99 -268t222 -93q99 0 169 52t111 166l186 -23q-44 -163 -163 -253t-304 -90q-233 0 -369.5 143.5t-136.5 402.5zM248 1194l216 280h192l225 -280h-204l-110 170l-113 -170h-206z M271 633h593q-12 134 -68 201q-86 104 -223 104q-124 0 -208.5 -83t-93.5 -222z" />
<glyph unicode="&#xeb;" horiz-adv-x="1139" d="M75 522q0 268 138 416t358 148q213 0 348 -145t135 -408q0 -16 -1 -48h-792q10 -175 99 -268t222 -93q99 0 169 52t111 166l186 -23q-44 -163 -163 -253t-304 -90q-233 0 -369.5 143.5t-136.5 402.5zM271 633h593q-12 134 -68 201q-86 104 -223 104q-124 0 -208.5 -83 t-93.5 -222zM284 1270v205h188v-205h-188zM657 1270v205h188v-205h-188z" />
<glyph unicode="&#xec;" horiz-adv-x="569" d="M35 1474h241l135 -280h-145zM198 0v1062h180v-1062h-180z" />
<glyph unicode="&#xed;" horiz-adv-x="569" d="M189 1194l133 280h236l-220 -280h-149zM198 0v1062h180v-1062h-180z" />
<glyph unicode="&#xee;" horiz-adv-x="569" d="M-17 1194l216 280h192l225 -280h-204l-110 170l-113 -170h-206zM198 0v1062h180v-1062h-180z" />
<glyph unicode="&#xef;" horiz-adv-x="569" d="M9 1270v205h188v-205h-188zM198 0v1062h180v-1062h-180zM382 1270v205h188v-205h-188z" />
<glyph unicode="&#xf0;" horiz-adv-x="1139" d="M73 517q0 261 129 403t323 142q58 0 102 -12t110 -47q-36 73 -63 113.5t-79 99.5l-275 -127l-44 103l239 109q-97 90 -207 165h217q72 -54 125 -102l214 102l45 -102l-172 -83q320 -368 320 -760q0 -253 -139 -399.5t-354 -146.5q-255 0 -398 194q-93 127 -93 348z M257 512q0 -194 87.5 -292t218.5 -98q128 0 217.5 103.5t89.5 303.5q0 192 -90.5 293.5t-222.5 101.5q-130 0 -215 -101.5t-85 -310.5z" />
<glyph unicode="&#xf1;" horiz-adv-x="1139" d="M135 0v1062h162v-151q117 175 338 175q96 0 176.5 -34.5t120.5 -90.5t56 -133q10 -50 10 -175v-653h-180v646q0 110 -21 164.5t-74.5 87t-125.5 32.5q-115 0 -198.5 -73t-83.5 -277v-580h-180zM262 1219q-1 104 57 166q57 62 146 62q62 0 169 -54q59 -30 94 -30 q32 0 49 17.5t24 69.5h130q-3 -114 -57.5 -171t-138.5 -57q-63 0 -166 56q-67 36 -98 36q-34 0 -55 -24q-22 -24 -21 -71h-133z" />
<glyph unicode="&#xf2;" horiz-adv-x="1139" d="M68 531q0 295 164 437q137 118 334 118q219 0 358 -143.5t139 -396.5q0 -205 -61.5 -322.5t-179 -182.5t-256.5 -65q-223 0 -360.5 143t-137.5 412zM253 531q0 -204 89 -305.5t224 -101.5q134 0 223 102t89 311q0 197 -89.5 298.5t-222.5 101.5q-135 0 -224 -101 t-89 -305zM311 1474h241l135 -280h-145z" />
<glyph unicode="&#xf3;" horiz-adv-x="1139" d="M68 531q0 295 164 437q137 118 334 118q219 0 358 -143.5t139 -396.5q0 -205 -61.5 -322.5t-179 -182.5t-256.5 -65q-223 0 -360.5 143t-137.5 412zM253 531q0 -204 89 -305.5t224 -101.5q134 0 223 102t89 311q0 197 -89.5 298.5t-222.5 101.5q-135 0 -224 -101 t-89 -305zM466 1194l133 280h236l-220 -280h-149z" />
<glyph unicode="&#xf4;" horiz-adv-x="1139" d="M68 531q0 295 164 437q137 118 334 118q219 0 358 -143.5t139 -396.5q0 -205 -61.5 -322.5t-179 -182.5t-256.5 -65q-223 0 -360.5 143t-137.5 412zM249 1194l216 280h192l225 -280h-204l-110 170l-113 -170h-206zM253 531q0 -204 89 -305.5t224 -101.5q134 0 223 102 t89 311q0 197 -89.5 298.5t-222.5 101.5q-135 0 -224 -101t-89 -305z" />
<glyph unicode="&#xf5;" horiz-adv-x="1139" d="M68 531q0 295 164 437q137 118 334 118q219 0 358 -143.5t139 -396.5q0 -205 -61.5 -322.5t-179 -182.5t-256.5 -65q-223 0 -360.5 143t-137.5 412zM231 1219q-1 104 57 166q57 62 146 62q62 0 169 -54q59 -30 94 -30q32 0 49 17.5t24 69.5h130q-3 -114 -57.5 -171 t-138.5 -57q-63 0 -166 56q-67 36 -98 36q-34 0 -55 -24q-22 -24 -21 -71h-133zM253 531q0 -204 89 -305.5t224 -101.5q134 0 223 102t89 311q0 197 -89.5 298.5t-222.5 101.5q-135 0 -224 -101t-89 -305z" />
<glyph unicode="&#xf6;" horiz-adv-x="1139" d="M68 531q0 295 164 437q137 118 334 118q219 0 358 -143.5t139 -396.5q0 -205 -61.5 -322.5t-179 -182.5t-256.5 -65q-223 0 -360.5 143t-137.5 412zM253 531q0 -204 89 -305.5t224 -101.5q134 0 223 102t89 311q0 197 -89.5 298.5t-222.5 101.5q-135 0 -224 -101 t-89 -305zM285 1270v205h188v-205h-188zM658 1270v205h188v-205h-188z" />
<glyph unicode="&#xf7;" horiz-adv-x="1124" d="M78 639v168h968v-168h-968zM459 319v205h205v-205h-205zM459 922v205h205v-205h-205z" />
<glyph unicode="&#xf8;" horiz-adv-x="1251" d="M129 516q0 301 147 435.5t345 134.5q82 0 151 -21t147 -66l99 128l96 -70l-107 -138q63 -86 86 -156q31 -100 31 -233q0 -300 -169 -441q-137 -113 -330 -113q-159 0 -281 80l-105 -135l-94 71l108 141q-59 68 -84 136q-40 109 -40 247zM314 531q0 -150 52 -251l452 587 q-91 70 -191 70q-133 0 -223 -102t-90 -304zM444 187q78 -63 176 -63q139 0 229.5 102t90.5 306q0 76 -12 133q-8 42 -35 105z" />
<glyph unicode="&#xf9;" horiz-adv-x="1139" d="M131 404v658h180v-589q0 -141 11 -190q17 -71 72 -111.5t136 -40.5t152 41.5t100.5 113t29.5 207.5v569h180v-1062h-161v156q-124 -180 -337 -180q-94 0 -175.5 36t-121 90.5t-55.5 133.5q-11 53 -11 168zM352 1474h241l135 -280h-145z" />
<glyph unicode="&#xfa;" horiz-adv-x="1139" d="M131 404v658h180v-589q0 -141 11 -190q17 -71 72 -111.5t136 -40.5t152 41.5t100.5 113t29.5 207.5v569h180v-1062h-161v156q-124 -180 -337 -180q-94 0 -175.5 36t-121 90.5t-55.5 133.5q-11 53 -11 168zM453 1194l133 280h236l-220 -280h-149z" />
<glyph unicode="&#xfb;" horiz-adv-x="1139" d="M131 404v658h180v-589q0 -141 11 -190q17 -71 72 -111.5t136 -40.5t152 41.5t100.5 113t29.5 207.5v569h180v-1062h-161v156q-124 -180 -337 -180q-94 0 -175.5 36t-121 90.5t-55.5 133.5q-11 53 -11 168zM245 1194l216 280h192l225 -280h-204l-110 170l-113 -170h-206z " />
<glyph unicode="&#xfc;" horiz-adv-x="1139" d="M131 404v658h180v-589q0 -141 11 -190q17 -71 72 -111.5t136 -40.5t152 41.5t100.5 113t29.5 207.5v569h180v-1062h-161v156q-124 -180 -337 -180q-94 0 -175.5 36t-121 90.5t-55.5 133.5q-11 53 -11 168zM281 1270v205h188v-205h-188zM654 1270v205h188v-205h-188z" />
<glyph unicode="&#xfd;" horiz-adv-x="1024" d="M33 1062h194l221 -615q43 -117 77 -246q31 124 74 242l227 619h180l-404 -1080q-65 -175 -101 -241q-48 -89 -110 -130.5t-148 -41.5q-52 0 -116 22l-20 169q59 -16 103 -16q60 0 96 20t59 56q17 27 55 134q5 15 16 44zM420 1194l133 280h236l-220 -280h-149z" />
<glyph unicode="&#xfe;" horiz-adv-x="1139" d="M135 -407v1873h180v-516q73 77 128 102q72 34 164 34q136 0 240 -70t157 -197.5t53 -279.5q0 -164 -58.5 -294t-170 -199.5t-233.5 -69.5q-83 0 -154 33q-54 26 -126 101v-517h-180zM298 525q0 -205 83 -303t201 -98q120 0 205.5 101.5t85.5 314.5q0 203 -83.5 304 t-199.5 101q-115 0 -203.5 -107.5t-88.5 -312.5z" />
<glyph unicode="&#xff;" horiz-adv-x="1024" d="M33 1062h194l221 -615q43 -117 77 -246q31 124 74 242l227 619h180l-404 -1080q-65 -175 -101 -241q-48 -89 -110 -130.5t-148 -41.5q-52 0 -116 22l-20 169q59 -16 103 -16q60 0 96 20t59 56q17 27 55 134q5 15 16 44zM243 1270v205h188v-205h-188zM616 1270v205h188 v-205h-188z" />
<glyph unicode="&#x100;" horiz-adv-x="1366" d="M-3 0l563 1466h209l600 -1466h-221l-171 444h-613l-161 -444h-206zM359 1578v148h624v-148h-624zM420 602h497l-153 406q-70 185 -104 304q-28 -141 -79 -280z" />
<glyph unicode="&#x101;" horiz-adv-x="1139" d="M74 280q0 78 35.5 142.5t93 103.5t129.5 59q53 14 160 27q218 26 321 62q1 37 1 47q0 110 -51 155q-69 61 -205 61q-127 0 -187.5 -44.5t-89.5 -157.5l-176 24q24 113 79 182.5t159 107t241 37.5q136 0 221 -32t125 -80.5t56 -122.5q9 -46 9 -166v-240 q0 -251 11.5 -317.5t45.5 -127.5h-188q-28 56 -36 131q-100 -85 -192.5 -120t-198.5 -35q-175 0 -269 85.5t-94 218.5zM266 285q0 -72 54.5 -120t159.5 -48q104 0 185 45.5t119 124.5q29 61 29 180v66q-98 -40 -294 -68q-111 -16 -157 -36t-71 -58.5t-25 -85.5zM274 1227 v148h624v-148h-624z" />
<glyph unicode="&#x102;" horiz-adv-x="1366" d="M-3 0l563 1466h209l600 -1466h-221l-171 444h-613l-161 -444h-206zM384 1815h123q14 -68 55.5 -101.5t111.5 -33.5q81 0 122.5 32.5t55.5 102.5h123q-15 -125 -91.5 -192t-203.5 -67q-128 0 -204.5 66.5t-91.5 192.5zM420 602h497l-153 406q-70 185 -104 304 q-28 -141 -79 -280z" />
<glyph unicode="&#x103;" horiz-adv-x="1139" d="M74 280q0 78 35.5 142.5t93 103.5t129.5 59q53 14 160 27q218 26 321 62q1 37 1 47q0 110 -51 155q-69 61 -205 61q-127 0 -187.5 -44.5t-89.5 -157.5l-176 24q24 113 79 182.5t159 107t241 37.5q136 0 221 -32t125 -80.5t56 -122.5q9 -46 9 -166v-240 q0 -251 11.5 -317.5t45.5 -127.5h-188q-28 56 -36 131q-100 -85 -192.5 -120t-198.5 -35q-175 0 -269 85.5t-94 218.5zM266 285q0 -72 54.5 -120t159.5 -48q104 0 185 45.5t119 124.5q29 61 29 180v66q-98 -40 -294 -68q-111 -16 -157 -36t-71 -58.5t-25 -85.5zM291 1464 h123q14 -68 55.5 -101.5t111.5 -33.5q81 0 122.5 32.5t55.5 102.5h123q-15 -125 -91.5 -192t-203.5 -67q-128 0 -204.5 66.5t-91.5 192.5z" />
<glyph unicode="&#x104;" horiz-adv-x="1366" d="M-3 0l563 1466h209l600 -1466h-221l-171 444h-613l-161 -444h-206zM420 602h497l-153 406q-70 185 -104 304q-28 -141 -79 -280zM1110 -195q0 86 41 229h124q-39 -89 -39 -164q0 -68 41 -110t103 -42q77 0 168 46v-119q-52 -27 -113 -44t-106 -17q-99 0 -159 60t-60 161z " />
<glyph unicode="&#x105;" horiz-adv-x="1139" d="M74 280q0 78 35.5 142.5t93 103.5t129.5 59q53 14 160 27q218 26 321 62q1 37 1 47q0 110 -51 155q-69 61 -205 61q-127 0 -187.5 -44.5t-89.5 -157.5l-176 24q24 113 79 182.5t159 107t241 37.5q136 0 221 -32t125 -80.5t56 -122.5q9 -46 9 -166v-240 q0 -251 11.5 -317.5t45.5 -127.5h-188q-28 56 -36 131q-100 -85 -192.5 -120t-198.5 -35q-175 0 -269 85.5t-94 218.5zM266 285q0 -72 54.5 -120t159.5 -48q104 0 185 45.5t119 124.5q29 61 29 180v66q-98 -40 -294 -68q-111 -16 -157 -36t-71 -58.5t-25 -85.5zM830 -180 q0 86 41 229h124q-39 -89 -39 -164q0 -68 41 -110t103 -42q77 0 168 46v-119q-52 -27 -113 -44t-106 -17q-99 0 -159 60t-60 161z" />
<glyph unicode="&#x106;" horiz-adv-x="1479" d="M102 744q0 229 87.5 399.5t249 259t355.5 88.5q220 0 370 -112t209 -315l-191 -45q-51 160 -148 233t-244 73q-169 0 -282.5 -81t-159.5 -217.5t-46 -281.5q0 -187 54.5 -326.5t169.5 -208.5t249 -69q163 0 276 94t153 279l194 -49q-61 -239 -219.5 -364.5t-387.5 -125.5 q-237 0 -385.5 96.5t-226 279.5t-77.5 393zM663 1556l133 280h236l-220 -280h-149z" />
<glyph unicode="&#x107;" horiz-adv-x="1024" d="M80 527q0 172 57 301t173.5 193.5t253.5 64.5q173 0 283 -87.5t141 -248.5l-175 -27q-25 107 -88.5 161t-153.5 54q-136 0 -221 -97.5t-85 -308.5q0 -214 82 -311t214 -97q106 0 177 65t90 200l177 -23q-29 -183 -148.5 -286.5t-293.5 -103.5q-218 0 -350.5 142.5 t-132.5 408.5zM424 1194l133 280h236l-220 -280h-149z" />
<glyph unicode="&#x108;" horiz-adv-x="1479" d="M102 744q0 229 87.5 399.5t249 259t355.5 88.5q220 0 370 -112t209 -315l-191 -45q-51 160 -148 233t-244 73q-169 0 -282.5 -81t-159.5 -217.5t-46 -281.5q0 -187 54.5 -326.5t169.5 -208.5t249 -69q163 0 276 94t153 279l194 -49q-61 -239 -219.5 -364.5t-387.5 -125.5 q-237 0 -385.5 96.5t-226 279.5t-77.5 393zM457 1550l216 280h192l225 -280h-204l-110 170l-113 -170h-206z" />
<glyph unicode="&#x109;" horiz-adv-x="1024" d="M80 527q0 172 57 301t173.5 193.5t253.5 64.5q173 0 283 -87.5t141 -248.5l-175 -27q-25 107 -88.5 161t-153.5 54q-136 0 -221 -97.5t-85 -308.5q0 -214 82 -311t214 -97q106 0 177 65t90 200l177 -23q-29 -183 -148.5 -286.5t-293.5 -103.5q-218 0 -350.5 142.5 t-132.5 408.5zM275 1194l216 280h192l225 -280h-204l-110 170l-113 -170h-206z" />
<glyph unicode="&#x10a;" horiz-adv-x="1479" d="M102 744q0 229 87.5 399.5t249 259t355.5 88.5q220 0 370 -112t209 -315l-191 -45q-51 160 -148 233t-244 73q-169 0 -282.5 -81t-159.5 -217.5t-46 -281.5q0 -187 54.5 -326.5t169.5 -208.5t249 -69q163 0 276 94t153 279l194 -49q-61 -239 -219.5 -364.5t-387.5 -125.5 q-237 0 -385.5 96.5t-226 279.5t-77.5 393zM661 1594v224h223v-224h-223z" />
<glyph unicode="&#x10b;" horiz-adv-x="1024" d="M80 527q0 172 57 301t173.5 193.5t253.5 64.5q173 0 283 -87.5t141 -248.5l-175 -27q-25 107 -88.5 161t-153.5 54q-136 0 -221 -97.5t-85 -308.5q0 -214 82 -311t214 -97q106 0 177 65t90 200l177 -23q-29 -183 -148.5 -286.5t-293.5 -103.5q-218 0 -350.5 142.5 t-132.5 408.5zM469 1194v224h223v-224h-223z" />
<glyph unicode="&#x10c;" horiz-adv-x="1479" d="M102 744q0 229 87.5 399.5t249 259t355.5 88.5q220 0 370 -112t209 -315l-191 -45q-51 160 -148 233t-244 73q-169 0 -282.5 -81t-159.5 -217.5t-46 -281.5q0 -187 54.5 -326.5t169.5 -208.5t249 -69q163 0 276 94t153 279l194 -49q-61 -239 -219.5 -364.5t-387.5 -125.5 q-237 0 -385.5 96.5t-226 279.5t-77.5 393zM472 1830h206l113 -170l110 170h204l-225 -280h-192z" />
<glyph unicode="&#x10d;" horiz-adv-x="1024" d="M80 527q0 172 57 301t173.5 193.5t253.5 64.5q173 0 283 -87.5t141 -248.5l-175 -27q-25 107 -88.5 161t-153.5 54q-136 0 -221 -97.5t-85 -308.5q0 -214 82 -311t214 -97q106 0 177 65t90 200l177 -23q-29 -183 -148.5 -286.5t-293.5 -103.5q-218 0 -350.5 142.5 t-132.5 408.5zM242 1474h206l113 -170l110 170h204l-225 -280h-192z" />
<glyph unicode="&#x10e;" horiz-adv-x="1479" d="M158 0v1466h505q171 0 261 -21q126 -29 215 -105q116 -98 173.5 -250.5t57.5 -348.5q0 -167 -39 -296t-100 -213.5t-133.5 -133t-175 -73.5t-235.5 -25h-529zM281 1830h206l113 -170l110 170h204l-225 -280h-192zM352 173h313q145 0 227.5 27t131.5 76q69 69 107.5 185.5 t38.5 282.5q0 230 -75.5 353.5t-183.5 165.5q-78 30 -251 30h-308v-1120z" />
<glyph unicode="&#x10f;" horiz-adv-x="1259" d="M71 530q0 159 53 288.5t159 198.5t237 69q96 0 171 -40.5t122 -105.5v526h179v-1466h-167v134q-101 -158 -297 -158q-127 0 -233.5 70t-165 195.5t-58.5 288.5zM256 530q0 -204 86 -305t203 -101q118 0 200.5 96.5t82.5 294.5q0 218 -84 320t-207 102q-120 0 -200.5 -98 t-80.5 -309zM1067 1089q51 23 75.5 66.5t26.5 125.5h-91v185h184v-185q0 -101 -36 -163.5t-114 -96.5z" />
<glyph unicode="&#x110;" horiz-adv-x="1479" d="M-3 667v132h161v667h506q170 0 260 -21q126 -29 215 -105q116 -98 173.5 -250.5t57.5 -348.5q0 -224 -71 -385.5t-170 -234.5t-228 -104q-71 -17 -214 -17h-529v667h-161zM352 173h313q146 0 228 27t130 75q69 69 108 185t39 283q0 172 -38.5 275t-100.5 165t-138 86 t-233 24h-308v-494h404v-132h-404v-494z" />
<glyph unicode="&#x111;" horiz-adv-x="1139" d="M70 530q0 159 53 288.5t159 198.5t237 69q96 0 171 -40.5t122 -105.5v279h-346v132h346v115h179v-115h145v-132h-145v-1219h-167v134q-101 -158 -297 -158q-127 0 -233.5 70t-165 195.5t-58.5 288.5zM255 530q0 -204 86 -305t203 -101q118 0 200.5 96.5t82.5 294.5 q0 218 -84 320t-207 102q-120 0 -200.5 -98t-80.5 -309z" />
<glyph unicode="&#x112;" horiz-adv-x="1366" d="M162 0v1466h1060v-173h-866v-449h811v-172h-811v-499h900v-173h-1094zM414 1589v148h624v-148h-624z" />
<glyph unicode="&#x113;" horiz-adv-x="1139" d="M75 522q0 268 138 416t358 148q213 0 348 -145t135 -408q0 -16 -1 -48h-792q10 -175 99 -268t222 -93q99 0 169 52t111 166l186 -23q-44 -163 -163 -253t-304 -90q-233 0 -369.5 143.5t-136.5 402.5zM253 1227v148h624v-148h-624zM271 633h593q-12 134 -68 201 q-86 104 -223 104q-124 0 -208.5 -83t-93.5 -222z" />
<glyph unicode="&#x114;" horiz-adv-x="1366" d="M162 0v1466h1060v-173h-866v-449h811v-172h-811v-499h900v-173h-1094zM409 1826h123q14 -68 55.5 -101.5t111.5 -33.5q81 0 122.5 32.5t55.5 102.5h123q-15 -125 -91.5 -192t-203.5 -67q-128 0 -204.5 66.5t-91.5 192.5z" />
<glyph unicode="&#x115;" horiz-adv-x="1139" d="M75 522q0 268 138 416t358 148q213 0 348 -145t135 -408q0 -16 -1 -48h-792q10 -175 99 -268t222 -93q99 0 169 52t111 166l186 -23q-44 -163 -163 -253t-304 -90q-233 0 -369.5 143.5t-136.5 402.5zM271 633h593q-12 134 -68 201q-86 104 -223 104q-124 0 -208.5 -83 t-93.5 -222zM290 1464h123q14 -68 55.5 -101.5t111.5 -33.5q81 0 122.5 32.5t55.5 102.5h123q-15 -125 -91.5 -192t-203.5 -67q-128 0 -204.5 66.5t-91.5 192.5z" />
<glyph unicode="&#x116;" horiz-adv-x="1366" d="M162 0v1466h1060v-173h-866v-449h811v-172h-811v-499h900v-173h-1094zM614 1556v224h223v-224h-223z" />
<glyph unicode="&#x117;" horiz-adv-x="1139" d="M75 522q0 268 138 416t358 148q213 0 348 -145t135 -408q0 -16 -1 -48h-792q10 -175 99 -268t222 -93q99 0 169 52t111 166l186 -23q-44 -163 -163 -253t-304 -90q-233 0 -369.5 143.5t-136.5 402.5zM271 633h593q-12 134 -68 201q-86 104 -223 104q-124 0 -208.5 -83 t-93.5 -222zM479 1194v224h223v-224h-223z" />
<glyph unicode="&#x118;" horiz-adv-x="1366" d="M162 0v1466h1060v-173h-866v-449h811v-172h-811v-499h900v-173h-1094zM815 -205q0 86 41 229h124q-39 -89 -39 -164q0 -68 41 -110t103 -42q77 0 168 46v-119q-52 -27 -113 -44t-106 -17q-99 0 -159 60t-60 161z" />
<glyph unicode="&#x119;" horiz-adv-x="1139" d="M75 522q0 268 138 416t358 148q213 0 348 -145t135 -408q0 -16 -1 -48h-792q10 -175 99 -268t222 -93q99 0 169 52t111 166l186 -23q-44 -163 -163 -253t-304 -90q-233 0 -369.5 143.5t-136.5 402.5zM271 633h593q-12 134 -68 201q-86 104 -223 104q-124 0 -208.5 -83 t-93.5 -222zM500 -205q0 86 41 229h124q-39 -89 -39 -164q0 -68 41 -110t103 -42q77 0 168 46v-119q-52 -27 -113 -44t-106 -17q-99 0 -159 60t-60 161z" />
<glyph unicode="&#x11a;" horiz-adv-x="1366" d="M162 0v1466h1060v-173h-866v-449h811v-172h-811v-499h900v-173h-1094zM347 1830h206l113 -170l110 170h204l-225 -280h-192z" />
<glyph unicode="&#x11b;" horiz-adv-x="1139" d="M75 522q0 268 138 416t358 148q213 0 348 -145t135 -408q0 -16 -1 -48h-792q10 -175 99 -268t222 -93q99 0 169 52t111 166l186 -23q-44 -163 -163 -253t-304 -90q-233 0 -369.5 143.5t-136.5 402.5zM264 1474h206l113 -170l110 170h204l-225 -280h-192zM271 633h593 q-12 134 -68 201q-86 104 -223 104q-124 0 -208.5 -83t-93.5 -222z" />
<glyph unicode="&#x11c;" horiz-adv-x="1593" d="M109 726q0 214 89.5 399.5t257.5 275.5t387 90q159 0 287.5 -51.5t201.5 -143.5t111 -240l-175 -48q-33 112 -82 176t-140 102.5t-202 38.5q-133 0 -230 -40.5t-156.5 -106.5t-92.5 -145q-56 -136 -56 -295q0 -196 67.5 -328t196.5 -196t274 -64q126 0 246 48.5 t182 103.5v273h-431v172l621 1v-544q-143 -114 -295 -171.5t-312 -57.5q-216 0 -392.5 92.5t-266.5 267.5t-90 391zM551 1545l216 280h192l225 -280h-204l-110 170l-113 -170h-206z" />
<glyph unicode="&#x11d;" horiz-adv-x="1139" d="M66 537q0 152 55 280.5t159.5 198.5t245.5 70q188 0 310 -152v128h166v-918q0 -248 -50.5 -351.5t-160 -163.5t-269.5 -60q-190 0 -307 85.5t-113 257.5l175 -26q11 -81 61 -118q67 -50 183 -50q125 0 193 50t92 140q14 55 13 231q-118 -139 -294 -139q-219 0 -339 158 t-120 379zM225 1194l216 280h192l225 -280h-204l-110 170l-113 -170h-206zM251 550q0 -209 83 -305t208 -96q124 0 208 95.5t84 299.5q0 195 -86.5 294t-208.5 99q-120 0 -204 -97.5t-84 -289.5z" />
<glyph unicode="&#x11e;" horiz-adv-x="1593" d="M109 726q0 214 89.5 399.5t257.5 275.5t387 90q159 0 287.5 -51.5t201.5 -143.5t111 -240l-175 -48q-33 112 -82 176t-140 102.5t-202 38.5q-133 0 -230 -40.5t-156.5 -106.5t-92.5 -145q-56 -136 -56 -295q0 -196 67.5 -328t196.5 -196t274 -64q126 0 246 48.5 t182 103.5v273h-431v172l621 1v-544q-143 -114 -295 -171.5t-312 -57.5q-216 0 -392.5 92.5t-266.5 267.5t-90 391zM572 1815h123q14 -68 55.5 -101.5t111.5 -33.5q81 0 122.5 32.5t55.5 102.5h123q-15 -125 -91.5 -192t-203.5 -67q-128 0 -204.5 66.5t-91.5 192.5z" />
<glyph unicode="&#x11f;" horiz-adv-x="1139" d="M66 537q0 152 55 280.5t159.5 198.5t245.5 70q188 0 310 -152v128h166v-918q0 -248 -50.5 -351.5t-160 -163.5t-269.5 -60q-190 0 -307 85.5t-113 257.5l175 -26q11 -81 61 -118q67 -50 183 -50q125 0 193 50t92 140q14 55 13 231q-118 -139 -294 -139q-219 0 -339 158 t-120 379zM251 550q0 -209 83 -305t208 -96q124 0 208 95.5t84 299.5q0 195 -86.5 294t-208.5 99q-120 0 -204 -97.5t-84 -289.5zM274 1464h123q14 -68 55.5 -101.5t111.5 -33.5q81 0 122.5 32.5t55.5 102.5h123q-15 -125 -91.5 -192t-203.5 -67q-128 0 -204.5 66.5 t-91.5 192.5z" />
<glyph unicode="&#x120;" horiz-adv-x="1593" d="M109 726q0 214 89.5 399.5t257.5 275.5t387 90q159 0 287.5 -51.5t201.5 -143.5t111 -240l-175 -48q-33 112 -82 176t-140 102.5t-202 38.5q-133 0 -230 -40.5t-156.5 -106.5t-92.5 -145q-56 -136 -56 -295q0 -196 67.5 -328t196.5 -196t274 -64q126 0 246 48.5 t182 103.5v273h-431v172l621 1v-544q-143 -114 -295 -171.5t-312 -57.5q-216 0 -392.5 92.5t-266.5 267.5t-90 391zM755 1545v224h223v-224h-223z" />
<glyph unicode="&#x121;" horiz-adv-x="1139" d="M66 537q0 152 55 280.5t159.5 198.5t245.5 70q188 0 310 -152v128h166v-918q0 -248 -50.5 -351.5t-160 -163.5t-269.5 -60q-190 0 -307 85.5t-113 257.5l175 -26q11 -81 61 -118q67 -50 183 -50q125 0 193 50t92 140q14 55 13 231q-118 -139 -294 -139q-219 0 -339 158 t-120 379zM251 550q0 -209 83 -305t208 -96q124 0 208 95.5t84 299.5q0 195 -86.5 294t-208.5 99q-120 0 -204 -97.5t-84 -289.5zM457 1194v224h223v-224h-223z" />
<glyph unicode="&#x122;" horiz-adv-x="1593" d="M109 726q0 214 89.5 399.5t257.5 275.5t387 90q159 0 287.5 -51.5t201.5 -143.5t111 -240l-175 -48q-33 112 -82 176t-140 102.5t-202 38.5q-133 0 -230 -40.5t-156.5 -106.5t-92.5 -145q-56 -136 -56 -295q0 -196 67.5 -328t196.5 -196t274 -64q126 0 246 48.5 t182 103.5v273h-431v172l621 1v-544q-143 -114 -295 -171.5t-312 -57.5q-216 0 -392.5 92.5t-266.5 267.5t-90 391zM639 -409l11 117q64 -4 94 -4q94 0 132 26q29 20 29 49q0 18 -11.5 32t-42.5 24t-103 11l52 177h134l-33 -107q85 -10 128 -52.5t43 -94.5q0 -75 -72 -132.5 t-217 -57.5q-82 0 -144 12z" />
<glyph unicode="&#x123;" horiz-adv-x="1139" d="M66 535q0 241 121 396t341 155q186 0 308 -152v128h166v-918q0 -231 -46 -340t-160.5 -172t-269.5 -63q-214 0 -321 93.5t-103 249.5l175 -26q17 -168 244 -168q121 0 190.5 48t88.5 120t19 253q-117 -139 -291 -139q-220 0 -341 157.5t-121 377.5zM251 550 q0 -213 85 -307t206 -94q129 0 210.5 98.5t81.5 300.5q0 170 -77.5 279.5t-217.5 109.5q-130 0 -209 -103.5t-79 -283.5zM423 1170v117q0 112 37 182t131 107l54 -83q-93 -39 -109 -148h96v-175h-209z" />
<glyph unicode="&#x124;" horiz-adv-x="1479" d="M164 0v1466h194v-602h762v602h194v-1466h-194v691h-762v-691h-194zM455 1556l216 280h192l225 -280h-204l-110 170l-113 -170h-206z" />
<glyph unicode="&#x125;" horiz-adv-x="1139" d="M135 0v1466h180v-526q126 146 318 146q118 0 205 -46.5t124.5 -128.5t37.5 -238v-673h-180v673q0 135 -58.5 196.5t-165.5 61.5q-80 0 -150.5 -41.5t-100.5 -112.5t-30 -196v-581h-180zM325 1556l216 280h192l225 -280h-204l-110 170l-113 -170h-206z" />
<glyph unicode="&#x126;" horiz-adv-x="1479" d="M31 1099v148h133v219h194v-219h762v219h194v-219h133v-148h-133v-1099h-194v691h-762v-691h-194v1099h-133zM358 864h762v235h-762v-235z" />
<glyph unicode="&#x127;" horiz-adv-x="1139" d="M6 1199v134h129v133h180v-133h367v-134h-367v-259q122 146 320 146q137 0 251 -76t114 -337v-673h-180v673q0 258 -225 258q-123 0 -201.5 -80.5t-78.5 -269.5v-581h-180v1199h-129z" />
<glyph unicode="&#x128;" horiz-adv-x="569" d="M-63 1581q-1 104 57 166q57 62 146 62q62 0 169 -54q59 -30 94 -30q32 0 49 17.5t24 69.5h130q-3 -114 -57.5 -171t-138.5 -57q-63 0 -166 56q-67 36 -98 36q-34 0 -55 -24q-22 -24 -21 -71h-133zM191 0v1466h194v-1466h-194z" />
<glyph unicode="&#x129;" horiz-adv-x="569" d="M-45 1219q-1 104 57 166q57 62 146 62q62 0 169 -54q59 -30 94 -30q32 0 49 17.5t24 69.5h130q-3 -114 -57.5 -171t-138.5 -57q-63 0 -166 56q-67 36 -98 36q-34 0 -55 -24q-22 -24 -21 -71h-133zM198 0v1062h180v-1062h-180z" />
<glyph unicode="&#x12a;" horiz-adv-x="569" d="M-28 1563v148h624v-148h-624zM191 0v1466h194v-1466h-194z" />
<glyph unicode="&#x12b;" horiz-adv-x="569" d="M-23 1227v148h624v-148h-624zM198 0v1062h180v-1062h-180z" />
<glyph unicode="&#x12c;" horiz-adv-x="569" d="M-1 1800h123q14 -68 55.5 -101.5t111.5 -33.5q81 0 122.5 32.5t55.5 102.5h123q-15 -125 -91.5 -192t-203.5 -67q-128 0 -204.5 66.5t-91.5 192.5zM191 0v1466h194v-1466h-194z" />
<glyph unicode="&#x12d;" horiz-adv-x="569" d="M-6 1464h123q14 -68 55.5 -101.5t111.5 -33.5q81 0 122.5 32.5t55.5 102.5h123q-15 -125 -91.5 -192t-203.5 -67q-128 0 -204.5 66.5t-91.5 192.5zM198 0v1062h180v-1062h-180z" />
<glyph unicode="&#x12e;" horiz-adv-x="569" d="M163 -205q0 80 35 206v1465h194v-1466h-74q-29 -78 -29 -140q0 -67 41 -109.5t103 -42.5q77 0 168 46v-119q-119 -61 -223 -61q-91 0 -153 59t-62 162z" />
<glyph unicode="&#x12f;" horiz-adv-x="455" d="M102 -205q0 65 34 205v1062h180v-1062h-59q-29 -78 -29 -140q0 -67 41 -109.5t103 -42.5q77 0 168 46v-119q-117 -60 -221 -60q-101 0 -159 61t-58 159zM136 1259v207h180v-207h-180z" />
<glyph unicode="&#x130;" horiz-adv-x="569" d="M177 1556v224h223v-224h-223zM191 0v1466h194v-1466h-194z" />
<glyph unicode="&#x131;" horiz-adv-x="569" d="M198 0v1062h180v-1062h-180z" />
<glyph unicode="&#x132;" horiz-adv-x="1505" d="M191 0v1466h194v-1466h-194zM594 416l175 24q7 -168 63 -230t155 -62q73 0 126 33.5t73 91t20 183.5v1010h194v-999q0 -184 -44.5 -285t-141 -154t-226.5 -53q-193 0 -295.5 111t-98.5 330z" />
<glyph unicode="&#x133;" horiz-adv-x="909" d="M136 0v1062h180v-1062h-180zM136 1259v207h180v-207h-180zM384 -412l34 153q54 -14 85 -14q55 0 82 36.5t27 182.5v1116h180v-1120q0 -196 -51 -273q-65 -100 -216 -100q-73 0 -141 19zM612 1257v209h180v-209h-180z" />
<glyph unicode="&#x134;" horiz-adv-x="1024" d="M59 416l175 24q7 -168 63 -230t155 -62q73 0 126 33.5t73 91t20 183.5v1010h194v-999q0 -184 -44.5 -285t-141 -154t-226.5 -53q-193 0 -295.5 111t-98.5 330zM475 1556l216 280h192l225 -280h-204l-110 170l-113 -170h-206z" />
<glyph unicode="&#x135;" horiz-adv-x="455" d="M-94 -412l34 153q52 -14 85 -14q63 0 86 41.5t23 177.5v1116h180v-1120q0 -197 -58.5 -285t-208.5 -88q-73 0 -141 19zM-88 1194l216 280h192l224 -280h-203l-111 170l-113 -170h-205z" />
<glyph unicode="&#x136;" horiz-adv-x="1366" d="M150 0v1466h194v-727l728 727h263l-615 -594l642 -872h-256l-522 742l-240 -234v-508h-194zM567 -409l11 117q44 -4 87 -4q167 0 167 76q0 67 -127 67q-14 0 -32 -2v105q35 4 66 4q137 0 199 -55t62 -127q0 -77 -70.5 -135t-222.5 -58q-63 0 -140 12z" />
<glyph unicode="&#x137;" horiz-adv-x="1024" d="M136 0v1466h180v-836l426 432h233l-406 -394l447 -668h-222l-351 543l-127 -122v-421h-180zM396 -409l11 117q44 -4 87 -4q167 0 167 76q0 67 -127 67q-14 0 -32 -2v105q35 4 66 4q137 0 199 -55t62 -127q0 -77 -70.5 -135t-222.5 -58q-63 0 -140 12z" />
<glyph unicode="&#x138;" horiz-adv-x="1024" d="M134 0v1062h180v-432l426 432h233l-406 -394l447 -668h-222l-351 543l-127 -122v-421h-180z" />
<glyph unicode="&#x139;" horiz-adv-x="1139" d="M150 0v1466h194v-1293h722v-173h-916zM304 1556l133 280h236l-220 -280h-149z" />
<glyph unicode="&#x13a;" horiz-adv-x="455" d="M66 1541l133 280h236l-220 -280h-149zM131 0v1466h180v-1466h-180z" />
<glyph unicode="&#x13b;" horiz-adv-x="1139" d="M150 0v1466h194v-1293h722v-173h-916zM447 -409l11 117q44 -4 87 -4q167 0 167 76q0 67 -127 67q-14 0 -32 -2v105q35 4 66 4q137 0 199 -55t62 -127q0 -77 -70.5 -135t-222.5 -58q-63 0 -140 12z" />
<glyph unicode="&#x13c;" horiz-adv-x="455" d="M-3 -409l11 117q44 -4 87 -4q167 0 167 76q0 67 -127 67q-14 0 -32 -2v105q35 4 66 4q137 0 199 -55t62 -127q0 -77 -70.5 -135t-222.5 -58q-63 0 -140 12zM131 0v1466h180v-1466h-180z" />
<glyph unicode="&#x13d;" horiz-adv-x="1139" d="M150 0v1466h194v-1293h722v-173h-916zM700 1048q57 25 84.5 73.5t29.5 139.5h-102v205h205v-205q0 -113 -40 -182.5t-127 -107.5z" />
<glyph unicode="&#x13e;" horiz-adv-x="597" d="M136 0v1466h180v-1466h-180zM401 1089q51 23 75.5 66.5t26.5 125.5h-91v185h184v-185q0 -101 -36 -163.5t-114 -96.5z" />
<glyph unicode="&#x13f;" horiz-adv-x="1139" d="M150 0v1466h194v-1293h722v-173h-916zM725 637v205h205v-205h-205z" />
<glyph unicode="&#x140;" horiz-adv-x="684" d="M131 0v1466h180v-1466h-180zM471 637v205h205v-205h-205z" />
<glyph unicode="&#x141;" horiz-adv-x="1139" d="M0 442v167l145 124v733h194v-568l332 281v-167l-332 -281v-558h728v-173h-922v565z" />
<glyph unicode="&#x142;" horiz-adv-x="455" d="M3 464v158l130 110v734h179v-582l135 115v-157l-135 -115v-727h-179v574z" />
<glyph unicode="&#x143;" horiz-adv-x="1479" d="M156 0v1466h199l770 -1151v1151h186v-1466h-199l-770 1152v-1152h-186zM570 1556l133 280h236l-220 -280h-149z" />
<glyph unicode="&#x144;" horiz-adv-x="1139" d="M135 0v1062h162v-151q117 175 338 175q96 0 176.5 -34.5t120.5 -90.5t56 -133q10 -50 10 -175v-653h-180v646q0 110 -21 164.5t-74.5 87t-125.5 32.5q-115 0 -198.5 -73t-83.5 -277v-580h-180zM448 1194l133 280h236l-220 -280h-149z" />
<glyph unicode="&#x145;" horiz-adv-x="1479" d="M156 0v1466h199l770 -1151v1151h186v-1466h-199l-770 1152v-1152h-186zM593 -409l11 117q44 -4 87 -4q167 0 167 76q0 67 -127 67q-14 0 -32 -2v105q35 4 66 4q137 0 199 -55t62 -127q0 -77 -70.5 -135t-222.5 -58q-63 0 -140 12z" />
<glyph unicode="&#x146;" horiz-adv-x="1139" d="M135 0v1062h162v-151q117 175 338 175q96 0 176.5 -34.5t120.5 -90.5t56 -133q10 -50 10 -175v-653h-180v646q0 110 -21 164.5t-74.5 87t-125.5 32.5q-115 0 -198.5 -73t-83.5 -277v-580h-180zM357 -409l11 117q44 -4 87 -4q167 0 167 76q0 67 -127 67q-14 0 -32 -2v105 q35 4 66 4q137 0 199 -55t62 -127q0 -77 -70.5 -135t-222.5 -58q-63 0 -140 12z" />
<glyph unicode="&#x147;" horiz-adv-x="1479" d="M156 0v1466h199l770 -1151v1151h186v-1466h-199l-770 1152v-1152h-186zM415 1836h206l113 -170l110 170h204l-225 -280h-192z" />
<glyph unicode="&#x148;" horiz-adv-x="1139" d="M135 0v1062h162v-151q117 175 338 175q96 0 176.5 -34.5t120.5 -90.5t56 -133q10 -50 10 -175v-653h-180v646q0 110 -21 164.5t-74.5 87t-125.5 32.5q-115 0 -198.5 -73t-83.5 -277v-580h-180zM266 1474h206l113 -170l110 170h204l-225 -280h-192z" />
<glyph unicode="&#x149;" horiz-adv-x="1237" d="M108 1072q54 22 80.5 69.5t29.5 130.5h-94v209h193v-165q0 -134 -31 -193q-43 -81 -134 -122zM375 0v1062h162v-151q117 175 338 175q96 0 176.5 -34.5t120.5 -90.5t56 -133q10 -50 10 -175v-653h-180v646q0 110 -21 164.5t-74.5 87t-125.5 32.5q-115 0 -198.5 -73 t-83.5 -277v-580h-180z" />
<glyph unicode="&#x14a;" horiz-adv-x="1481" d="M165 0v1466h196v-182q115 132 228 169.5t238 37.5q181 0 295.5 -81t182.5 -233.5t68 -422.5q0 -394 -130 -586.5t-350 -192.5q-127 0 -248 72l87 153q96 -52 161 -52q77 0 142 64.5t103 196t38 340.5q0 579 -405 579q-133 0 -233.5 -62.5t-138.5 -159t-38 -305.5v-801 h-196z" />
<glyph unicode="&#x14b;" horiz-adv-x="1139" d="M139 0v1062h162v-151q117 175 338 175q130 0 218 -56t116.5 -138.5t28.5 -238.5v-711q0 -197 -58.5 -285t-208.5 -88q-73 0 -141 19l34 153q53 -14 85 -14q65 0 87 44t22 175v700q0 148 -52 216t-171 68q-117 0 -198.5 -75t-81.5 -275v-580h-180z" />
<glyph unicode="&#x14c;" horiz-adv-x="1593" d="M99 714q0 365 196 571.5t506 206.5q203 0 366 -97t248.5 -270.5t85.5 -393.5q0 -223 -90 -399t-255 -266.5t-356 -90.5q-207 0 -370 100t-247 273t-84 366zM299 711q0 -265 142.5 -417.5t357.5 -152.5q219 0 360.5 154t141.5 437q0 179 -60.5 312.5t-177 207t-261.5 73.5 q-206 0 -354.5 -141.5t-148.5 -472.5zM504 1599v148h624v-148h-624z" />
<glyph unicode="&#x14d;" horiz-adv-x="1139" d="M68 531q0 295 164 437q137 118 334 118q219 0 358 -143.5t139 -396.5q0 -205 -61.5 -322.5t-179 -182.5t-256.5 -65q-223 0 -360.5 143t-137.5 412zM253 531q0 -204 89 -305.5t224 -101.5q134 0 223 102t89 311q0 197 -89.5 298.5t-222.5 101.5q-135 0 -224 -101 t-89 -305zM264 1227v148h624v-148h-624z" />
<glyph unicode="&#x14e;" horiz-adv-x="1593" d="M99 714q0 365 196 571.5t506 206.5q203 0 366 -97t248.5 -270.5t85.5 -393.5q0 -223 -90 -399t-255 -266.5t-356 -90.5q-207 0 -370 100t-247 273t-84 366zM299 711q0 -265 142.5 -417.5t357.5 -152.5q219 0 360.5 154t141.5 437q0 179 -60.5 312.5t-177 207t-261.5 73.5 q-206 0 -354.5 -141.5t-148.5 -472.5zM521 1826h123q14 -68 55.5 -101.5t111.5 -33.5q81 0 122.5 32.5t55.5 102.5h123q-15 -125 -91.5 -192t-203.5 -67q-128 0 -204.5 66.5t-91.5 192.5z" />
<glyph unicode="&#x14f;" horiz-adv-x="1139" d="M68 531q0 295 164 437q137 118 334 118q219 0 358 -143.5t139 -396.5q0 -205 -61.5 -322.5t-179 -182.5t-256.5 -65q-223 0 -360.5 143t-137.5 412zM253 531q0 -204 89 -305.5t224 -101.5q134 0 223 102t89 311q0 197 -89.5 298.5t-222.5 101.5q-135 0 -224 -101 t-89 -305zM281 1464h123q14 -68 55.5 -101.5t111.5 -33.5q81 0 122.5 32.5t55.5 102.5h123q-15 -125 -91.5 -192t-203.5 -67q-128 0 -204.5 66.5t-91.5 192.5z" />
<glyph unicode="&#x150;" horiz-adv-x="1593" d="M99 714q0 365 196 571.5t506 206.5q203 0 366 -97t248.5 -270.5t85.5 -393.5q0 -223 -90 -399t-255 -266.5t-356 -90.5q-207 0 -370 100t-247 273t-84 366zM299 711q0 -265 142.5 -417.5t357.5 -152.5q219 0 360.5 154t141.5 437q0 179 -60.5 312.5t-177 207t-261.5 73.5 q-206 0 -354.5 -141.5t-148.5 -472.5zM473 1556l121 280h234l-211 -280h-144zM820 1556l127 280h231l-207 -280h-151z" />
<glyph unicode="&#x151;" horiz-adv-x="1139" d="M68 531q0 295 164 437q137 118 334 118q219 0 358 -143.5t139 -396.5q0 -205 -61.5 -322.5t-179 -182.5t-256.5 -65q-223 0 -360.5 143t-137.5 412zM253 531q0 -204 89 -305.5t224 -101.5q134 0 223 102t89 311q0 197 -89.5 298.5t-222.5 101.5q-135 0 -224 -101 t-89 -305zM283 1194l121 280h234l-211 -280h-144zM630 1194l127 280h231l-207 -280h-151z" />
<glyph unicode="&#x152;" horiz-adv-x="2048" d="M129 735q0 322 142 539t450 217q264 0 400 -223v198h831v-173h-650v-448h599v-172h-599v-500h681v-173h-862v212q-135 -237 -400 -237q-301 0 -456 232q-136 205 -136 528zM329 720q0 -303 115.5 -446t275.5 -143q161 0 275.5 142.5t114.5 471.5q0 306 -115.5 447.5 t-274.5 141.5q-101 0 -197 -65t-145 -197.5t-49 -351.5z" />
<glyph unicode="&#x153;" horiz-adv-x="1933" d="M82 518q0 169 58.5 302.5t178 199.5t265.5 66q138 0 240.5 -57.5t153.5 -145.5q64 93 164.5 148t224.5 55q220 0 356 -151t134 -452h-784q3 -166 92.5 -262.5t223.5 -96.5q99 0 170.5 55.5t103.5 166.5l180 -26q-43 -165 -160.5 -254.5t-296.5 -89.5q-134 0 -240 52.5 t-168 146.5q-76 -99 -175 -149t-221 -50q-225 0 -362.5 143t-137.5 399zM267 533q0 -186 71 -283q92 -126 239 -126q129 0 221 106t92 305q0 198 -90.5 300.5t-222.5 102.5q-87 0 -160 -49t-111.5 -145t-38.5 -211zM1080 631h587q-12 151 -91.5 229t-197.5 78 q-120 0 -203.5 -82t-94.5 -225z" />
<glyph unicode="&#x154;" horiz-adv-x="1479" d="M161 0v1466h650q196 0 298 -39.5t163 -139.5t61 -221q0 -156 -101 -263t-312 -136q77 -37 117 -73q85 -78 161 -195l255 -399h-244l-194 305q-85 132 -140 202t-98.5 98t-88.5 39q-33 7 -108 7h-225v-651h-194zM355 819h417q133 0 208 27.5t114 88t39 131.5 q0 104 -75.5 171t-238.5 67h-464v-485zM503 1556l133 280h236l-220 -280h-149z" />
<glyph unicode="&#x155;" horiz-adv-x="682" d="M133 0v1062h162v-161q62 113 114.5 149t115.5 36q91 0 185 -58l-62 -167q-66 39 -132 39q-59 0 -106 -35.5t-67 -98.5q-30 -96 -30 -210v-556h-180zM242 1194l133 280h236l-220 -280h-149z" />
<glyph unicode="&#x156;" horiz-adv-x="1479" d="M161 0v1466h650q196 0 298 -39.5t163 -139.5t61 -221q0 -156 -101 -263t-312 -136q77 -37 117 -73q85 -78 161 -195l255 -399h-244l-194 305q-85 132 -140 202t-98.5 98t-88.5 39q-33 7 -108 7h-225v-651h-194zM355 819h417q133 0 208 27.5t114 88t39 131.5 q0 104 -75.5 171t-238.5 67h-464v-485zM593 -409l11 117q44 -4 87 -4q167 0 167 76q0 67 -127 67q-14 0 -32 -2v105q35 4 66 4q137 0 199 -55t62 -127q0 -77 -70.5 -135t-222.5 -58q-63 0 -140 12z" />
<glyph unicode="&#x157;" horiz-adv-x="682" d="M133 0v1062h162v-161q62 113 114.5 149t115.5 36q91 0 185 -58l-62 -167q-66 39 -132 39q-59 0 -106 -35.5t-67 -98.5q-30 -96 -30 -210v-556h-180zM144 -409l11 117q44 -4 87 -4q167 0 167 76q0 67 -127 67q-14 0 -32 -2v105q35 4 66 4q137 0 199 -55t62 -127 q0 -77 -70.5 -135t-222.5 -58q-63 0 -140 12z" />
<glyph unicode="&#x158;" horiz-adv-x="1479" d="M161 0v1466h650q196 0 298 -39.5t163 -139.5t61 -221q0 -156 -101 -263t-312 -136q77 -37 117 -73q85 -78 161 -195l255 -399h-244l-194 305q-85 132 -140 202t-98.5 98t-88.5 39q-33 7 -108 7h-225v-651h-194zM330 1830h206l113 -170l110 170h204l-225 -280h-192z M355 819h417q133 0 208 27.5t114 88t39 131.5q0 104 -75.5 171t-238.5 67h-464v-485z" />
<glyph unicode="&#x159;" horiz-adv-x="682" d="M60 1474h206l113 -170l110 170h204l-225 -280h-192zM133 0v1062h162v-161q62 113 114.5 149t115.5 36q91 0 185 -58l-62 -167q-66 39 -132 39q-59 0 -106 -35.5t-67 -98.5q-30 -96 -30 -210v-556h-180z" />
<glyph unicode="&#x15a;" horiz-adv-x="1366" d="M92 471l183 16q13 -110 60.5 -180.5t147.5 -114t225 -43.5q111 0 196 33t126.5 90.5t41.5 125.5q0 69 -40 120.5t-132 86.5q-59 23 -261 71.5t-283 91.5q-105 55 -156.5 136.5t-51.5 182.5q0 111 63 207.5t184 146.5t269 50q163 0 287.5 -52.5t191.5 -154.5t72 -231 l-186 -14q-15 139 -101.5 210t-255.5 71q-176 0 -256.5 -64.5t-80.5 -155.5q0 -79 57 -130q56 -51 292.5 -104.5t324.5 -93.5q128 -59 189 -149.5t61 -208.5q0 -117 -67 -220.5t-192.5 -161t-282.5 -57.5q-199 0 -333.5 58t-211 174.5t-80.5 263.5zM492 1556l133 280h236 l-220 -280h-149z" />
<glyph unicode="&#x15b;" horiz-adv-x="1024" d="M63 317l178 28q15 -107 83.5 -164t191.5 -57q124 0 184 50.5t60 118.5q0 61 -53 96q-37 24 -184 61q-198 50 -274.5 86.5t-116 101t-39.5 142.5q0 71 32.5 131.5t88.5 100.5q42 31 114.5 52.5t155.5 21.5q125 0 219.5 -36t139.5 -97.5t62 -164.5l-176 -24 q-12 82 -69.5 128t-162.5 46q-124 0 -177 -41t-53 -96q0 -35 22 -63q22 -29 69 -48q27 -10 159 -46q191 -51 266.5 -83.5t118.5 -94.5t43 -154q0 -90 -52.5 -169.5t-151.5 -123t-224 -43.5q-207 0 -315.5 86t-138.5 255zM394 1194l133 280h236l-220 -280h-149z" />
<glyph unicode="&#x15c;" horiz-adv-x="1366" d="M92 471l183 16q13 -110 60.5 -180.5t147.5 -114t225 -43.5q111 0 196 33t126.5 90.5t41.5 125.5q0 69 -40 120.5t-132 86.5q-59 23 -261 71.5t-283 91.5q-105 55 -156.5 136.5t-51.5 182.5q0 111 63 207.5t184 146.5t269 50q163 0 287.5 -52.5t191.5 -154.5t72 -231 l-186 -14q-15 139 -101.5 210t-255.5 71q-176 0 -256.5 -64.5t-80.5 -155.5q0 -79 57 -130q56 -51 292.5 -104.5t324.5 -93.5q128 -59 189 -149.5t61 -208.5q0 -117 -67 -220.5t-192.5 -161t-282.5 -57.5q-199 0 -333.5 58t-211 174.5t-80.5 263.5zM357 1550l216 280h192 l225 -280h-204l-110 170l-113 -170h-206z" />
<glyph unicode="&#x15d;" horiz-adv-x="1024" d="M63 317l178 28q15 -107 83.5 -164t191.5 -57q124 0 184 50.5t60 118.5q0 61 -53 96q-37 24 -184 61q-198 50 -274.5 86.5t-116 101t-39.5 142.5q0 71 32.5 131.5t88.5 100.5q42 31 114.5 52.5t155.5 21.5q125 0 219.5 -36t139.5 -97.5t62 -164.5l-176 -24 q-12 82 -69.5 128t-162.5 46q-124 0 -177 -41t-53 -96q0 -35 22 -63q22 -29 69 -48q27 -10 159 -46q191 -51 266.5 -83.5t118.5 -94.5t43 -154q0 -90 -52.5 -169.5t-151.5 -123t-224 -43.5q-207 0 -315.5 86t-138.5 255zM215 1194l216 280h192l225 -280h-204l-110 170 l-113 -170h-206z" />
<glyph unicode="&#x15e;" horiz-adv-x="1366" d="M92 471l183 16q13 -110 60.5 -180.5t147.5 -114t225 -43.5q111 0 196 33t126.5 90.5t41.5 125.5q0 69 -40 120.5t-132 86.5q-59 23 -261 71.5t-283 91.5q-105 55 -156.5 136.5t-51.5 182.5q0 111 63 207.5t184 146.5t269 50q163 0 287.5 -52.5t191.5 -154.5t72 -231 l-186 -14q-15 139 -101.5 210t-255.5 71q-176 0 -256.5 -64.5t-80.5 -155.5q0 -79 57 -130q56 -51 292.5 -104.5t324.5 -93.5q128 -59 189 -149.5t61 -208.5q0 -117 -67 -220.5t-192.5 -161t-282.5 -57.5q-199 0 -333.5 58t-211 174.5t-80.5 263.5zM446 -399l11 117 q64 -4 94 -4q94 0 132 26q29 20 29 49q0 18 -11.5 32t-42.5 24t-103 11l52 177h134l-33 -107q85 -10 128 -52.5t43 -94.5q0 -75 -72 -132.5t-217 -57.5q-82 0 -144 12z" />
<glyph unicode="&#x15f;" horiz-adv-x="1024" d="M63 317l178 28q15 -107 83.5 -164t191.5 -57q124 0 184 50.5t60 118.5q0 61 -53 96q-37 24 -184 61q-198 50 -274.5 86.5t-116 101t-39.5 142.5q0 71 32.5 131.5t88.5 100.5q42 31 114.5 52.5t155.5 21.5q125 0 219.5 -36t139.5 -97.5t62 -164.5l-176 -24 q-12 82 -69.5 128t-162.5 46q-124 0 -177 -41t-53 -96q0 -35 22 -63q22 -29 69 -48q27 -10 159 -46q191 -51 266.5 -83.5t118.5 -94.5t43 -154q0 -90 -52.5 -169.5t-151.5 -123t-224 -43.5q-207 0 -315.5 86t-138.5 255zM266 -389l11 117q64 -4 94 -4q94 0 132 26 q29 20 29 49q0 18 -11.5 32t-42.5 24t-103 11l52 177h134l-33 -107q85 -10 128 -52.5t43 -94.5q0 -75 -72 -132.5t-217 -57.5q-82 0 -144 12z" />
<glyph unicode="&#x160;" horiz-adv-x="1366" d="M92 471l183 16q13 -110 60.5 -180.5t147.5 -114t225 -43.5q111 0 196 33t126.5 90.5t41.5 125.5q0 69 -40 120.5t-132 86.5q-59 23 -261 71.5t-283 91.5q-105 55 -156.5 136.5t-51.5 182.5q0 111 63 207.5t184 146.5t269 50q163 0 287.5 -52.5t191.5 -154.5t72 -231 l-186 -14q-15 139 -101.5 210t-255.5 71q-176 0 -256.5 -64.5t-80.5 -155.5q0 -79 57 -130q56 -51 292.5 -104.5t324.5 -93.5q128 -59 189 -149.5t61 -208.5q0 -117 -67 -220.5t-192.5 -161t-282.5 -57.5q-199 0 -333.5 58t-211 174.5t-80.5 263.5zM336 1830h206l113 -170 l110 170h204l-225 -280h-192z" />
<glyph unicode="&#x161;" horiz-adv-x="1024" d="M63 317l178 28q15 -107 83.5 -164t191.5 -57q124 0 184 50.5t60 118.5q0 61 -53 96q-37 24 -184 61q-198 50 -274.5 86.5t-116 101t-39.5 142.5q0 71 32.5 131.5t88.5 100.5q42 31 114.5 52.5t155.5 21.5q125 0 219.5 -36t139.5 -97.5t62 -164.5l-176 -24 q-12 82 -69.5 128t-162.5 46q-124 0 -177 -41t-53 -96q0 -35 22 -63q22 -29 69 -48q27 -10 159 -46q191 -51 266.5 -83.5t118.5 -94.5t43 -154q0 -90 -52.5 -169.5t-151.5 -123t-224 -43.5q-207 0 -315.5 86t-138.5 255zM188 1474h206l113 -170l110 170h204l-225 -280h-192z " />
<glyph unicode="&#x162;" horiz-adv-x="1251" d="M48 1293v173h1162v-173h-485v-1293h-194v1293h-483zM511 -503q60 27 90 78q20 33 24 99h-102v205h205v-205q0 -180 -167 -253z" />
<glyph unicode="&#x163;" horiz-adv-x="569" d="M36 922v140h132v263l179 108v-371h181v-140h-181v-621q0 -77 9.5 -99t31 -35t61.5 -13q30 0 79 7l26 -159q-76 -16 -136 -16q-98 0 -152 31t-76 81.5t-22 212.5v611h-132zM265 -463q95 42 102 158h-92v184h185v-184q0 -70 -36.5 -131.5t-114.5 -95.5z" />
<glyph unicode="&#x164;" horiz-adv-x="1251" d="M48 1293v173h1162v-173h-485v-1293h-194v1293h-483zM311 1830h206l113 -170l110 170h204l-225 -280h-192z" />
<glyph unicode="&#x165;" horiz-adv-x="768" d="M35 922v140h132v263l179 108v-371h181v-140h-181v-621q0 -77 9.5 -99t31 -35t61.5 -13q30 0 79 7l26 -159q-76 -16 -136 -16q-98 0 -152 31t-76 81.5t-22 212.5v611h-132zM570 1089q51 23 75.5 66.5t26.5 125.5h-91v185h184v-185q0 -101 -36 -163.5t-114 -96.5z" />
<glyph unicode="&#x166;" horiz-adv-x="1251" d="M48 1293v173h1162v-173h-485v-532h328v-132h-328v-629h-194v629h-330v132h330v532h-483z" />
<glyph unicode="&#x167;" horiz-adv-x="569" d="M12 514v132h133v276h-132v140h132v263l180 108v-371h180v-140h-180v-276h172v-132h-172v-213q0 -85 18.5 -116t82.5 -31q32 0 79 7l26 -159q-73 -16 -134 -16q-106 0 -163.5 36t-73 94.5t-15.5 194.5v203h-133z" />
<glyph unicode="&#x168;" horiz-adv-x="1479" d="M161 619v847h194v-846q0 -191 35.5 -281.5t122 -139.5t211.5 -49q214 0 305 97t91 373v846h194v-847q0 -221 -50 -351t-180.5 -211.5t-342.5 -81.5q-206 0 -337 71t-187 205.5t-56 367.5zM427 1575q-1 104 57 166q57 62 146 62q62 0 169 -54q59 -30 94 -30q32 0 49 17.5 t24 69.5h130q-3 -114 -57.5 -171t-138.5 -57q-63 0 -166 56q-67 36 -98 36q-34 0 -55 -24q-22 -24 -21 -71h-133z" />
<glyph unicode="&#x169;" horiz-adv-x="1139" d="M131 404v658h180v-589q0 -141 11 -190q17 -71 72 -111.5t136 -40.5t152 41.5t100.5 113t29.5 207.5v569h180v-1062h-161v156q-124 -180 -337 -180q-94 0 -175.5 36t-121 90.5t-55.5 133.5q-11 53 -11 168zM243 1219q-1 104 57 166q57 62 146 62q62 0 169 -54 q59 -30 94 -30q32 0 49 17.5t24 69.5h130q-3 -114 -57.5 -171t-138.5 -57q-63 0 -166 56q-67 36 -98 36q-34 0 -55 -24q-22 -24 -21 -71h-133z" />
<glyph unicode="&#x16a;" horiz-adv-x="1479" d="M161 619v847h194v-846q0 -191 35.5 -281.5t122 -139.5t211.5 -49q214 0 305 97t91 373v846h194v-847q0 -221 -50 -351t-180.5 -211.5t-342.5 -81.5q-206 0 -337 71t-187 205.5t-56 367.5zM449 1583v148h624v-148h-624z" />
<glyph unicode="&#x16b;" horiz-adv-x="1139" d="M131 404v658h180v-589q0 -141 11 -190q17 -71 72 -111.5t136 -40.5t152 41.5t100.5 113t29.5 207.5v569h180v-1062h-161v156q-124 -180 -337 -180q-94 0 -175.5 36t-121 90.5t-55.5 133.5q-11 53 -11 168zM265 1227v148h624v-148h-624z" />
<glyph unicode="&#x16c;" horiz-adv-x="1479" d="M161 619v847h194v-846q0 -191 35.5 -281.5t122 -139.5t211.5 -49q214 0 305 97t91 373v846h194v-847q0 -221 -50 -351t-180.5 -211.5t-342.5 -81.5q-206 0 -337 71t-187 205.5t-56 367.5zM446 1820h123q14 -68 55.5 -101.5t111.5 -33.5q81 0 122.5 32.5t55.5 102.5h123 q-15 -125 -91.5 -192t-203.5 -67q-128 0 -204.5 66.5t-91.5 192.5z" />
<glyph unicode="&#x16d;" horiz-adv-x="1139" d="M131 404v658h180v-589q0 -141 11 -190q17 -71 72 -111.5t136 -40.5t152 41.5t100.5 113t29.5 207.5v569h180v-1062h-161v156q-124 -180 -337 -180q-94 0 -175.5 36t-121 90.5t-55.5 133.5q-11 53 -11 168zM282 1464h123q14 -68 55.5 -101.5t111.5 -33.5q81 0 122.5 32.5 t55.5 102.5h123q-15 -125 -91.5 -192t-203.5 -67q-128 0 -204.5 66.5t-91.5 192.5z" />
<glyph unicode="&#x16e;" horiz-adv-x="1479" d="M161 619v847h194v-846q0 -191 35.5 -281.5t122 -139.5t211.5 -49q214 0 305 97t91 373v846h194v-847q0 -221 -50 -351t-180.5 -211.5t-342.5 -81.5q-206 0 -337 71t-187 205.5t-56 367.5zM556 1656q0 73 53.5 126t126.5 53q74 0 127 -53.5t53 -129.5q0 -77 -53 -130 t-126 -53q-75 0 -128 53.5t-53 133.5zM632 1655q0 -47 31.5 -79t74.5 -32t74.5 32t31.5 77t-31 77t-75 32q-43 0 -74.5 -31.5t-31.5 -75.5z" />
<glyph unicode="&#x16f;" horiz-adv-x="1139" d="M131 404v658h180v-589q0 -141 11 -190q17 -71 72 -111.5t136 -40.5t152 41.5t100.5 113t29.5 207.5v569h180v-1062h-161v156q-124 -180 -337 -180q-94 0 -175.5 36t-121 90.5t-55.5 133.5q-11 53 -11 168zM382 1338q0 73 53.5 126t126.5 53q74 0 127 -53.5t53 -129.5 q0 -77 -53 -130t-126 -53q-75 0 -128 53.5t-53 133.5zM458 1337q0 -47 31.5 -79t74.5 -32t74.5 32t31.5 77t-31 77t-75 32q-43 0 -74.5 -31.5t-31.5 -75.5z" />
<glyph unicode="&#x170;" horiz-adv-x="1479" d="M161 619v847h194v-846q0 -191 35.5 -281.5t122 -139.5t211.5 -49q214 0 305 97t91 373v846h194v-847q0 -221 -50 -351t-180.5 -211.5t-342.5 -81.5q-206 0 -337 71t-187 205.5t-56 367.5zM465 1556l121 280h234l-211 -280h-144zM812 1556l127 280h231l-207 -280h-151z " />
<glyph unicode="&#x171;" horiz-adv-x="1139" d="M131 404v658h180v-589q0 -141 11 -190q17 -71 72 -111.5t136 -40.5t152 41.5t100.5 113t29.5 207.5v569h180v-1062h-161v156q-124 -180 -337 -180q-94 0 -175.5 36t-121 90.5t-55.5 133.5q-11 53 -11 168zM238 1194l121 280h234l-211 -280h-144zM585 1194l127 280h231 l-207 -280h-151z" />
<glyph unicode="&#x172;" horiz-adv-x="1479" d="M161 619v847h194v-846q0 -191 36.5 -283.5t125 -139.5t204.5 -47q219 0 309 98t90 372v846h194v-847q0 -193 -39 -322t-159 -219t-330 -102q-20 -71 -20 -113q0 -71 41 -113t103 -42q77 0 168 46v-119q-118 -61 -219 -61q-98 0 -158.5 60t-60.5 161q0 70 28 183 q-269 23 -388 164t-119 477z" />
<glyph unicode="&#x173;" horiz-adv-x="1139" d="M131 404v658h180v-589q0 -139 13 -198.5t68 -101.5t138 -42q91 0 162.5 48t95.5 120t24 194v569h180v-1062h-40q-29 -78 -29 -140q0 -67 41 -109.5t103 -42.5q76 0 168 46v-119q-117 -60 -221 -60q-98 0 -157.5 60t-59.5 160q0 67 26 172l8 33v156q-124 -180 -338 -180 q-126 0 -214.5 56t-118 139.5t-29.5 232.5z" />
<glyph unicode="&#x174;" horiz-adv-x="1933" d="M25 1466h199l223 -961q36 -151 62 -300q56 235 66 271l279 990h234l210 -742q79 -276 114 -519q28 139 73 319l230 942h195l-402 -1466h-187l-309 1117q-39 140 -46 172q-23 -101 -43 -172l-311 -1117h-198zM645 1556l216 280h192l225 -280h-204l-110 170l-113 -170h-206 z" />
<glyph unicode="&#x175;" horiz-adv-x="1479" d="M6 1062h186l169 -613l63 -228q4 17 55 219l169 622h185l159 -616l53 -203l61 205l182 614h175l-332 -1062h-187l-169 636l-41 181l-215 -817h-188zM435 1194l216 280h192l225 -280h-204l-110 170l-113 -170h-206z" />
<glyph unicode="&#x176;" horiz-adv-x="1366" d="M6 1466h236l289 -442q80 -124 149 -248q66 115 160 259l284 431h226l-585 -845v-621h-194v621zM390 1556l216 280h192l225 -280h-204l-110 170l-113 -170h-206z" />
<glyph unicode="&#x177;" horiz-adv-x="1024" d="M33 1062h194l221 -615q43 -117 77 -246q31 124 74 242l227 619h180l-404 -1080q-65 -175 -101 -241q-48 -89 -110 -130.5t-148 -41.5q-52 0 -116 22l-20 169q59 -16 103 -16q60 0 96 20t59 56q17 27 55 134q5 15 16 44zM240 1194l216 280h192l225 -280h-204l-110 170 l-113 -170h-206z" />
<glyph unicode="&#x178;" horiz-adv-x="1366" d="M6 1466h236l289 -442q80 -124 149 -248q66 115 160 259l284 431h226l-585 -845v-621h-194v621zM397 1556v205h188v-205h-188zM770 1556v205h188v-205h-188z" />
<glyph unicode="&#x179;" horiz-adv-x="1251" d="M41 0v180l751 939q80 100 152 174h-818v173h1050v-173l-823 -1017l-89 -103h936v-173h-1159zM473 1556l133 280h236l-220 -280h-149z" />
<glyph unicode="&#x17a;" horiz-adv-x="1024" d="M40 0v146l676 776q-115 -6 -203 -6h-433v146h868v-119l-575 -674l-111 -123q121 9 227 9h491v-155h-940zM391 1194l133 280h236l-220 -280h-149z" />
<glyph unicode="&#x17b;" horiz-adv-x="1251" d="M41 0v180l751 939q80 100 152 174h-818v173h1050v-173l-823 -1017l-89 -103h936v-173h-1159zM533 1556v224h223v-224h-223z" />
<glyph unicode="&#x17c;" horiz-adv-x="1024" d="M40 0v146l676 776q-115 -6 -203 -6h-433v146h868v-119l-575 -674l-111 -123q121 9 227 9h491v-155h-940zM398 1194v224h223v-224h-223z" />
<glyph unicode="&#x17d;" horiz-adv-x="1251" d="M41 0v180l751 939q80 100 152 174h-818v173h1050v-173l-823 -1017l-89 -103h936v-173h-1159zM316 1830h206l113 -170l110 170h204l-225 -280h-192z" />
<glyph unicode="&#x17e;" horiz-adv-x="1024" d="M40 0v146l676 776q-115 -6 -203 -6h-433v146h868v-119l-575 -674l-111 -123q121 9 227 9h491v-155h-940zM224 1474h206l113 -170l110 170h204l-225 -280h-192z" />
<glyph unicode="&#x17f;" horiz-adv-x="455" d="M137 0v1175q0 115 27 178.5t94 100.5t173 37q79 0 167 -18l-26 -157q-54 10 -106 10q-90 0 -119.5 -39.5t-29.5 -126.5v-1160h-180z" />
<glyph unicode="&#x18f;" horiz-adv-x="1541" d="M99 749v94h1141q-12 220 -129 346q-124 132 -340 132q-317 0 -400 -307l-190 50q56 208 216 320q153 107 373 107q200 0 359 -98q163 -99 245 -279q71 -154 75 -365q7 -333 -158 -550q-170 -224 -517 -224q-346 0 -516 224q-159 210 -159 550zM300 670q11 -246 137 -389 t337 -143t337 143t137 389h-948z" />
<glyph unicode="&#x192;" horiz-adv-x="1139" d="M46 -405l35 155q101 -22 152 -22q54 0 83 28t45 124l177 1042h-201l24 140h201l24 133q22 120 45 165q31 62 88.5 97t150.5 35q80 0 215 -38l-35 -153q-103 24 -154 24q-56 0 -84 -27.5t-47 -132.5l-19 -103h204l-25 -140h-204l-191 -1092q-26 -148 -87 -204.5 t-173 -56.5q-94 0 -224 26z" />
<glyph unicode="&#x1a0;" horiz-adv-x="1756" d="M99 714q0 360 196 572q191 206 506 206q227 0 402.5 -123.5t248.5 -331.5q91 49 128 105q30 45 29 131h-94v209h193v-165q0 -124 -38 -190q-52 -91 -195 -167q26 -108 26 -229q0 -224 -90.5 -399.5t-255 -266t-355.5 -90.5q-206 0 -369.5 99.5t-247.5 273t-84 366.5z M299 711q0 -260 143 -418q138 -152 357 -152q224 0 361 154q141 160 141 437q0 370 -237 520q-117 73 -262 73q-223 0 -354 -141q-149 -160 -149 -473z" />
<glyph unicode="&#x1a1;" horiz-adv-x="1343" d="M68 531q0 295 164 437q137 118 334 118q219 0 358 -143q105 -109 131 -281q68 42 97.5 87t28.5 130h-94v209h193v-165q0 -124 -38 -190q-49 -86 -179 -158v-29q0 -372 -240 -505q-118 -65 -257 -65q-228 0 -361 143q-137 148 -137 412zM253 531q0 -197 89 -305 q84 -102 224 -102t223 102q89 109 89 311q0 191 -90 298q-84 102 -222 102q-141 0 -224 -101q-89 -108 -89 -305z" />
<glyph unicode="&#x1af;" horiz-adv-x="1749" d="M161 619v847h194v-846q0 -189 36 -282q34 -89 121 -138.5t212 -49.5q219 0 305 97q91 102 91 373v846h194v-493q156 16 226 124q27 42 27 160h-94v209h193v-165q0 -157 -36 -219q-99 -173 -316 -183v-280q0 -225 -50 -351q-52 -131 -180 -211q-131 -82 -343 -82 q-409 0 -524 277q-56 134 -56 367z" />
<glyph unicode="&#x1b0;" horiz-adv-x="1371" d="M131 404v658h180v-589q0 -143 11 -190q35 -152 208 -152q83 0 153.5 42t99.5 113t29 207v569h180v-488q127 22 190 119q28 42 28 160h-94v209h193v-165q0 -157 -36 -219q-92 -160 -281 -180v-498h-161v156q-124 -180 -337 -180q-93 0 -174.5 35.5t-121.5 90.5t-56 134 q-11 54 -11 168z" />
<glyph unicode="&#x1cd;" horiz-adv-x="1366" d="M-3 0l563 1466h209l600 -1466h-221l-171 444h-613l-161 -444h-206zM350 1825h206l113 -170l110 170h204l-225 -280h-192zM420 602h497l-153 406q-70 185 -104 304q-28 -141 -79 -280z" />
<glyph unicode="&#x1ce;" horiz-adv-x="1139" d="M74 280q0 78 35.5 142.5t93 103.5t129.5 59q53 14 160 27q218 26 321 62q1 37 1 47q0 110 -51 155q-69 61 -205 61q-127 0 -187.5 -44.5t-89.5 -157.5l-176 24q24 113 79 182.5t159 107t241 37.5q136 0 221 -32t125 -80.5t56 -122.5q9 -46 9 -166v-240 q0 -251 11.5 -317.5t45.5 -127.5h-188q-28 56 -36 131q-100 -85 -192.5 -120t-198.5 -35q-175 0 -269 85.5t-94 218.5zM266 285q0 -72 54.5 -120t159.5 -48q104 0 185 45.5t119 124.5q29 61 29 180v66q-98 -40 -294 -68q-111 -16 -157 -36t-71 -58.5t-25 -85.5zM285 1474 h206l113 -170l110 170h204l-225 -280h-192z" />
<glyph unicode="&#x1cf;" horiz-adv-x="569" d="M-30 1825h206l113 -170l110 170h204l-225 -280h-192zM191 0v1466h194v-1466h-194z" />
<glyph unicode="&#x1d0;" horiz-adv-x="455" d="M-80 1474h206l113 -170l110 170h204l-225 -280h-192zM136 0v1062h180v-1062h-180z" />
<glyph unicode="&#x1d1;" horiz-adv-x="1593" d="M99 714q0 365 196 571.5t506 206.5q203 0 366 -97t248.5 -270.5t85.5 -393.5q0 -223 -90 -399t-255 -266.5t-356 -90.5q-207 0 -370 100t-247 273t-84 366zM299 711q0 -265 142.5 -417.5t357.5 -152.5q219 0 360.5 154t141.5 437q0 179 -60.5 312.5t-177 207t-261.5 73.5 q-206 0 -354.5 -141.5t-148.5 -472.5zM490 1825h206l113 -170l110 170h204l-225 -280h-192z" />
<glyph unicode="&#x1d2;" horiz-adv-x="1139" d="M68 531q0 295 164 437q137 118 334 118q219 0 358 -143.5t139 -396.5q0 -205 -61.5 -322.5t-179 -182.5t-256.5 -65q-223 0 -360.5 143t-137.5 412zM250 1474h206l113 -170l110 170h204l-225 -280h-192zM253 531q0 -204 89 -305.5t224 -101.5q134 0 223 102t89 311 q0 197 -89.5 298.5t-222.5 101.5q-135 0 -224 -101t-89 -305z" />
<glyph unicode="&#x1d3;" horiz-adv-x="1479" d="M161 619v847h194v-846q0 -191 35.5 -281.5t122 -139.5t211.5 -49q214 0 305 97t91 373v846h194v-847q0 -221 -50 -351t-180.5 -211.5t-342.5 -81.5q-206 0 -337 71t-187 205.5t-56 367.5zM440 1825h206l113 -170l110 170h204l-225 -280h-192z" />
<glyph unicode="&#x1d4;" horiz-adv-x="1139" d="M131 404v658h180v-589q0 -141 11 -190q17 -71 72 -111.5t136 -40.5t152 41.5t100.5 113t29.5 207.5v569h180v-1062h-161v156q-124 -180 -337 -180q-94 0 -175.5 36t-121 90.5t-55.5 133.5q-11 53 -11 168zM260 1474h206l113 -170l110 170h204l-225 -280h-192z" />
<glyph unicode="&#x1d5;" horiz-adv-x="1479" d="M161 619v847h194v-846q0 -191 35.5 -281.5t122 -139.5t211.5 -49q214 0 305 97t91 373v846h194v-847q0 -221 -50 -351t-180.5 -211.5t-342.5 -81.5q-206 0 -337 71t-187 205.5t-56 367.5zM492 1496v147h135v-147h-135zM492 1726v117h516v-117h-516zM873 1496v147h135 v-147h-135z" />
<glyph unicode="&#x1d6;" horiz-adv-x="1139" d="M131 404v658h180v-589q0 -141 11 -190q17 -71 72 -111.5t136 -40.5t152 41.5t100.5 113t29.5 207.5v569h180v-1062h-161v156q-124 -180 -337 -180q-94 0 -175.5 36t-121 90.5t-55.5 133.5q-11 53 -11 168zM249 1597v148h624v-148h-624zM281 1270v205h188v-205h-188z M654 1270v205h188v-205h-188z" />
<glyph unicode="&#x1d7;" horiz-adv-x="1479" d="M161 619v847h194v-846q0 -191 35.5 -281.5t122 -139.5t211.5 -49q214 0 305 97t91 373v846h194v-847q0 -221 -50 -351t-180.5 -211.5t-342.5 -81.5q-206 0 -337 71t-187 205.5t-56 367.5zM492 1496v147h135v-147h-135zM642 1666l135 178h226l-231 -178h-130zM873 1496 v147h135v-147h-135z" />
<glyph unicode="&#x1d8;" horiz-adv-x="1139" d="M131 404v658h180v-589q0 -141 11 -190q17 -71 72 -111.5t136 -40.5t152 41.5t100.5 113t29.5 207.5v569h180v-1062h-161v156q-124 -180 -337 -180q-94 0 -175.5 36t-121 90.5t-55.5 133.5q-11 53 -11 168zM281 1270v205h188v-205h-188zM453 1564l133 280h236l-220 -280 h-149zM654 1270v205h188v-205h-188z" />
<glyph unicode="&#x1d9;" horiz-adv-x="1479" d="M161 619v847h194v-846q0 -191 35.5 -281.5t122 -139.5t211.5 -49q214 0 305 97t91 373v846h194v-847q0 -221 -50 -351t-180.5 -211.5t-342.5 -81.5q-206 0 -337 71t-187 205.5t-56 367.5zM492 1496v147h135v-147h-135zM522 1844h149l81 -98l79 98h147l-162 -177h-138z M873 1496v147h135v-147h-135z" />
<glyph unicode="&#x1da;" horiz-adv-x="1139" d="M131 404v658h180v-589q0 -141 11 -190q17 -71 72 -111.5t136 -40.5t152 41.5t100.5 113t29.5 207.5v569h180v-1062h-161v156q-124 -180 -337 -180q-94 0 -175.5 36t-121 90.5t-55.5 133.5q-11 53 -11 168zM260 1844h206l113 -170l110 170h204l-225 -280h-192zM281 1270 v205h188v-205h-188zM654 1270v205h188v-205h-188z" />
<glyph unicode="&#x1db;" horiz-adv-x="1479" d="M161 619v847h194v-846q0 -191 35.5 -281.5t122 -139.5t211.5 -49q214 0 305 97t91 373v846h194v-847q0 -221 -50 -351t-180.5 -211.5t-342.5 -81.5q-206 0 -337 71t-187 205.5t-56 367.5zM492 1496v147h135v-147h-135zM497 1844h226l135 -178h-130zM873 1496v147h135 v-147h-135z" />
<glyph unicode="&#x1dc;" horiz-adv-x="1139" d="M131 404v658h180v-589q0 -141 11 -190q17 -71 72 -111.5t136 -40.5t152 41.5t100.5 113t29.5 207.5v569h180v-1062h-161v156q-124 -180 -337 -180q-94 0 -175.5 36t-121 90.5t-55.5 133.5q-11 53 -11 168zM281 1270v205h188v-205h-188zM294 1844h241l135 -280h-145z M654 1270v205h188v-205h-188z" />
<glyph unicode="&#x1fa;" horiz-adv-x="1366" d="M-3 0l563 1466h209l600 -1466h-221l-171 444h-613l-161 -444h-206zM420 602h497l-153 406q-70 185 -104 304q-28 -141 -79 -280zM481 1601q0 73 53.5 126t126.5 53q74 0 127 -53.5t53 -129.5q0 -77 -53 -130t-126 -53q-75 0 -128 53.5t-53 133.5zM557 1600 q0 -47 31.5 -79t74.5 -32t74.5 32t31.5 77t-31 77t-75 32q-43 0 -74.5 -31.5t-31.5 -75.5zM561 1780l133 280h236l-220 -280h-149z" />
<glyph unicode="&#x1fb;" horiz-adv-x="1139" d="M74 280q0 78 35.5 142.5t93 103.5t129.5 59q53 14 160 27q218 26 321 62q1 37 1 47q0 110 -51 155q-69 61 -205 61q-127 0 -187.5 -44.5t-89.5 -157.5l-176 24q24 113 79 182.5t159 107t241 37.5q136 0 221 -32t125 -80.5t56 -122.5q9 -46 9 -166v-240 q0 -251 11.5 -317.5t45.5 -127.5h-188q-28 56 -36 131q-100 -85 -192.5 -120t-198.5 -35q-175 0 -269 85.5t-94 218.5zM266 285q0 -72 54.5 -120t159.5 -48q104 0 185 45.5t119 124.5q29 61 29 180v66q-98 -40 -294 -68q-111 -16 -157 -36t-71 -58.5t-25 -85.5zM383 1338 q0 73 53.5 126t126.5 53q74 0 127 -53.5t53 -129.5q0 -77 -53 -130t-126 -53q-75 0 -128 53.5t-53 133.5zM459 1337q0 -47 31.5 -79t74.5 -32t74.5 32t31.5 77t-31 77t-75 32q-43 0 -74.5 -31.5t-31.5 -75.5zM493 1644l133 280h236l-220 -280h-149z" />
<glyph unicode="&#x1fc;" horiz-adv-x="2048" d="M1 0l705 1466h1203v-173h-737v-451h685v-172h-685v-497h764v-173h-959v423h-566l-200 -423h-210zM493 595h484v698h-145zM881 1556l133 280h236l-220 -280h-149z" />
<glyph unicode="&#x1fd;" horiz-adv-x="1821" d="M68 280q0 86 49.5 161.5t138 114.5t282.5 64q150 20 252 49q1 25 1 41q0 126 -52.5 176.5t-183.5 50.5q-87 0 -147 -21t-88.5 -59.5t-47.5 -123.5l-175 21q28 117 80.5 185.5t150.5 107.5t229 39q167 0 269 -50q59 -29 99 -93q64 70 145 106.5t196 36.5q162 0 268 -78.5 t155 -207.5t49 -254q0 -19 -2 -61h-767q2 -144 35.5 -209t107 -108.5t161.5 -43.5q103 0 174.5 59t98.5 166l188 -24q-50 -167 -170 -258t-298 -91q-127 0 -222.5 48t-172.5 150q-104 -102 -210.5 -150t-229.5 -48q-172 0 -267.5 88.5t-95.5 215.5zM259 286q0 -71 53 -119.5 t154 -48.5q115 0 200.5 57t111.5 142q15 52 15 216q-79 -34 -322 -73q-109 -17 -153 -51q-59 -47 -59 -123zM822 1194l133 280h236l-220 -280h-149zM969 633h584q-14 158 -90 231t-198 73q-126 0 -206.5 -80t-89.5 -224z" />
<glyph unicode="&#x1fe;" horiz-adv-x="1593" d="M83 25l176 197q-98 149 -131 254.5t-33 253.5q0 226 90 402.5t252.5 267.5t361.5 91q134 0 234.5 -35.5t216.5 -123.5l168 188l99 -84l-176 -198q86 -128 116 -224q40 -126 40 -282q0 -225 -91 -401t-255.5 -266t-349.5 -90q-138 0 -250 39q-86 30 -201 115l-168 -188z M295 733q0 -116 22 -206q16 -67 67 -165l746 835q-94 74 -164.5 101t-165.5 27q-219 0 -362 -148.5t-143 -443.5zM469 262q77 -63 142 -88q85 -33 184 -33q218 0 360 154t142 432q0 208 -85 367zM681 1556l133 280h236l-220 -280h-149z" />
<glyph unicode="&#x1ff;" horiz-adv-x="1251" d="M129 516q0 301 147 435.5t345 134.5q82 0 151 -21t147 -66l99 128l96 -70l-107 -138q63 -86 86 -156q31 -100 31 -233q0 -300 -169 -441q-137 -113 -330 -113q-159 0 -281 80l-105 -135l-94 71l108 141q-59 68 -84 136q-40 109 -40 247zM314 531q0 -150 52 -251l452 587 q-91 70 -191 70q-133 0 -223 -102t-90 -304zM444 187q78 -63 176 -63q139 0 229.5 102t90.5 306q0 76 -12 133q-8 42 -35 105zM532 1194l133 280h236l-220 -280h-149z" />
<glyph unicode="&#x259;" horiz-adv-x="1139" d="M85 529q0 16 1 48h792q-9 156 -85 252q-86 109 -236 109q-202 0 -280 -218l-186 23q93 343 467 343q245 0 379 -152q127 -145 127 -394q0 -246 -123 -399q-133 -165 -373 -165q-234 0 -364 163q-119 150 -119 390zM275 429q12 -134 68 -201q86 -104 223 -104 q131 0 214 88q79 84 88 217h-593z" />
<glyph unicode="&#x2c6;" horiz-adv-x="682" d="M25 1194l216 280h192l225 -280h-204l-110 170l-113 -170h-206z" />
<glyph unicode="&#x2c7;" horiz-adv-x="682" d="M40 1474h206l113 -170l110 170h204l-225 -280h-192z" />
<glyph unicode="&#x2c9;" horiz-adv-x="682" d="M29 1227v148h624v-148h-624z" />
<glyph unicode="&#x2d8;" horiz-adv-x="682" d="M46 1464h123q14 -68 55.5 -101.5t111.5 -33.5q81 0 122.5 32.5t55.5 102.5h123q-15 -125 -91.5 -192t-203.5 -67q-128 0 -204.5 66.5t-91.5 192.5z" />
<glyph unicode="&#x2d9;" horiz-adv-x="682" d="M229 1194v224h223v-224h-223z" />
<glyph unicode="&#x2da;" horiz-adv-x="682" d="M162 1338q0 73 53.5 126t126.5 53q74 0 127 -53.5t53 -129.5q0 -77 -53 -130t-126 -53q-75 0 -128 53.5t-53 133.5zM238 1337q0 -47 31.5 -79t74.5 -32t74.5 32t31.5 77t-31 77t-75 32q-43 0 -74.5 -31.5t-31.5 -75.5z" />
<glyph unicode="&#x2db;" horiz-adv-x="682" d="M183 -205q0 86 41 229h124q-39 -89 -39 -164q0 -68 41 -110t103 -42q77 0 168 46v-119q-52 -27 -113 -44t-106 -17q-99 0 -159 60t-60 161z" />
<glyph unicode="&#x2dc;" horiz-adv-x="682" d="M7 1219q-1 104 57 166q57 62 146 62q62 0 169 -54q59 -30 94 -30q32 0 49 17.5t24 69.5h130q-3 -114 -57.5 -171t-138.5 -57q-63 0 -166 56q-67 36 -98 36q-34 0 -55 -24q-22 -24 -21 -71h-133z" />
<glyph unicode="&#x2dd;" horiz-adv-x="682" d="M58 1194l121 280h234l-211 -280h-144zM405 1194l127 280h231l-207 -280h-151z" />
<glyph unicode="&#x300;" horiz-adv-x="0" d="M-534 1827h241l135 -280h-145z" />
<glyph unicode="&#x301;" horiz-adv-x="0" d="M-380 1547l135 280h241l-231 -280h-145z" />
<glyph unicode="&#x303;" horiz-adv-x="0" d="M-909 1547q-1 102 55.5 165t147.5 63q62 0 169 -54q59 -30 94 -30q61 0 73 87h130q-6 -228 -196 -228q-63 0 -166 56q-67 36 -98 36q-78 0 -76 -95h-133z" />
<glyph unicode="&#x309;" horiz-adv-x="0" d="M-471 1828q39 8 144 7q123 -1 201 -40q86 -42 88 -109q4 -101 -182 -124v-50h-112v112q57 6 73 11q53 13 54 41q1 23 -28 39q-42 23 -133 23q-31 0 -94 -4z" />
<glyph unicode="&#x323;" horiz-adv-x="0" d="M-783 -120h205v-205h-205v205z" />
<glyph unicode="&#x384;" horiz-adv-x="682" d="M222 1194l133 280h236l-220 -280h-149z" />
<glyph unicode="&#x385;" horiz-adv-x="682" d="M-22 1230v192h173v-192h-173zM216 1230l131 277h186l-200 -277h-117zM532 1230v192h173v-192h-173z" />
<glyph unicode="&#x386;" horiz-adv-x="1367" d="M-1 0l563 1466h209l600 -1466h-221l-171 444h-613l-161 -444h-206zM54 1186l133 280h236l-220 -280h-149zM422 602h497l-153 406q-73 194 -104 304q-28 -141 -79 -280z" />
<glyph unicode="&#x387;" horiz-adv-x="569" d="M185 857v205h205v-205h-205z" />
<glyph unicode="&#x388;" horiz-adv-x="1606" d="M-89 1186l133 280h236l-220 -280h-149zM401 0v1466h1060v-173h-866v-449h811v-172h-811v-499h900v-173h-1094z" />
<glyph unicode="&#x389;" horiz-adv-x="1716" d="M-88 1186l133 280h236l-220 -280h-149zM360 0v1466h194v-602h762v602h194v-1466h-194v691h-762v-691h-194z" />
<glyph unicode="&#x38a;" horiz-adv-x="786" d="M-88 1186l133 280h236l-220 -280h-149zM360 0v1466h194v-1466h-194z" />
<glyph unicode="&#x38c;" horiz-adv-x="1586" d="M-89 1186l133 280h236l-220 -280h-149zM88 714q0 366 197 572t505 206q309 0 504.5 -209.5t195.5 -551.5q0 -340 -197 -548t-504 -208q-221 0 -387.5 110.5t-240 284t-73.5 344.5zM288 711q0 -251 136 -410.5t364 -159.5q224 0 363 157.5t139 433.5q0 280 -140 436.5 t-359 156.5q-215 0 -359 -147t-144 -467z" />
<glyph unicode="&#x38e;" horiz-adv-x="1752" d="M-89 1186l133 280h236l-220 -280h-149zM380 1466h236l289 -442q85 -131 149 -248q66 115 160 259l284 431h226l-585 -845v-621h-194v621z" />
<glyph unicode="&#x38f;" horiz-adv-x="1541" d="M-89 1186l133 280h236l-220 -280h-149zM107 0v173h320q-304 254 -304 620q0 199 80 357t226 249.5t351 91.5q203 0 338.5 -84t223 -241t87.5 -373q0 -366 -304 -620h320v-173h-570v162q356 166 356 601q0 245 -125.5 403.5t-326.5 158.5q-207 0 -331 -159.5t-124 -392.5 q0 -441 354 -611v-162h-571z" />
<glyph unicode="&#x390;" horiz-adv-x="455" d="M-136 1230v192h173v-192h-173zM102 1230l131 277h186l-200 -277h-117zM137 0v1062h180v-1062h-180zM418 1230v192h173v-192h-173z" />
<glyph unicode="&#x391;" horiz-adv-x="1366" d="M-3 0l563 1466h209l600 -1466h-221l-171 444h-613l-161 -444h-206zM420 602h497l-153 406q-70 185 -104 304q-28 -141 -79 -280z" />
<glyph unicode="&#x392;" horiz-adv-x="1366" d="M150 0v1466h550q168 0 269.5 -44.5t159 -137t57.5 -193.5q0 -94 -51 -177t-154 -134q133 -39 204.5 -133t71.5 -222q0 -103 -43.5 -191.5t-107.5 -136.5t-160.5 -72.5t-236.5 -24.5h-559zM344 173h365q94 0 132 7q67 12 112 40t74 81.5t29 123.5q0 82 -42 142.5 t-116.5 85t-214.5 24.5h-339v-504zM344 850h317q129 0 185 17q74 22 111.5 73t37.5 128q0 73 -35 128.5t-100 76t-223 20.5h-293v-443z" />
<glyph unicode="&#x393;" horiz-adv-x="1128" d="M164 0v1466h916v-173h-722v-1293h-194z" />
<glyph unicode="&#x394;" horiz-adv-x="1368" d="M-2 0l563 1466h209l600 -1466h-1372zM267 173h815l-317 835q-71 188 -104 304q-27 -136 -79 -280z" />
<glyph unicode="&#x395;" horiz-adv-x="1366" d="M162 0v1466h1060v-173h-866v-449h811v-172h-811v-499h900v-173h-1094z" />
<glyph unicode="&#x396;" horiz-adv-x="1251" d="M41 0v180l751 939q80 100 152 174h-818v173h1050v-173l-823 -1017l-89 -103h936v-173h-1159z" />
<glyph unicode="&#x397;" horiz-adv-x="1479" d="M164 0v1466h194v-602h762v602h194v-1466h-194v691h-762v-691h-194z" />
<glyph unicode="&#x398;" horiz-adv-x="1593" d="M96 714q0 366 197 572t505 206q309 0 504.5 -209.5t195.5 -551.5q0 -340 -197 -548t-504 -208q-221 0 -387.5 110.5t-240 284t-73.5 344.5zM296 711q0 -251 136 -410.5t364 -159.5q224 0 363 157.5t139 433.5q0 280 -140 436.5t-359 156.5q-215 0 -359 -147t-144 -467z M507 647v172h580v-172h-580z" />
<glyph unicode="&#x399;" horiz-adv-x="569" d="M191 0v1466h194v-1466h-194z" />
<glyph unicode="&#x39a;" horiz-adv-x="1366" d="M150 0v1466h194v-727l728 727h263l-615 -594l642 -872h-256l-522 742l-240 -234v-508h-194z" />
<glyph unicode="&#x39b;" horiz-adv-x="1368" d="M11 0l573 1466h200l568 -1466h-211l-381 1064q-50 140 -77 241q-33 -121 -78 -241l-396 -1064h-198z" />
<glyph unicode="&#x39c;" horiz-adv-x="1706" d="M152 0v1466h292l347 -1038q48 -145 70 -217q25 80 78 235l351 1020h261v-1466h-187v1227l-426 -1227h-175l-424 1248v-1248h-187z" />
<glyph unicode="&#x39d;" horiz-adv-x="1479" d="M156 0v1466h199l770 -1151v1151h186v-1466h-199l-770 1152v-1152h-186z" />
<glyph unicode="&#x39e;" horiz-adv-x="1331" d="M109 0v173h1113v-173h-1113zM136 1293v173h1059v-173h-1059zM230 647v172h871v-172h-871z" />
<glyph unicode="&#x39f;" horiz-adv-x="1593" d="M99 714q0 365 196 571.5t506 206.5q203 0 366 -97t248.5 -270.5t85.5 -393.5q0 -223 -90 -399t-255 -266.5t-356 -90.5q-207 0 -370 100t-247 273t-84 366zM299 711q0 -265 142.5 -417.5t357.5 -152.5q219 0 360.5 154t141.5 437q0 179 -60.5 312.5t-177 207t-261.5 73.5 q-206 0 -354.5 -141.5t-148.5 -472.5z" />
<glyph unicode="&#x3a0;" horiz-adv-x="1479" d="M164 0v1466h1150v-1466h-194v1293h-762v-1293h-194z" />
<glyph unicode="&#x3a1;" horiz-adv-x="1366" d="M158 0v1466h553q146 0 223 -14q108 -18 181 -68.5t117.5 -141.5t44.5 -200q0 -187 -119 -316.5t-430 -129.5h-376v-596h-194zM352 769h379q188 0 267 70t79 197q0 92 -46.5 157.5t-122.5 86.5q-49 13 -181 13h-375v-524z" />
<glyph unicode="&#x3a3;" horiz-adv-x="1266" d="M148 0v202l479 559l-479 510v195h997v-173h-787l500 -532l-500 -588h828v-173h-1038z" />
<glyph unicode="&#x3a4;" horiz-adv-x="1251" d="M48 1293v173h1162v-173h-485v-1293h-194v1293h-483z" />
<glyph unicode="&#x3a5;" horiz-adv-x="1366" d="M6 1466h236l289 -442q80 -124 149 -248q66 115 160 259l284 431h226l-585 -845v-621h-194v621z" />
<glyph unicode="&#x3a6;" horiz-adv-x="1634" d="M85 740q0 163 75 295t212 208t348 86v181h194v-181q308 -19 471.5 -180t163.5 -400q0 -268 -177 -423t-458 -165v-214h-194v214q-289 11 -462 170.5t-173 408.5zM287 741q0 -202 124 -307t309 -108v835q-206 -6 -319.5 -113t-113.5 -307zM914 326q205 6 321 115t116 303 q0 184 -111 300.5t-326 116.5v-835z" />
<glyph unicode="&#x3a7;" horiz-adv-x="1366" d="M9 0l567 764l-500 702h231l266 -376q83 -117 118 -180q49 80 116 167l295 389h211l-515 -691l555 -775h-240l-369 523q-31 45 -64 98q-49 -80 -70 -110l-368 -511h-233z" />
<glyph unicode="&#x3a8;" horiz-adv-x="1711" d="M127 1035v431h194v-395q0 -241 107 -337.5t330 -114.5v847h194v-847q210 13 323.5 116t113.5 360v371h195v-414q0 -589 -632 -599v-453h-194v453q-330 6 -480.5 160.5t-150.5 421.5z" />
<glyph unicode="&#x3a9;" horiz-adv-x="1531" d="M97 0v173h320q-304 254 -304 620q0 199 80 357t226 249.5t351 91.5q203 0 338.5 -84t223 -241t87.5 -373q0 -366 -304 -620h320v-173h-570v162q356 166 356 601q0 245 -125.5 403.5t-326.5 158.5q-207 0 -331 -159.5t-124 -392.5q0 -441 354 -611v-162h-571z" />
<glyph unicode="&#x3aa;" horiz-adv-x="569" d="M4 1556v205h188v-205h-188zM191 0v1466h194v-1466h-194zM377 1556v205h188v-205h-188z" />
<glyph unicode="&#x3ab;" horiz-adv-x="1366" d="M6 1466h236l289 -442q80 -124 149 -248q66 115 160 259l284 431h226l-585 -845v-621h-194v621zM397 1556v205h188v-205h-188zM770 1556v205h188v-205h-188z" />
<glyph unicode="&#x3ac;" horiz-adv-x="1184" d="M72 533q0 264 122.5 408.5t324.5 144.5q125 0 204 -50.5t147 -153.5q7 35 53 180h184q-70 -220 -129 -531q70 -386 129 -531h-179q-43 100 -65 194q-83 -218 -347 -218q-200 0 -322 150t-122 407zM270 533q0 -191 71 -300t198 -109q124 0 207 107.5t83 309.5 q0 196 -77.5 296t-202.5 100q-129 0 -204 -104t-75 -300zM466 1194l133 280h236l-220 -280h-149z" />
<glyph unicode="&#x3ad;" horiz-adv-x="913" d="M98 292q0 181 176 257q-147 83 -147 229q0 119 87 213.5t267 94.5q206 0 348 -144l-129 -104q-123 93 -230 93q-88 0 -128.5 -47t-40.5 -101q0 -70 60 -116.5t176 -46.5q15 0 50 1v-151q-32 1 -48 1q-143 0 -198.5 -55t-55.5 -124q0 -71 56 -119.5t133 -48.5 q141 0 264 131l129 -109q-160 -170 -398 -170q-187 0 -279 95t-92 221zM366 1194l133 280h236l-220 -280h-149z" />
<glyph unicode="&#x3ae;" horiz-adv-x="1139" d="M139 0v1062h162v-151q117 175 338 175q130 0 218 -56t116.5 -138.5t28.5 -238.5v-1060h-180v1053q0 148 -52 216t-171 68q-117 0 -198.5 -75t-81.5 -275v-580h-180zM466 1194l133 280h236l-220 -280h-149z" />
<glyph unicode="&#x3af;" horiz-adv-x="455" d="M99 1194l133 280h236l-220 -280h-149zM137 0v1062h180v-1062h-180z" />
<glyph unicode="&#x3b0;" horiz-adv-x="1120" d="M136 433v629h180v-629q0 -163 73 -236t171 -73q81 0 141 46t83 106t23 171v615h179v-622q0 -237 -118 -350.5t-311 -113.5q-149 0 -246.5 66.5t-136 153.5t-38.5 237zM198 1230v192h173v-192h-173zM436 1230l131 277h186l-200 -277h-117zM752 1230v192h173v-192h-173z " />
<glyph unicode="&#x3b1;" horiz-adv-x="1184" d="M72 533q0 264 122.5 408.5t324.5 144.5q125 0 204 -50.5t147 -153.5q7 35 53 180h184q-70 -220 -129 -531q70 -386 129 -531h-179q-43 100 -65 194q-83 -218 -347 -218q-200 0 -322 150t-122 407zM270 533q0 -191 71 -300t198 -109q124 0 207 107.5t83 309.5 q0 196 -77.5 296t-202.5 100q-129 0 -204 -104t-75 -300z" />
<glyph unicode="&#x3b2;" horiz-adv-x="1178" d="M140 -407v1413q0 169 45.5 264.5t156.5 158t247 62.5q201 0 304.5 -115.5t103.5 -252.5q0 -134 -83.5 -216t-191.5 -101q174 -17 268.5 -125t94.5 -266q0 -170 -111.5 -304.5t-322.5 -134.5q-216 0 -332 159v-542h-179zM319 572q0 -172 24 -253t103 -146t182 -65 q125 0 197.5 85.5t72.5 211.5q0 104 -53.5 186.5t-132 112t-208.5 29.5h-26v131q184 0 268 64t84 185q0 98 -71.5 164t-178.5 66q-93 0 -161.5 -49t-84 -109t-15.5 -210v-403z" />
<glyph unicode="&#x3b3;" horiz-adv-x="1024" d="M25 1062h189l297 -837l304 837h184l-397 -1062v-407h-183v407z" />
<glyph unicode="&#x3b4;" horiz-adv-x="1140" d="M72 516q0 256 131 390.5t313 141.5q-93 65 -342 288v130h801v-146h-560q100 -102 313 -249q190 -132 265 -245t75 -306q0 -259 -139.5 -401.5t-363.5 -142.5q-245 0 -369 160t-124 380zM256 514q0 -170 89.5 -280t228.5 -110q122 0 215.5 94t93.5 297q0 188 -89 291 t-224 103q-149 0 -231.5 -116t-82.5 -279z" />
<glyph unicode="&#x3b5;" horiz-adv-x="913" d="M98 292q0 181 176 257q-147 83 -147 229q0 119 87 213.5t267 94.5q206 0 348 -144l-129 -104q-123 93 -230 93q-88 0 -128.5 -47t-40.5 -101q0 -70 60 -116.5t176 -46.5q15 0 50 1v-151q-32 1 -48 1q-143 0 -198.5 -55t-55.5 -124q0 -71 56 -119.5t133 -48.5 q141 0 264 131l129 -109q-160 -170 -398 -170q-187 0 -279 95t-92 221z" />
<glyph unicode="&#x3b6;" horiz-adv-x="903" d="M72 421q0 237 171 488.5t407 410.5h-416v146h652v-122q-269 -166 -451.5 -434.5t-182.5 -496.5q0 -120 54 -178t175 -68q156 -14 221.5 -34.5t114.5 -84t49 -152.5q0 -97 -60 -179t-138.5 -115t-191.5 -33l49 166q168 19 168 141q0 41 -27 72t-66 40t-148 13 q-151 4 -227.5 60.5t-114.5 149.5t-38 210z" />
<glyph unicode="&#x3b7;" horiz-adv-x="1139" d="M139 0v1062h162v-151q117 175 338 175q130 0 218 -56t116.5 -138.5t28.5 -238.5v-1060h-180v1053q0 148 -52 216t-171 68q-117 0 -198.5 -75t-81.5 -275v-580h-180z" />
<glyph unicode="&#x3b8;" horiz-adv-x="1139" d="M92 733q0 758 478 758t478 -758q0 -757 -478 -757t-478 757zM278 661q11 -537 292 -537q282 0 292 537h-584zM278 806h584q-10 313 -90 425t-204 112q-279 0 -290 -537z" />
<glyph unicode="&#x3b9;" horiz-adv-x="455" d="M137 0v1062h180v-1062h-180z" />
<glyph unicode="&#x3ba;" horiz-adv-x="1024" d="M134 0v1062h179v-417l431 417h238l-475 -441l516 -621h-230l-414 500l-66 -61v-439h-179z" />
<glyph unicode="&#x3bb;" horiz-adv-x="1024" d="M24 0l394 1042l-158 424h190l548 -1466h-190l-297 794l-297 -794h-190z" />
<glyph unicode="&#x3bc;" horiz-adv-x="1180" d="M160 -407v1469h178v-450q0 -245 26 -317.5t84.5 -114.5t134.5 -42q80 0 143 44t89 113.5t26 313.5v453h177v-1062h-161v126q-52 -80 -103 -110q-70 -41 -163 -41q-83 0 -147 33q-48 25 -106 99v-514h-178z" />
<glyph unicode="&#x3bd;" horiz-adv-x="1024" d="M26 1062h190l228 -636q37 -103 68 -214q24 84 67 202l236 648h185l-402 -1062h-168z" />
<glyph unicode="&#x3be;" horiz-adv-x="917" d="M92 420q0 153 91.5 275t233.5 183q-142 18 -206.5 107.5t-64.5 182.5q0 130 114.5 226.5t333.5 96.5h178v-149h-147q-164 0 -237.5 -48.5t-73.5 -138.5q0 -172 299 -172h147v-149q-132 0 -230 -39t-176.5 -140t-78.5 -229q0 -96 56.5 -171t242.5 -96q120 -14 176 -44.5 t93 -92.5t37 -134q0 -132 -109 -224.5t-294 -94.5l46 167q99 7 140.5 51t41.5 90q0 102 -171 121q-442 48 -442 422z" />
<glyph unicode="&#x3bf;" horiz-adv-x="1139" d="M68 531q0 295 164 437q137 118 334 118q219 0 358 -143.5t139 -396.5q0 -205 -61.5 -322.5t-179 -182.5t-256.5 -65q-223 0 -360.5 143t-137.5 412zM253 531q0 -204 89 -305.5t224 -101.5q134 0 223 102t89 311q0 197 -89.5 298.5t-222.5 101.5q-135 0 -224 -101 t-89 -305z" />
<glyph unicode="&#x3c0;" horiz-adv-x="1413" d="M45 916v146h1324v-146h-242v-916h-180v916h-442v-916h-180v916h-280z" />
<glyph unicode="&#x3c1;" horiz-adv-x="1165" d="M131 -407v901q0 302 119 447t346 145q226 0 361.5 -154t135.5 -400q0 -247 -129.5 -401.5t-340.5 -154.5q-197 0 -312 125v-508h-180zM313 517q0 -197 78 -295t212 -98q135 0 220 101.5t85 296.5q0 222 -91 318.5t-215 96.5q-131 0 -210 -100.5t-79 -319.5z" />
<glyph unicode="&#x3c2;" horiz-adv-x="987" d="M86 489q0 241 172.5 419t464.5 178q123 0 243 -34l-42 -150q-112 35 -224 35q-201 0 -320 -124.5t-119 -292.5q0 -116 65.5 -205.5t259.5 -140.5q139 -37 201 -69.5t97 -90t35 -132.5q0 -137 -111 -225t-277 -88q-67 0 -152 14l44 165q58 -12 101 -12q96 0 151 41.5 t55 100.5q0 54 -39.5 82.5t-165.5 55.5q-222 47 -330.5 173t-108.5 300z" />
<glyph unicode="&#x3c3;" horiz-adv-x="1264" d="M68 531q0 283 145.5 419t350.5 136q75 0 170 -24h485v-146h-289q133 -124 133 -386q0 -285 -145.5 -419.5t-353.5 -134.5q-216 0 -356 140t-140 415zM253 530q0 -202 86.5 -304t224.5 -102q145 0 230.5 106.5t85.5 300.5q0 177 -78.5 291.5t-240.5 114.5 q-131 0 -219.5 -102t-88.5 -305z" />
<glyph unicode="&#x3c4;" horiz-adv-x="809" d="M46 916v146h716v-146h-256v-916h-180v916h-280z" />
<glyph unicode="&#x3c5;" horiz-adv-x="1120" d="M136 433v629h180v-629q0 -163 73 -236t171 -73q81 0 141 46t83 106t23 171v615h179v-622q0 -237 -118 -350.5t-311 -113.5q-149 0 -246.5 66.5t-136 153.5t-38.5 237z" />
<glyph unicode="&#x3c6;" horiz-adv-x="1328" d="M72 557q0 237 129.5 383.5t297.5 142.5l-35 -156q-207 -69 -207 -362q0 -155 81.5 -276.5t243.5 -156.5v660q0 106 15 163.5t68.5 94t145.5 36.5q143 0 232.5 -58t151.5 -183t62 -269q0 -120 -49 -240.5t-159 -221.5t-289 -139v-382h-178v382q-186 0 -348 163t-162 419z M760 140q127 23 217.5 142t90.5 312q0 179 -66 261t-140 82q-53 0 -77.5 -36.5t-24.5 -160.5v-600z" />
<glyph unicode="&#x3c7;" horiz-adv-x="1075" d="M17 -407l409 739l-378 730h196l292 -588l302 588h198l-390 -724l410 -745h-205l-315 613l-318 -613h-201z" />
<glyph unicode="&#x3c8;" horiz-adv-x="1460" d="M122 544v518h179v-524q0 -147 24 -224t101.5 -128.5t213.5 -58.5v935h180v-935q131 7 208 56t103.5 125.5t26.5 229.5v524h179v-518q0 -208 -38.5 -309t-155.5 -176.5t-323 -82.5v-383h-180v383q-133 4 -233 38t-169.5 108.5t-92.5 156.5t-23 265z" />
<glyph unicode="&#x3c9;" horiz-adv-x="1599" d="M87 517q0 264 158 545h174q-149 -329 -149 -556q0 -175 64 -282t163 -107q64 0 120 50t74.5 120t18.5 196v311h179v-311q0 -123 18.5 -195t75 -121.5t120.5 -49.5q98 0 162 106.5t64 282.5q0 227 -148 556h173q158 -281 158 -545q0 -265 -109.5 -403t-279.5 -138 q-226 0 -323 239q-98 -239 -324 -239q-179 0 -284 145t-105 396z" />
<glyph unicode="&#x3ca;" horiz-adv-x="455" d="M-47 1270v205h188v-205h-188zM137 0v1062h180v-1062h-180zM326 1270v205h188v-205h-188z" />
<glyph unicode="&#x3cb;" horiz-adv-x="1120" d="M136 433v629h180v-629q0 -163 73 -236t171 -73q81 0 141 46t83 106t23 171v615h179v-622q0 -237 -118 -350.5t-311 -113.5q-149 0 -246.5 66.5t-136 153.5t-38.5 237zM301 1270v205h188v-205h-188zM674 1270v205h188v-205h-188z" />
<glyph unicode="&#x3cc;" horiz-adv-x="1139" d="M68 531q0 295 164 437q137 118 334 118q219 0 358 -143.5t139 -396.5q0 -205 -61.5 -322.5t-179 -182.5t-256.5 -65q-223 0 -360.5 143t-137.5 412zM253 531q0 -204 89 -305.5t224 -101.5q134 0 223 102t89 311q0 197 -89.5 298.5t-222.5 101.5q-135 0 -224 -101 t-89 -305zM466 1194l133 280h236l-220 -280h-149z" />
<glyph unicode="&#x3cd;" horiz-adv-x="1120" d="M136 433v629h180v-629q0 -163 73 -236t171 -73q81 0 141 46t83 106t23 171v615h179v-622q0 -237 -118 -350.5t-311 -113.5q-149 0 -246.5 66.5t-136 153.5t-38.5 237zM442 1194l133 280h236l-220 -280h-149z" />
<glyph unicode="&#x3ce;" horiz-adv-x="1599" d="M87 517q0 264 158 545h174q-149 -329 -149 -556q0 -175 64 -282t163 -107q64 0 120 50t74.5 120t18.5 196v311h179v-311q0 -123 18.5 -195t75 -121.5t120.5 -49.5q98 0 162 106.5t64 282.5q0 227 -148 556h173q158 -281 158 -545q0 -265 -109.5 -403t-279.5 -138 q-226 0 -323 239q-98 -239 -324 -239q-179 0 -284 145t-105 396zM702 1194l133 280h236l-220 -280h-149z" />
<glyph unicode="&#x3d6;" horiz-adv-x="1124" d="M0 905v158h1124v-158h-162v-905h-189v905h-426v-905h-188v905h-159z" />
<glyph unicode="&#x401;" horiz-adv-x="1367" d="M162 0v1466h1060v-173h-866v-449h811v-172h-811v-499h900v-173h-1094zM411 1556v205h188v-205h-188zM784 1556v205h188v-205h-188z" />
<glyph unicode="&#x402;" horiz-adv-x="1771" d="M50 1293v173h1170v-173h-488v-456q253 99 440 99q233 0 375 -141t142 -344q0 -178 -116.5 -327t-341.5 -149q-104 0 -235 33l31 164q76 -37 158 -37q151 0 228.5 88t77.5 222q0 142 -89.5 235.5t-277.5 93.5q-162 0 -392 -94v-680h-194v1293h-488z" />
<glyph unicode="&#x403;" horiz-adv-x="1109" d="M161 0v1466h948v-173h-754v-1293h-194zM473 1556l133 280h236l-220 -280h-149z" />
<glyph unicode="&#x404;" horiz-adv-x="1472" d="M111 749q0 200 75.5 365t231.5 271t372 106q228 0 381.5 -113t207.5 -314l-190 -50q-83 307 -400 307q-214 0 -335.5 -129t-133.5 -349h537v-173h-545q11 -247 137 -389.5t323 -142.5q350 0 439 372l187 -49q-127 -486 -612 -486q-347 0 -516.5 223.5t-158.5 550.5z" />
<glyph unicode="&#x405;" horiz-adv-x="1366" d="M92 471l183 16q13 -110 60.5 -180.5t147.5 -114t225 -43.5q111 0 196 33t126.5 90.5t41.5 125.5q0 69 -40 120.5t-132 86.5q-59 23 -261 71.5t-283 91.5q-105 55 -156.5 136.5t-51.5 182.5q0 111 63 207.5t184 146.5t269 50q163 0 287.5 -52.5t191.5 -154.5t72 -231 l-186 -14q-15 139 -101.5 210t-255.5 71q-176 0 -256.5 -64.5t-80.5 -155.5q0 -79 57 -130q56 -51 292.5 -104.5t324.5 -93.5q128 -59 189 -149.5t61 -208.5q0 -117 -67 -220.5t-192.5 -161t-282.5 -57.5q-199 0 -333.5 58t-211 174.5t-80.5 263.5z" />
<glyph unicode="&#x406;" horiz-adv-x="569" d="M191 0v1466h194v-1466h-194z" />
<glyph unicode="&#x407;" horiz-adv-x="569" d="M4 1556v205h188v-205h-188zM191 0v1466h194v-1466h-194zM377 1556v205h188v-205h-188z" />
<glyph unicode="&#x408;" horiz-adv-x="1024" d="M59 416l175 24q7 -168 63 -230t155 -62q73 0 126 33.5t73 91t20 183.5v1010h194v-999q0 -184 -44.5 -285t-141 -154t-226.5 -53q-193 0 -295.5 111t-98.5 330z" />
<glyph unicode="&#x409;" horiz-adv-x="2165" d="M13 -1l33 172q48 -20 82 -20q66 0 99 49.5t33 233.5v1032h918v-626h350q243 0 353 -55.5t159 -154.5t49 -203q0 -137 -70.5 -243.5t-171 -145t-290.5 -38.5h-573v1293h-530v-755q0 -230 -21.5 -337t-90.5 -166.5t-175 -59.5q-64 0 -154 24zM1178 165h388q106 0 167 20.5 t104.5 80t43.5 155.5q0 91 -46.5 152.5t-125 80.5t-271.5 19h-260v-508z" />
<glyph unicode="&#x40a;" horiz-adv-x="2069" d="M164 0v1466h194v-626h530v626h194v-626h326q209 0 325.5 -35t188 -138t71.5 -240q0 -143 -75.5 -251t-176 -142t-292.5 -34h-561v673h-530v-673h-194zM1082 165h363q124 0 185.5 18t108 78.5t46.5 159.5q0 85 -41 146t-124.5 83.5t-301.5 22.5h-236v-508z" />
<glyph unicode="&#x40b;" horiz-adv-x="1749" d="M49 1293v173h1173v-173h-489v-451q273 94 437 94q159 0 277 -64.5t163.5 -176.5t45.5 -309v-386h-194v379q0 144 -27 223.5t-98.5 124.5t-177.5 45q-161 0 -426 -92v-680h-194v1293h-490z" />
<glyph unicode="&#x40c;" horiz-adv-x="1193" d="M161 0v1466h194v-642q133 0 187 51.5t138 247.5q61 144 100.5 203.5t112.5 100t161 40.5q112 0 118 -2v-168q-10 0 -39 1q-32 1 -39 1q-93 0 -138 -45q-46 -45 -105 -192q-74 -186 -125 -234.5t-122 -77.5q142 -39 280 -262l302 -488h-241l-245 398q-101 165 -169 226.5 t-176 61.5v-686h-194zM525 1556l133 280h236l-220 -280h-149z" />
<glyph unicode="&#x40e;" horiz-adv-x="1301" d="M10 1466h196l478 -898l418 898h193l-550 -1140q-103 -214 -169 -280t-189 -66q-75 0 -184 35v166q78 -45 165 -45q71 0 122.5 45.5t113.5 207.5zM402 1815h123q14 -68 55.5 -101.5t111.5 -33.5q81 0 122.5 32.5t55.5 102.5h123q-15 -125 -91.5 -192t-203.5 -67 q-128 0 -204.5 66.5t-91.5 192.5z" />
<glyph unicode="&#x40f;" horiz-adv-x="1472" d="M160 0v1466h194v-1293h764v1293h195v-1466h-490v-407h-173v407h-490z" />
<glyph unicode="&#x410;" horiz-adv-x="1366" d="M-3 0l563 1466h209l600 -1466h-221l-171 444h-613l-161 -444h-206zM420 602h497l-153 406q-70 185 -104 304q-28 -141 -79 -280z" />
<glyph unicode="&#x411;" horiz-adv-x="1344" d="M167 0v1466h951v-173h-757v-452h350q194 0 308.5 -37t183.5 -139.5t69 -238.5q0 -111 -49.5 -207.5t-147.5 -157.5t-334 -61h-574zM361 165h388q157 0 235.5 64t78.5 192q0 91 -45 152t-125 81t-273 20h-259v-509z" />
<glyph unicode="&#x412;" horiz-adv-x="1366" d="M150 0v1466h550q168 0 269.5 -44.5t159 -137t57.5 -193.5q0 -94 -51 -177t-154 -134q133 -39 204.5 -133t71.5 -222q0 -103 -43.5 -191.5t-107.5 -136.5t-160.5 -72.5t-236.5 -24.5h-559zM344 173h365q94 0 132 7q67 12 112 40t74 81.5t29 123.5q0 82 -42 142.5 t-116.5 85t-214.5 24.5h-339v-504zM344 850h317q129 0 185 17q74 22 111.5 73t37.5 128q0 73 -35 128.5t-100 76t-223 20.5h-293v-443z" />
<glyph unicode="&#x413;" horiz-adv-x="1109" d="M161 0v1466h948v-173h-754v-1293h-194z" />
<glyph unicode="&#x414;" horiz-adv-x="1387" d="M0 173h114q177 267 177 1079v214h892v-1293h132v-515h-173v342h-969v-342h-173v515zM313 173h676v1120h-511v-75q0 -187 -33.5 -511.5t-131.5 -533.5z" />
<glyph unicode="&#x415;" horiz-adv-x="1366" d="M162 0v1466h1060v-173h-866v-449h811v-172h-811v-499h900v-173h-1094z" />
<glyph unicode="&#x416;" horiz-adv-x="1891" d="M7 0l302 488q138 223 280 262q-79 32 -129 85.5t-119 226.5q-63 157 -108 197t-134 40l-78 -2v168q11 2 112 2q96 0 166.5 -39.5t110.5 -99t103 -205.5q84 -197 136.5 -247t196.5 -52v642h199v-642q143 0 196.5 52.5t136.5 246.5q61 144 100.5 203.5t112.5 100t160 40.5 q95 0 118 -2v-168q-9 0 -38 1q-32 1 -39 1q-93 0 -138 -45q-46 -45 -105 -192q-64 -159 -111 -216.5t-136 -95.5q144 -40 279 -262l302 -488h-240l-245 398q-98 158 -165 223t-188 65v-686h-199v686q-96 0 -169.5 -50.5t-171.5 -217.5l-12 -20l-245 -398h-241z" />
<glyph unicode="&#x417;" horiz-adv-x="1237" d="M78 414l185 48q21 -107 112.5 -214t242.5 -107q154 0 243 79t89 191q0 121 -94 192.5t-256 71.5h-93v169q134 0 205 15.5t125.5 79t54.5 144.5q0 96 -74.5 167t-201.5 71q-111 0 -189.5 -55.5t-108.5 -147t-30 -136.5l-186 42q69 467 516 467q215 0 341 -119.5 t126 -279.5q0 -205 -194 -318q112 -31 187.5 -126.5t75.5 -228.5q0 -189 -146.5 -316.5t-388.5 -127.5q-416 0 -541 439z" />
<glyph unicode="&#x418;" horiz-adv-x="1472" d="M161 0v1466h176v-1161l780 1161h195v-1466h-176v1158l-781 -1158h-194z" />
<glyph unicode="&#x419;" horiz-adv-x="1472" d="M161 0v1466h176v-1161l780 1161h195v-1466h-176v1158l-781 -1158h-194zM422 1815h123q14 -68 55.5 -101.5t111.5 -33.5q81 0 122.5 32.5t55.5 102.5h123q-15 -125 -91.5 -192t-203.5 -67q-128 0 -204.5 66.5t-91.5 192.5z" />
<glyph unicode="&#x41a;" horiz-adv-x="1193" d="M161 0v1466h194v-642q133 0 187 51.5t138 247.5q61 144 100.5 203.5t112.5 100t161 40.5q112 0 118 -2v-168q-10 0 -39 1q-32 1 -39 1q-93 0 -138 -45q-46 -45 -105 -192q-74 -186 -125 -234.5t-122 -77.5q142 -39 280 -262l302 -488h-241l-245 398q-101 165 -169 226.5 t-176 61.5v-686h-194z" />
<glyph unicode="&#x41b;" horiz-adv-x="1344" d="M18 -1l33 172q48 -20 82 -20q66 0 99 49.5t33 233.5v1032h918v-1466h-194v1293h-530v-755q0 -230 -21.5 -337t-90.5 -166.5t-175 -59.5q-64 0 -154 24z" />
<glyph unicode="&#x41c;" horiz-adv-x="1706" d="M152 0v1466h292l347 -1038q48 -145 70 -217q25 80 78 235l351 1020h261v-1466h-187v1227l-426 -1227h-175l-424 1248v-1248h-187z" />
<glyph unicode="&#x41d;" horiz-adv-x="1479" d="M164 0v1466h194v-602h762v602h194v-1466h-194v691h-762v-691h-194z" />
<glyph unicode="&#x41e;" horiz-adv-x="1593" d="M99 714q0 365 196 571.5t506 206.5q203 0 366 -97t248.5 -270.5t85.5 -393.5q0 -223 -90 -399t-255 -266.5t-356 -90.5q-207 0 -370 100t-247 273t-84 366zM299 711q0 -265 142.5 -417.5t357.5 -152.5q219 0 360.5 154t141.5 437q0 179 -60.5 312.5t-177 207t-261.5 73.5 q-206 0 -354.5 -141.5t-148.5 -472.5z" />
<glyph unicode="&#x41f;" horiz-adv-x="1472" d="M160 0v1466h1153v-1466h-195v1293h-764v-1293h-194z" />
<glyph unicode="&#x420;" horiz-adv-x="1366" d="M158 0v1466h553q146 0 223 -14q108 -18 181 -68.5t117.5 -141.5t44.5 -200q0 -187 -119 -316.5t-430 -129.5h-376v-596h-194zM352 769h379q188 0 267 70t79 197q0 92 -46.5 157.5t-122.5 86.5q-49 13 -181 13h-375v-524z" />
<glyph unicode="&#x421;" horiz-adv-x="1479" d="M102 744q0 229 87.5 399.5t249 259t355.5 88.5q220 0 370 -112t209 -315l-191 -45q-51 160 -148 233t-244 73q-169 0 -282.5 -81t-159.5 -217.5t-46 -281.5q0 -187 54.5 -326.5t169.5 -208.5t249 -69q163 0 276 94t153 279l194 -49q-61 -239 -219.5 -364.5t-387.5 -125.5 q-237 0 -385.5 96.5t-226 279.5t-77.5 393z" />
<glyph unicode="&#x422;" horiz-adv-x="1251" d="M48 1293v173h1162v-173h-485v-1293h-194v1293h-483z" />
<glyph unicode="&#x423;" horiz-adv-x="1301" d="M10 1466h196l478 -898l418 898h193l-550 -1140q-103 -214 -169 -280t-189 -66q-75 0 -184 35v166q78 -45 165 -45q71 0 122.5 45.5t113.5 207.5z" />
<glyph unicode="&#x424;" horiz-adv-x="1557" d="M82 740q0 245 172.5 392t433.5 158v188h182v-188q280 -15 442 -168.5t162 -381.5q0 -223 -157 -379t-447 -172v-189h-182v189q-260 10 -433 158.5t-173 392.5zM283 740q0 -175 110.5 -275t294.5 -108v766q-181 -8 -293 -107t-112 -276zM870 356q188 9 296 109t108 275 q0 172 -106 272.5t-298 111.5v-768z" />
<glyph unicode="&#x425;" horiz-adv-x="1366" d="M9 0l567 764l-500 702h231l266 -376q83 -117 118 -180q49 80 116 167l295 389h211l-515 -691l555 -775h-240l-369 523q-31 45 -64 98q-49 -80 -70 -110l-368 -511h-233z" />
<glyph unicode="&#x426;" horiz-adv-x="1515" d="M159 0v1466h194v-1293h764v1293h195v-1293h134v-580h-172v407h-1115z" />
<glyph unicode="&#x427;" horiz-adv-x="1365" d="M87 1035v431h194v-413q0 -240 87.5 -315.5t210.5 -75.5q205 0 431 91v713h194v-1466h-194v591q-261 -97 -457 -97q-153 0 -270 71.5t-156.5 181.5t-39.5 288z" />
<glyph unicode="&#x428;" horiz-adv-x="1877" d="M161 0v1466h194v-1293h487v1293h194v-1293h487v1293h194v-1466h-1556z" />
<glyph unicode="&#x429;" horiz-adv-x="1920" d="M161 0v1466h194v-1293h487v1293h194v-1293h487v1293h194v-1293h133v-580h-173v407h-1516z" />
<glyph unicode="&#x42a;" horiz-adv-x="1621" d="M0 1293v173h640v-626h351q345 0 452.5 -128t107.5 -288q0 -184 -124.5 -304t-423.5 -120h-557v1293h-446zM640 165h355q183 0 265 61.5t82 195.5q0 91 -48.5 153.5t-128.5 80t-266 17.5h-259v-508z" />
<glyph unicode="&#x42b;" horiz-adv-x="1813" d="M168 0v1466h194v-626h350q344 0 452.5 -127t108.5 -288q0 -170 -116 -297.5t-431 -127.5h-558zM362 165h355q183 0 265.5 61.5t82.5 196.5q0 92 -50 154t-129 79t-264 17h-260v-508zM1449 0v1466h194v-1466h-194z" />
<glyph unicode="&#x42c;" horiz-adv-x="1344" d="M165 0v1466h194v-626h350q245 0 355 -57t158 -155t48 -202q0 -170 -116 -298t-432 -128h-557zM359 165h355q216 0 281.5 76.5t65.5 184.5q0 88 -47.5 149.5t-126.5 79.5t-268 18h-260v-508z" />
<glyph unicode="&#x42d;" horiz-adv-x="1472" d="M74 461q127 -486 612 -486q347 0 516.5 223.5t158.5 550.5q0 200 -75.5 365t-231.5 271t-372 106q-228 0 -381.5 -113t-207.5 -314l190 -50q83 307 400 307q214 0 335.5 -129t133.5 -349h-537v-173h545q-11 -247 -137 -389.5t-323 -142.5q-350 0 -439 372z" />
<glyph unicode="&#x42e;" horiz-adv-x="2069" d="M164 0v1466h194v-658h282q21 312 205 497.5t456 185.5q287 0 475.5 -202t188.5 -548q0 -360 -188 -563t-481 -203q-266 0 -443.5 175.5t-208.5 485.5h-286v-636h-194zM835 726q0 -278 128 -431.5t336 -153.5q213 0 340 154t127 443q0 274 -125 431.5t-338 157.5 q-217 0 -342.5 -159.5t-125.5 -441.5z" />
<glyph unicode="&#x42f;" horiz-adv-x="1479" d="M26 0h244l194 305q85 132 140 202t98.5 98t88.5 39q33 7 108 7h225v-651h194v1466h-650q-196 0 -298 -39.5t-163 -139.5t-61 -221q0 -156 101 -263t312 -136q-77 -37 -117 -73q-85 -78 -161 -195zM346 1066q0 104 75.5 171t238.5 67h464v-485h-417q-133 0 -208 27.5 t-114 88t-39 131.5z" />
<glyph unicode="&#x430;" horiz-adv-x="1139" d="M74 280q0 78 35.5 142.5t93 103.5t129.5 59q53 14 160 27q218 26 321 62q1 37 1 47q0 110 -51 155q-69 61 -205 61q-127 0 -187.5 -44.5t-89.5 -157.5l-176 24q24 113 79 182.5t159 107t241 37.5q136 0 221 -32t125 -80.5t56 -122.5q9 -46 9 -166v-240 q0 -251 11.5 -317.5t45.5 -127.5h-188q-28 56 -36 131q-100 -85 -192.5 -120t-198.5 -35q-175 0 -269 85.5t-94 218.5zM266 285q0 -72 54.5 -120t159.5 -48q104 0 185 45.5t119 124.5q29 61 29 180v66q-98 -40 -294 -68q-111 -16 -157 -36t-71 -58.5t-25 -85.5z" />
<glyph unicode="&#x431;" horiz-adv-x="1173" d="M91 754q0 421 142.5 567t438.5 146q184 0 209 6t32 28l159 -2q-11 -107 -47.5 -149t-94 -54t-225.5 -12q-223 0 -304 -43t-116.5 -137.5t-39.5 -243.5q68 101 159 151.5t205 50.5q209 0 346 -143.5t137 -388.5q0 -186 -69 -305t-163.5 -184t-257.5 -65q-189 0 -294 86.5 t-161 221.5t-56 470zM293 502q0 -185 89.5 -283t220.5 -98q134 0 217.5 113.5t83.5 300.5q0 166 -78.5 272t-221.5 106q-149 0 -230 -112t-81 -299z" />
<glyph unicode="&#x432;" horiz-adv-x="1088" d="M136 0v1062h415q153 0 227.5 -25.5t128 -93.5t53.5 -163q0 -76 -31.5 -132.5t-94.5 -94.5q75 -25 124.5 -93.5t49.5 -162.5q-10 -151 -108 -224t-285 -73h-479zM316 148h237q153 0 210 35.5t60 122.5q0 51 -33 94.5t-86 55t-170 11.5h-218v-319zM316 615h192 q115 0 158 12t77 48.5t34 87.5q0 84 -59.5 117t-203.5 33h-198v-298z" />
<glyph unicode="&#x433;" horiz-adv-x="747" d="M136 0v1062h611v-149h-431v-913h-180z" />
<glyph unicode="&#x434;" horiz-adv-x="1195" d="M0 148h95q190 258 182 914h740v-914h115v-449h-148v301h-836v-301h-148v449zM267 148h571v765h-411q-20 -517 -160 -765z" />
<glyph unicode="&#x435;" horiz-adv-x="1139" d="M75 522q0 268 138 416t358 148q213 0 348 -145t135 -408q0 -16 -1 -48h-792q10 -175 99 -268t222 -93q99 0 169 52t111 166l186 -23q-44 -163 -163 -253t-304 -90q-233 0 -369.5 143.5t-136.5 402.5zM271 633h593q-12 134 -68 201q-86 104 -223 104q-124 0 -208.5 -83 t-93.5 -222z" />
<glyph unicode="&#x436;" horiz-adv-x="1370" d="M-5 0l197 329q112 185 229 216q-80 37 -112 80.5t-96 207.5q-22 55 -47 68q-26 13 -77 13q-13 0 -53 -1v149h25q104 0 146.5 -12.5t76 -53t87.5 -168.5q66 -157 100.5 -191t121.5 -34v459h184v-459q86 0 121 33t102 192q63 151 113 193q49 41 156 41h66v-149l-49 1 q-72 0 -92 -21q-21 -22 -64 -131q-40 -104 -74 -144t-106 -73q117 -31 228 -216l198 -329h-198l-193 329q-59 100 -103 131t-105 31v-491h-184v491q-60 0 -104 -30.5t-103 -131.5l-193 -329h-198z" />
<glyph unicode="&#x437;" horiz-adv-x="939" d="M50 299l169 36q23 -102 93.5 -158t161.5 -56t151.5 51.5t60.5 131.5q0 62 -38 108t-81 57.5t-156 11.5q-9 0 -41 -1v141q114 1 155.5 9t78.5 48t37 100q0 73 -48.5 116.5t-125.5 43.5q-152 0 -213 -179l-171 28q80 299 386 299q170 0 266.5 -93t96.5 -222 q0 -130 -126 -207q80 -43 120 -109.5t40 -157.5q0 -143 -104 -232t-291 -89q-363 0 -421 323z" />
<glyph unicode="&#x438;" horiz-adv-x="1144" d="M135 0v1062h180v-810l499 810h194v-1062h-180v805l-499 -805h-194z" />
<glyph unicode="&#x439;" horiz-adv-x="1144" d="M135 0v1062h180v-810l499 810h194v-1062h-180v805l-499 -805h-194zM292 1464h123q14 -68 55.5 -101.5t111.5 -33.5q81 0 122.5 32.5t55.5 102.5h123q-15 -125 -91.5 -192t-203.5 -67q-128 0 -204.5 66.5t-91.5 192.5z" />
<glyph unicode="&#x43a;" horiz-adv-x="896" d="M134 0v1062h180v-459q86 0 120.5 33t101.5 192q53 126 86 166t76 54t138 14h36v-149l-50 1q-71 0 -91 -21q-21 -22 -64 -131q-41 -104 -75 -144t-105 -73q116 -31 228 -216l197 -329h-198l-192 329q-59 99 -103 130.5t-105 31.5v-491h-180z" />
<glyph unicode="&#x43b;" horiz-adv-x="1195" d="M24 1v150h79q56 0 80 11.5t32 36.5t8 163v700h836v-1062h-179v913h-477v-529q0 -185 -12 -244t-66 -103t-156 -44q-63 0 -145 8z" />
<glyph unicode="&#x43c;" horiz-adv-x="1408" d="M140 0v1062h280l279 -850l310 850h259v-1062h-180v855l-314 -855h-161l-297 896v-896h-176z" />
<glyph unicode="&#x43d;" horiz-adv-x="1131" d="M136 0v1062h180v-442h499v442h180v-1062h-180v471h-499v-471h-180z" />
<glyph unicode="&#x43e;" horiz-adv-x="1139" d="M68 531q0 295 164 437q137 118 334 118q219 0 358 -143.5t139 -396.5q0 -205 -61.5 -322.5t-179 -182.5t-256.5 -65q-223 0 -360.5 143t-137.5 412zM253 531q0 -204 89 -305.5t224 -101.5q134 0 223 102t89 311q0 197 -89.5 298.5t-222.5 101.5q-135 0 -224 -101 t-89 -305z" />
<glyph unicode="&#x43f;" horiz-adv-x="1109" d="M136 0v1062h838v-1062h-180v913h-478v-913h-180z" />
<glyph unicode="&#x440;" horiz-adv-x="1139" d="M135 -407v1469h164v-138q58 81 131 121.5t177 40.5q136 0 240 -70t157 -197.5t53 -279.5q0 -163 -58.5 -293.5t-170 -200t-234.5 -69.5q-90 0 -161.5 38t-117.5 96v-517h-180zM298 525q0 -205 83 -303t201 -98q120 0 205.5 101.5t85.5 314.5q0 203 -83.5 304t-199.5 101 q-115 0 -203.5 -107.5t-88.5 -312.5z" />
<glyph unicode="&#x441;" horiz-adv-x="1024" d="M80 527q0 172 57 301t173.5 193.5t253.5 64.5q173 0 283 -87.5t141 -248.5l-175 -27q-25 107 -88.5 161t-153.5 54q-136 0 -221 -97.5t-85 -308.5q0 -214 82 -311t214 -97q106 0 177 65t90 200l177 -23q-29 -183 -148.5 -286.5t-293.5 -103.5q-218 0 -350.5 142.5 t-132.5 408.5z" />
<glyph unicode="&#x442;" horiz-adv-x="938" d="M38 913v149h863v-149h-342v-913h-179v913h-342z" />
<glyph unicode="&#x443;" horiz-adv-x="1024" d="M33 1062h194l221 -615q43 -117 77 -246q31 124 74 242l227 619h180l-404 -1080q-65 -175 -101 -241q-48 -89 -110 -130.5t-148 -41.5q-52 0 -116 22l-20 169q59 -16 103 -16q60 0 96 20t59 56q17 27 55 134q5 15 16 44z" />
<glyph unicode="&#x444;" horiz-adv-x="1685" d="M75 542q0 231 113 387.5t304 156.5q80 0 145 -31.5t116 -95.5v507h180v-507q56 64 123 95.5t144 31.5q189 0 299.5 -157.5t110.5 -396.5q0 -249 -119 -402.5t-296 -153.5q-58 0 -118 18t-144 98v-499h-180v499q-54 -58 -119.5 -87t-141.5 -29q-167 0 -292 146.5 t-125 419.5zM258 547q0 -225 75.5 -324t187.5 -99q117 0 175 98.5t58 295.5q0 210 -61 315t-184 105q-111 0 -181 -102.5t-70 -288.5zM932 527q0 -240 66 -322.5t165 -82.5q110 0 187.5 101.5t77.5 315.5q0 202 -71.5 301t-183.5 99q-120 0 -180.5 -103t-60.5 -309z" />
<glyph unicode="&#x445;" horiz-adv-x="1024" d="M15 0l388 552l-359 510h225l163 -249q46 -71 74 -119q44 66 81 117l179 251h215l-367 -500l395 -562h-221l-218 330l-58 89l-279 -419h-218z" />
<glyph unicode="&#x446;" horiz-adv-x="1173" d="M138 0v1062h180v-914h498v914h180v-914h116v-449h-148v301h-826z" />
<glyph unicode="&#x447;" horiz-adv-x="1067" d="M69 784v278h180v-201q0 -130 15.5 -188.5t74.5 -102t148 -43.5q102 0 264 54v481h180v-1062h-180v428q-166 -52 -310 -52q-121 0 -213.5 61.5t-125.5 150.5t-33 196z" />
<glyph unicode="&#x448;" horiz-adv-x="1643" d="M141 0v1062h180v-913h410v913h180v-913h411v913h179v-1062h-1360z" />
<glyph unicode="&#x449;" horiz-adv-x="1685" d="M141 0v1062h180v-914h410v914h180v-914h411v914h179v-914h119v-449h-149v301h-1330z" />
<glyph unicode="&#x44a;" horiz-adv-x="1280" d="M40 913v149h475v-415h229q243 0 353 -94.5t110 -231.5q0 -142 -106.5 -231.5t-314.5 -89.5h-451v913h-295zM515 146h189q172 0 244 41.5t72 133.5q0 84 -61.5 130t-230.5 46h-213v-351z" />
<glyph unicode="&#x44b;" horiz-adv-x="1472" d="M139 0v1062h180v-415h228q223 0 343.5 -86.5t120.5 -238.5q0 -133 -100.5 -227.5t-321.5 -94.5h-450zM319 148h189q171 0 244 42t73 131q0 69 -54 123t-239 54h-213v-350zM1146 0v1062h180v-1062h-180z" />
<glyph unicode="&#x44c;" horiz-adv-x="1067" d="M132 0v1062h180v-415h228q223 0 343.5 -86.5t120.5 -238.5q0 -133 -100.5 -227.5t-321.5 -94.5h-450zM312 148h189q171 0 244 42t73 131q0 69 -54 123t-239 54h-213v-350z" />
<glyph unicode="&#x44d;" horiz-adv-x="1045" d="M43 365q28 -175 145.5 -282t307.5 -107q226 -13 350 143.5t118 411.5q0 259 -129 407t-352 148q-178 0 -288 -94.5t-134 -243.5l175 -28q44 217 253 217q120 0 196.5 -88.5t93.5 -230.5h-375v-148h375q-17 -173 -89.5 -259.5t-201.5 -86.5q-228 0 -269 264z" />
<glyph unicode="&#x44e;" d="M137 0v1062h180v-444h218q24 228 142.5 348t307.5 120q161 0 254 -65t153.5 -179t60.5 -307q0 -275 -125 -417t-339 -142q-199 0 -319 132t-135 362h-218v-470h-180zM716 547q0 -219 74 -321t198 -102q123 0 201.5 94.5t78.5 304.5q0 205 -68 307.5t-205 102.5 q-132 0 -205.5 -101.5t-73.5 -284.5z" />
<glyph unicode="&#x44f;" horiz-adv-x="1109" d="M31 0l194 286q89 131 177 148q-154 21 -228.5 111t-74.5 207q0 138 97.5 224t282.5 86h492v-1062h-179v414h-104q-95 0 -141.5 -24.5t-135.5 -157.5l-157 -232h-223zM282 746q0 -95 68.5 -139.5t242.5 -44.5h199v351h-256q-161 0 -207.5 -50t-46.5 -117z" />
<glyph unicode="&#x451;" horiz-adv-x="1139" d="M75 522q0 268 138 416t358 148q213 0 348 -145t135 -408q0 -16 -1 -48h-792q10 -175 99 -268t222 -93q99 0 169 52t111 166l186 -23q-44 -163 -163 -253t-304 -90q-233 0 -369.5 143.5t-136.5 402.5zM271 633h593q-12 134 -68 201q-86 104 -223 104q-124 0 -208.5 -83 t-93.5 -222zM284 1270v205h188v-205h-188zM657 1270v205h188v-205h-188z" />
<glyph unicode="&#x452;" horiz-adv-x="1139" d="M0 1336h135v130h179v-130h343v-119h-343v-278q61 74 141.5 110.5t179.5 36.5q175 0 270 -92t95 -321v-731q0 -238 -76 -305.5t-190 -67.5q-79 0 -142 19l34 153q52 -14 84 -14q47 0 78.5 31.5t31.5 187.5v727q0 129 -56.5 193.5t-169.5 64.5q-99 0 -189.5 -69t-90.5 -281 v-581h-179v1217h-134z" />
<glyph unicode="&#x453;" horiz-adv-x="747" d="M136 0v1062h611v-149h-431v-913h-180zM342 1194l133 280h236l-220 -280h-149z" />
<glyph unicode="&#x454;" horiz-adv-x="1045" d="M81 531q0 259 129 407t352 148q178 0 288 -94.5t134 -243.5l-175 -28q-44 217 -253 217q-120 0 -196.5 -88.5t-93.5 -230.5h375v-148h-375q17 -173 89.5 -259.5t201.5 -86.5q228 0 269 264l176 -23q-28 -175 -145.5 -282t-307.5 -107q-226 -13 -350 143.5t-118 411.5z " />
<glyph unicode="&#x455;" horiz-adv-x="1024" d="M63 317l178 28q15 -107 83.5 -164t191.5 -57q124 0 184 50.5t60 118.5q0 61 -53 96q-37 24 -184 61q-198 50 -274.5 86.5t-116 101t-39.5 142.5q0 71 32.5 131.5t88.5 100.5q42 31 114.5 52.5t155.5 21.5q125 0 219.5 -36t139.5 -97.5t62 -164.5l-176 -24 q-12 82 -69.5 128t-162.5 46q-124 0 -177 -41t-53 -96q0 -35 22 -63q22 -29 69 -48q27 -10 159 -46q191 -51 266.5 -83.5t118.5 -94.5t43 -154q0 -90 -52.5 -169.5t-151.5 -123t-224 -43.5q-207 0 -315.5 86t-138.5 255z" />
<glyph unicode="&#x456;" horiz-adv-x="455" d="M136 0v1062h180v-1062h-180zM136 1259v207h180v-207h-180z" />
<glyph unicode="&#x457;" horiz-adv-x="569" d="M9 1270v205h188v-205h-188zM198 0v1062h180v-1062h-180zM382 1270v205h188v-205h-188z" />
<glyph unicode="&#x458;" horiz-adv-x="455" d="M-94 -412l34 153q54 -14 85 -14q55 0 82 36.5t27 182.5v1116h180v-1120q0 -196 -51 -273q-65 -100 -216 -100q-73 0 -141 19zM134 1257v209h180v-209h-180z" />
<glyph unicode="&#x459;" horiz-adv-x="1856" d="M19 0v147q71 -10 111 -10q63 0 83 39t20 186v700h859v-415h229q220 0 341.5 -86t121.5 -239q0 -128 -98 -225t-324 -97h-450v913h-499v-529q0 -175 -19.5 -247t-75 -107.5t-159.5 -35.5q-29 0 -140 6zM1092 148h189q172 0 245 41.5t73 131.5q0 70 -53.5 123.5 t-239.5 53.5h-214v-350z" />
<glyph unicode="&#x45a;" horiz-adv-x="1664" d="M131 0v1062h180v-442h410v442h180v-442h229q222 0 342.5 -83t120.5 -228q0 -129 -101 -219t-321 -90h-450v471h-410v-471h-180zM901 141h189q173 0 245 39.5t72 123.5q0 66 -53.5 116.5t-239.5 50.5h-213v-330z" />
<glyph unicode="&#x45b;" horiz-adv-x="1139" d="M0 1336h135v130h179v-130h343v-119h-343v-278q61 74 141.5 110.5t179.5 36.5q175 0 270 -92t95 -321v-673h-180v673q0 129 -56.5 193.5t-169.5 64.5q-99 0 -189.5 -69t-90.5 -281v-581h-179v1217h-134z" />
<glyph unicode="&#x45c;" horiz-adv-x="896" d="M134 0v1062h180v-459q86 0 120.5 33t101.5 192q53 126 86 166t76 54t138 14h36v-149l-50 1q-71 0 -91 -21q-21 -22 -64 -131q-41 -104 -75 -144t-105 -73q116 -31 228 -216l197 -329h-198l-192 329q-59 99 -103 130.5t-105 31.5v-491h-180zM342 1194l133 280h236 l-220 -280h-149z" />
<glyph unicode="&#x45e;" horiz-adv-x="1024" d="M33 1062h194l221 -615q43 -117 77 -246q31 124 74 242l227 619h180l-404 -1080q-65 -175 -101 -241q-48 -89 -110 -130.5t-148 -41.5q-52 0 -116 22l-20 169q59 -16 103 -16q60 0 96 20t59 56q17 27 55 134q5 15 16 44zM229 1464h123q14 -68 55.5 -101.5t111.5 -33.5 q81 0 122.5 32.5t55.5 102.5h123q-15 -125 -91.5 -192t-203.5 -67q-128 0 -204.5 66.5t-91.5 192.5z" />
<glyph unicode="&#x45f;" horiz-adv-x="1131" d="M136 0v1062h180v-914h499v914h180v-1062h-355v-302h-149v302h-355z" />
<glyph unicode="&#x490;" horiz-adv-x="1001" d="M161 0v1466h606v406h173v-579h-585v-1293h-194z" />
<glyph unicode="&#x491;" horiz-adv-x="842" d="M136 0v1062h495v406h149v-555h-464v-913h-180z" />
<glyph unicode="&#x492;" horiz-adv-x="1109" d="M-3 667v132h164v667h948v-173h-754v-494h401v-132h-401v-667h-194v667h-164z" />
<glyph unicode="&#x493;" horiz-adv-x="747" d="M12 514v132h124v416h611v-149h-431v-267h231v-132h-231v-514h-180v514h-124z" />
<glyph unicode="&#x496;" horiz-adv-x="1891" d="M7 0l302 488q138 223 280 262q-100 41 -158 125q-36 51 -90 187q-63 157 -109 198t-133 39l-78 -2v168q11 2 112 2q184 0 277 -138q41 -60 103 -206q77 -180 113 -220q68 -77 220 -79v642h199v-642q150 0 220 79q37 42 113 220q62 145 101 204q93 140 272 140 q95 0 118 -2v-168q-13 0 -38.5 1t-38.5 1q-103 0 -160 -71q-32 -38 -83 -166q-54 -135 -89 -186q-58 -83 -158 -126q141 -39 279 -262l195 -315h107v-580h-172v407h-69l-244 398q-93 152 -139 198q-90 90 -214 90v-686h-199v686q-96 0 -169 -50q-66 -45 -172 -218l1 2 q-11 -18 -258 -420h-241z" />
<glyph unicode="&#x497;" horiz-adv-x="1370" d="M-5 0l197 329q111 185 229 216q-90 41 -135 117q-17 28 -73 171q-20 51 -44 66t-80 15q-13 0 -53 -1v149h25q106 0 147 -12q57 -17 103 -92q19 -32 60 -130q57 -136 74 -159q49 -66 148 -66v459h184v-459q100 0 148 65q18 24 74.5 159t93.5 174q58 61 176 61h66v-149 l-49 1q-76 2 -106 -39q-11 -14 -50 -113q-37 -95 -64 -131q-38 -50 -116 -86q117 -31 228 -216l109 -181h73v-449h-148v301h-34l-193 329q-48 81 -82 113q-53 49 -126 49v-491h-184v491q-74 0 -126 -48q-32 -31 -81 -114l-193 -329h-198z" />
<glyph unicode="&#x49a;" horiz-adv-x="1193" d="M161 0v1466h194v-642q144 0 214 82q37 43 111 217q62 145 101 204q93 140 273 140q112 0 118 -2v-168q-13 0 -39 1t-39 1q-103 0 -160 -71q-32 -39 -83 -166q-55 -139 -89 -188q-57 -83 -158 -124q142 -39 280 -262l195 -315h107v-580h-172v407h-69l-245 398 q-92 150 -136 196q-90 92 -209 92v-686h-194z" />
<glyph unicode="&#x49b;" horiz-adv-x="896" d="M134 0v1062h180v-459q100 0 148 65q16 21 74 160q40 96 60 128q44 73 102 92q43 14 138 14h36v-149l-50 1q-75 1 -106 -39q-10 -13 -49 -113q-37 -94 -65 -131q-38 -50 -115 -86q117 -31 228 -216l109 -181h62v-449h-148v301h-24l-192 329q-47 81 -82 113q-53 49 -126 49 v-491h-180z" />
<glyph unicode="&#x49c;" horiz-adv-x="1193" d="M161 0v1466h194v-642q71 0 120 15v403h120v-294q38 65 85 175q55 130 81 172q54 88 132 132q72 40 161 40q112 0 118 -2v-168q-13 0 -39 1t-39 1q-103 0 -160 -71q-32 -39 -83 -166q-55 -139 -89 -188q-57 -83 -158 -124q142 -39 280 -262l302 -488h-241l-245 398 q-58 95 -105 155v-314h-120v423q-51 24 -120 24v-686h-194z" />
<glyph unicode="&#x49d;" horiz-adv-x="896" d="M134 0v1062h180v-459q45 0 78 10v324h99v-209q21 43 45 100q40 96 60 128q44 73 102 92q43 14 138 14h36v-149l-50 1q-75 1 -106 -39q-10 -13 -49 -113q-41 -104 -75 -144q-41 -48 -95 -73q106 -28 218 -216l197 -329h-198l-192 329q-14 24 -31 49v-214h-99v311 q-35 16 -78 16v-491h-180z" />
<glyph unicode="&#x4a2;" horiz-adv-x="1479" d="M164 0v1466h194v-602h762v602h194v-1293h134v-580h-172v407h-156v691h-762v-691h-194z" />
<glyph unicode="&#x4a3;" horiz-adv-x="1131" d="M136 0v1062h180v-442h499v442h180v-914h116v-449h-148v301h-148v471h-499v-471h-180z" />
<glyph unicode="&#x4ae;" horiz-adv-x="1139" d="M-3 1466h200l290 -516q48 -85 76 -154q25 57 82 163l274 507h214l-476 -840v-626h-180v626z" />
</font>
</defs>
</svg>
