<?xml version="1.0" standalone="no"?>
<!DOCTYPE svg PUBLIC "-//W3C//DTD SVG 1.1//EN" "http://www.w3.org/Graphics/SVG/1.1/DTD/svg11.dtd" >
<svg xmlns="http://www.w3.org/2000/svg">
<metadata></metadata>
<defs>
<font id="bebas_neueregular" horiz-adv-x="811" >
<font-face units-per-em="2048" ascent="1536" descent="-512" />
<missing-glyph horiz-adv-x="317" />
<glyph unicode=" "  horiz-adv-x="317" />
<glyph unicode="&#x09;" horiz-adv-x="317" />
<glyph unicode="&#xa0;" horiz-adv-x="317" />
<glyph unicode="!" horiz-adv-x="389" d="M82 836v598h225v-598l-28 -519h-168zM86 0v217h217v-217h-217z" />
<glyph unicode="&#x22;" horiz-adv-x="665" d="M82 1434h217l-33 -422h-153zM367 1434h217l-33 -422h-154z" />
<glyph unicode="#" horiz-adv-x="839" d="M31 410l16 159h100l39 375h-102l16 160h103l35 330h184l-35 -330h133l35 330h184l-34 -330h104l-16 -160h-105l-39 -375h105l-17 -159h-104l-43 -410h-184l43 410h-134l-43 -410h-184l43 410h-100zM332 569h133l39 375h-133z" />
<glyph unicode="$" d="M70 365v98h213v-113q0 -139 116 -139q117 0 117 139q0 60 -24.5 111t-63 89.5t-85.5 76.5t-94 80.5t-85.5 91t-63 118t-24.5 152.5q0 297 237 350v107h185v-107q119 -25 180 -114t61 -236v-45h-213v59q0 142 -112 142q-113 0 -113 -142q0 -60 24.5 -111t63 -89.5 t85.5 -76.5t94 -80t85.5 -90.5t63 -118t24.5 -152.5q0 -147 -62 -237.5t-181 -115.5v-104h-185v104q-120 25 -181.5 115t-61.5 238z" />
<glyph unicode="%" horiz-adv-x="1284" d="M70 743v471q0 111 56 170.5t161 59.5t161 -59.5t56 -170.5v-471q0 -111 -56 -170t-161 -59t-161 59t-56 170zM213 733q0 -90 74 -90q73 0 73 90v492q0 90 -73 90q-74 0 -74 -90v-492zM287 0l565 1434h133l-565 -1434h-133zM780 219v471q0 111 56 170.5t161 59.5 t161 -59.5t56 -170.5v-471q0 -111 -56 -170t-161 -59t-161 59t-56 170zM924 209q0 -90 73 -90q74 0 74 90v491q0 91 -74 91q-73 0 -73 -91v-491z" />
<glyph unicode="&#x26;" horiz-adv-x="847" d="M84 311v146q0 232 156 301q-156 66 -156 295v26q0 173 84.5 264t251.5 91h258v-205h-254q-56 0 -85.5 -32.5t-29.5 -106.5v-89q0 -82 34 -116.5t101 -34.5h99v160h225v-160h59v-205h-59v-471q0 -116 25 -174h-230q-16 46 -20 113q-60 -129 -209 -129q-124 0 -187 84 t-63 243zM309 330q0 -142 117 -142q111 0 117 125v332h-86q-78 0 -113 -42t-35 -140v-133z" />
<glyph unicode="'" horiz-adv-x="368" d="M76 1434h217l-33 -422h-154z" />
<glyph unicode="(" horiz-adv-x="514" d="M96 313v807q0 171 73 242.5t243 71.5h69v-185h-55q-56 0 -80 -27.5t-24 -101.5v-807q0 -74 24 -101.5t80 -27.5h55v-184h-69q-170 0 -243 71t-73 242z" />
<glyph unicode=")" horiz-adv-x="514" d="M33 0v184h55q56 0 80.5 27.5t24.5 101.5v807q0 74 -24.5 101.5t-80.5 27.5h-55v185h69q170 0 243 -71.5t73 -242.5v-807q0 -171 -73 -242t-243 -71h-69z" />
<glyph unicode="*" d="M4 1075l57 174l306 -153l-54 338h185l-54 -338l306 153l57 -174l-336 -57l240 -240l-148 -108l-157 303l-158 -303l-148 108l240 240z" />
<glyph unicode="+" d="M51 637v160h275v276h159v-276h275v-160h-275v-281h-159v281h-275z" />
<glyph unicode="," horiz-adv-x="380" d="M82 0v217h217v-194l-98 -228h-92l59 205h-86z" />
<glyph unicode="-" horiz-adv-x="552" d="M72 614v205h409v-205h-409z" />
<glyph unicode="." horiz-adv-x="380" d="M82 0v217h217v-217h-217z" />
<glyph unicode="/" horiz-adv-x="780" d="M10 0l565 1434h195l-565 -1434h-195z" />
<glyph unicode="0" d="M63 344v746q0 172 89 266t254 94t253.5 -94t88.5 -266v-746q0 -172 -88.5 -266t-253.5 -94t-254 94t-89 266zM289 330q0 -142 117 -142q116 0 116 142v774q0 141 -116 141q-117 0 -117 -141v-774z" />
<glyph unicode="1" d="M221 1094v159q50 0 89 10.5t63 25t43.5 41t29.5 48t23 56.5h152v-1434h-226v1094h-174z" />
<glyph unicode="2" d="M82 0v176q0 85 24.5 160.5t64 132t87 110t95 106.5t87 109t64 129.5t24.5 157.5q0 92 -29 128t-87 36q-117 0 -117 -141v-154h-213v140q0 173 86 266.5t250 93.5t250 -93.5t86 -266.5q0 -92 -25 -176.5t-64.5 -149.5t-87 -124.5t-95.5 -111t-87.5 -98.5t-64.5 -97 t-25 -97q0 -21 2 -31h426v-205h-651z" />
<glyph unicode="3" d="M70 344v119h213v-133q0 -142 116 -142q58 0 87.5 36t29.5 126v113q0 98 -34.5 140t-112.5 42h-76v205h88q67 0 101 34.5t34 116.5v80q0 92 -29.5 128t-87.5 36q-116 0 -116 -141v-92h-213v78q0 173 86 266.5t250 93.5t249.5 -93.5t85.5 -266.5v-37q0 -230 -157 -295 q157 -68 157 -301v-113q0 -173 -85.5 -266.5t-249.5 -93.5t-250 93.5t-86 266.5z" />
<glyph unicode="4" d="M29 260v205l409 969h246v-969h107v-205h-107v-260h-225v260h-430zM236 465h223v530z" />
<glyph unicode="5" d="M72 344v119h213v-133q0 -140 116 -140q117 0 117 140v315q0 141 -117 141q-116 0 -116 -141v-43h-213l41 832h594v-205h-392l-18 -342q63 104 197 104q124 0 186.5 -83.5t62.5 -243.5v-320q0 -173 -85.5 -266.5t-249.5 -93.5t-250 93.5t-86 266.5z" />
<glyph unicode="6" d="M68 344v733q0 373 344 373q164 0 250 -93.5t86 -266.5v-37h-213v51q0 141 -117 141q-64 0 -94.5 -39t-30.5 -137v-262q60 127 209 127q124 0 187 -84t63 -244v-262q0 -172 -88.5 -266t-253.5 -94t-253.5 94t-88.5 266zM293 330q0 -140 117 -140q116 0 116 140v258 q0 141 -116 141q-117 0 -117 -141v-258z" />
<glyph unicode="7" d="M68 1229v205h675v-197l-331 -1237h-226l330 1229h-448z" />
<glyph unicode="8" d="M53 344v113q0 220 140 299q-140 76 -140 288v46q0 172 91.5 266t261.5 94t261 -94t91 -266v-46q0 -210 -140 -288q140 -79 140 -299v-113q0 -172 -91 -266t-261 -94t-261.5 94t-91.5 266zM279 350q0 -89 33.5 -125.5t93.5 -36.5q59 0 92 36t34 126v133q0 162 -126 162 q-127 0 -127 -162v-133zM279 1001q0 -151 127 -151q126 0 126 151v80q0 91 -33 127.5t-93 36.5t-93.5 -37t-33.5 -127v-80z" />
<glyph unicode="9" d="M59 827v263q0 172 88.5 266t253.5 94t253.5 -94t88.5 -266v-734q0 -372 -344 -372q-164 0 -250 93.5t-86 266.5v37h213v-51q0 -142 117 -142q63 0 94 39.5t31 137.5v262q-60 -127 -209 -127q-124 0 -187 84t-63 243zM285 846q0 -141 116 -141q117 0 117 141v258 q0 139 -117 139q-116 0 -116 -139v-258z" />
<glyph unicode=":" horiz-adv-x="380" d="M82 0v217h217v-217h-217zM82 780v217h217v-217h-217z" />
<glyph unicode=";" horiz-adv-x="380" d="M82 0v217h217v-194l-98 -228h-92l59 205h-86zM82 780v217h217v-217h-217z" />
<glyph unicode="&#x3c;" d="M61 637v160l668 245v-161l-459 -164l459 -164v-162z" />
<glyph unicode="=" d="M72 471v160h667v-160h-667zM72 803v160h667v-160h-667z" />
<glyph unicode="&#x3e;" d="M82 391v162l459 164l-459 164v161l668 -245v-160z" />
<glyph unicode="?" horiz-adv-x="737" d="M41 948v142q0 173 84.5 266.5t247.5 93.5t247.5 -93.5t84.5 -266.5q0 -76 -14.5 -141.5t-38.5 -113.5t-52 -91t-56.5 -82t-52.5 -77.5t-38.5 -86.5t-14.5 -101q0 -44 8 -80h-200q-13 41 -13 89q0 86 25.5 157t61.5 123.5t72 106.5t61.5 133.5t25.5 177.5q0 74 -28 107.5 t-84 33.5q-113 0 -113 -141v-156h-213zM236 0v217h217v-217h-217z" />
<glyph unicode="@" horiz-adv-x="1411" d="M49 594q0 153 29.5 290t91 253t150 200t213 131.5t272.5 47.5q126 0 224.5 -31t162.5 -85t105.5 -131.5t59 -164.5t17.5 -191q0 -145 -26.5 -261t-68 -187.5t-96 -119t-106 -66.5t-102.5 -19q-169 0 -180 135q-63 -129 -199 -123q-106 3 -152.5 84t-31.5 232l22 207 q15 151 79 229t171 74q126 -3 168 -127l12 119h197l-62 -592q-6 -52 41 -52q41 0 73.5 42.5t51.5 111.5t29 148t10 161q0 201 -100.5 316.5t-306.5 115.5q-270 0 -412.5 -200.5t-142.5 -556.5q0 -254 119 -394.5t358 -140.5q123 0 223 30t201 109l-17 -196 q-96 -64 -196.5 -89.5t-222.5 -25.5q-169 0 -296.5 52t-206 148t-117 225.5t-38.5 291.5zM610 598q-14 -132 88 -135q48 -2 78 29.5t37 99.5l21 194q6 57 -19.5 86t-69.5 29q-49 2 -79 -29t-37 -100z" />
<glyph unicode="A" horiz-adv-x="833" d="M23 0l229 1434h330l229 -1434h-227l-39 260h-277l-39 -260h-206zM297 455h217l-108 725z" />
<glyph unicode="B" horiz-adv-x="831" d="M82 0v1434h340q173 0 253.5 -81t80.5 -249v-51q0 -220 -146 -289q168 -65 168 -307v-117q0 -166 -87 -253t-255 -87h-354zM307 205h129q59 0 88 32t29 109v125q0 98 -33.5 136t-111.5 38h-101v-440zM307 850h88q67 0 101 34.5t34 116.5v80q0 77 -27 112.5t-87 35.5h-109 v-379z" />
<glyph unicode="C" horiz-adv-x="790" d="M63 344v746q0 173 86 266.5t250 93.5t250 -93.5t86 -266.5v-140h-213v154q0 141 -116 141q-117 0 -117 -141v-774q0 -140 117 -140q116 0 116 140v205h213v-191q0 -173 -86 -266.5t-250 -93.5t-250 93.5t-86 266.5z" />
<glyph unicode="D" horiz-adv-x="835" d="M82 0v1434h356q167 0 251.5 -91t84.5 -264v-725q0 -173 -84.5 -263.5t-251.5 -90.5h-356zM307 205h127q56 0 85.5 32.5t29.5 106.5v746q0 74 -29.5 106.5t-85.5 32.5h-127v-1024z" />
<glyph unicode="E" horiz-adv-x="753" d="M82 0v1434h614v-205h-389v-400h309v-204h-309v-420h389v-205h-614z" />
<glyph unicode="F" horiz-adv-x="704" d="M82 0v1434h596v-205h-371v-432h291v-205h-291v-592h-225z" />
<glyph unicode="G" horiz-adv-x="798" d="M63 344v746q0 173 86 266.5t250 93.5t250 -93.5t86 -266.5v-140h-213v154q0 141 -116 141q-117 0 -117 -141v-774q0 -140 117 -140q116 0 116 140v264h-102v205h315v-455q0 -173 -86 -266.5t-250 -93.5t-250 93.5t-86 266.5z" />
<glyph unicode="H" horiz-adv-x="874" d="M82 0v1434h225v-615h256v615h230v-1434h-230v614h-256v-614h-225z" />
<glyph unicode="I" horiz-adv-x="389" d="M82 0v1434h225v-1434h-225z" />
<glyph unicode="J" horiz-adv-x="524" d="M20 0v205q25 -2 78 -2q61 0 95 30t34 107v1094h226v-1078q0 -360 -324 -360q-72 0 -109 4z" />
<glyph unicode="K" horiz-adv-x="847" d="M82 0v1434h225v-625l295 625h225l-313 -639l313 -795h-231l-219 571l-70 -131v-440h-225z" />
<glyph unicode="L" horiz-adv-x="694" d="M82 0v1434h225v-1229h371v-205h-596z" />
<glyph unicode="M" horiz-adv-x="1107" d="M80 0v1434h313l166 -1018l154 1018h313v-1434h-213v1028l-156 -1028h-213l-168 1014v-1014h-196z" />
<glyph unicode="N" horiz-adv-x="874" d="M80 0v1434h282l232 -859v859h201v-1434h-232l-280 1038v-1038h-203z" />
<glyph unicode="O" d="M63 344v746q0 172 89 266t254 94t253.5 -94t88.5 -266v-746q0 -172 -88.5 -266t-253.5 -94t-254 94t-89 266zM289 330q0 -142 117 -142q116 0 116 142v774q0 141 -116 141q-117 0 -117 -141v-774z" />
<glyph unicode="P" horiz-adv-x="772" d="M82 0v1434h332q167 0 251.5 -91t84.5 -264v-186q0 -173 -84.5 -263.5t-251.5 -90.5h-107v-539h-225zM307 743h107q56 0 83 31t27 105v215q0 74 -27 104.5t-83 30.5h-107v-486z" />
<glyph unicode="Q" d="M63 344v746q0 172 89 266t254 94t253.5 -94t88.5 -266v-746q0 -122 -43 -201q7 -19 20 -24.5t43 -5.5h20v-201h-30q-145 0 -195 98q-73 -26 -157 -26q-165 0 -254 94t-89 266zM289 330q0 -142 117 -142q116 0 116 142v774q0 141 -116 141q-117 0 -117 -141v-774z" />
<glyph unicode="R" horiz-adv-x="823" d="M82 0v1434h340q173 0 253.5 -81t80.5 -249v-113q0 -221 -148 -291q81 -34 115.5 -110t34.5 -195v-221q0 -119 24 -174h-229q-8 25 -11 37.5t-6.5 48t-3.5 90.5v225q0 99 -35 141t-112 42h-78v-584h-225zM307 788h88q67 0 101 34.5t34 117.5v141q0 77 -27 112.5t-87 35.5 h-109v-441z" />
<glyph unicode="S" horiz-adv-x="765" d="M47 344v88h213v-102q0 -140 117 -140t117 140q0 60 -24.5 113t-63 95.5t-85.5 85t-94.5 89t-86 98.5t-63 124t-24.5 155q0 173 84.5 266.5t247.5 93.5t247.5 -93.5t84.5 -266.5v-46h-213v60q0 141 -113 141q-56 0 -84 -33.5t-28 -107.5q0 -60 24.5 -113t63 -95.5 t85.5 -85t94 -89t85.5 -98.5t63 -124t24.5 -155q0 -173 -86 -266.5t-250 -93.5t-250 93.5t-86 266.5z" />
<glyph unicode="T" horiz-adv-x="729" d="M16 1229v205h697v-205h-236v-1229h-225v1229h-236z" />
<glyph unicode="U" horiz-adv-x="815" d="M72 342v1092h225v-1106q0 -140 117 -140q116 0 116 140v1106h213v-1092q0 -173 -85.5 -266.5t-249.5 -93.5t-250 93.5t-86 266.5z" />
<glyph unicode="V" horiz-adv-x="823" d="M23 1434h227l172 -1170l172 1170h207l-221 -1434h-336z" />
<glyph unicode="W" horiz-adv-x="1153" d="M31 1434h219l121 -1131l108 1131h217l113 -1139l117 1139h196l-159 -1434h-299l-82 764l-82 -764h-310z" />
<glyph unicode="X" horiz-adv-x="880" d="M31 0l252 737l-236 697h234l170 -529l174 529h209l-236 -697l252 -737h-238l-184 567l-186 -567h-211z" />
<glyph unicode="Y" d="M8 1434h236l172 -654l172 654h215l-285 -959v-475h-225v475z" />
<glyph unicode="Z" horiz-adv-x="757" d="M47 0v201l428 1028h-407v205h639v-201l-428 -1028h428v-205h-660z" />
<glyph unicode="[" horiz-adv-x="514" d="M96 0v1434h373v-185h-147v-1065h147v-184h-373z" />
<glyph unicode="\" horiz-adv-x="780" d="M10 1434h195l565 -1434h-195z" />
<glyph unicode="]" horiz-adv-x="514" d="M45 0v184h148v1065h-148v185h373v-1434h-373z" />
<glyph unicode="^" d="M41 799l285 635h159l285 -635h-180l-184 430l-185 -430h-180z" />
<glyph unicode="_" horiz-adv-x="1024" d="M0 -20h1024v-164h-1024v164z" />
<glyph unicode="`" horiz-adv-x="512" d="M90 1737h232l139 -228h-162z" />
<glyph unicode="a" horiz-adv-x="833" d="M23 0l229 1434h330l229 -1434h-227l-39 260h-277l-39 -260h-206zM297 455h217l-108 725z" />
<glyph unicode="b" horiz-adv-x="831" d="M82 0v1434h340q173 0 253.5 -81t80.5 -249v-51q0 -220 -146 -289q168 -65 168 -307v-117q0 -166 -87 -253t-255 -87h-354zM307 205h129q59 0 88 32t29 109v125q0 98 -33.5 136t-111.5 38h-101v-440zM307 850h88q67 0 101 34.5t34 116.5v80q0 77 -27 112.5t-87 35.5h-109 v-379z" />
<glyph unicode="c" horiz-adv-x="790" d="M63 344v746q0 173 86 266.5t250 93.5t250 -93.5t86 -266.5v-140h-213v154q0 141 -116 141q-117 0 -117 -141v-774q0 -140 117 -140q116 0 116 140v205h213v-191q0 -173 -86 -266.5t-250 -93.5t-250 93.5t-86 266.5z" />
<glyph unicode="d" horiz-adv-x="835" d="M82 0v1434h356q167 0 251.5 -91t84.5 -264v-725q0 -173 -84.5 -263.5t-251.5 -90.5h-356zM307 205h127q56 0 85.5 32.5t29.5 106.5v746q0 74 -29.5 106.5t-85.5 32.5h-127v-1024z" />
<glyph unicode="e" horiz-adv-x="753" d="M82 0v1434h614v-205h-389v-400h309v-204h-309v-420h389v-205h-614z" />
<glyph unicode="f" horiz-adv-x="704" d="M82 0v1434h596v-205h-371v-432h291v-205h-291v-592h-225z" />
<glyph unicode="g" horiz-adv-x="798" d="M63 344v746q0 173 86 266.5t250 93.5t250 -93.5t86 -266.5v-140h-213v154q0 141 -116 141q-117 0 -117 -141v-774q0 -140 117 -140q116 0 116 140v264h-102v205h315v-455q0 -173 -86 -266.5t-250 -93.5t-250 93.5t-86 266.5z" />
<glyph unicode="h" horiz-adv-x="874" d="M82 0v1434h225v-615h256v615h230v-1434h-230v614h-256v-614h-225z" />
<glyph unicode="i" horiz-adv-x="389" d="M82 0v1434h225v-1434h-225z" />
<glyph unicode="j" horiz-adv-x="524" d="M20 0v205q25 -2 78 -2q61 0 95 30t34 107v1094h226v-1078q0 -360 -324 -360q-72 0 -109 4z" />
<glyph unicode="k" horiz-adv-x="847" d="M82 0v1434h225v-625l295 625h225l-313 -639l313 -795h-231l-219 571l-70 -131v-440h-225z" />
<glyph unicode="l" horiz-adv-x="694" d="M82 0v1434h225v-1229h371v-205h-596z" />
<glyph unicode="m" horiz-adv-x="1107" d="M80 0v1434h313l166 -1018l154 1018h313v-1434h-213v1028l-156 -1028h-213l-168 1014v-1014h-196z" />
<glyph unicode="n" horiz-adv-x="874" d="M80 0v1434h282l232 -859v859h201v-1434h-232l-280 1038v-1038h-203z" />
<glyph unicode="o" d="M63 344v746q0 172 89 266t254 94t253.5 -94t88.5 -266v-746q0 -172 -88.5 -266t-253.5 -94t-254 94t-89 266zM289 330q0 -142 117 -142q116 0 116 142v774q0 141 -116 141q-117 0 -117 -141v-774z" />
<glyph unicode="p" horiz-adv-x="772" d="M82 0v1434h332q167 0 251.5 -91t84.5 -264v-186q0 -173 -84.5 -263.5t-251.5 -90.5h-107v-539h-225zM307 743h107q56 0 83 31t27 105v215q0 74 -27 104.5t-83 30.5h-107v-486z" />
<glyph unicode="q" d="M63 344v746q0 172 89 266t254 94t253.5 -94t88.5 -266v-746q0 -122 -43 -201q7 -19 20 -24.5t43 -5.5h20v-201h-30q-145 0 -195 98q-73 -26 -157 -26q-165 0 -254 94t-89 266zM289 330q0 -142 117 -142q116 0 116 142v774q0 141 -116 141q-117 0 -117 -141v-774z" />
<glyph unicode="r" horiz-adv-x="823" d="M82 0v1434h340q173 0 253.5 -81t80.5 -249v-113q0 -221 -148 -291q81 -34 115.5 -110t34.5 -195v-221q0 -119 24 -174h-229q-8 25 -11 37.5t-6.5 48t-3.5 90.5v225q0 99 -35 141t-112 42h-78v-584h-225zM307 788h88q67 0 101 34.5t34 117.5v141q0 77 -27 112.5t-87 35.5 h-109v-441z" />
<glyph unicode="s" horiz-adv-x="765" d="M47 344v88h213v-102q0 -140 117 -140t117 140q0 60 -24.5 113t-63 95.5t-85.5 85t-94.5 89t-86 98.5t-63 124t-24.5 155q0 173 84.5 266.5t247.5 93.5t247.5 -93.5t84.5 -266.5v-46h-213v60q0 141 -113 141q-56 0 -84 -33.5t-28 -107.5q0 -60 24.5 -113t63 -95.5 t85.5 -85t94 -89t85.5 -98.5t63 -124t24.5 -155q0 -173 -86 -266.5t-250 -93.5t-250 93.5t-86 266.5z" />
<glyph unicode="t" horiz-adv-x="729" d="M16 1229v205h697v-205h-236v-1229h-225v1229h-236z" />
<glyph unicode="u" horiz-adv-x="815" d="M72 342v1092h225v-1106q0 -140 117 -140q116 0 116 140v1106h213v-1092q0 -173 -85.5 -266.5t-249.5 -93.5t-250 93.5t-86 266.5z" />
<glyph unicode="v" horiz-adv-x="823" d="M23 1434h227l172 -1170l172 1170h207l-221 -1434h-336z" />
<glyph unicode="w" horiz-adv-x="1153" d="M31 1434h219l121 -1131l108 1131h217l113 -1139l117 1139h196l-159 -1434h-299l-82 764l-82 -764h-310z" />
<glyph unicode="x" horiz-adv-x="880" d="M31 0l252 737l-236 697h234l170 -529l174 529h209l-236 -697l252 -737h-238l-184 567l-186 -567h-211z" />
<glyph unicode="y" d="M8 1434h236l172 -654l172 654h215l-285 -959v-475h-225v475z" />
<glyph unicode="z" horiz-adv-x="757" d="M47 0v201l428 1028h-407v205h639v-201l-428 -1028h428v-205h-660z" />
<glyph unicode="{" horiz-adv-x="526" d="M23 625v184q63 0 85 25.5t27 97.5l17 274q7 113 67.5 170.5t159.5 57.5h115v-185h-33q-55 0 -80 -31t-29 -114l-10 -205q-8 -150 -133 -182q125 -32 133 -182l10 -205q4 -83 29 -114.5t80 -31.5h33v-184h-115q-99 0 -159.5 57t-67.5 170l-17 275q-5 72 -27 97.5t-85 25.5 z" />
<glyph unicode="|" horiz-adv-x="1024" d="M430 -133v1700h184v-1700h-184z" />
<glyph unicode="}" horiz-adv-x="526" d="M33 0v184h33q55 0 79.5 31.5t28.5 114.5l10 205q8 150 133 182q-125 32 -133 182l-10 205q-4 83 -28.5 114t-79.5 31h-33v185h114q99 0 160 -57.5t68 -170.5l16 -274q5 -72 27.5 -97.5t85.5 -25.5v-184q-63 0 -85.5 -25.5t-27.5 -97.5l-16 -275q-7 -113 -68 -170 t-160 -57h-114z" />
<glyph unicode="~" d="M16 680q70 104 126 144t118 40q37 0 80.5 -19.5t75.5 -43t70.5 -43t66.5 -19.5q34 0 59.5 23.5t75.5 93.5l107 -111q-69 -102 -124.5 -139t-119.5 -37q-37 0 -80.5 19.5t-75.5 43t-70.5 43t-66.5 19.5q-34 0 -60.5 -23.5t-74.5 -92.5z" />
<glyph unicode="&#xa1;" horiz-adv-x="389" d="M82 0v598l29 518h168l28 -518v-598h-225zM86 1217v217h217v-217h-217z" />
<glyph unicode="&#xa2;" d="M74 426v582q0 145 60.5 234.5t178.5 115.5v106h185v-104q247 -50 247 -352v-99h-213v113q0 141 -116 141q-117 0 -117 -141v-610q0 -140 117 -140q116 0 116 140v163h213v-149q0 -149 -62.5 -239t-184.5 -113v-105h-185v107q-118 25 -178.5 114t-60.5 236z" />
<glyph unicode="&#xa3;" d="M61 0v197q82 0 137 63t58 170h-166v174h137q-14 39 -42.5 99t-49 104.5t-37 120t-16.5 162.5q0 173 84.5 266.5t247.5 93.5t247 -93.5t84 -266.5v-142h-213v156q0 74 -28 107.5t-84 33.5q-113 0 -113 -141q0 -88 16.5 -164.5t37 -122.5t46 -106t37.5 -107h248v-174h-233 q-14 -144 -115 -225h387v-205h-670z" />
<glyph unicode="&#xa4;" d="M66 465l112 113q-37 61 -37 139q0 79 37 137l-112 115l88 88l114 -115q61 39 138 39q73 0 137 -39l114 115l88 -88l-114 -115q39 -64 39 -137q0 -76 -39 -137l114 -115l-88 -88l-114 112q-56 -36 -137 -36t-140 36l-112 -112zM274 717q0 -54 39 -92.5t93 -38.5t92.5 38.5 t38.5 92.5t-38.5 92.5t-92.5 38.5t-93 -38.5t-39 -92.5z" />
<glyph unicode="&#xa5;" d="M14 1434h236l166 -633l166 633h215l-262 -879h170v-113h-187v-92h187v-112h-187v-238h-225v238h-187v112h187v92h-187v113h168z" />
<glyph unicode="&#xa6;" horiz-adv-x="1024" d="M430 -133v727h184v-727h-184zM430 840v727h184v-727h-184z" />
<glyph unicode="&#xa7;" d="M72 643q0 80 36 145.5t105 104.5q-66 43 -103.5 105.5t-37.5 160.5q0 128 86 209.5t245 81.5q160 0 246 -76t86 -203v-73h-213v43q0 56 -29.5 89.5t-82.5 33.5q-54 0 -83.5 -30t-29.5 -85q0 -34 24.5 -60.5t63 -46t85.5 -40t94 -48.5t85.5 -64.5t63 -96.5t24.5 -136 q0 -79 -37 -145.5t-106 -105.5q143 -88 143 -265q0 -128 -86 -209.5t-245 -81.5q-160 0 -246 76t-86 203v102h213v-71q0 -56 29.5 -89.5t82.5 -33.5q54 0 83.5 30t29.5 85q0 34 -24.5 60.5t-63 46t-85.5 39.5t-94 48t-85.5 64.5t-63 96.5t-24.5 136zM287 651q0 -56 32 -91.5 t93 -65.5q50 7 80 51.5t30 103.5q0 55 -32.5 90.5t-94.5 65.5q-50 -7 -79 -51t-29 -103z" />
<glyph unicode="&#xa8;" horiz-adv-x="512" d="M2 1509v197h197v-197h-197zM313 1509v197h197v-197h-197z" />
<glyph unicode="&#xa9;" horiz-adv-x="1507" d="M41 717q0 157 54.5 294t149.5 233t227 151t282 55t282 -55t226.5 -151.5t149 -233t54.5 -293.5t-54.5 -293.5t-149 -233t-226.5 -151.5t-282 -55t-282 55t-227 151t-149.5 233t-54.5 294zM188 717q0 -168 73.5 -303.5t203 -211t289.5 -75.5t289 75.5t202.5 211 t73.5 303.5t-73.5 303.5t-202.5 211t-289 75.5t-289.5 -75.5t-203 -211t-73.5 -303.5zM514 516v397q0 124 58 189t173 65t173.5 -65t58.5 -189v-73h-148v86q0 98 -79 98q-80 0 -80 -98v-418q0 -96 80 -96q79 0 79 96v123h148v-115q0 -121 -59 -185.5t-173 -64.5t-172.5 64.5 t-58.5 185.5z" />
<glyph unicode="&#xaa;" horiz-adv-x="569" d="M61 446v142h435v-142h-435zM61 879v8q0 137 75.5 194t215.5 62v94q0 76 -57 76q-35 0 -52.5 -20t-17.5 -68v-47h-135v39q0 109 53.5 168t157.5 59q195 0 195 -227v-535h-121l-8 98q-35 -108 -146 -108q-160 0 -160 207zM205 891q0 -88 74 -88q68 0 73 74v159 q-147 -7 -147 -127v-18z" />
<glyph unicode="&#xab;" horiz-adv-x="727" d="M33 719l127 526h202l-124 -526l124 -559h-202zM365 719l127 526h202l-125 -526l125 -559h-202z" />
<glyph unicode="&#xac;" d="M51 637v160h709v-441h-160v281h-549z" />
<glyph unicode="&#xad;" horiz-adv-x="552" d="M72 614v205h409v-205h-409z" />
<glyph unicode="&#xae;" horiz-adv-x="1507" d="M41 717q0 157 54.5 294t149.5 233t227 151t282 55t282 -55t226.5 -151.5t149 -233t54.5 -293.5t-54.5 -293.5t-149 -233t-226.5 -151.5t-282 -55t-282 55t-227 151t-149.5 233t-54.5 294zM188 717q0 -168 73.5 -303.5t203 -211t289.5 -75.5t289 75.5t202.5 211 t73.5 303.5t-73.5 303.5t-202.5 211t-289 75.5t-289.5 -75.5t-203 -211t-73.5 -303.5zM528 279v876h238q119 0 175 -56.5t56 -172.5v-19q0 -155 -106 -202q57 -24 81.5 -76.5t24.5 -134.5v-95q0 -76 19 -120h-160q-14 38 -14 122v95q0 69 -25 98t-80 29h-53v-344h-156z M684 766h64q46 0 70 23.5t24 80.5v37q0 54 -20 79.5t-64 25.5h-74v-246z" />
<glyph unicode="&#xaf;" horiz-adv-x="512" d="M20 1518v159h472v-159h-472z" />
<glyph unicode="&#xb0;" horiz-adv-x="466" d="M31 1247q0 85 58.5 144t143.5 59t144 -59t59 -144t-59 -144t-144 -59t-143.5 59t-58.5 144zM133 1247q0 -41 29.5 -70.5t70.5 -29.5t71 29.5t30 70.5t-30 71t-71 30t-70.5 -30t-29.5 -71z" />
<glyph unicode="&#xb1;" d="M72 356v160h254v164h-254v160h254v233h159v-233h254v-160h-254v-164h254v-160h-667z" />
<glyph unicode="&#xb2;" horiz-adv-x="573" d="M86 719v110q0 54 15.5 101.5t40.5 84t55 71t60.5 68.5t55.5 70.5t40.5 84t15.5 100.5q0 57 -19 79.5t-55 22.5q-74 0 -74 -90v-96h-135v88q0 110 54 168.5t159 58.5t159 -58.5t54 -168.5q0 -83 -32 -157t-76 -126t-87.5 -98.5t-69.5 -93t-18 -90.5h271v-129h-414z" />
<glyph unicode="&#xb3;" horiz-adv-x="573" d="M74 938v74h135v-84q0 -90 74 -90q36 0 54.5 23t18.5 81v70q0 63 -21.5 88.5t-70.5 25.5h-49v129h55q86 0 86 99v51q0 58 -18.5 81t-54.5 23q-74 0 -74 -90v-57h-135v47q0 111 54 170t159 59t159 -59t54 -170v-23q0 -144 -101 -186q101 -43 101 -190v-72q0 -111 -54 -170 t-159 -59t-159 59t-54 170z" />
<glyph unicode="&#xb4;" horiz-adv-x="512" d="M55 1509l140 228h221l-209 -228h-152z" />
<glyph unicode="&#xb5;" d="M63 -190v1214h226v-694q0 -142 117 -142q116 0 116 142v694h226v-1024h-205v106q-63 -122 -205 -122q-21 0 -49 4v-178h-226z" />
<glyph unicode="&#xb6;" d="M29 893v186q0 173 84.5 264t251.5 91h364v-1567h-164v1403h-110v-1403h-164l4 676q-126 0 -196 96t-70 254z" />
<glyph unicode="&#xb7;" horiz-adv-x="380" d="M82 608v217h217v-217h-217z" />
<glyph unicode="&#xb8;" horiz-adv-x="512" d="M53 -162h152v-16q0 -41 45 -41q51 0 51 49q0 29 -18 41t-56 12h-20v146h98v-109q78 0 115 -22t37 -74q0 -40 -14.5 -66t-44.5 -38.5t-63.5 -16.5t-84.5 -4q-94 0 -145.5 26.5t-51.5 92.5v20z" />
<glyph unicode="&#xb9;" horiz-adv-x="409" d="M51 1413v100q40 0 67.5 8.5t45.5 27.5t26.5 34.5t20.5 44.5h94v-909h-143v694h-111z" />
<glyph unicode="&#xba;" horiz-adv-x="573" d="M70 446v142h434v-142h-434zM70 899v318q0 108 56 167.5t161 59.5t161 -59.5t56 -167.5v-318q0 -108 -56 -167.5t-161 -59.5t-161 59.5t-56 167.5zM213 891q0 -48 18.5 -68t55.5 -20q73 0 73 88v334q0 88 -73 88q-37 0 -55.5 -20t-18.5 -68v-334z" />
<glyph unicode="&#xbb;" horiz-adv-x="727" d="M33 160l125 559l-125 526h203l126 -526l-126 -559h-203zM365 160l124 559l-124 526h202l127 -526l-127 -559h-202z" />
<glyph unicode="&#xbc;" horiz-adv-x="1284" d="M133 1219v100q40 0 67.5 8.5t45.5 27.5t26.5 34.5t20.5 44.5h94v-910h-143v695h-111zM328 0l565 1434h133l-565 -1434h-133zM760 164v131l260 614h156v-614h67v-131h-67v-164h-142v164h-274zM889 295h145v336z" />
<glyph unicode="&#xbd;" horiz-adv-x="1284" d="M133 1219v100q40 0 67.5 8.5t45.5 27.5t26.5 34.5t20.5 44.5h94v-910h-143v695h-111zM266 0l565 1434h134l-566 -1434h-133zM797 0v111q0 62 21 117t52 93t68 80.5t68 80t52 92t21 116.5q0 57 -18.5 80t-54.5 23q-74 0 -74 -91v-96h-135v88q0 110 54 169t159 59t159 -59 t54 -169q0 -83 -32 -157t-76 -126t-87.5 -98.5t-69.5 -93t-18 -90.5h270v-129h-413z" />
<glyph unicode="&#xbe;" horiz-adv-x="1284" d="M74 743v74h135v-84q0 -90 74 -90q36 0 54.5 23.5t18.5 81.5v69q0 63 -22 89t-70 26h-49v129h55q86 0 86 98v51q0 58 -18.5 81.5t-54.5 23.5q-74 0 -74 -90v-58h-135v47q0 111 54 170.5t159 59.5t159 -59.5t54 -170.5v-22q0 -144 -101 -186q101 -43 101 -191v-72 q0 -111 -54 -170t-159 -59t-159 59t-54 170zM348 0l565 1434h134l-566 -1434h-133zM760 164v131l260 614h156v-614h67v-131h-67v-164h-142v164h-274zM889 295h145v336z" />
<glyph unicode="&#xbf;" horiz-adv-x="737" d="M33 344q0 103 27.5 188.5t66.5 142.5t78 109.5t66.5 116.5t27.5 135q0 44 -8 80h201q12 -38 12 -88q0 -86 -25.5 -157t-61.5 -123.5t-72 -106.5t-61.5 -133.5t-25.5 -177.5q0 -142 113 -142q112 0 112 142v155h213v-141q0 -173 -84 -266.5t-247 -93.5t-247.5 93.5 t-84.5 266.5zM285 1217v217h217v-217h-217z" />
<glyph unicode="&#xc0;" horiz-adv-x="833" d="M23 0l229 1434h330l229 -1434h-227l-39 260h-277l-39 -260h-206zM170 1737h231l140 -228h-162zM297 455h217l-108 725z" />
<glyph unicode="&#xc1;" horiz-adv-x="833" d="M23 0l229 1434h330l229 -1434h-227l-39 260h-277l-39 -260h-206zM297 455h217l-108 725zM297 1509l139 228h221l-208 -228h-152z" />
<glyph unicode="&#xc2;" horiz-adv-x="833" d="M23 0l229 1434h330l229 -1434h-227l-39 260h-277l-39 -260h-206zM133 1509l182 228h203l182 -228h-192l-92 113l-90 -113h-193zM297 455h217l-108 725z" />
<glyph unicode="&#xc3;" horiz-adv-x="833" d="M23 0l229 1434h330l229 -1434h-227l-39 260h-277l-39 -260h-206zM139 1577q52 139 174 139q46 0 102 -25.5t83 -25.5q31 0 51 11.5t37 47.5l108 -75q-52 -140 -174 -140q-46 0 -101.5 26t-82.5 26q-31 0 -50.5 -12t-37.5 -48zM297 455h217l-108 725z" />
<glyph unicode="&#xc4;" horiz-adv-x="833" d="M23 0l229 1434h330l229 -1434h-227l-39 260h-277l-39 -260h-206zM162 1509v197h196v-197h-196zM297 455h217l-108 725zM473 1509v197h197v-197h-197z" />
<glyph unicode="&#xc5;" horiz-adv-x="833" d="M23 0l229 1434h330l229 -1434h-227l-39 260h-277l-39 -260h-206zM252 1667q0 69 47.5 116.5t116.5 47.5t116.5 -47.5t47.5 -116.5t-47.5 -116.5t-116.5 -47.5t-116.5 47.5t-47.5 116.5zM297 455h217l-108 725zM354 1667q0 -26 18 -43.5t44 -17.5t43.5 17.5t17.5 43.5 t-17.5 44t-43.5 18t-44 -18t-18 -44z" />
<glyph unicode="&#xc6;" horiz-adv-x="1187" d="M8 0l383 1434h739v-205h-389v-400h310v-204h-310v-420h389v-205h-614v260h-227l-66 -260h-215zM340 455h176v690z" />
<glyph unicode="&#xc7;" horiz-adv-x="790" d="M63 344v746q0 173 86 266.5t250 93.5t250 -93.5t86 -266.5v-140h-213v154q0 141 -116 141q-117 0 -117 -141v-774q0 -140 117 -140q116 0 116 140v205h213v-191q0 -161 -74.5 -253.5t-216.5 -104.5v-66q78 0 115 -22t37 -74q0 -40 -14.5 -66t-44.5 -38.5t-63.5 -16.5 t-84.5 -4q-93 0 -144.5 26.5t-51.5 92.5v20h151v-16q0 -41 45 -41q51 0 51 49q0 29 -17.5 41t-55.5 12h-21v105q-139 13 -211 105t-72 251z" />
<glyph unicode="&#xc8;" horiz-adv-x="753" d="M82 0v1434h614v-205h-389v-400h309v-204h-309v-420h389v-205h-614zM139 1737h232l139 -228h-162z" />
<glyph unicode="&#xc9;" horiz-adv-x="753" d="M82 0v1434h614v-205h-389v-400h309v-204h-309v-420h389v-205h-614zM268 1509l140 228h221l-209 -228h-152z" />
<glyph unicode="&#xca;" horiz-adv-x="753" d="M82 0v1434h614v-205h-389v-400h309v-204h-309v-420h389v-205h-614zM102 1509l183 228h202l183 -228h-193l-92 113l-90 -113h-193z" />
<glyph unicode="&#xcb;" horiz-adv-x="753" d="M82 0v1434h614v-205h-389v-400h309v-204h-309v-420h389v-205h-614zM133 1509v197h197v-197h-197zM444 1509v197h197v-197h-197z" />
<glyph unicode="&#xcc;" horiz-adv-x="389" d="M-51 1737h231l139 -228h-161zM82 0v1434h225v-1434h-225z" />
<glyph unicode="&#xcd;" horiz-adv-x="389" d="M76 1509l139 228h221l-209 -228h-151zM82 0v1434h225v-1434h-225z" />
<glyph unicode="&#xce;" horiz-adv-x="389" d="M-88 1509l182 228h203l182 -228h-192l-92 113l-91 -113h-192zM82 0v1434h225v-1434h-225z" />
<glyph unicode="&#xcf;" horiz-adv-x="389" d="M-59 1509v197h196v-197h-196zM82 0v1434h225v-1434h-225zM252 1509v197h197v-197h-197z" />
<glyph unicode="&#xd0;" horiz-adv-x="835" d="M8 625v184h74v625h356q167 0 251.5 -91t84.5 -264v-725q0 -173 -84.5 -263.5t-251.5 -90.5h-356v625h-74zM307 205h127q56 0 85.5 32.5t29.5 106.5v746q0 74 -29.5 106.5t-85.5 32.5h-127v-420h139v-184h-139v-420z" />
<glyph unicode="&#xd1;" horiz-adv-x="874" d="M80 0v1434h282l232 -859v859h201v-1434h-232l-280 1038v-1038h-203zM160 1577q52 139 174 139q46 0 101.5 -25.5t82.5 -25.5q31 0 51 11.5t37 47.5l109 -75q-53 -140 -174 -140q-46 0 -102 26t-83 26q-31 0 -50.5 -12t-37.5 -48z" />
<glyph unicode="&#xd2;" d="M63 344v746q0 172 89 266t254 94t253.5 -94t88.5 -266v-746q0 -172 -88.5 -266t-253.5 -94t-254 94t-89 266zM158 1737h231l139 -228h-161zM289 330q0 -142 117 -142q116 0 116 142v774q0 141 -116 141q-117 0 -117 -141v-774z" />
<glyph unicode="&#xd3;" d="M63 344v746q0 172 89 266t254 94t253.5 -94t88.5 -266v-746q0 -172 -88.5 -266t-253.5 -94t-254 94t-89 266zM287 1509l139 228h221l-209 -228h-151zM289 330q0 -142 117 -142q116 0 116 142v774q0 141 -116 141q-117 0 -117 -141v-774z" />
<glyph unicode="&#xd4;" d="M63 344v746q0 172 89 266t254 94t253.5 -94t88.5 -266v-746q0 -172 -88.5 -266t-253.5 -94t-254 94t-89 266zM121 1509l182 228h203l182 -228h-192l-93 113l-90 -113h-192zM289 330q0 -142 117 -142q116 0 116 142v774q0 141 -116 141q-117 0 -117 -141v-774z" />
<glyph unicode="&#xd5;" d="M63 344v746q0 172 89 266t254 94t253.5 -94t88.5 -266v-746q0 -172 -88.5 -266t-253.5 -94t-254 94t-89 266zM129 1577q52 139 174 139q46 0 101.5 -25.5t82.5 -25.5q31 0 51 11.5t37 47.5l109 -75q-52 -140 -174 -140q-46 0 -101.5 26t-82.5 26q-31 0 -50.5 -12 t-37.5 -48zM289 330q0 -142 117 -142q116 0 116 142v774q0 141 -116 141q-117 0 -117 -141v-774z" />
<glyph unicode="&#xd6;" d="M63 344v746q0 172 89 266t254 94t253.5 -94t88.5 -266v-746q0 -172 -88.5 -266t-253.5 -94t-254 94t-89 266zM152 1509v197h196v-197h-196zM289 330q0 -142 117 -142q116 0 116 142v774q0 141 -116 141q-117 0 -117 -141v-774zM463 1509v197h196v-197h-196z" />
<glyph unicode="&#xd7;" d="M78 500l217 217l-215 215l108 108l218 -215l217 217l108 -108l-217 -217l217 -217l-108 -109l-217 217l-220 -217z" />
<glyph unicode="&#xd8;" d="M63 344v746q0 172 89 266t254 94q124 0 204 -53l41 112l76 -26l-53 -146q74 -89 74 -247v-746q0 -172 -88.5 -266t-253.5 -94q-128 0 -205 51l-41 -111l-76 27l51 143q-72 93 -72 250zM289 514l229 633q-14 98 -112 98q-117 0 -117 -141v-590zM291 287q17 -99 115 -99 q116 0 116 142v590z" />
<glyph unicode="&#xd9;" horiz-adv-x="815" d="M72 342v1092h225v-1106q0 -140 117 -140q116 0 116 140v1106h213v-1092q0 -173 -85.5 -266.5t-249.5 -93.5t-250 93.5t-86 266.5zM162 1737h231l139 -228h-161z" />
<glyph unicode="&#xda;" horiz-adv-x="815" d="M72 342v1092h225v-1106q0 -140 117 -140q116 0 116 140v1106h213v-1092q0 -173 -85.5 -266.5t-249.5 -93.5t-250 93.5t-86 266.5zM291 1509l139 228h221l-209 -228h-151z" />
<glyph unicode="&#xdb;" horiz-adv-x="815" d="M72 342v1092h225v-1106q0 -140 117 -140q116 0 116 140v1106h213v-1092q0 -173 -85.5 -266.5t-249.5 -93.5t-250 93.5t-86 266.5zM127 1509l182 228h203l182 -228h-192l-92 113l-91 -113h-192z" />
<glyph unicode="&#xdc;" horiz-adv-x="815" d="M72 342v1092h225v-1106q0 -140 117 -140q116 0 116 140v1106h213v-1092q0 -173 -85.5 -266.5t-249.5 -93.5t-250 93.5t-86 266.5zM158 1509v197h196v-197h-196zM469 1509v197h197v-197h-197z" />
<glyph unicode="&#xdd;" d="M8 1434h236l172 -654l172 654h215l-285 -959v-475h-225v475zM295 1509l139 228h221l-209 -228h-151z" />
<glyph unicode="&#xde;" horiz-adv-x="772" d="M82 0v1434h225v-164h107q167 0 251.5 -91t84.5 -264v-186q0 -173 -84.5 -263.5t-251.5 -90.5h-107v-375h-225zM307 580h107q56 0 83 30.5t27 104.5v215q0 74 -27 104.5t-83 30.5h-107v-485z" />
<glyph unicode="&#xdf;" horiz-adv-x="1531" d="M47 344v88h213v-102q0 -140 117 -140t117 140q0 60 -24.5 113t-63 95.5t-85.5 85t-94.5 89t-86 98.5t-63 124t-24.5 155q0 173 84.5 266.5t247.5 93.5t247.5 -93.5t84.5 -266.5v-46h-213v60q0 141 -113 141q-56 0 -84 -33.5t-28 -107.5q0 -60 24.5 -113t63 -95.5 t85.5 -85t94 -89t85.5 -98.5t63 -124t24.5 -155q0 -173 -86 -266.5t-250 -93.5t-250 93.5t-86 266.5zM813 344v88h213v-102q0 -140 117 -140t117 140q0 60 -24.5 113t-63 95.5t-85.5 85t-94.5 89t-86 98.5t-63 124t-24.5 155q0 173 84.5 266.5t247.5 93.5t247.5 -93.5 t84.5 -266.5v-46h-213v60q0 141 -113 141t-113 -141q0 -60 24.5 -113t63 -95.5t85.5 -85t94.5 -89t86 -98.5t63 -124t24.5 -155q0 -173 -86 -266.5t-250 -93.5t-250 93.5t-86 266.5z" />
<glyph unicode="&#xe0;" horiz-adv-x="833" d="M23 0l229 1434h330l229 -1434h-227l-39 260h-277l-39 -260h-206zM170 1737h231l140 -228h-162zM297 455h217l-108 725z" />
<glyph unicode="&#xe1;" horiz-adv-x="833" d="M23 0l229 1434h330l229 -1434h-227l-39 260h-277l-39 -260h-206zM297 455h217l-108 725zM297 1509l139 228h221l-208 -228h-152z" />
<glyph unicode="&#xe2;" horiz-adv-x="833" d="M23 0l229 1434h330l229 -1434h-227l-39 260h-277l-39 -260h-206zM133 1509l182 228h203l182 -228h-192l-92 113l-90 -113h-193zM297 455h217l-108 725z" />
<glyph unicode="&#xe3;" horiz-adv-x="833" d="M23 0l229 1434h330l229 -1434h-227l-39 260h-277l-39 -260h-206zM139 1577q52 139 174 139q46 0 102 -25.5t83 -25.5q31 0 51 11.5t37 47.5l108 -75q-52 -140 -174 -140q-46 0 -101.5 26t-82.5 26q-31 0 -50.5 -12t-37.5 -48zM297 455h217l-108 725z" />
<glyph unicode="&#xe4;" horiz-adv-x="833" d="M23 0l229 1434h330l229 -1434h-227l-39 260h-277l-39 -260h-206zM162 1509v197h196v-197h-196zM297 455h217l-108 725zM473 1509v197h197v-197h-197z" />
<glyph unicode="&#xe5;" horiz-adv-x="833" d="M23 0l229 1434h330l229 -1434h-227l-39 260h-277l-39 -260h-206zM252 1667q0 69 47.5 116.5t116.5 47.5t116.5 -47.5t47.5 -116.5t-47.5 -116.5t-116.5 -47.5t-116.5 47.5t-47.5 116.5zM297 455h217l-108 725zM354 1667q0 -26 18 -43.5t44 -17.5t43.5 17.5t17.5 43.5 t-17.5 44t-43.5 18t-44 -18t-18 -44z" />
<glyph unicode="&#xe6;" horiz-adv-x="1187" d="M8 0l383 1434h739v-205h-389v-400h310v-204h-310v-420h389v-205h-614v260h-227l-66 -260h-215zM340 455h176v690z" />
<glyph unicode="&#xe7;" horiz-adv-x="790" d="M63 344v746q0 173 86 266.5t250 93.5t250 -93.5t86 -266.5v-140h-213v154q0 141 -116 141q-117 0 -117 -141v-774q0 -140 117 -140q116 0 116 140v205h213v-191q0 -161 -74.5 -253.5t-216.5 -104.5v-66q78 0 115 -22t37 -74q0 -40 -14.5 -66t-44.5 -38.5t-63.5 -16.5 t-84.5 -4q-93 0 -144.5 26.5t-51.5 92.5v20h151v-16q0 -41 45 -41q51 0 51 49q0 29 -17.5 41t-55.5 12h-21v105q-139 13 -211 105t-72 251z" />
<glyph unicode="&#xe8;" horiz-adv-x="753" d="M82 0v1434h614v-205h-389v-400h309v-204h-309v-420h389v-205h-614zM139 1737h232l139 -228h-162z" />
<glyph unicode="&#xe9;" horiz-adv-x="753" d="M82 0v1434h614v-205h-389v-400h309v-204h-309v-420h389v-205h-614zM268 1509l140 228h221l-209 -228h-152z" />
<glyph unicode="&#xea;" horiz-adv-x="753" d="M82 0v1434h614v-205h-389v-400h309v-204h-309v-420h389v-205h-614zM102 1509l183 228h202l183 -228h-193l-92 113l-90 -113h-193z" />
<glyph unicode="&#xeb;" horiz-adv-x="753" d="M82 0v1434h614v-205h-389v-400h309v-204h-309v-420h389v-205h-614zM133 1509v197h197v-197h-197zM444 1509v197h197v-197h-197z" />
<glyph unicode="&#xec;" horiz-adv-x="389" d="M-51 1737h231l139 -228h-161zM82 0v1434h225v-1434h-225z" />
<glyph unicode="&#xed;" horiz-adv-x="389" d="M76 1509l139 228h221l-209 -228h-151zM82 0v1434h225v-1434h-225z" />
<glyph unicode="&#xee;" horiz-adv-x="389" d="M-88 1509l182 228h203l182 -228h-192l-92 113l-91 -113h-192zM82 0v1434h225v-1434h-225z" />
<glyph unicode="&#xef;" horiz-adv-x="389" d="M-59 1509v197h196v-197h-196zM82 0v1434h225v-1434h-225zM252 1509v197h197v-197h-197z" />
<glyph unicode="&#xf0;" horiz-adv-x="835" d="M8 625v184h74v625h356q167 0 251.5 -91t84.5 -264v-725q0 -173 -84.5 -263.5t-251.5 -90.5h-356v625h-74zM307 205h127q56 0 85.5 32.5t29.5 106.5v746q0 74 -29.5 106.5t-85.5 32.5h-127v-420h139v-184h-139v-420z" />
<glyph unicode="&#xf1;" horiz-adv-x="874" d="M80 0v1434h282l232 -859v859h201v-1434h-232l-280 1038v-1038h-203zM160 1577q52 139 174 139q46 0 101.5 -25.5t82.5 -25.5q31 0 51 11.5t37 47.5l109 -75q-53 -140 -174 -140q-46 0 -102 26t-83 26q-31 0 -50.5 -12t-37.5 -48z" />
<glyph unicode="&#xf2;" d="M63 344v746q0 172 89 266t254 94t253.5 -94t88.5 -266v-746q0 -172 -88.5 -266t-253.5 -94t-254 94t-89 266zM158 1737h231l139 -228h-161zM289 330q0 -142 117 -142q116 0 116 142v774q0 141 -116 141q-117 0 -117 -141v-774z" />
<glyph unicode="&#xf3;" d="M63 344v746q0 172 89 266t254 94t253.5 -94t88.5 -266v-746q0 -172 -88.5 -266t-253.5 -94t-254 94t-89 266zM287 1509l139 228h221l-209 -228h-151zM289 330q0 -142 117 -142q116 0 116 142v774q0 141 -116 141q-117 0 -117 -141v-774z" />
<glyph unicode="&#xf4;" d="M63 344v746q0 172 89 266t254 94t253.5 -94t88.5 -266v-746q0 -172 -88.5 -266t-253.5 -94t-254 94t-89 266zM121 1509l182 228h203l182 -228h-192l-93 113l-90 -113h-192zM289 330q0 -142 117 -142q116 0 116 142v774q0 141 -116 141q-117 0 -117 -141v-774z" />
<glyph unicode="&#xf5;" d="M63 344v746q0 172 89 266t254 94t253.5 -94t88.5 -266v-746q0 -172 -88.5 -266t-253.5 -94t-254 94t-89 266zM129 1577q52 139 174 139q46 0 101.5 -25.5t82.5 -25.5q31 0 51 11.5t37 47.5l109 -75q-52 -140 -174 -140q-46 0 -101.5 26t-82.5 26q-31 0 -50.5 -12 t-37.5 -48zM289 330q0 -142 117 -142q116 0 116 142v774q0 141 -116 141q-117 0 -117 -141v-774z" />
<glyph unicode="&#xf6;" d="M63 344v746q0 172 89 266t254 94t253.5 -94t88.5 -266v-746q0 -172 -88.5 -266t-253.5 -94t-254 94t-89 266zM152 1509v197h196v-197h-196zM289 330q0 -142 117 -142q116 0 116 142v774q0 141 -116 141q-117 0 -117 -141v-774zM463 1509v197h196v-197h-196z" />
<glyph unicode="&#xf7;" d="M51 637v160h709v-160h-709zM297 295v217h217v-217h-217zM297 920v217h217v-217h-217z" />
<glyph unicode="&#xf8;" d="M63 344v746q0 172 89 266t254 94q124 0 204 -53l41 112l76 -26l-53 -146q74 -89 74 -247v-746q0 -172 -88.5 -266t-253.5 -94q-128 0 -205 51l-41 -111l-76 27l51 143q-72 93 -72 250zM289 514l229 633q-14 98 -112 98q-117 0 -117 -141v-590zM291 287q17 -99 115 -99 q116 0 116 142v590z" />
<glyph unicode="&#xf9;" horiz-adv-x="815" d="M72 342v1092h225v-1106q0 -140 117 -140q116 0 116 140v1106h213v-1092q0 -173 -85.5 -266.5t-249.5 -93.5t-250 93.5t-86 266.5zM162 1737h231l139 -228h-161z" />
<glyph unicode="&#xfa;" horiz-adv-x="815" d="M72 342v1092h225v-1106q0 -140 117 -140q116 0 116 140v1106h213v-1092q0 -173 -85.5 -266.5t-249.5 -93.5t-250 93.5t-86 266.5zM291 1509l139 228h221l-209 -228h-151z" />
<glyph unicode="&#xfb;" horiz-adv-x="815" d="M72 342v1092h225v-1106q0 -140 117 -140q116 0 116 140v1106h213v-1092q0 -173 -85.5 -266.5t-249.5 -93.5t-250 93.5t-86 266.5zM127 1509l182 228h203l182 -228h-192l-92 113l-91 -113h-192z" />
<glyph unicode="&#xfc;" horiz-adv-x="815" d="M72 342v1092h225v-1106q0 -140 117 -140q116 0 116 140v1106h213v-1092q0 -173 -85.5 -266.5t-249.5 -93.5t-250 93.5t-86 266.5zM158 1509v197h196v-197h-196zM469 1509v197h197v-197h-197z" />
<glyph unicode="&#xfd;" d="M8 1434h236l172 -654l172 654h215l-285 -959v-475h-225v475zM295 1509l139 228h221l-209 -228h-151z" />
<glyph unicode="&#xfe;" horiz-adv-x="772" d="M82 0v1434h225v-164h107q167 0 251.5 -91t84.5 -264v-186q0 -173 -84.5 -263.5t-251.5 -90.5h-107v-375h-225zM307 580h107q56 0 83 30.5t27 104.5v215q0 74 -27 104.5t-83 30.5h-107v-485z" />
<glyph unicode="&#xff;" d="M8 1434h236l172 -654l172 654h215l-285 -959v-475h-225v475zM160 1509v197h196v-197h-196zM471 1509v197h197v-197h-197z" />
<glyph unicode="&#x100;" horiz-adv-x="833" d="M23 0l229 1434h330l229 -1434h-227l-39 260h-277l-39 -260h-206zM180 1518v159h471v-159h-471zM297 455h217l-108 725z" />
<glyph unicode="&#x101;" horiz-adv-x="833" d="M23 0l229 1434h330l229 -1434h-227l-39 260h-277l-39 -260h-206zM180 1518v159h471v-159h-471zM297 455h217l-108 725z" />
<glyph unicode="&#x102;" horiz-adv-x="833" d="M23 0l229 1434h330l229 -1434h-227l-39 260h-277l-39 -260h-206zM186 1737h133q4 -56 26.5 -76.5t68.5 -20.5q47 0 70.5 20.5t27.5 76.5h133q0 -110 -59 -173t-172 -63q-112 0 -169 62.5t-59 173.5zM297 455h217l-108 725z" />
<glyph unicode="&#x103;" horiz-adv-x="833" d="M23 0l229 1434h330l229 -1434h-227l-39 260h-277l-39 -260h-206zM186 1737h133q4 -56 26.5 -76.5t68.5 -20.5q47 0 70.5 20.5t27.5 76.5h133q0 -110 -59 -173t-172 -63q-112 0 -169 62.5t-59 173.5zM297 455h217l-108 725z" />
<glyph unicode="&#x104;" horiz-adv-x="833" d="M23 0l229 1434h330l229 -1434h-84q-61 -51 -61 -119q0 -28 20.5 -42.5t50.5 -14.5q28 0 74 12v-115q-57 -22 -139 -22q-83 0 -130.5 32.5t-47.5 94.5q0 86 96 149l-45 285h-277l-39 -260h-206zM297 455h217l-108 725z" />
<glyph unicode="&#x105;" horiz-adv-x="833" d="M23 0l229 1434h330l229 -1434h-84q-61 -51 -61 -119q0 -28 20.5 -42.5t50.5 -14.5q28 0 74 12v-115q-57 -22 -139 -22q-83 0 -130.5 32.5t-47.5 94.5q0 86 96 149l-45 285h-277l-39 -260h-206zM297 455h217l-108 725z" />
<glyph unicode="&#x106;" horiz-adv-x="790" d="M63 344v746q0 173 86 266.5t250 93.5t250 -93.5t86 -266.5v-140h-213v154q0 141 -116 141q-117 0 -117 -141v-774q0 -140 117 -140q116 0 116 140v205h213v-191q0 -173 -86 -266.5t-250 -93.5t-250 93.5t-86 266.5zM281 1509l139 228h221l-209 -228h-151z" />
<glyph unicode="&#x107;" horiz-adv-x="790" d="M63 344v746q0 173 86 266.5t250 93.5t250 -93.5t86 -266.5v-140h-213v154q0 141 -116 141q-117 0 -117 -141v-774q0 -140 117 -140q116 0 116 140v205h213v-191q0 -173 -86 -266.5t-250 -93.5t-250 93.5t-86 266.5zM281 1509l139 228h221l-209 -228h-151z" />
<glyph unicode="&#x108;" horiz-adv-x="790" d="M63 344v746q0 173 86 266.5t250 93.5t250 -93.5t86 -266.5v-140h-213v154q0 141 -116 141q-117 0 -117 -141v-774q0 -140 117 -140q116 0 116 140v205h213v-191q0 -173 -86 -266.5t-250 -93.5t-250 93.5t-86 266.5zM115 1509l182 228h203l182 -228h-193l-92 113l-90 -113 h-192z" />
<glyph unicode="&#x109;" horiz-adv-x="790" d="M63 344v746q0 173 86 266.5t250 93.5t250 -93.5t86 -266.5v-140h-213v154q0 141 -116 141q-117 0 -117 -141v-774q0 -140 117 -140q116 0 116 140v205h213v-191q0 -173 -86 -266.5t-250 -93.5t-250 93.5t-86 266.5zM115 1509l182 228h203l182 -228h-193l-92 113l-90 -113 h-192z" />
<glyph unicode="&#x10a;" horiz-adv-x="790" d="M63 344v746q0 173 86 266.5t250 93.5t250 -93.5t86 -266.5v-140h-213v154q0 141 -116 141q-117 0 -117 -141v-774q0 -140 117 -140q116 0 116 140v205h213v-191q0 -173 -86 -266.5t-250 -93.5t-250 93.5t-86 266.5zM301 1509v197h197v-197h-197z" />
<glyph unicode="&#x10b;" horiz-adv-x="790" d="M63 344v746q0 173 86 266.5t250 93.5t250 -93.5t86 -266.5v-140h-213v154q0 141 -116 141q-117 0 -117 -141v-774q0 -140 117 -140q116 0 116 140v205h213v-191q0 -173 -86 -266.5t-250 -93.5t-250 93.5t-86 266.5zM301 1509v197h197v-197h-197z" />
<glyph unicode="&#x10c;" horiz-adv-x="790" d="M63 344v746q0 173 86 266.5t250 93.5t250 -93.5t86 -266.5v-140h-213v154q0 141 -116 141q-117 0 -117 -141v-774q0 -140 117 -140q116 0 116 140v205h213v-191q0 -173 -86 -266.5t-250 -93.5t-250 93.5t-86 266.5zM115 1737h192l90 -115l92 115h193l-182 -228h-203z" />
<glyph unicode="&#x10d;" horiz-adv-x="790" d="M63 344v746q0 173 86 266.5t250 93.5t250 -93.5t86 -266.5v-140h-213v154q0 141 -116 141q-117 0 -117 -141v-774q0 -140 117 -140q116 0 116 140v205h213v-191q0 -173 -86 -266.5t-250 -93.5t-250 93.5t-86 266.5zM115 1737h192l90 -115l92 115h193l-182 -228h-203z" />
<glyph unicode="&#x10e;" horiz-adv-x="835" d="M82 0v1434h356q167 0 251.5 -91t84.5 -264v-725q0 -173 -84.5 -263.5t-251.5 -90.5h-356zM115 1737h192l90 -115l92 115h193l-182 -228h-203zM307 205h127q56 0 85.5 32.5t29.5 106.5v746q0 74 -29.5 106.5t-85.5 32.5h-127v-1024z" />
<glyph unicode="&#x10f;" horiz-adv-x="835" d="M82 0v1434h356q167 0 251.5 -91t84.5 -264v-725q0 -173 -84.5 -263.5t-251.5 -90.5h-356zM115 1737h192l90 -115l92 115h193l-182 -228h-203zM307 205h127q56 0 85.5 32.5t29.5 106.5v746q0 74 -29.5 106.5t-85.5 32.5h-127v-1024z" />
<glyph unicode="&#x110;" horiz-adv-x="835" d="M8 625v184h74v625h356q167 0 251.5 -91t84.5 -264v-725q0 -173 -84.5 -263.5t-251.5 -90.5h-356v625h-74zM307 205h127q56 0 85.5 32.5t29.5 106.5v746q0 74 -29.5 106.5t-85.5 32.5h-127v-420h139v-184h-139v-420z" />
<glyph unicode="&#x111;" horiz-adv-x="835" d="M8 625v184h74v625h356q167 0 251.5 -91t84.5 -264v-725q0 -173 -84.5 -263.5t-251.5 -90.5h-356v625h-74zM307 205h127q56 0 85.5 32.5t29.5 106.5v746q0 74 -29.5 106.5t-85.5 32.5h-127v-420h139v-184h-139v-420z" />
<glyph unicode="&#x112;" horiz-adv-x="753" d="M82 0v1434h614v-205h-389v-400h309v-204h-309v-420h389v-205h-614zM150 1518v159h471v-159h-471z" />
<glyph unicode="&#x113;" horiz-adv-x="753" d="M82 0v1434h614v-205h-389v-400h309v-204h-309v-420h389v-205h-614zM150 1518v159h471v-159h-471z" />
<glyph unicode="&#x114;" horiz-adv-x="753" d="M82 0v1434h614v-205h-389v-400h309v-204h-309v-420h389v-205h-614zM156 1737h133q4 -56 26.5 -76.5t67.5 -20.5q47 0 70.5 20.5t27.5 76.5h133q0 -110 -59 -173t-172 -63q-112 0 -168.5 62.5t-58.5 173.5z" />
<glyph unicode="&#x115;" horiz-adv-x="753" d="M82 0v1434h614v-205h-389v-400h309v-204h-309v-420h389v-205h-614zM156 1737h133q4 -56 26.5 -76.5t67.5 -20.5q47 0 70.5 20.5t27.5 76.5h133q0 -110 -59 -173t-172 -63q-112 0 -168.5 62.5t-58.5 173.5z" />
<glyph unicode="&#x116;" horiz-adv-x="753" d="M82 0v1434h614v-205h-389v-400h309v-204h-309v-420h389v-205h-614zM287 1509v197h196v-197h-196z" />
<glyph unicode="&#x117;" horiz-adv-x="753" d="M82 0v1434h614v-205h-389v-400h309v-204h-309v-420h389v-205h-614zM287 1509v197h196v-197h-196z" />
<glyph unicode="&#x118;" horiz-adv-x="753" d="M82 0v1434h614v-205h-389v-400h309v-204h-309v-420h389v-205h-84q-61 -51 -61 -119q0 -28 21 -42.5t51 -14.5q27 0 73 12v-115q-57 -22 -139 -22q-83 0 -130.5 32.5t-47.5 94.5q0 104 137 174h-434z" />
<glyph unicode="&#x119;" horiz-adv-x="753" d="M82 0v1434h614v-205h-389v-400h309v-204h-309v-420h389v-205h-84q-61 -51 -61 -119q0 -28 21 -42.5t51 -14.5q27 0 73 12v-115q-57 -22 -139 -22q-83 0 -130.5 32.5t-47.5 94.5q0 104 137 174h-434z" />
<glyph unicode="&#x11a;" horiz-adv-x="753" d="M82 0v1434h614v-205h-389v-400h309v-204h-309v-420h389v-205h-614zM100 1737h193l90 -115l92 115h193l-183 -228h-202z" />
<glyph unicode="&#x11b;" horiz-adv-x="753" d="M82 0v1434h614v-205h-389v-400h309v-204h-309v-420h389v-205h-614zM100 1737h193l90 -115l92 115h193l-183 -228h-202z" />
<glyph unicode="&#x11c;" horiz-adv-x="798" d="M63 344v746q0 173 86 266.5t250 93.5t250 -93.5t86 -266.5v-140h-213v154q0 141 -116 141q-117 0 -117 -141v-774q0 -140 117 -140q116 0 116 140v264h-102v205h315v-455q0 -173 -86 -266.5t-250 -93.5t-250 93.5t-86 266.5zM115 1509l182 228h203l182 -228h-193l-92 113 l-90 -113h-192z" />
<glyph unicode="&#x11d;" horiz-adv-x="798" d="M63 344v746q0 173 86 266.5t250 93.5t250 -93.5t86 -266.5v-140h-213v154q0 141 -116 141q-117 0 -117 -141v-774q0 -140 117 -140q116 0 116 140v264h-102v205h315v-455q0 -173 -86 -266.5t-250 -93.5t-250 93.5t-86 266.5zM115 1509l182 228h203l182 -228h-193l-92 113 l-90 -113h-192z" />
<glyph unicode="&#x11e;" horiz-adv-x="798" d="M63 344v746q0 173 86 266.5t250 93.5t250 -93.5t86 -266.5v-140h-213v154q0 141 -116 141q-117 0 -117 -141v-774q0 -140 117 -140q116 0 116 140v264h-102v205h315v-455q0 -173 -86 -266.5t-250 -93.5t-250 93.5t-86 266.5zM168 1737h133q4 -56 26.5 -76.5t67.5 -20.5 q47 0 71 20.5t28 76.5h133q0 -110 -59.5 -173t-172.5 -63q-112 0 -168.5 62.5t-58.5 173.5z" />
<glyph unicode="&#x11f;" horiz-adv-x="798" d="M63 344v746q0 173 86 266.5t250 93.5t250 -93.5t86 -266.5v-140h-213v154q0 141 -116 141q-117 0 -117 -141v-774q0 -140 117 -140q116 0 116 140v264h-102v205h315v-455q0 -173 -86 -266.5t-250 -93.5t-250 93.5t-86 266.5zM168 1737h133q4 -56 26.5 -76.5t67.5 -20.5 q47 0 71 20.5t28 76.5h133q0 -110 -59.5 -173t-172.5 -63q-112 0 -168.5 62.5t-58.5 173.5z" />
<glyph unicode="&#x120;" horiz-adv-x="798" d="M63 344v746q0 173 86 266.5t250 93.5t250 -93.5t86 -266.5v-140h-213v154q0 141 -116 141q-117 0 -117 -141v-774q0 -140 117 -140q116 0 116 140v264h-102v205h315v-455q0 -173 -86 -266.5t-250 -93.5t-250 93.5t-86 266.5zM299 1509v197h197v-197h-197z" />
<glyph unicode="&#x121;" horiz-adv-x="798" d="M63 344v746q0 173 86 266.5t250 93.5t250 -93.5t86 -266.5v-140h-213v154q0 141 -116 141q-117 0 -117 -141v-774q0 -140 117 -140q116 0 116 140v264h-102v205h315v-455q0 -173 -86 -266.5t-250 -93.5t-250 93.5t-86 266.5zM299 1509v197h197v-197h-197z" />
<glyph unicode="&#x122;" horiz-adv-x="798" d="M63 344v746q0 173 86 266.5t250 93.5t250 -93.5t86 -266.5v-140h-213v154q0 141 -116 141q-117 0 -117 -141v-774q0 -140 117 -140q116 0 116 140v264h-102v205h315v-455q0 -173 -86 -266.5t-250 -93.5t-250 93.5t-86 266.5zM305 -68h189v-168l-88 -131h-80l53 111h-74 v188z" />
<glyph unicode="&#x123;" horiz-adv-x="798" d="M63 344v746q0 173 86 266.5t250 93.5t250 -93.5t86 -266.5v-140h-213v154q0 141 -116 141q-117 0 -117 -141v-774q0 -140 117 -140q116 0 116 140v264h-102v205h315v-455q0 -173 -86 -266.5t-250 -93.5t-250 93.5t-86 266.5zM305 -68h189v-168l-88 -131h-80l53 111h-74 v188z" />
<glyph unicode="&#x124;" horiz-adv-x="874" d="M82 0v1434h225v-615h256v615h230v-1434h-230v614h-256v-614h-225zM154 1509l182 228h203l182 -228h-193l-92 113l-90 -113h-192z" />
<glyph unicode="&#x125;" horiz-adv-x="874" d="M82 0v1434h225v-615h256v615h230v-1434h-230v614h-256v-614h-225zM154 1509l182 228h203l182 -228h-193l-92 113l-90 -113h-192z" />
<glyph unicode="&#x126;" horiz-adv-x="894" d="M20 1028v168h72v238h225v-238h256v238h230v-238h71v-168h-71v-1028h-230v614h-256v-614h-225v1028h-72zM317 819h256v209h-256v-209z" />
<glyph unicode="&#x127;" horiz-adv-x="894" d="M20 1028v168h72v238h225v-238h256v238h230v-238h71v-168h-71v-1028h-230v614h-256v-614h-225v1028h-72zM317 819h256v209h-256v-209z" />
<glyph unicode="&#x128;" horiz-adv-x="389" d="M-82 1577q52 139 174 139q46 0 101.5 -25.5t82.5 -25.5q31 0 51.5 11.5t37.5 47.5l108 -75q-53 -140 -174 -140q-46 0 -101.5 26t-82.5 26q-31 0 -50.5 -12t-37.5 -48zM82 0v1434h225v-1434h-225z" />
<glyph unicode="&#x129;" horiz-adv-x="389" d="M-82 1577q52 139 174 139q46 0 101.5 -25.5t82.5 -25.5q31 0 51.5 11.5t37.5 47.5l108 -75q-53 -140 -174 -140q-46 0 -101.5 26t-82.5 26q-31 0 -50.5 -12t-37.5 -48zM82 0v1434h225v-1434h-225z" />
<glyph unicode="&#x12a;" horiz-adv-x="389" d="M-41 1518v159h471v-159h-471zM82 0v1434h225v-1434h-225z" />
<glyph unicode="&#x12b;" horiz-adv-x="389" d="M-41 1518v159h471v-159h-471zM82 0v1434h225v-1434h-225z" />
<glyph unicode="&#x12c;" horiz-adv-x="389" d="M-35 1737h133q4 -56 26.5 -76.5t68.5 -20.5q47 0 70.5 20.5t27.5 76.5h133q0 -110 -59 -173t-172 -63q-112 0 -169 62.5t-59 173.5zM82 0v1434h225v-1434h-225z" />
<glyph unicode="&#x12d;" horiz-adv-x="389" d="M-35 1737h133q4 -56 26.5 -76.5t68.5 -20.5q47 0 70.5 20.5t27.5 76.5h133q0 -110 -59 -173t-172 -63q-112 0 -169 62.5t-59 173.5zM82 0v1434h225v-1434h-225z" />
<glyph unicode="&#x12e;" horiz-adv-x="389" d="M33 -174q0 104 137 174h-88v1434h225v-1434h-41q-61 -51 -61 -119q0 -28 20.5 -42.5t50.5 -14.5q28 0 74 12v-115q-57 -22 -139 -22q-83 0 -130.5 32.5t-47.5 94.5z" />
<glyph unicode="&#x12f;" horiz-adv-x="389" d="M33 -174q0 104 137 174h-88v1434h225v-1434h-41q-61 -51 -61 -119q0 -28 20.5 -42.5t50.5 -14.5q28 0 74 12v-115q-57 -22 -139 -22q-83 0 -130.5 32.5t-47.5 94.5z" />
<glyph unicode="&#x130;" horiz-adv-x="389" d="M82 0v1434h225v-1434h-225zM96 1509v197h197v-197h-197z" />
<glyph unicode="&#x131;" horiz-adv-x="389" d="M82 0v1434h225v-1434h-225z" />
<glyph unicode="&#x132;" horiz-adv-x="913" d="M82 0v1434h225v-1434h-225zM410 0v205q25 -2 77 -2q61 0 95 30t34 107v1094h226v-1078q0 -360 -324 -360q-71 0 -108 4z" />
<glyph unicode="&#x133;" horiz-adv-x="913" d="M82 0v1434h225v-1434h-225zM410 0v205q25 -2 77 -2q61 0 95 30t34 107v1094h226v-1078q0 -360 -324 -360q-71 0 -108 4z" />
<glyph unicode="&#x134;" horiz-adv-x="524" d="M18 1509l183 228h202l183 -228h-193l-92 113l-90 -113h-193zM20 0v205q25 -2 78 -2q61 0 95 30t34 107v1094h226v-1078q0 -360 -324 -360q-72 0 -109 4z" />
<glyph unicode="&#x135;" horiz-adv-x="524" d="M18 1509l183 228h202l183 -228h-193l-92 113l-90 -113h-193zM20 0v205q25 -2 78 -2q61 0 95 30t34 107v1094h226v-1078q0 -360 -324 -360q-72 0 -109 4z" />
<glyph unicode="&#x136;" horiz-adv-x="847" d="M82 0v1434h225v-625l295 625h225l-313 -639l313 -795h-231l-219 571l-70 -131v-440h-225zM346 -68h189v-168l-89 -131h-79l53 111h-74v188z" />
<glyph unicode="&#x137;" horiz-adv-x="847" d="M82 0v1434h225v-625l295 625h225l-313 -639l313 -795h-231l-219 571l-70 -131v-440h-225zM346 -68h189v-168l-89 -131h-79l53 111h-74v188z" />
<glyph unicode="&#x138;" horiz-adv-x="847" d="M82 0v1434h225v-625l295 625h225l-313 -639l313 -795h-231l-219 571l-70 -131v-440h-225z" />
<glyph unicode="&#x139;" horiz-adv-x="694" d="M82 0v1434h225v-1229h371v-205h-596zM147 1509l140 228h221l-209 -228h-152z" />
<glyph unicode="&#x13a;" horiz-adv-x="694" d="M82 0v1434h225v-1229h371v-205h-596zM147 1509l140 228h221l-209 -228h-152z" />
<glyph unicode="&#x13b;" horiz-adv-x="694" d="M82 0v1434h225v-1229h371v-205h-596zM287 -68h188v-168l-88 -131h-80l53 111h-73v188z" />
<glyph unicode="&#x13c;" horiz-adv-x="694" d="M82 0v1434h225v-1229h371v-205h-596zM287 -68h188v-168l-88 -131h-80l53 111h-73v188z" />
<glyph unicode="&#x13d;" horiz-adv-x="694" d="M82 0v1434h225v-1229h371v-205h-596zM432 1217v217h217v-195l-98 -227h-92l59 205h-86z" />
<glyph unicode="&#x13e;" horiz-adv-x="694" d="M82 0v1434h225v-1229h371v-205h-596zM432 1217v217h217v-195l-98 -227h-92l59 205h-86z" />
<glyph unicode="&#x13f;" horiz-adv-x="694" d="M82 0v1434h225v-1229h371v-205h-596zM430 608v217h217v-217h-217z" />
<glyph unicode="&#x140;" horiz-adv-x="694" d="M82 0v1434h225v-1229h371v-205h-596zM430 608v217h217v-217h-217z" />
<glyph unicode="&#x141;" horiz-adv-x="712" d="M0 195v204l100 107v928h226v-686l247 266v-205l-247 -266v-338h370v-205h-596v301z" />
<glyph unicode="&#x142;" horiz-adv-x="712" d="M0 195v204l100 107v928h226v-686l247 266v-205l-247 -266v-338h370v-205h-596v301z" />
<glyph unicode="&#x143;" horiz-adv-x="874" d="M80 0v1434h282l232 -859v859h201v-1434h-232l-280 1038v-1038h-203zM317 1509l140 228h221l-209 -228h-152z" />
<glyph unicode="&#x144;" horiz-adv-x="874" d="M80 0v1434h282l232 -859v859h201v-1434h-232l-280 1038v-1038h-203zM317 1509l140 228h221l-209 -228h-152z" />
<glyph unicode="&#x145;" horiz-adv-x="874" d="M80 0v1434h282l232 -859v859h201v-1434h-232l-280 1038v-1038h-203zM342 -68h188v-168l-88 -131h-80l54 111h-74v188z" />
<glyph unicode="&#x146;" horiz-adv-x="874" d="M80 0v1434h282l232 -859v859h201v-1434h-232l-280 1038v-1038h-203zM342 -68h188v-168l-88 -131h-80l54 111h-74v188z" />
<glyph unicode="&#x147;" horiz-adv-x="874" d="M80 0v1434h282l232 -859v859h201v-1434h-232l-280 1038v-1038h-203zM154 1737h192l90 -115l92 115h193l-182 -228h-203z" />
<glyph unicode="&#x148;" horiz-adv-x="874" d="M80 0v1434h282l232 -859v859h201v-1434h-232l-280 1038v-1038h-203zM154 1737h192l90 -115l92 115h193l-182 -228h-203z" />
<glyph unicode="&#x149;" horiz-adv-x="1112" d="M10 1217v217h217v-195l-98 -227h-92l59 205h-86zM317 0v1434h283l231 -859v859h201v-1434h-231l-281 1038v-1038h-203z" />
<glyph unicode="&#x14c;" d="M63 344v746q0 172 89 266t254 94t253.5 -94t88.5 -266v-746q0 -172 -88.5 -266t-253.5 -94t-254 94t-89 266zM170 1518v159h471v-159h-471zM289 330q0 -142 117 -142q116 0 116 142v774q0 141 -116 141q-117 0 -117 -141v-774z" />
<glyph unicode="&#x14d;" d="M63 344v746q0 172 89 266t254 94t253.5 -94t88.5 -266v-746q0 -172 -88.5 -266t-253.5 -94t-254 94t-89 266zM170 1518v159h471v-159h-471zM289 330q0 -142 117 -142q116 0 116 142v774q0 141 -116 141q-117 0 -117 -141v-774z" />
<glyph unicode="&#x14e;" d="M63 344v746q0 172 89 266t254 94t253.5 -94t88.5 -266v-746q0 -172 -88.5 -266t-253.5 -94t-254 94t-89 266zM176 1737h133q4 -56 26.5 -76.5t67.5 -20.5q47 0 71 20.5t28 76.5h133q0 -110 -59.5 -173t-172.5 -63q-112 0 -168.5 62.5t-58.5 173.5zM289 330 q0 -142 117 -142q116 0 116 142v774q0 141 -116 141q-117 0 -117 -141v-774z" />
<glyph unicode="&#x14f;" d="M63 344v746q0 172 89 266t254 94t253.5 -94t88.5 -266v-746q0 -172 -88.5 -266t-253.5 -94t-254 94t-89 266zM176 1737h133q4 -56 26.5 -76.5t67.5 -20.5q47 0 71 20.5t28 76.5h133q0 -110 -59.5 -173t-172.5 -63q-112 0 -168.5 62.5t-58.5 173.5zM289 330 q0 -142 117 -142q116 0 116 142v774q0 141 -116 141q-117 0 -117 -141v-774z" />
<glyph unicode="&#x150;" d="M63 344v746q0 172 89 266t254 94t253.5 -94t88.5 -266v-746q0 -172 -88.5 -266t-253.5 -94t-254 94t-89 266zM168 1509l102 228h205l-170 -228h-137zM289 330q0 -142 117 -142q116 0 116 142v774q0 141 -116 141q-117 0 -117 -141v-774zM436 1509l101 228h206l-172 -228 h-135z" />
<glyph unicode="&#x151;" d="M63 344v746q0 172 89 266t254 94t253.5 -94t88.5 -266v-746q0 -172 -88.5 -266t-253.5 -94t-254 94t-89 266zM168 1509l102 228h205l-170 -228h-137zM289 330q0 -142 117 -142q116 0 116 142v774q0 141 -116 141q-117 0 -117 -141v-774zM436 1509l101 228h206l-172 -228 h-135z" />
<glyph unicode="&#x152;" horiz-adv-x="1200" d="M61 354v725q0 173 84.5 264t251.5 91h746v-205h-389v-400h309v-204h-309v-420h389v-205h-746q-167 0 -251.5 90.5t-84.5 263.5zM287 344q0 -74 29 -106.5t85 -32.5h127v1024h-127q-56 0 -85 -32.5t-29 -106.5v-746z" />
<glyph unicode="&#x153;" horiz-adv-x="1200" d="M61 354v725q0 173 84.5 264t251.5 91h746v-205h-389v-400h309v-204h-309v-420h389v-205h-746q-167 0 -251.5 90.5t-84.5 263.5zM287 344q0 -74 29 -106.5t85 -32.5h127v1024h-127q-56 0 -85 -32.5t-29 -106.5v-746z" />
<glyph unicode="&#x154;" horiz-adv-x="823" d="M82 0v1434h340q173 0 253.5 -81t80.5 -249v-113q0 -221 -148 -291q81 -34 115.5 -110t34.5 -195v-221q0 -119 24 -174h-229q-8 25 -11 37.5t-6.5 48t-3.5 90.5v225q0 99 -35 141t-112 42h-78v-584h-225zM281 1509l139 228h221l-209 -228h-151zM307 788h88q67 0 101 34.5 t34 117.5v141q0 77 -27 112.5t-87 35.5h-109v-441z" />
<glyph unicode="&#x155;" horiz-adv-x="823" d="M82 0v1434h340q173 0 253.5 -81t80.5 -249v-113q0 -221 -148 -291q81 -34 115.5 -110t34.5 -195v-221q0 -119 24 -174h-229q-8 25 -11 37.5t-6.5 48t-3.5 90.5v225q0 99 -35 141t-112 42h-78v-584h-225zM281 1509l139 228h221l-209 -228h-151zM307 788h88q67 0 101 34.5 t34 117.5v141q0 77 -27 112.5t-87 35.5h-109v-441z" />
<glyph unicode="&#x156;" horiz-adv-x="823" d="M82 0v1434h340q173 0 253.5 -81t80.5 -249v-113q0 -221 -148 -291q81 -34 115.5 -110t34.5 -195v-221q0 -119 24 -174h-229q-8 25 -11 37.5t-6.5 48t-3.5 90.5v225q0 99 -35 141t-112 42h-78v-584h-225zM307 788h88q67 0 101 34.5t34 117.5v141q0 77 -27 112.5t-87 35.5 h-109v-441zM322 -68h188v-168l-88 -131h-80l53 111h-73v188z" />
<glyph unicode="&#x157;" horiz-adv-x="823" d="M82 0v1434h340q173 0 253.5 -81t80.5 -249v-113q0 -221 -148 -291q81 -34 115.5 -110t34.5 -195v-221q0 -119 24 -174h-229q-8 25 -11 37.5t-6.5 48t-3.5 90.5v225q0 99 -35 141t-112 42h-78v-584h-225zM307 788h88q67 0 101 34.5t34 117.5v141q0 77 -27 112.5t-87 35.5 h-109v-441zM322 -68h188v-168l-88 -131h-80l53 111h-73v188z" />
<glyph unicode="&#x158;" horiz-adv-x="823" d="M82 0v1434h340q173 0 253.5 -81t80.5 -249v-113q0 -221 -148 -291q81 -34 115.5 -110t34.5 -195v-221q0 -119 24 -174h-229q-8 25 -11 37.5t-6.5 48t-3.5 90.5v225q0 99 -35 141t-112 42h-78v-584h-225zM115 1737h192l90 -115l92 115h193l-182 -228h-203zM307 788h88 q67 0 101 34.5t34 117.5v141q0 77 -27 112.5t-87 35.5h-109v-441z" />
<glyph unicode="&#x159;" horiz-adv-x="823" d="M82 0v1434h340q173 0 253.5 -81t80.5 -249v-113q0 -221 -148 -291q81 -34 115.5 -110t34.5 -195v-221q0 -119 24 -174h-229q-8 25 -11 37.5t-6.5 48t-3.5 90.5v225q0 99 -35 141t-112 42h-78v-584h-225zM115 1737h192l90 -115l92 115h193l-182 -228h-203zM307 788h88 q67 0 101 34.5t34 117.5v141q0 77 -27 112.5t-87 35.5h-109v-441z" />
<glyph unicode="&#x15a;" horiz-adv-x="765" d="M47 344v88h213v-102q0 -140 117 -140t117 140q0 60 -24.5 113t-63 95.5t-85.5 85t-94.5 89t-86 98.5t-63 124t-24.5 155q0 173 84.5 266.5t247.5 93.5t247.5 -93.5t84.5 -266.5v-46h-213v60q0 141 -113 141q-56 0 -84 -33.5t-28 -107.5q0 -60 24.5 -113t63 -95.5 t85.5 -85t94 -89t85.5 -98.5t63 -124t24.5 -155q0 -173 -86 -266.5t-250 -93.5t-250 93.5t-86 266.5zM264 1509l139 228h222l-209 -228h-152z" />
<glyph unicode="&#x15b;" horiz-adv-x="765" d="M47 344v88h213v-102q0 -140 117 -140t117 140q0 60 -24.5 113t-63 95.5t-85.5 85t-94.5 89t-86 98.5t-63 124t-24.5 155q0 173 84.5 266.5t247.5 93.5t247.5 -93.5t84.5 -266.5v-46h-213v60q0 141 -113 141q-56 0 -84 -33.5t-28 -107.5q0 -60 24.5 -113t63 -95.5 t85.5 -85t94 -89t85.5 -98.5t63 -124t24.5 -155q0 -173 -86 -266.5t-250 -93.5t-250 93.5t-86 266.5zM264 1509l139 228h222l-209 -228h-152z" />
<glyph unicode="&#x15c;" horiz-adv-x="765" d="M47 344v88h213v-102q0 -140 117 -140t117 140q0 60 -24.5 113t-63 95.5t-85.5 85t-94.5 89t-86 98.5t-63 124t-24.5 155q0 173 84.5 266.5t247.5 93.5t247.5 -93.5t84.5 -266.5v-46h-213v60q0 141 -113 141q-56 0 -84 -33.5t-28 -107.5q0 -60 24.5 -113t63 -95.5 t85.5 -85t94 -89t85.5 -98.5t63 -124t24.5 -155q0 -173 -86 -266.5t-250 -93.5t-250 93.5t-86 266.5zM98 1509l183 228h202l183 -228h-193l-92 113l-90 -113h-193z" />
<glyph unicode="&#x15d;" horiz-adv-x="765" d="M47 344v88h213v-102q0 -140 117 -140t117 140q0 60 -24.5 113t-63 95.5t-85.5 85t-94.5 89t-86 98.5t-63 124t-24.5 155q0 173 84.5 266.5t247.5 93.5t247.5 -93.5t84.5 -266.5v-46h-213v60q0 141 -113 141q-56 0 -84 -33.5t-28 -107.5q0 -60 24.5 -113t63 -95.5 t85.5 -85t94 -89t85.5 -98.5t63 -124t24.5 -155q0 -173 -86 -266.5t-250 -93.5t-250 93.5t-86 266.5zM98 1509l183 228h202l183 -228h-193l-92 113l-90 -113h-193z" />
<glyph unicode="&#x15e;" horiz-adv-x="765" d="M47 344v88h213v-102q0 -140 117 -140t117 140q0 60 -24.5 113t-63 95.5t-85.5 85t-94.5 89t-86 98.5t-63 124t-24.5 155q0 173 84.5 266.5t247.5 93.5t247.5 -93.5t84.5 -266.5v-46h-213v60q0 141 -113 141q-56 0 -84 -33.5t-28 -107.5q0 -60 24.5 -113t63 -95.5 t85.5 -85t94 -89t85.5 -98.5t63 -124t24.5 -155q0 -164 -76 -256t-223 -102v-66q78 0 114.5 -22t36.5 -74q0 -33 -10.5 -56t-27 -36t-44.5 -20.5t-56 -10t-68 -2.5q-94 0 -145.5 26.5t-51.5 92.5v20h151v-16q0 -41 46 -41q51 0 51 49q0 29 -18 41t-56 12h-20v105 q-136 17 -205.5 108.5t-69.5 247.5z" />
<glyph unicode="&#x15f;" horiz-adv-x="765" d="M47 344v88h213v-102q0 -140 117 -140t117 140q0 60 -24.5 113t-63 95.5t-85.5 85t-94.5 89t-86 98.5t-63 124t-24.5 155q0 173 84.5 266.5t247.5 93.5t247.5 -93.5t84.5 -266.5v-46h-213v60q0 141 -113 141q-56 0 -84 -33.5t-28 -107.5q0 -60 24.5 -113t63 -95.5 t85.5 -85t94 -89t85.5 -98.5t63 -124t24.5 -155q0 -164 -76 -256t-223 -102v-66q78 0 114.5 -22t36.5 -74q0 -33 -10.5 -56t-27 -36t-44.5 -20.5t-56 -10t-68 -2.5q-94 0 -145.5 26.5t-51.5 92.5v20h151v-16q0 -41 46 -41q51 0 51 49q0 29 -18 41t-56 12h-20v105 q-136 17 -205.5 108.5t-69.5 247.5z" />
<glyph unicode="&#x160;" horiz-adv-x="765" d="M47 344v88h213v-102q0 -140 117 -140t117 140q0 60 -24.5 113t-63 95.5t-85.5 85t-94.5 89t-86 98.5t-63 124t-24.5 155q0 173 84.5 266.5t247.5 93.5t247.5 -93.5t84.5 -266.5v-46h-213v60q0 141 -113 141q-56 0 -84 -33.5t-28 -107.5q0 -60 24.5 -113t63 -95.5 t85.5 -85t94 -89t85.5 -98.5t63 -124t24.5 -155q0 -173 -86 -266.5t-250 -93.5t-250 93.5t-86 266.5zM100 1737h193l90 -115l92 115h193l-183 -228h-202z" />
<glyph unicode="&#x161;" horiz-adv-x="765" d="M47 344v88h213v-102q0 -140 117 -140t117 140q0 60 -24.5 113t-63 95.5t-85.5 85t-94.5 89t-86 98.5t-63 124t-24.5 155q0 173 84.5 266.5t247.5 93.5t247.5 -93.5t84.5 -266.5v-46h-213v60q0 141 -113 141q-56 0 -84 -33.5t-28 -107.5q0 -60 24.5 -113t63 -95.5 t85.5 -85t94 -89t85.5 -98.5t63 -124t24.5 -155q0 -173 -86 -266.5t-250 -93.5t-250 93.5t-86 266.5zM98 1737h193l90 -115l92 115h193l-183 -228h-202z" />
<glyph unicode="&#x162;" horiz-adv-x="729" d="M16 1229v205h697v-205h-236v-1229h-63v-80q60 0 94.5 -31.5t34.5 -85.5q0 -87 -52.5 -127.5t-134.5 -40.5q-74 0 -125 37.5t-51 104.5v20h131v-20q0 -37 43 -37q54 0 54 53q0 57 -74 57h-23v150h-59v1229h-236z" />
<glyph unicode="&#x163;" horiz-adv-x="729" d="M16 1229v205h697v-205h-236v-1229h-63v-80q60 0 94.5 -31.5t34.5 -85.5q0 -87 -52.5 -127.5t-134.5 -40.5q-74 0 -125 37.5t-51 104.5v20h131v-20q0 -37 43 -37q54 0 54 53q0 57 -74 57h-23v150h-59v1229h-236z" />
<glyph unicode="&#x164;" horiz-adv-x="729" d="M16 1229v205h697v-205h-236v-1229h-225v1229h-236zM80 1737h192l90 -115l93 115h192l-182 -228h-203z" />
<glyph unicode="&#x165;" horiz-adv-x="729" d="M16 1229v205h697v-205h-236v-1229h-225v1229h-236zM80 1737h192l90 -115l93 115h192l-182 -228h-203z" />
<glyph unicode="&#x166;" horiz-adv-x="729" d="M16 1229v205h697v-205h-236v-232h135v-168h-135v-829h-225v829h-135v168h135v232h-236z" />
<glyph unicode="&#x167;" horiz-adv-x="729" d="M16 1229v205h697v-205h-236v-232h135v-168h-135v-829h-225v829h-135v168h135v232h-236z" />
<glyph unicode="&#x168;" horiz-adv-x="815" d="M72 342v1092h225v-1106q0 -140 117 -140q116 0 116 140v1106h213v-1092q0 -173 -85.5 -266.5t-249.5 -93.5t-250 93.5t-86 266.5zM133 1577q52 139 174 139q46 0 102 -25.5t83 -25.5q31 0 51 11.5t37 47.5l108 -75q-52 -140 -174 -140q-46 0 -101.5 26t-82.5 26 q-31 0 -50.5 -12t-37.5 -48z" />
<glyph unicode="&#x169;" horiz-adv-x="815" d="M72 342v1092h225v-1106q0 -140 117 -140q116 0 116 140v1106h213v-1092q0 -173 -85.5 -266.5t-249.5 -93.5t-250 93.5t-86 266.5zM133 1577q52 139 174 139q46 0 102 -25.5t83 -25.5q31 0 51 11.5t37 47.5l108 -75q-52 -140 -174 -140q-46 0 -101.5 26t-82.5 26 q-31 0 -50.5 -12t-37.5 -48z" />
<glyph unicode="&#x16a;" horiz-adv-x="815" d="M72 342v1092h225v-1106q0 -140 117 -140q116 0 116 140v1106h213v-1092q0 -173 -85.5 -266.5t-249.5 -93.5t-250 93.5t-86 266.5zM174 1518v159h471v-159h-471z" />
<glyph unicode="&#x16b;" horiz-adv-x="815" d="M72 342v1092h225v-1106q0 -140 117 -140q116 0 116 140v1106h213v-1092q0 -173 -85.5 -266.5t-249.5 -93.5t-250 93.5t-86 266.5zM174 1518v159h471v-159h-471z" />
<glyph unicode="&#x16c;" horiz-adv-x="815" d="M72 342v1092h225v-1106q0 -140 117 -140q116 0 116 140v1106h213v-1092q0 -173 -85.5 -266.5t-249.5 -93.5t-250 93.5t-86 266.5zM180 1737h133q4 -56 26.5 -76.5t68.5 -20.5q47 0 70.5 20.5t27.5 76.5h133q0 -110 -59 -173t-172 -63q-112 0 -169 62.5t-59 173.5z" />
<glyph unicode="&#x16d;" horiz-adv-x="815" d="M72 342v1092h225v-1106q0 -140 117 -140q116 0 116 140v1106h213v-1092q0 -173 -85.5 -266.5t-249.5 -93.5t-250 93.5t-86 266.5zM180 1737h133q4 -56 26.5 -76.5t68.5 -20.5q47 0 70.5 20.5t27.5 76.5h133q0 -110 -59 -173t-172 -63q-112 0 -169 62.5t-59 173.5z" />
<glyph unicode="&#x16e;" horiz-adv-x="815" d="M72 342v1092h225v-1106q0 -140 117 -140q116 0 116 140v1106h213v-1092q0 -173 -85.5 -266.5t-249.5 -93.5t-250 93.5t-86 266.5zM246 1667q0 69 47.5 116.5t116.5 47.5t116 -47.5t47 -116.5t-47 -116.5t-116 -47.5t-116.5 47.5t-47.5 116.5zM348 1667q0 -26 18 -43.5 t44 -17.5t43.5 17.5t17.5 43.5t-17.5 44t-43.5 18t-44 -18t-18 -44z" />
<glyph unicode="&#x16f;" horiz-adv-x="815" d="M72 342v1092h225v-1106q0 -140 117 -140q116 0 116 140v1106h213v-1092q0 -173 -85.5 -266.5t-249.5 -93.5t-250 93.5t-86 266.5zM246 1667q0 69 47.5 116.5t116.5 47.5t116 -47.5t47 -116.5t-47 -116.5t-116 -47.5t-116.5 47.5t-47.5 116.5zM348 1667q0 -26 18 -43.5 t44 -17.5t43.5 17.5t17.5 43.5t-17.5 44t-43.5 18t-44 -18t-18 -44z" />
<glyph unicode="&#x170;" horiz-adv-x="815" d="M72 342v1092h225v-1106q0 -140 117 -140q116 0 116 140v1106h213v-1092q0 -173 -85.5 -266.5t-249.5 -93.5t-250 93.5t-86 266.5zM172 1509l102 228h205l-170 -228h-137zM440 1509l101 228h207l-173 -228h-135z" />
<glyph unicode="&#x171;" horiz-adv-x="815" d="M72 342v1092h225v-1106q0 -140 117 -140q116 0 116 140v1106h213v-1092q0 -173 -85.5 -266.5t-249.5 -93.5t-250 93.5t-86 266.5zM172 1509l102 228h205l-170 -228h-137zM440 1509l101 228h207l-173 -228h-135z" />
<glyph unicode="&#x172;" horiz-adv-x="815" d="M72 342v1092h225v-1106q0 -140 117 -140q116 0 116 140v1106h213v-1092q0 -107 -26.5 -187t-102.5 -139q-69 -54 -69 -135q0 -28 20.5 -42.5t50.5 -14.5q28 0 74 12v-115q-57 -22 -139 -22q-83 0 -130.5 32.5t-47.5 94.5q0 94 119 164q-36 -8 -84 -8q-164 0 -250 93.5 t-86 266.5z" />
<glyph unicode="&#x173;" horiz-adv-x="815" d="M72 342v1092h225v-1106q0 -140 117 -140q116 0 116 140v1106h213v-1092q0 -107 -26.5 -187t-102.5 -139q-69 -54 -69 -135q0 -28 20.5 -42.5t50.5 -14.5q28 0 74 12v-115q-57 -22 -139 -22q-83 0 -130.5 32.5t-47.5 94.5q0 94 119 164q-36 -8 -84 -8q-164 0 -250 93.5 t-86 266.5z" />
<glyph unicode="&#x174;" horiz-adv-x="1153" d="M31 1434h219l121 -1131l108 1131h217l113 -1139l117 1139h196l-159 -1434h-299l-82 764l-82 -764h-310zM293 1509l182 228h203l182 -228h-192l-93 113l-90 -113h-192z" />
<glyph unicode="&#x175;" horiz-adv-x="1153" d="M31 1434h219l121 -1131l108 1131h217l113 -1139l117 1139h196l-159 -1434h-299l-82 764l-82 -764h-310zM293 1509l182 228h203l182 -228h-192l-93 113l-90 -113h-192z" />
<glyph unicode="&#x176;" d="M8 1434h236l172 -654l172 654h215l-285 -959v-475h-225v475zM131 1509l182 228h203l182 -228h-192l-92 113l-90 -113h-193z" />
<glyph unicode="&#x177;" d="M8 1434h236l172 -654l172 654h215l-285 -959v-475h-225v475zM131 1509l182 228h203l182 -228h-192l-92 113l-90 -113h-193z" />
<glyph unicode="&#x178;" d="M8 1434h236l172 -654l172 654h215l-285 -959v-475h-225v475zM160 1509v197h196v-197h-196zM471 1509v197h197v-197h-197z" />
<glyph unicode="&#x179;" horiz-adv-x="757" d="M47 0v201l428 1028h-407v205h639v-201l-428 -1028h428v-205h-660zM262 1509l139 228h222l-209 -228h-152z" />
<glyph unicode="&#x17a;" horiz-adv-x="757" d="M47 0v201l428 1028h-407v205h639v-201l-428 -1028h428v-205h-660zM262 1509l139 228h222l-209 -228h-152z" />
<glyph unicode="&#x17b;" horiz-adv-x="757" d="M47 0v201l428 1028h-407v205h639v-201l-428 -1028h428v-205h-660zM283 1509v197h196v-197h-196z" />
<glyph unicode="&#x17c;" horiz-adv-x="757" d="M47 0v201l428 1028h-407v205h639v-201l-428 -1028h428v-205h-660zM283 1509v197h196v-197h-196z" />
<glyph unicode="&#x17d;" horiz-adv-x="757" d="M47 0v201l428 1028h-407v205h639v-201l-428 -1028h428v-205h-660zM98 1737h193l90 -115l92 115h193l-183 -228h-202z" />
<glyph unicode="&#x17e;" horiz-adv-x="757" d="M47 0v201l428 1028h-407v205h639v-201l-428 -1028h428v-205h-660zM98 1737h193l90 -115l92 115h193l-183 -228h-202z" />
<glyph unicode="&#x1fc;" horiz-adv-x="1187" d="M8 0l383 1434h739v-205h-389v-400h310v-204h-310v-420h389v-205h-614v260h-227l-66 -260h-215zM340 455h176v690zM475 1509l139 228h222l-209 -228h-152z" />
<glyph unicode="&#x1fd;" horiz-adv-x="1187" d="M8 0l383 1434h739v-205h-389v-400h310v-204h-310v-420h389v-205h-614v260h-227l-66 -260h-215zM340 455h176v690zM475 1509l139 228h222l-209 -228h-152z" />
<glyph unicode="&#x1fe;" d="M63 344v746q0 172 89 266t254 94q124 0 204 -53l41 112l76 -26l-53 -146q74 -89 74 -247v-746q0 -172 -88.5 -266t-253.5 -94q-128 0 -205 51l-41 -111l-76 27l51 143q-72 93 -72 250zM287 1509l139 228h221l-209 -228h-151zM289 514l229 633q-14 98 -112 98 q-117 0 -117 -141v-590zM291 287q17 -99 115 -99q116 0 116 142v590z" />
<glyph unicode="&#x1ff;" d="M63 344v746q0 172 89 266t254 94q124 0 204 -53l41 112l76 -26l-53 -146q74 -89 74 -247v-746q0 -172 -88.5 -266t-253.5 -94q-128 0 -205 51l-41 -111l-76 27l51 143q-72 93 -72 250zM287 1509l139 228h221l-209 -228h-151zM289 514l229 633q-14 98 -112 98 q-117 0 -117 -141v-590zM291 287q17 -99 115 -99q116 0 116 142v590z" />
<glyph unicode="&#x218;" horiz-adv-x="765" d="M47 344v88h213v-102q0 -140 117 -140t117 140q0 60 -24.5 113t-63 95.5t-85.5 85t-94.5 89t-86 98.5t-63 124t-24.5 155q0 173 84.5 266.5t247.5 93.5t247.5 -93.5t84.5 -266.5v-46h-213v60q0 141 -113 141q-56 0 -84 -33.5t-28 -107.5q0 -60 24.5 -113t63 -95.5 t85.5 -85t94 -89t85.5 -98.5t63 -124t24.5 -155q0 -173 -86 -266.5t-250 -93.5t-250 93.5t-86 266.5zM283 -68h188v-168l-88 -131h-80l53 111h-73v188z" />
<glyph unicode="&#x219;" horiz-adv-x="765" d="M47 344v88h213v-102q0 -140 117 -140t117 140q0 60 -24.5 113t-63 95.5t-85.5 85t-94.5 89t-86 98.5t-63 124t-24.5 155q0 173 84.5 266.5t247.5 93.5t247.5 -93.5t84.5 -266.5v-46h-213v60q0 141 -113 141q-56 0 -84 -33.5t-28 -107.5q0 -60 24.5 -113t63 -95.5 t85.5 -85t94 -89t85.5 -98.5t63 -124t24.5 -155q0 -173 -86 -266.5t-250 -93.5t-250 93.5t-86 266.5zM283 -68h188v-168l-88 -131h-80l53 111h-73v188z" />
<glyph unicode="&#x21a;" horiz-adv-x="729" d="M16 1229v205h697v-205h-236v-1229h-225v1229h-236zM270 -68h189v-168l-88 -131h-80l53 111h-74v188z" />
<glyph unicode="&#x21b;" horiz-adv-x="729" d="M16 1229v205h697v-205h-236v-1229h-225v1229h-236zM270 -68h189v-168l-88 -131h-80l53 111h-74v188z" />
<glyph unicode="&#x237;" horiz-adv-x="524" d="M20 0v205q25 -2 78 -2q61 0 95 30t34 107v1094h226v-1078q0 -360 -324 -360q-72 0 -109 4z" />
<glyph unicode="&#x2bc;" horiz-adv-x="380" d="M82 1217v217h217v-195l-98 -227h-92l59 205h-86z" />
<glyph unicode="&#x2c6;" horiz-adv-x="512" d="M-27 1509l183 228h202l183 -228h-193l-92 113l-90 -113h-193z" />
<glyph unicode="&#x2c7;" horiz-adv-x="512" d="M-27 1737h193l90 -115l92 115h193l-183 -228h-202z" />
<glyph unicode="&#x2d8;" horiz-adv-x="512" d="M27 1737h133q4 -56 26.5 -76.5t67.5 -20.5q47 0 70.5 20.5t27.5 76.5h133q0 -110 -59 -173t-172 -63q-112 0 -168.5 62.5t-58.5 173.5z" />
<glyph unicode="&#x2d9;" horiz-adv-x="512" d="M158 1509v197h196v-197h-196z" />
<glyph unicode="&#x2da;" horiz-adv-x="512" d="M92 1667q0 69 47.5 116.5t116.5 47.5t116.5 -47.5t47.5 -116.5t-47.5 -116.5t-116.5 -47.5t-116.5 47.5t-47.5 116.5zM195 1667q0 -26 17.5 -43.5t43.5 -17.5t43.5 17.5t17.5 43.5t-17.5 44t-43.5 18t-43.5 -18t-17.5 -44z" />
<glyph unicode="&#x2db;" horiz-adv-x="512" d="M96 -174q0 108 156 182h88q-72 -55 -72 -127q0 -28 21 -42.5t51 -14.5q28 0 74 12v-115q-57 -22 -140 -22t-130.5 32.5t-47.5 94.5z" />
<glyph unicode="&#x2dc;" horiz-adv-x="512" d="M-20 1577q52 139 174 139q46 0 101.5 -25.5t82.5 -25.5q31 0 51 11.5t37 47.5l109 -75q-53 -140 -175 -140q-46 0 -101.5 26t-82.5 26q-31 0 -50.5 -12t-37.5 -48z" />
<glyph unicode="&#x2dd;" horiz-adv-x="512" d="M-51 1509l102 228h205l-170 -228h-137zM217 1509l100 228h207l-172 -228h-135z" />
<glyph unicode="&#x1e02;" horiz-adv-x="831" d="M82 0v1434h340q173 0 253.5 -81t80.5 -249v-51q0 -220 -146 -289q168 -65 168 -307v-117q0 -166 -87 -253t-255 -87h-354zM283 1509v197h196v-197h-196zM307 205h129q59 0 88 32t29 109v125q0 98 -33.5 136t-111.5 38h-101v-440zM307 850h88q67 0 101 34.5t34 116.5v80 q0 77 -27 112.5t-87 35.5h-109v-379z" />
<glyph unicode="&#x1e03;" horiz-adv-x="831" d="M82 0v1434h340q173 0 253.5 -81t80.5 -249v-51q0 -220 -146 -289q168 -65 168 -307v-117q0 -166 -87 -253t-255 -87h-354zM283 1509v197h196v-197h-196zM307 205h129q59 0 88 32t29 109v125q0 98 -33.5 136t-111.5 38h-101v-440zM307 850h88q67 0 101 34.5t34 116.5v80 q0 77 -27 112.5t-87 35.5h-109v-379z" />
<glyph unicode="&#x1e0a;" horiz-adv-x="835" d="M82 0v1434h356q167 0 251.5 -91t84.5 -264v-725q0 -173 -84.5 -263.5t-251.5 -90.5h-356zM299 1509v197h197v-197h-197zM307 205h127q56 0 85.5 32.5t29.5 106.5v746q0 74 -29.5 106.5t-85.5 32.5h-127v-1024z" />
<glyph unicode="&#x1e0b;" horiz-adv-x="835" d="M82 0v1434h356q167 0 251.5 -91t84.5 -264v-725q0 -173 -84.5 -263.5t-251.5 -90.5h-356zM299 1509v197h197v-197h-197zM307 205h127q56 0 85.5 32.5t29.5 106.5v746q0 74 -29.5 106.5t-85.5 32.5h-127v-1024z" />
<glyph unicode="&#x1e1e;" horiz-adv-x="704" d="M82 0v1434h596v-205h-371v-432h291v-205h-291v-592h-225zM274 1509v197h197v-197h-197z" />
<glyph unicode="&#x1e1f;" horiz-adv-x="704" d="M82 0v1434h596v-205h-371v-432h291v-205h-291v-592h-225zM274 1509v197h197v-197h-197z" />
<glyph unicode="&#x1e40;" horiz-adv-x="1107" d="M80 0v1434h313l166 -1018l154 1018h313v-1434h-213v1028l-156 -1028h-213l-168 1014v-1014h-196zM455 1509v197h196v-197h-196z" />
<glyph unicode="&#x1e41;" horiz-adv-x="1107" d="M80 0v1434h313l166 -1018l154 1018h313v-1434h-213v1028l-156 -1028h-213l-168 1014v-1014h-196zM455 1509v197h196v-197h-196z" />
<glyph unicode="&#x1e56;" horiz-adv-x="772" d="M82 0v1434h332q167 0 251.5 -91t84.5 -264v-186q0 -173 -84.5 -263.5t-251.5 -90.5h-107v-539h-225zM291 1509v197h196v-197h-196zM307 743h107q56 0 83 31t27 105v215q0 74 -27 104.5t-83 30.5h-107v-486z" />
<glyph unicode="&#x1e57;" horiz-adv-x="772" d="M82 0v1434h332q167 0 251.5 -91t84.5 -264v-186q0 -173 -84.5 -263.5t-251.5 -90.5h-107v-539h-225zM291 1509v197h196v-197h-196zM307 743h107q56 0 83 31t27 105v215q0 74 -27 104.5t-83 30.5h-107v-486z" />
<glyph unicode="&#x1e60;" horiz-adv-x="765" d="M47 344v88h213v-102q0 -140 117 -140t117 140q0 60 -24.5 113t-63 95.5t-85.5 85t-94.5 89t-86 98.5t-63 124t-24.5 155q0 173 84.5 266.5t247.5 93.5t247.5 -93.5t84.5 -266.5v-46h-213v60q0 141 -113 141q-56 0 -84 -33.5t-28 -107.5q0 -60 24.5 -113t63 -95.5 t85.5 -85t94 -89t85.5 -98.5t63 -124t24.5 -155q0 -173 -86 -266.5t-250 -93.5t-250 93.5t-86 266.5zM285 1509v197h196v-197h-196z" />
<glyph unicode="&#x1e61;" horiz-adv-x="765" d="M47 344v88h213v-102q0 -140 117 -140t117 140q0 60 -24.5 113t-63 95.5t-85.5 85t-94.5 89t-86 98.5t-63 124t-24.5 155q0 173 84.5 266.5t247.5 93.5t247.5 -93.5t84.5 -266.5v-46h-213v60q0 141 -113 141q-56 0 -84 -33.5t-28 -107.5q0 -60 24.5 -113t63 -95.5 t85.5 -85t94 -89t85.5 -98.5t63 -124t24.5 -155q0 -173 -86 -266.5t-250 -93.5t-250 93.5t-86 266.5zM285 1509v197h196v-197h-196z" />
<glyph unicode="&#x1e6a;" horiz-adv-x="729" d="M16 1229v205h697v-205h-236v-1229h-225v1229h-236zM266 1509v197h197v-197h-197z" />
<glyph unicode="&#x1e6b;" horiz-adv-x="729" d="M16 1229v205h697v-205h-236v-1229h-225v1229h-236zM266 1509v197h197v-197h-197z" />
<glyph unicode="&#x1e80;" horiz-adv-x="1153" d="M31 1434h219l121 -1131l108 1131h217l113 -1139l117 1139h196l-159 -1434h-299l-82 764l-82 -764h-310zM330 1737h231l139 -228h-161z" />
<glyph unicode="&#x1e81;" horiz-adv-x="1153" d="M31 1434h219l121 -1131l108 1131h217l113 -1139l117 1139h196l-159 -1434h-299l-82 764l-82 -764h-310zM330 1737h231l139 -228h-161z" />
<glyph unicode="&#x1e82;" horiz-adv-x="1153" d="M31 1434h219l121 -1131l108 1131h217l113 -1139l117 1139h196l-159 -1434h-299l-82 764l-82 -764h-310zM457 1509l139 228h221l-209 -228h-151z" />
<glyph unicode="&#x1e83;" horiz-adv-x="1153" d="M31 1434h219l121 -1131l108 1131h217l113 -1139l117 1139h196l-159 -1434h-299l-82 764l-82 -764h-310zM457 1509l139 228h221l-209 -228h-151z" />
<glyph unicode="&#x1e84;" horiz-adv-x="1153" d="M31 1434h219l121 -1131l108 1131h217l113 -1139l117 1139h196l-159 -1434h-299l-82 764l-82 -764h-310zM322 1509v197h196v-197h-196zM633 1509v197h196v-197h-196z" />
<glyph unicode="&#x1e85;" horiz-adv-x="1153" d="M31 1434h219l121 -1131l108 1131h217l113 -1139l117 1139h196l-159 -1434h-299l-82 764l-82 -764h-310zM322 1509v197h196v-197h-196zM633 1509v197h196v-197h-196z" />
<glyph unicode="&#x1ef2;" d="M8 1434h236l172 -654l172 654h215l-285 -959v-475h-225v475zM168 1737h231l140 -228h-162z" />
<glyph unicode="&#x1ef3;" d="M8 1434h236l172 -654l172 654h215l-285 -959v-475h-225v475zM168 1737h231l140 -228h-162z" />
<glyph unicode="&#x2000;" horiz-adv-x="915" />
<glyph unicode="&#x2001;" horiz-adv-x="1831" />
<glyph unicode="&#x2002;" horiz-adv-x="915" />
<glyph unicode="&#x2003;" horiz-adv-x="1831" />
<glyph unicode="&#x2004;" horiz-adv-x="610" />
<glyph unicode="&#x2005;" horiz-adv-x="457" />
<glyph unicode="&#x2006;" horiz-adv-x="305" />
<glyph unicode="&#x2007;" horiz-adv-x="305" />
<glyph unicode="&#x2008;" horiz-adv-x="228" />
<glyph unicode="&#x2009;" horiz-adv-x="366" />
<glyph unicode="&#x200a;" horiz-adv-x="101" />
<glyph unicode="&#x2010;" horiz-adv-x="552" d="M72 614v205h409v-205h-409z" />
<glyph unicode="&#x2011;" horiz-adv-x="552" d="M72 614v205h409v-205h-409z" />
<glyph unicode="&#x2012;" d="M0 625v184h811v-184h-811z" />
<glyph unicode="&#x2013;" horiz-adv-x="1024" d="M0 625v184h1024v-184h-1024z" />
<glyph unicode="&#x2014;" horiz-adv-x="2048" d="M0 625v184h2048v-184h-2048z" />
<glyph unicode="&#x2018;" horiz-adv-x="380" d="M82 1012v194l98 228h92l-59 -205h86v-217h-217z" />
<glyph unicode="&#x2019;" horiz-adv-x="380" d="M82 1217v217h217v-195l-98 -227h-92l59 205h-86z" />
<glyph unicode="&#x201a;" horiz-adv-x="380" d="M82 0v217h217v-194l-98 -228h-92l59 205h-86z" />
<glyph unicode="&#x201c;" horiz-adv-x="679" d="M82 1012v194l98 228h92l-59 -205h86v-217h-217zM381 1012v194l98 228h92l-59 -205h86v-217h-217z" />
<glyph unicode="&#x201d;" horiz-adv-x="679" d="M82 1217v217h217v-195l-98 -227h-92l59 205h-86zM381 1217v217h217v-195l-98 -227h-92l59 205h-86z" />
<glyph unicode="&#x201e;" horiz-adv-x="679" d="M82 0v217h217v-194l-98 -228h-92l59 205h-86zM381 0v217h217v-194l-98 -228h-92l59 205h-86z" />
<glyph unicode="&#x2020;" d="M51 901v174h262v359h185v-359h262v-174h-262v-1034h-185v1034h-262z" />
<glyph unicode="&#x2021;" d="M51 225v174h262v502h-262v174h262v359h185v-359h262v-174h-262v-502h262v-174h-262v-358h-185v358h-262z" />
<glyph unicode="&#x2022;" d="M121 717q0 118 83 201t202 83q118 0 201 -82.5t83 -201.5t-83 -202t-201 -83t-201.5 83t-83.5 202z" />
<glyph unicode="&#x2026;" horiz-adv-x="978" d="M82 0v217h217v-217h-217zM381 0v217h217v-217h-217zM680 0v217h217v-217h-217z" />
<glyph unicode="&#x202f;" horiz-adv-x="366" />
<glyph unicode="&#x2030;" horiz-adv-x="1808" d="M70 743v471q0 111 56 170.5t161 59.5t161 -59.5t56 -170.5v-471q0 -111 -56 -170t-161 -59t-161 59t-56 170zM213 733q0 -90 74 -90q73 0 73 90v492q0 90 -73 90q-74 0 -74 -90v-492zM287 0l565 1434h133l-565 -1434h-133zM780 219v471q0 111 56 170.5t161 59.5 t161 -59.5t56 -170.5v-471q0 -111 -56 -170t-161 -59t-161 59t-56 170zM924 209q0 -90 73 -90q74 0 74 90v491q0 91 -74 91q-73 0 -73 -91v-491zM1305 219v471q0 111 56 170.5t161 59.5t161 -59.5t56 -170.5v-471q0 -111 -56 -170t-161 -59t-161 59t-56 170zM1448 209 q0 -90 74 -90q73 0 73 90v491q0 91 -73 91q-74 0 -74 -91v-491z" />
<glyph unicode="&#x2039;" horiz-adv-x="401" d="M33 719l123 545h213l-121 -545l121 -578h-213z" />
<glyph unicode="&#x203a;" horiz-adv-x="401" d="M33 141l121 578l-121 545h213l123 -545l-123 -578h-213z" />
<glyph unicode="&#x2044;" horiz-adv-x="137" d="M-281 0l566 1434h133l-565 -1434h-134z" />
<glyph unicode="&#x205f;" horiz-adv-x="457" />
<glyph unicode="&#x2070;" horiz-adv-x="573" d="M70 938v471q0 111 56 170t161 59t161 -59t56 -170v-471q0 -111 -56 -170t-161 -59t-161 59t-56 170zM213 928q0 -90 74 -90q73 0 73 90v491q0 90 -73 90q-74 0 -74 -90v-491z" />
<glyph unicode="&#x2074;" horiz-adv-x="573" d="M49 883v131l260 614h156v-614h67v-131h-67v-164h-141v164h-275zM178 1014h146v336z" />
<glyph unicode="&#x2075;" horiz-adv-x="573" d="M76 934v76h135v-84q0 -88 74 -88q73 0 73 88v198q0 90 -73 90q-74 0 -74 -90v-26h-135l26 528h377v-131h-250l-10 -217q40 68 125 68q77 0 117.5 -54t40.5 -155v-203q0 -110 -54 -169.5t-159 -59.5t-159 59.5t-54 169.5z" />
<glyph unicode="&#x2076;" horiz-adv-x="573" d="M74 938v465q0 235 219 235q103 0 158 -59.5t55 -169.5v-23h-135v33q0 90 -74 90q-41 0 -60.5 -24.5t-19.5 -87.5v-166q39 80 133 80q78 0 118 -53.5t40 -153.5v-166q0 -109 -56 -169t-161 -60t-161 60t-56 169zM217 928q0 -88 74 -88t74 88v164q0 90 -74 90t-74 -90v-164 z" />
<glyph unicode="&#x2077;" horiz-adv-x="573" d="M72 1499v129h430v-125l-211 -784h-144l209 780h-284z" />
<glyph unicode="&#x2078;" horiz-adv-x="573" d="M63 938v70q0 139 89 190q-89 50 -89 182v29q0 109 58.5 169t165.5 60t165 -60t58 -169v-29q0 -133 -88 -182q88 -50 88 -190v-70q0 -109 -58 -169t-165 -60t-165.5 60t-58.5 169zM207 940q0 -102 80 -102t80 102v86q0 102 -80 102t-80 -102v-86zM207 1354q0 -97 80 -97 t80 97v51q0 104 -80 104t-80 -104v-51z" />
<glyph unicode="&#x2079;" horiz-adv-x="573" d="M66 1243v166q0 109 56 169t161 60t161 -60t56 -169v-465q0 -235 -219 -235q-103 0 -158 59.5t-55 169.5v23h135v-33q0 -90 73 -90q41 0 60.5 24.5t19.5 87.5v166q-39 -80 -133 -80q-77 0 -117 53t-40 154zM209 1255q0 -90 74 -90q73 0 73 90v164q0 88 -73 88 q-74 0 -74 -88v-164z" />
<glyph unicode="&#x2080;" horiz-adv-x="573" d="M70 86v471q0 111 56 170t161 59t161 -59t56 -170v-471q0 -111 -56 -170t-161 -59t-161 59t-56 170zM213 76q0 -90 74 -90q73 0 73 90v491q0 90 -73 90q-74 0 -74 -90v-491z" />
<glyph unicode="&#x2081;" horiz-adv-x="409" d="M51 561v101q40 0 67.5 8t45.5 27t26.5 34.5t20.5 44.5h94v-909h-143v694h-111z" />
<glyph unicode="&#x2082;" horiz-adv-x="573" d="M86 -23q0 54 15.5 101.5t40.5 84t55 71t60.5 68.5t55.5 70.5t40.5 84t15.5 100.5q0 57 -19 79.5t-55 22.5q-74 0 -74 -90v-96h-135v88q0 110 54 168.5t159 58.5t159 -58.5t54 -168.5q0 -83 -32 -157t-76 -126t-87.5 -98.5t-69.5 -93t-18 -90.5h271v-129h-414v110z" />
<glyph unicode="&#x2083;" horiz-adv-x="573" d="M74 86v74h135v-84q0 -90 74 -90q36 0 54.5 23t18.5 81v70q0 63 -21.5 88.5t-70.5 25.5h-49v129h55q86 0 86 99v51q0 58 -18.5 81t-54.5 23q-74 0 -74 -90v-57h-135v47q0 111 54 170t159 59t159 -59t54 -170v-22q0 -145 -101 -187q101 -43 101 -190v-72q0 -111 -54 -170 t-159 -59t-159 59t-54 170z" />
<glyph unicode="&#x2084;" horiz-adv-x="573" d="M49 31v131l260 614h156v-614h67v-131h-67v-164h-141v164h-275zM178 162h146v336z" />
<glyph unicode="&#x2085;" horiz-adv-x="573" d="M76 82v76h135v-84q0 -88 74 -88q73 0 73 88v198q0 90 -73 90q-74 0 -74 -90v-26h-135l26 528h377v-131h-250l-10 -217q40 68 125 68q77 0 117.5 -54t40.5 -155v-203q0 -110 -54 -169.5t-159 -59.5t-159 59.5t-54 169.5z" />
<glyph unicode="&#x2086;" horiz-adv-x="573" d="M74 86v465q0 235 219 235q103 0 158 -59.5t55 -169.5v-22h-135v32q0 90 -74 90q-41 0 -60.5 -24.5t-19.5 -87.5v-166q39 80 133 80q78 0 118 -53.5t40 -153.5v-166q0 -109 -56 -169t-161 -60t-161 60t-56 169zM217 76q0 -88 74 -88t74 88v164q0 90 -74 90t-74 -90v-164z " />
<glyph unicode="&#x2087;" horiz-adv-x="573" d="M72 647v129h430v-125l-211 -784h-144l209 780h-284z" />
<glyph unicode="&#x2088;" horiz-adv-x="573" d="M63 86v70q0 139 89 190q-89 50 -89 182v29q0 109 58.5 169t165.5 60t165 -60t58 -169v-29q0 -133 -88 -182q88 -50 88 -190v-70q0 -109 -58 -169t-165 -60t-165.5 60t-58.5 169zM207 88q0 -102 80 -102t80 102v86q0 102 -80 102t-80 -102v-86zM207 502q0 -96 80 -96 t80 96v51q0 104 -80 104t-80 -104v-51z" />
<glyph unicode="&#x2089;" horiz-adv-x="573" d="M66 391v166q0 109 56 169t161 60t161 -60t56 -169v-465q0 -235 -219 -235q-103 0 -158 59.5t-55 169.5v23h135v-33q0 -90 73 -90q41 0 60.5 24.5t19.5 87.5v166q-39 -80 -133 -80q-77 0 -117 53t-40 154zM209 403q0 -90 74 -90q73 0 73 90v164q0 88 -73 88q-74 0 -74 -88 v-164z" />
<glyph unicode="&#x20ac;" d="M39 553v113h57v112h-57v113h57v199q0 174 83 267t247 93t247 -93t83 -267v-105h-213v119q0 75 -27.5 108t-83.5 33q-55 0 -82.5 -33t-27.5 -108v-213h315v-113h-315v-112h315v-113h-315v-223q0 -75 27 -107.5t83 -32.5t83.5 33t27.5 107v129h213v-115q0 -174 -83 -267 t-247 -93t-247 93t-83 267v209h-57z" />
<glyph unicode="&#x20b9;" d="M53 641v174h189q88 0 130 30.5t42 104.5h-361v174h361q0 74 -42 105t-130 31h-189v174h705v-174h-172q38 -55 51 -136h121v-174h-121q-12 -144 -110 -226.5t-234 -82.5l477 -641h-242z" />
<glyph unicode="&#x2117;" horiz-adv-x="1507" d="M41 717q0 157 54.5 294t149.5 233t227 151t282 55t282 -55t226.5 -151.5t149 -233t54.5 -293.5t-54.5 -293.5t-149 -233t-226.5 -151.5t-282 -55t-282 55t-227 151t-149.5 233t-54.5 294zM188 717q0 -168 73.5 -303.5t203 -211t289.5 -75.5t289 75.5t202.5 211 t73.5 303.5t-73.5 303.5t-202.5 211t-289 75.5t-289.5 -75.5t-203 -211t-73.5 -303.5zM563 260v877h238q119 0 175 -56.5t56 -173.5v-114q0 -117 -56 -173.5t-175 -56.5h-82v-303h-156zM719 707h74q44 0 64 25t20 79v78q0 54 -20 79t-64 25h-74v-286z" />
<glyph unicode="&#x2122;" horiz-adv-x="1200" d="M20 1303v131h443v-131h-150v-598h-143v598h-150zM549 705v729h199l106 -512l96 512h199v-729h-135v518l-96 -518h-136l-108 514v-514h-125z" />
<glyph unicode="&#x2153;" horiz-adv-x="1284" d="M133 1219v100q40 0 67.5 8.5t45.5 27.5t26.5 34.5t20.5 44.5h94v-910h-143v695h-111zM266 0l565 1434h134l-566 -1434h-133zM784 219v74h136v-84q0 -90 73 -90q37 0 55.5 23t18.5 81v70q0 63 -22 89t-70 26h-49v129h55q86 0 86 98v51q0 58 -19 81.5t-55 23.5 q-73 0 -73 -91v-57h-136v47q0 111 54 170.5t159 59.5t159 -59.5t54 -170.5v-22q0 -146 -100 -187q100 -43 100 -190v-72q0 -111 -54 -170t-159 -59t-159 59t-54 170z" />
<glyph unicode="&#x2154;" horiz-adv-x="1284" d="M86 522v111q0 54 15.5 101.5t40.5 84t55 70.5t60.5 68.5t55.5 70.5t40.5 83.5t15.5 100.5q0 57 -19 80t-55 23q-74 0 -74 -90v-97h-135v89q0 110 54 168.5t159 58.5t159 -58.5t54 -168.5q0 -83 -32 -157t-76 -126.5t-87.5 -99t-69.5 -93t-18 -90.5h271v-129h-414zM313 0 l566 1434h133l-566 -1434h-133zM784 219v74h136v-84q0 -90 73 -90q37 0 55.5 23t18.5 81v70q0 63 -22 89t-70 26h-49v129h55q86 0 86 98v51q0 58 -19 81.5t-55 23.5q-73 0 -73 -91v-57h-136v47q0 111 54 170.5t159 59.5t159 -59.5t54 -170.5v-22q0 -146 -100 -187 q100 -43 100 -190v-72q0 -111 -54 -170t-159 -59t-159 59t-54 170z" />
<glyph unicode="&#x215b;" horiz-adv-x="1284" d="M133 1219v100q40 0 67.5 8.5t45.5 27.5t26.5 34.5t20.5 44.5h94v-910h-143v695h-111zM266 0l565 1434h134l-566 -1434h-133zM774 219v70q0 140 88 190q-88 49 -88 183v28q0 109 58 169.5t165 60.5t165.5 -60.5t58.5 -169.5v-28q0 -134 -88 -183q88 -50 88 -190v-70 q0 -109 -58.5 -169t-165.5 -60t-165 60t-58 169zM918 221q0 -102 79 -102q80 0 80 102v86q0 103 -80 103q-79 0 -79 -103v-86zM918 635q0 -96 79 -96q80 0 80 96v51q0 105 -80 105q-79 0 -79 -105v-51z" />
<glyph unicode="&#x215c;" horiz-adv-x="1284" d="M74 743v74h135v-84q0 -90 74 -90q36 0 54.5 23.5t18.5 81.5v69q0 63 -22 89t-70 26h-49v129h55q86 0 86 98v51q0 58 -18.5 81.5t-54.5 23.5q-74 0 -74 -90v-58h-135v47q0 111 54 170.5t159 59.5t159 -59.5t54 -170.5v-22q0 -144 -101 -186q101 -43 101 -191v-72 q0 -111 -54 -170t-159 -59t-159 59t-54 170zM293 0l565 1434h133l-565 -1434h-133zM774 219v70q0 140 88 190q-88 49 -88 183v28q0 109 58 169.5t165 60.5t165.5 -60.5t58.5 -169.5v-28q0 -134 -88 -183q88 -50 88 -190v-70q0 -109 -58.5 -169t-165.5 -60t-165 60t-58 169z M918 221q0 -102 79 -102q80 0 80 102v86q0 103 -80 103q-79 0 -79 -103v-86zM918 635q0 -96 79 -96q80 0 80 96v51q0 105 -80 105q-79 0 -79 -105v-51z" />
<glyph unicode="&#x215d;" horiz-adv-x="1284" d="M76 739v76h135v-84q0 -88 74 -88q73 0 73 88v199q0 90 -73 90q-74 0 -74 -90v-27h-135l26 529h377v-132h-250l-10 -217q40 68 125 68q77 0 117.5 -54t40.5 -155v-203q0 -110 -54 -169.5t-159 -59.5t-159 59.5t-54 169.5zM293 0l565 1434h133l-565 -1434h-133zM774 219v70 q0 140 88 190q-88 49 -88 183v28q0 109 58 169.5t165 60.5t165.5 -60.5t58.5 -169.5v-28q0 -134 -88 -183q88 -50 88 -190v-70q0 -109 -58.5 -169t-165.5 -60t-165 60t-58 169zM918 221q0 -102 79 -102q80 0 80 102v86q0 103 -80 103q-79 0 -79 -103v-86zM918 635 q0 -96 79 -96q80 0 80 96v51q0 105 -80 105q-79 0 -79 -105v-51z" />
<glyph unicode="&#x215e;" horiz-adv-x="1284" d="M72 1305v129h430v-125l-211 -785h-144l209 781h-284zM231 0l566 1434h133l-565 -1434h-134zM774 219v70q0 140 88 190q-88 49 -88 183v28q0 109 58 169.5t165 60.5t165.5 -60.5t58.5 -169.5v-28q0 -134 -88 -183q88 -50 88 -190v-70q0 -109 -58.5 -169t-165.5 -60 t-165 60t-58 169zM918 221q0 -102 79 -102q80 0 80 102v86q0 103 -80 103q-79 0 -79 -103v-86zM918 635q0 -96 79 -96q80 0 80 96v51q0 105 -80 105q-79 0 -79 -105v-51z" />
<glyph unicode="&#x2212;" d="M51 637v160h709v-160h-709z" />
<glyph unicode="&#x221e;" horiz-adv-x="1501" d="M0 293v303q23 56 67 110.5t102 109t62 58.5q4 85 23 167.5t57 159t90 134.5t126 92.5t161 34.5q111 0 197.5 -32t142 -83t94.5 -128.5t59 -154t33 -173.5q46 -9 140 -97.5t147 -197.5v-303q-44 97 -140.5 229.5t-137.5 132.5q6 -87 6 -100q0 -88 -31 -262h-86 q33 219 33 407q0 103 -11 190.5t-40.5 175.5t-77 149.5t-126 100t-181.5 38.5q-88 0 -156.5 -37t-112 -97t-71.5 -143.5t-39 -170t-11 -183.5q0 -123 17.5 -239t42.5 -191h-96q-39 137 -39 377q-35 -19 -81 -88.5t-101.5 -173.5t-61.5 -115zM14 0l25 256h76q40 0 37 -43 l-19 -168q-3 -45 -43 -45h-76zM61 37h23q6 0 6 8l16 164q3 8 -6 8h-18zM156 0l30 256h43l-18 -170h27l18 170h47l-29 -256h-45l7 47h-27l-6 -47h-47zM303 0l23 213q3 43 45 43h35q39 0 36 -43l-22 -213h-47l8 47h-29l-6 -47h-43zM354 86h29l14 123q0 8 -6 8h-12 q-12 0 -12 -8zM356 756q0 79 10 147t35.5 132t65.5 109t104 72t146 27q389 0 389 -520q0 -147 -51 -430h-150q108 97 127 239q-2 -4 -11.5 -10t-14.5 -6q-7 0 -7 4q1 4 5 6q18 11 23.5 22t8.5 48q-9 -12 -30 -12q-2 0 -21.5 -9.5t-32.5 -9.5q-29 0 -82 7.5t-143 7.5 q-45 0 -107.5 -12.5t-78.5 -12.5q-9 0 -26 4t-23 4q-15 0 -36.5 6.5t-21.5 18.5q0 20 75.5 37.5t152.5 17.5q10 0 24.5 -1t24.5 -1t31 4t30 4q103 0 175 -11t85 -30q-2 32 -29 59t-61 27q-12 0 -12 15v49q0 67 -33 69q8 -13 8 -34q0 -36 -22 -65.5t-56 -29.5q-8 0 -20.5 4.5 t-13.5 4.5q-4 0 -16 -14.5t-30.5 -29t-39.5 -14.5q-19 0 -34.5 12.5t-26 25.5t-17.5 13q-6 0 -22 -4t-29 -4q-17 0 -30 16.5t-13 34.5q0 46 16 72q-15 -15 -32.5 -75t-51.5 -85q-14 -8 -22.5 -17.5t-12 -21.5t-4 -20t-0.5 -23q0 -8 11 -25.5t23 -30.5l11 -13q0 -8 -6 -8 q-15 0 -25 10q26 -137 99 -213h-113q-28 91 -50 217t-22 246zM414 811q0 -103 6 -160q8 12 44.5 45t41.5 64q10 76 78 84q23 10 47 10q10 0 17 17.5t19.5 50t32.5 57.5l-26 -8q-2 -48 -38 -86.5t-89 -38.5q-38 0 -64.5 19.5t-29.5 43.5q-6 -4 -31 -10q-8 -33 -8 -88z M428 926q76 39 84 80q-12 8 -12 14q0 8 6 8l4 -4q5 -3 13.5 -7.5t19.5 -9.5t28 -8.5t35 -3.5q47 0 101 35q-7 7 -7 12t5 5q1 0 11.5 -8.5t31 -17.5t45.5 -9q33 0 59 9t39 17.5t14 8.5q8 0 8 -5q0 -2 -3.5 -5.5t-7.5 -6.5l-5 -4q49 0 107 -22q-29 80 -96 121.5t-189 41.5 q-113 0 -189 -67.5t-102 -173.5zM446 0l27 256h76q40 0 37 -43l-13 -123q-3 -25 -20 -35l16 -55h-43l-14 47h-12l-6 -47h-48zM479 924q4 -24 23.5 -37t44.5 -13q30 0 62 23t32 49q0 13 -2 19h-18q-23 0 -37 2q-10 -29 -37 -29q-21 0 -31 10q-7 -7 -37 -24zM485 590 q0 -21 41 -21q49 0 110 13.5t91 13.5q39 0 117.5 -7t107.5 -7q9 0 19 3.5t16 8t6 6.5q0 10 -73.5 22.5t-135.5 12.5q-1 0 -15 -2t-32 -4t-28 -2q-9 0 -26 3t-24 3q-32 0 -74.5 -8.5t-71 -19t-28.5 -15.5zM502 86h18q10 0 10 8l11 115q0 8 -6 8h-19zM530 961q4 -7 15 -7 q14 0 20 19q-12 3 -22 8q0 -7 -13 -20zM541 596q0 12 80.5 18.5t138.5 6.5q49 0 119.5 -4.5t70.5 -12.5q0 -6 -6 -6q-71 10 -180 10q-129 0 -219 -18q-4 0 -4 6zM561 756q0 -11 6.5 -19.5t16.5 -9.5q23 0 37 13.5t18 13.5t13 -14t23 -28t30 -14q21 0 37 11t24.5 21.5 t13.5 10.5q6 0 20 -7t19 -7q21 0 37 22.5t16 49.5q0 21 -11.5 37t-33.5 16q-15 0 -30 -13.5t-23 -13.5q-14 0 -14 27v29q0 21 -9.5 57.5t-19.5 36.5q-20 0 -38.5 -80t-28.5 -80q-5 0 -19 6t-24 6q-27 0 -43.5 -21t-16.5 -50zM592 0l29 256h51l10 -123l39 123h53l-26 -256 h-43l16 168l-31 -98h-28l-11 98l-16 -168h-43zM625 537q0 20 129 20q63 0 63 -16q0 -6 -4 -6q-8 0 -20.5 4t-20.5 4q-22 0 -53 -1t-41 -1q-8 0 -24 -6.5t-21 -6.5q-8 0 -8 9zM754 983q13 -19 20.5 -49t11 -49t9.5 -19q14 4 30 4q39 0 64 -28q28 0 44.5 -21.5t20.5 -42 t4 -41.5q0 -6 16.5 -14.5t38 -27t31.5 -44.5q0 3 -6 162q-2 15 -5 45.5t-6 53.5t-7 40l-10 6q0 -44 -37 -66t-84 -22q-43 0 -76 25.5t-33 60.5q0 2 2 9t2 10q-23 5 -30 8zM774 0l23 213q1 21 15 32t34 11h31q20 0 31 -11t10 -32l-27 -213h-43l6 47h-27l-6 -47h-47zM801 948 q0 -22 30.5 -35.5t63.5 -13.5q30 0 60 18t30 44q0 16 -29 25t-59 9q-10 -43 -39 -43q-28 0 -33 27q-11 0 -17.5 -11.5t-6.5 -19.5zM829 86h27l12 123q0 8 -6 8h-10q-10 0 -10 -8zM840 983q0 -14 14 -14q18 0 18 20v6q-2 0 -32 -12zM969 217l4 39h100l-4 -39h-27l-22 -217 h-47l22 217h-26zM1075 90l17 166h47l-19 -162q0 -8 8 -8h11q10 0 10 8l16 162h43l-16 -166q-3 -39 -39 -43l-18 -47h-48l19 47q-34 3 -31 43zM1208 0l31 256h72q44 0 41 -43l-13 -123q-1 -21 -15 -32t-34 -11h-28l-7 -47h-47zM1264 86h18q10 0 10 8l11 115q3 8 -7 8h-18z M1356 0l26 256h101l-4 -39h-58l-10 -100h45l-4 -37h-45l-4 -43h57l-4 -37h-100z" />
<glyph unicode="&#x2248;" d="M16 510q70 104 126 144t118 40q37 0 80.5 -19.5t75.5 -43t70.5 -43t66.5 -19.5q34 0 59.5 23.5t75.5 93.5l107 -111q-69 -102 -124.5 -139t-119.5 -37q-37 0 -80.5 19.5t-75.5 43t-70.5 43t-66.5 19.5q-34 0 -60.5 -23.5t-74.5 -92.5zM16 850q70 104 126 144t118 40 q37 0 80.5 -19.5t75.5 -43t70.5 -43t66.5 -19.5q34 0 59.5 23.5t75.5 93.5l107 -111q-69 -102 -124.5 -139t-119.5 -37q-37 0 -80.5 19.5t-75.5 43t-70.5 43t-66.5 19.5q-34 0 -60.5 -23.5t-74.5 -92.5z" />
<glyph unicode="&#xe000;" horiz-adv-x="1433" d="M0 0v1434h1434v-1434h-1434z" />
<glyph horiz-adv-x="512" d="M162 -68h188v-168l-88 -131h-80l54 111h-74v188z" />
<glyph d="M63 344v746q0 172 89 266t254 94t253.5 -94t88.5 -266v-746q0 -172 -88.5 -266t-253.5 -94t-254 94t-89 266zM289 330q0 -142 117 -142q116 0 116 142v774q0 141 -116 141q-117 0 -117 -141v-774z" />
<glyph horiz-adv-x="512" d="M31 1094v159q50 0 89 10.5t63 25t43.5 41t29.5 48t23 56.5h151v-1434h-225v1094h-174z" />
<glyph horiz-adv-x="755" d="M53 0v176q0 85 24.5 160.5t64 132t87 110t95.5 106.5t87.5 109t64 129.5t24.5 157.5q0 92 -29.5 128t-87.5 36q-117 0 -117 -141v-154h-213v140q0 173 86 266.5t250 93.5t250 -93.5t86 -266.5q0 -95 -27 -183t-69 -155t-93 -128t-99.5 -113.5t-87.5 -101.5t-59 -101 t-11 -103h426v-205h-652z" />
<glyph horiz-adv-x="782" d="M55 344v119h213v-133q0 -142 117 -142q58 0 87.5 36t29.5 126v113q0 98 -35 140t-113 42h-75v205h88q67 0 101 34.5t34 116.5v80q0 92 -29.5 128t-87.5 36q-117 0 -117 -141v-92h-213v78q0 173 86 266.5t250 93.5t250 -93.5t86 -266.5v-37q0 -230 -158 -295 q158 -69 158 -301v-113q0 -173 -86 -266.5t-250 -93.5t-250 93.5t-86 266.5z" />
<glyph horiz-adv-x="813" d="M29 260v205l409 969h246v-969h107v-205h-107v-260h-225v260h-430zM236 465h223v530z" />
<glyph horiz-adv-x="784" d="M57 344v119h213v-133q0 -140 117 -140t117 140v315q0 141 -117 141t-117 -141v-43h-213l41 832h594v-205h-391l-18 -342q63 104 196 104q124 0 187 -84t63 -243v-320q0 -173 -86 -266.5t-250 -93.5t-250 93.5t-86 266.5z" />
<glyph horiz-adv-x="802" d="M63 344v733q0 373 345 373q164 0 249.5 -93.5t85.5 -266.5v-37h-213v51q0 141 -116 141q-64 0 -94.5 -39t-30.5 -137v-262q60 127 209 127q124 0 187 -84t63 -244v-262q0 -172 -88.5 -266t-253.5 -94t-254 94t-89 266zM289 330q0 -140 117 -140q116 0 116 140v258 q0 141 -116 141q-117 0 -117 -141v-258z" />
<glyph horiz-adv-x="696" d="M20 1229v205h656v-197l-311 -1237h-226l312 1237v-8h-431z" />
<glyph horiz-adv-x="815" d="M55 344v113q0 220 140 299q-140 76 -140 288v46q0 172 91.5 266t261.5 94t261 -94t91 -266v-46q0 -211 -139 -288q139 -78 139 -299v-113q0 -172 -91 -266t-261 -94t-261.5 94t-91.5 266zM281 350q0 -89 33.5 -125.5t93.5 -36.5q59 0 92.5 36.5t34.5 125.5v133 q0 162 -127 162t-127 -162v-133zM281 1001q0 -151 127 -151t127 151v80q0 90 -33.5 127t-93.5 37t-93.5 -37t-33.5 -127v-80z" />
<glyph horiz-adv-x="802" d="M55 827v263q0 172 88.5 266t253.5 94t253.5 -94t88.5 -266v-734q0 -372 -344 -372q-164 0 -250 93.5t-86 266.5v37h213v-51q0 -142 117 -142q63 0 94 39.5t31 137.5v262q-60 -127 -209 -127q-124 0 -187 84t-63 243zM281 846q0 -141 116 -141q117 0 117 141v258 q0 139 -117 139q-116 0 -116 -139v-258z" />
</font>
</defs>
</svg>
