<?xml version="1.0" standalone="no"?>
<!DOCTYPE svg PUBLIC "-//W3C//DTD SVG 1.1//EN" "http://www.w3.org/Graphics/SVG/1.1/DTD/svg11.dtd" >
<svg>
<metadata>
Created by FontForge 20090914 at Mon Aug  3 05:29:52 2015
 By www-data
&#194;&#169; 1992 Unity Progress. Portions &#194;&#169; 2004 The Monotype Corporation. Portions &#194;&#169; 2004 Microsoft Corporation. All Rights Reserved.
</metadata>
<defs>
<font id="BrowalliaUPC" horiz-adv-x="744" >
  <font-face 
    font-family="BrowalliaUPC"
    font-weight="400"
    font-stretch="normal"
    units-per-em="2048"
    panose-1="2 11 6 4 2 2 2 2 2 4"
    ascent="1638"
    descent="-410"
    x-height="693"
    cap-height="957"
    bbox="-941 -788.999 1620 1770"
    underline-thickness="102"
    underline-position="-154"
    unicode-range="U+0020-U+25CC"
  />
<missing-glyph horiz-adv-x="1024" 
d="M102 0v1092h820v-1092h-820zM204 102h616v888h-616v-888z" />
    <glyph glyph-name=".notdef" horiz-adv-x="1024" 
d="M102 0v1092h820v-1092h-820zM204 102h616v888h-616v-888z" />
    <glyph glyph-name="space" unicode=" " horiz-adv-x="455" 
 />
    <glyph glyph-name="space" unicode="&#xa0;" horiz-adv-x="455" 
 />
    <glyph glyph-name="exclam" unicode="!" horiz-adv-x="371" 
d="M151 238l-36 507v212h145v-212l-33 -507h-76zM120 0v134h135v-134h-135z" />
    <glyph glyph-name="quotedbl" unicode="&#x22;" horiz-adv-x="475" 
d="M94 618l-33 182v157h134v-157l-29 -182h-72zM310 618l-32 182v157h134v-157l-31 -182h-71z" />
    <glyph glyph-name="numbersign" unicode="#" 
d="M67 -16l57 278h-110v97h130l48 237h-178v97h198l56 280h98l-57 -280h206l57 280h98l-56 -280h113v-97h-133l-49 -237h182v-97h-201l-57 -278h-98l56 278h-205l-57 -278h-98zM242 359h205l48 237h-205z" />
    <glyph glyph-name="dollar" unicode="$" 
d="M333 -138v118c-179.333 22 -274.333 117.333 -285 286l118 22c16.667 -126.667 72.334 -196.334 167.001 -209.001v374c-81.333 18 -145.833 47.667 -193.5 89s-71.5 101.333 -71.5 180c0 70 21.667 129.833 65 179.5s110 78.834 200 87.501v56h69v-56
c150 -14.667 235 -93.334 255 -236.001l-121 -18c-13.333 87.333 -58 139 -134 155v-339c105.333 -22 178.166 -56.667 218.499 -104s60.5 -105.666 60.5 -174.999c0 -82 -26 -150 -78 -204s-119 -83 -201 -87v-119h-69zM333 891
c-31.333 -4.66699 -57.833 -14.667 -79.5 -30s-38.5 -34 -50.5 -56s-18 -46.667 -18 -74c0 -80.667 49.333 -135.667 148 -165v325zM402 79c47.333 6 85.5 26.166 114.5 60.499s43.5 75.833 43.5 124.5c0 43.333 -11.333 78.333 -34 105s-64 49.334 -124 68.001v-358z" />
    <glyph glyph-name="percent" unicode="%" horiz-adv-x="1189" 
d="M78 727c0 47.333 7.66602 89.333 22.999 126s38.166 65.834 68.499 87.501s66.833 32.5 109.5 32.5c38 0 71.833 -8.33301 101.5 -25s54.834 -43.834 75.501 -81.501s31 -86.5 31 -146.5c0 -75.333 -18.667 -136.333 -56 -183s-87.666 -70 -150.999 -70
s-112.833 23.333 -148.5 70s-53.5 110 -53.5 190zM281.999 892c-68 0 -102 -59 -102 -177c0 -111.333 34 -167 102 -167c68.667 0 103 59 103 177c0 111.333 -34.333 167 -103 167zM282.999 -35l523 1008h96l-522 -1008h-97zM696.999 225
c0 50.667 8.33105 94.332 24.998 130.999s39.834 65 69.501 85s65.167 30 106.5 30c64.667 0 115.5 -22.833 152.5 -68.5s55.5 -107.5 55.5 -185.5c0 -75.333 -18.667 -136.166 -56 -182.499s-87.666 -69.5 -150.999 -69.5c-36.667 0 -69.5 8.16699 -98.5 24.5
s-53.5 44 -73.5 83s-30 89.833 -30 152.5zM901.997 389.998c-68.667 0 -103 -59 -103 -177c0 -111.333 34 -167 102 -167c68.667 0 103 58.667 103 176c0 112 -34 168 -102 168z" />
    <glyph glyph-name="ampersand" unicode="&#x26;" horiz-adv-x="892" 
d="M635 113c-77.333 -86 -168.998 -129.001 -274.998 -129.001c-58 0 -108.667 11.5 -152 34.5s-79.333 56.667 -108 101s-43 92.5 -43 144.5c0 118 76 213.333 228 286c-71.333 82.667 -107 152.667 -107 210c0 60.667 23 111.334 69 152.001s102 61 168 61
c43.333 0 81.666 -9 114.999 -27s59.666 -42.167 78.999 -72.5s29 -65.166 29 -104.499c0 -90.667 -60.333 -168.334 -181 -233.001l172 -219c19.333 38.667 34.333 83 45 133l122 -26c-20.667 -83.333 -48.667 -152 -84 -206c43.333 -58 93 -107 149 -147l-79 -93
c-47.333 30.667 -96.333 75.667 -147 135zM396.002 611.999c81.333 47.333 121.999 98.667 121.999 154c0 28 -9.16699 53.5 -27.5 76.5s-45.5 34.5 -81.5 34.5c-27.333 0 -52.666 -9.16699 -75.999 -27.5s-35 -44.5 -35 -78.5c0 -30.667 15.333 -63.667 46 -99z
M561.001 206l-215 267c-108 -64.667 -162 -132 -162 -202c0 -49.333 17.5 -92.333 52.5 -129s76.833 -55 125.5 -55c82 0 148.333 39.667 199 119z" />
    <glyph glyph-name="quotesingle" unicode="'" horiz-adv-x="255" 
d="M89 618l-30 179v160h134v-160l-32 -179h-72z" />
    <glyph glyph-name="parenleft" unicode="(" horiz-adv-x="445" 
d="M313 -281c-154.667 194.667 -232 403.999 -232 627.999c0 211.333 77.333 420 232 626h84c-84 -138 -137.5 -255.167 -160.5 -351.5s-34.5 -188.166 -34.5 -275.499c0 -209.333 65 -418.333 195 -627h-84z" />
    <glyph glyph-name="parenright" unicode=")" horiz-adv-x="445" 
d="M165 -281h-84c130 208.667 195 417.667 195 627c0 74.667 -7.33301 147.5 -22 218.5s-34 134.167 -58 189.5s-62.333 128.333 -115 219h84c154.667 -206 232 -414.667 232 -626c0 -222.667 -77.333 -432 -232 -628z" />
    <glyph glyph-name="asterisk" unicode="*" horiz-adv-x="520" 
d="M42 781l30.001 92.998c69.333 -24 119.666 -45 150.999 -63c-8.66699 78.667 -13 132.667 -13 162h94c-1.33301 -42.667 -6.33301 -96.667 -15 -162c44.667 22.667 96 43.667 154 63l30 -93c-55.333 -18 -109.333 -30 -162 -36c26.667 -23.333 64 -64.666 112 -123.999
l-78 -55c-25.333 34.667 -55.333 81.334 -90 140.001c-32 -61.333 -60.333 -108 -85 -140l-77 55c50.667 62.667 87 104 109 124c-56 10.667 -109.333 22.667 -160 36z" />
    <glyph glyph-name="plus" unicode="+" horiz-adv-x="781" 
d="M335 155v262h-261v110h261v260h111v-260h260v-110h-260v-262h-111z" />
    <glyph glyph-name="comma" unicode="," horiz-adv-x="371" 
d="M119 0v134h134v-134c0 -94.667 -36.333 -157.667 -109 -189l-33 50c47.333 20.667 72 67 74 139h-66z" />
    <glyph glyph-name="hyphen" unicode="-" horiz-adv-x="445" 
d="M42 287v118h361v-118h-361z" />
    <glyph glyph-name="period" unicode="." horiz-adv-x="371" 
d="M121 0v134h134v-134h-134z" />
    <glyph glyph-name="slash" unicode="/" horiz-adv-x="371" 
d="M0 -16l277 989h94l-276 -989h-95z" />
    <glyph glyph-name="zero" unicode="0" 
d="M55 472c0 326 104.333 489 313 489c208 0 312 -163 312 -489c0 -325.333 -104 -488 -312 -488c-208.667 0 -313 162.667 -313 488zM176 472c0 -261.333 64 -392 192 -392c127.333 0 191 130.667 191 392s-64.333 392 -193 392c-126.667 0 -190 -130.667 -190 -392z" />
    <glyph glyph-name="one" unicode="1" 
d="M498 0h-117v749c-62.667 -60 -141 -107.333 -235 -142v114c136.667 64 228.667 144 276 240h76v-961z" />
    <glyph glyph-name="two" unicode="2" 
d="M670 113v-113.001h-633c0 56 19.667 111.667 59 167s101.333 117.666 186 186.999c62.667 52 112 95.5 148 130.5s64.667 71.167 86 108.5s32 72.333 32 105s-7.66699 61.334 -23 86.001s-36.5 44.167 -63.5 58.5s-58.167 21.5 -93.5 21.5
c-58 0 -103.667 -17.167 -137 -51.5s-50.333 -81.166 -51 -140.499l-120 12c16.667 184.667 120 277 310 277c88 0 159.833 -24.167 215.5 -72.5s83.5 -112.833 83.5 -193.5c0 -46.667 -14.5 -97.167 -43.5 -151.5s-108.833 -136.5 -239.5 -246.5
c-58 -48.667 -98.833 -84 -122.5 -106s-44.5 -48 -62.5 -78h469z" />
    <glyph glyph-name="three" unicode="3" 
d="M56 253l118.002 14.9971c25.333 -125.333 87.666 -188 186.999 -188c38 0 71.667 8.83301 101 26.5s52.666 41.334 69.999 71.001s26 63.834 26 102.501c0 54.667 -17.5 99.334 -52.5 134.001s-79.833 52 -134.5 52c-22.667 0 -50.334 -4.33301 -83.001 -13l13 103l28 -1
c21.333 0.666992 41.333 3.33398 60 8.00098s35.834 11.667 51.501 21s29.167 20.5 40.5 33.5s19.833 27.667 25.5 44s8.5 34.166 8.5 53.499c0 45.333 -14.833 81.5 -44.5 108.5s-67.167 40.5 -112.5 40.5c-97.333 0 -155 -57.333 -173 -172l-117 21
c30 165.333 126 248 288 248c80 0 146.667 -23 200 -69s80 -106 80 -180c0 -88.667 -44 -153.334 -132 -194.001c119.333 -27.333 179 -105.666 179 -234.999c0 -88 -30.833 -160 -92.5 -216s-138.5 -84 -230.5 -84c-56 0 -105.833 11.167 -149.5 33.5s-79 53.5 -106 93.5
s-43.167 87.667 -48.5 143z" />
    <glyph glyph-name="four" unicode="4" 
d="M432 0v229h-415v108l437 620h96v-620h129v-108h-129v-229h-118zM432 337v431l-299 -431h299z" />
    <glyph glyph-name="five" unicode="5" 
d="M55 251l123.998 9.99902c18 -120.667 79.333 -181 184 -181c35.333 0 67.333 8.16699 96 24.5s53.5 42.5 74.5 78.5s31.5 79.667 31.5 131c0 65.333 -18.167 117.833 -54.5 157.5s-86.166 59.5 -149.499 59.5c-76.667 0 -134.667 -31 -174 -93l-111 14l93 492h476v-112
h-382l-51 -258c57.333 40.667 117.333 61 180 61c58.667 0 110.167 -13.5 154.5 -40.5s79.333 -63.667 105 -110s38.5 -99.833 38.5 -160.5c0 -66.667 -15 -126.167 -45 -178.5s-68.667 -92.333 -116 -120s-102.666 -41.5 -165.999 -41.5c-86 0 -156.667 23.833 -212 71.5
s-87.333 112.834 -96 195.501z" />
    <glyph glyph-name="six" unicode="6" 
d="M665 723l-117 -8.99902c-11.333 54 -31.5 92.5 -60.5 115.5s-62.833 34.5 -101.5 34.5c-62.667 0 -114.667 -29.833 -156 -89.5s-62.333 -153.167 -63 -280.5c56 84.667 133.667 127 233 127c55.333 0 103.833 -13.5 145.5 -40.5s74.834 -63.667 99.501 -110
s37 -99.5 37 -159.5c0 -102.667 -29 -182.834 -87 -240.501s-128.667 -86.5 -212 -86.5c-222 0 -333 154.667 -333 464c0 342 114.667 513 344 513c50.667 0 95.167 -9.5 133.5 -28.5s69.166 -46 92.499 -81s38.333 -77.833 45 -128.5zM185 310.001
c0 -64.667 18.166 -119.168 54.499 -163.501s83.5 -66.5 141.5 -66.5c54.667 0 98.5 21.333 131.5 64s49.5 96 49.5 160c0 43.333 -8 81 -24 113s-37.667 56.667 -65 74s-59.666 26 -96.999 26c-38 0 -70.833 -8.5 -98.5 -25.5s-50 -41.167 -67 -72.5
s-25.5 -67.666 -25.5 -108.999z" />
    <glyph glyph-name="seven" unicode="7" 
d="M63 832v113.001h620v-92c-101.333 -107.333 -185.166 -239 -251.499 -395s-104.166 -308.667 -113.499 -458h-121c3.33301 149.333 38.166 300.166 104.499 452.499s143.166 278.833 230.499 379.5h-469z" />
    <glyph glyph-name="eight" unicode="8" 
d="M236 519c-95.333 35.333 -143 100.333 -143 195c0 43.333 9.66699 82.833 29 118.5s50 66 92 91s93.333 37.5 154 37.5c50 0 95.833 -9.66699 137.5 -29s75.5 -48 101.5 -86s39 -83 39 -135c0 -92.667 -47 -156.667 -141 -192c120 -39.333 180 -121 180 -245
c0 -85.333 -29.667 -155 -89 -209s-135 -81 -227 -81s-167.5 27.167 -226.5 81.5s-88.5 124.833 -88.5 211.5c0 129.333 60.667 210 182 242zM213 718c0 -46 14.667 -83.167 44 -111.5s67 -42.5 113 -42.5c44 0 80.833 13.833 110.5 41.5s44.5 63.167 44.5 106.5
c0 26 -5.83301 50.167 -17.5 72.5s-29.5 41.166 -53.5 56.499s-52.333 23 -85 23c-30 0 -56.833 -6.66699 -80.5 -20s-42.167 -30.666 -55.5 -51.999s-20 -46 -20 -74zM175 276c0 -61.333 19.168 -109.334 57.501 -144.001s84.5 -52 138.5 -52c56 0 102.333 18 139 54
s55 82 55 138c0 38 -8.5 71.667 -25.5 101s-40.333 52.5 -70 69.5s-63.834 25.5 -102.501 25.5c-34 0 -65 -7.16699 -93 -21.5s-51.5 -36.166 -70.5 -65.499s-28.5 -64.333 -28.5 -105z" />
    <glyph glyph-name="nine" unicode="9" 
d="M73 221l113.004 11c18 -101.333 71 -152 159 -152c19.333 0 37.666 2.5 54.999 7.5s33.5 12.667 48.5 23s28.667 22.833 41 37.5s23 31 32 49s16.667 36.833 23 56.5s11.333 40.667 15 63s6.16699 46.166 7.5 71.499v62c-52.667 -84 -128.667 -126 -228 -126
c-83.333 0 -151.5 29.833 -204.5 89.5s-79.5 134.5 -79.5 224.5c0 64.667 13.167 121.334 39.5 170.001s61.666 86.334 105.999 113.001s96.166 40 155.499 40c64 0 119.167 -14.167 165.5 -42.5s85.166 -73.5 116.499 -135.5s47 -157 47 -285
c0 -174.667 -30.167 -304 -90.5 -388s-144.5 -126 -252.5 -126c-46 0 -87.667 8.16699 -125 24.5s-69 42.166 -95 77.499s-42.333 80.333 -49 135zM554.004 644c0 62 -16.667 114.167 -50 156.5s-77.666 63.5 -132.999 63.5c-58 0 -105 -22.667 -141 -68
s-54 -99.333 -54 -162c0 -58.667 18 -107.667 54 -147s82 -59 138 -59c57.333 0 102.666 20 135.999 60s50 92 50 156z" />
    <glyph glyph-name="colon" unicode=":" horiz-adv-x="371" 
d="M121 559v134h134v-134h-134zM121 0v134h134v-134h-134z" />
    <glyph glyph-name="semicolon" unicode=";" horiz-adv-x="371" 
d="M119 559v134h134v-134h-134zM119 0v134h134v-134c0 -94.667 -36.333 -157.667 -109 -189l-33 50c47.333 20.667 72 67 74 139h-66z" />
    <glyph glyph-name="less" unicode="&#x3c;" horiz-adv-x="781" 
d="M73 418v110l634 268v-117l-503 -206l503 -209v-116z" />
    <glyph glyph-name="equal" unicode="=" horiz-adv-x="781" 
d="M706 563h-632v109h632v-109zM706 272h-632v110h632v-110z" />
    <glyph glyph-name="greater" unicode="&#x3e;" horiz-adv-x="781" 
d="M707 418l-634 -270v116l502 209l-502 206v117l634 -268v-110z" />
    <glyph glyph-name="question" unicode="?" 
d="M308 236l-1.00098 40.001c0 25.333 2.5 49.333 7.5 72s12.333 43.834 22 63.501s21.834 38.167 36.501 55.5c44 36.667 98.667 92.667 164 168c12.667 21.333 19 44.333 19 69c0 32.667 -8 61.5 -24 86.5s-38.167 45.667 -66.5 62s-59.833 24.5 -94.5 24.5
c-107.333 0 -171 -64.667 -191 -194l-121 14c22 184 125.333 276 310 276c60.667 0 114 -11.333 160 -34s82 -53.334 108 -92.001s39 -83.667 39 -135c0 -56.667 -24.333 -109.334 -73 -158.001c-13.333 -13.333 -35.666 -37 -66.999 -71s-52.833 -58 -64.5 -72
s-21 -29.5 -28 -46.5s-12.333 -36.167 -16 -57.5s-5.83398 -45 -6.50098 -71h-113zM300.999 0.000976562v134h134v-134h-134z" />
    <glyph glyph-name="at" unicode="@" horiz-adv-x="1357" 
d="M758 106c-62.667 -72 -129.669 -108 -201.002 -108c-72 0 -129.333 29.333 -172 88s-64 127 -64 205c0 70.667 18 140.667 54 210s80.5 121.166 133.5 155.499s103.5 51.5 151.5 51.5c82.667 0 148.334 -40 197.001 -120l22 101h117l-94 -438
c-12.667 -59.333 -19 -93.333 -19 -102c0 -28.667 15 -43 45 -43c16.667 0 40.167 8.66699 70.5 26s60.333 42.5 90 75.5s52.334 71.333 68.001 115s23.5 91.834 23.5 144.501c0 128 -46 228.667 -138 302s-201.333 110 -328 110c-76 0 -146.333 -12.833 -211 -38.5
s-121.5 -62.334 -170.5 -110.001s-88.5 -108 -118.5 -181s-45 -150.5 -45 -232.5c0 -110.667 22.333 -203 67 -277s111.167 -130 199.5 -168s186.833 -57 295.5 -57c214.667 0 368 65.667 460 197h118c-37.333 -80.667 -106 -149.667 -206 -207s-223.333 -86 -370 -86
c-130 0 -243.667 21.167 -341 63.5s-175 107.833 -233 196.5s-87 197.667 -87 327c0 92.667 17.167 182.334 51.5 269.001s79.333 160 135 220s122 105 199 135s164.167 45 261.5 45c176.667 0 313.834 -50.833 411.501 -152.5s146.5 -220.834 146.5 -357.501
c0 -121.333 -40.833 -229.666 -122.5 -324.999s-171.834 -143 -270.501 -143c-81.333 0 -123.333 36.333 -126 109zM441.998 283c0 -52 12.667 -96.332 38 -132.999s59.333 -55 102 -55c67.333 0 123.833 35.333 169.5 106s68.5 145 68.5 223c0 54 -13.667 98.5 -41 133.5
s-64.333 52.5 -111 52.5c-62.667 0 -116 -34.333 -160 -103s-66 -143.334 -66 -224.001z" />
    <glyph glyph-name="A" unicode="A" horiz-adv-x="892" 
d="M-2 0l368 957h136l392 -957h-145l-111 290h-400l-105 -290h-135zM274 393h325l-100 265c-33.333 88.667 -56 154.667 -68 198c-12 -61.333 -29.333 -122 -52 -182z" />
    <glyph glyph-name="B" unicode="B" horiz-adv-x="892" 
d="M98 0v956.999h359c110.667 0 191.167 -24.167 241.5 -72.5s75.5 -105.833 75.5 -172.5c0 -91.333 -44.667 -159 -134 -203c120.667 -35.333 181 -112.666 181 -231.999c0 -184.667 -119.333 -277 -358 -277h-365zM225 554.999l206.998 0.00195312
c46.667 0 84.834 3.16699 114.501 9.5s54.334 20.666 74.001 42.999s29.5 52.166 29.5 89.499c0 38.667 -8.83301 69.5 -26.5 92.5s-42.167 37.833 -73.5 44.5s-76 10 -134 10h-191v-289zM224.998 113.001h238c31.333 0 59 1.5 83 4.5s47.667 10.833 71 23.5
s41.166 30.5 53.499 53.5s18.5 50.5 18.5 82.5c0 52 -16.667 92.5 -50 121.5s-97.666 43.5 -192.999 43.5h-221v-329z" />
    <glyph glyph-name="C" unicode="C" horiz-adv-x="965" 
d="M786 336l127.001 -32c-54.667 -213.333 -187 -320 -397 -320c-154 0 -267.333 48.167 -340 144.5s-109 215.5 -109 357.5c0 161.333 43.333 282.833 130 364.5s193.667 122.5 321 122.5c198 0 324 -92.667 378 -278l-124 -30c-42.667 133.333 -128 200 -256 200
c-103.333 0 -182.333 -33.333 -237 -100s-82 -159.667 -82 -279c0 -138 29.5 -238.167 88.5 -300.5s132.5 -93.5 220.5 -93.5c151.333 0 244.666 81.333 279.999 244z" />
    <glyph glyph-name="D" unicode="D" horiz-adv-x="965" 
d="M103 0v957.001h330c62.667 0 118.5 -4.33301 167.5 -13s96 -30.834 141 -66.501s81.667 -86.667 110 -153s42.5 -146.5 42.5 -240.5c0 -144 -34.167 -260.667 -102.5 -350s-182.833 -134 -343.5 -134h-345zM230 113.001l204 -0.000976562c84 0 148.333 12.333 193 37
s78.667 65.834 102 123.501s35 128.5 35 212.5c0 58.667 -5.83301 110 -17.5 154s-29.167 81 -52.5 111s-53 53 -89 69s-94 24 -174 24h-201v-731z" />
    <glyph glyph-name="E" unicode="E" horiz-adv-x="892" 
d="M106 0v957h692v-113h-566v-293h530v-112h-530v-326h588v-113h-714z" />
    <glyph glyph-name="F" unicode="F" horiz-adv-x="817" 
d="M110 0v957h645v-113h-519v-296h449v-113h-449v-435h-126z" />
    <glyph glyph-name="G" unicode="G" horiz-adv-x="1040" 
d="M551 375l0.00195312 113h405v-355c-124.667 -99.333 -256.667 -149 -396 -149c-76.667 0 -144.834 10.833 -204.501 32.5s-110.167 54.167 -151.5 97.5s-73.833 96.166 -97.5 158.499s-35.5 129.5 -35.5 201.5c0 145.333 41.167 264.833 123.5 358.5
s200.833 140.5 355.5 140.5c216 0 346.667 -94.667 392 -284l-114 -31c-40 138 -132.333 207 -277 207c-111.333 0 -197.333 -33.667 -258 -101s-91 -161.333 -91 -282c0 -135.333 34.167 -233.166 102.5 -293.499s151.166 -90.5 248.499 -90.5c111.333 0 204.333 33 279 99
v178h-281z" />
    <glyph glyph-name="H" unicode="H" horiz-adv-x="965" 
d="M107 0v957h127v-393h497v393h127v-957h-127v451h-497v-451h-127z" />
    <glyph glyph-name="I" unicode="I" horiz-adv-x="371" 
d="M125 0v957h126v-957h-126z" />
    <glyph glyph-name="J" unicode="J" horiz-adv-x="668" 
d="M36 272l114.001 15c5.33301 -126.667 52.666 -190 141.999 -190c38 0 68 8.16699 90 24.5s36.333 38.333 43 66s10 64.5 10 110.5v659h127v-652c0 -112 -22.833 -193.5 -68.5 -244.5s-112.5 -76.5 -200.5 -76.5c-87.333 0 -152.5 24 -195.5 72s-63.5 120 -61.5 216z" />
    <glyph glyph-name="K" unicode="K" horiz-adv-x="892" 
d="M98 0v957h127v-475l475 475h171l-401 -388l419 -569h-167l-341 484l-156 -152v-332h-127z" />
    <glyph glyph-name="L" unicode="L" 
d="M98 0v957h127v-844h471v-113h-598z" />
    <glyph glyph-name="M" unicode="M" horiz-adv-x="1114" 
d="M99 0v957h191l226 -678l46 -141l51 153l229 666h170v-957h-122v801l-278 -801h-114l-277 815v-815h-122z" />
    <glyph glyph-name="N" unicode="N" horiz-adv-x="965" 
d="M102 0v957h130l502 -751v751h122v-957h-130l-503 752v-752h-121z" />
    <glyph glyph-name="O" unicode="O" horiz-adv-x="1040" 
d="M65 466c0 96 17.002 181.667 51.002 257s85.333 136 154 182s153 69 253 69c66.667 0 128.167 -12 184.5 -36s104.666 -57.5 144.999 -100.5s71.666 -95.333 93.999 -157s33.5 -129.5 33.5 -203.5c0 -102.667 -18.5 -190 -55.5 -262s-92 -128.5 -165 -169.5
s-152.167 -61.5 -237.5 -61.5c-88 0 -167.667 21.167 -239 63.5s-125.5 101 -162.5 176s-55.5 155.833 -55.5 242.5zM195.002 464c0 -76 14.167 -141.999 42.5 -197.999s66.333 -99 114 -129s104.5 -45 170.5 -45c102.667 0 182.834 35.5 240.501 106.5
s86.5 164.167 86.5 279.5c0 79.333 -13.667 148.166 -41 206.499s-64.833 103 -112.5 134s-104.834 46.5 -171.501 46.5c-53.333 0 -100.333 -8.83301 -141 -26.5s-75.167 -44.167 -103.5 -79.5s-49.5 -77.5 -63.5 -126.5s-21 -105.167 -21 -168.5z" />
    <glyph glyph-name="P" unicode="P" horiz-adv-x="892" 
d="M103 0l0.000976562 956.999h361c53.333 0 100.166 -2.66699 140.499 -8s78 -18.666 113 -39.999s63.167 -52 84.5 -92s32 -85.667 32 -137c0 -194 -119.667 -291 -359 -291h-245v-389h-127zM230.001 501.999h247c150.667 0 226 58 226 174c0 28 -3.83301 52.333 -11.5 73
s-19 38.167 -34 52.5s-33.5 25 -55.5 32s-64.333 10.5 -127 10.5h-245v-342z" />
    <glyph glyph-name="Q" unicode="Q" horiz-adv-x="1040" 
d="M828 102c59.333 -40 113.668 -69.332 163.001 -87.999l-37 -88c-68.667 24.667 -137.334 63.667 -206.001 117c-70.667 -39.333 -149 -59 -235 -59c-145.333 0 -257.666 48.5 -336.999 145.5s-119 213.5 -119 349.5c0 159.333 43.833 281.666 131.5 366.999
s196.834 128 327.501 128c85.333 0 161.166 -16.5 227.499 -49.5s121.166 -86.5 164.499 -160.5s65 -169 65 -285c0 -158 -48.333 -283.667 -145 -377zM550.002 264.001c72.667 -20 132.667 -50.3311 180 -90.998c74.667 68 112 170 112 306c0 115.333 -29 208.5 -87 279.5
s-137.667 106.5 -239 106.5c-69.333 0 -128 -15.333 -176 -46s-85.333 -74.834 -112 -132.501s-40 -126.834 -40 -207.501c0 -116 28.833 -209.5 86.5 -280.5s138.167 -106.5 241.5 -106.5c45.333 0 88 8.66699 128 26c-39.333 25.333 -81 43.333 -125 54z" />
    <glyph glyph-name="R" unicode="R" horiz-adv-x="965" 
d="M105 0l-0.000976562 956.998h424c80 0 137 -5.66699 171 -17s62.333 -26.666 85 -45.999s42.5 -46 59.5 -80s25.5 -73.333 25.5 -118c0 -149.333 -89.667 -236.333 -269 -261c38 -16.667 71.667 -40.667 101 -72s56 -65.666 80 -102.999l167 -260h-160l-126 199
c-31.333 49.333 -58.166 88.5 -80.499 117.5s-44.333 52 -66 69s-41.5 27.833 -59.5 32.5s-44 7 -78 7h-147v-425h-127zM231.999 534.998h272c85.333 0 146 14.833 182 44.5s54 68.5 54 116.5c0 103.333 -68.333 155 -205 155h-303v-316z" />
    <glyph glyph-name="S" unicode="S" horiz-adv-x="892" 
d="M60 307l120.005 11.001c9.33301 -76.667 40 -132.667 92 -168s115.333 -53 190 -53c79.333 0 138.833 15.833 178.5 47.5s59.5 70.167 59.5 115.5c0 31.333 -9.83301 58.5 -29.5 81.5s-46.5 40.667 -80.5 53s-94.667 28.5 -182 48.5c-64.667 14.667 -119 31.667 -163 51
s-79.667 47.333 -107 84s-41 80.667 -41 132c0 54.667 13.167 101 39.5 139s65.833 68.167 118.5 90.5s112 33.5 178 33.5c115.333 0 203.166 -26.333 263.499 -79s92.5 -121.667 96.5 -207l-121 -9c-13.333 122.667 -91 184 -233 184c-146.667 0 -220 -48 -220 -144
c0 -28 9 -52.167 27 -72.5s41.167 -35.5 69.5 -45.5s72.166 -21.667 131.499 -35c105.333 -24 176.666 -44.667 213.999 -62s67.666 -37.5 90.999 -60.5s40.833 -48.833 52.5 -77.5s17.5 -60.334 17.5 -95.001c0 -89.333 -34.333 -159.333 -103 -210
s-152.334 -76 -251.001 -76c-132 0 -232 29.667 -300 89s-104 137.333 -108 234z" />
    <glyph glyph-name="T" unicode="T" horiz-adv-x="817" 
d="M347 0v844h-316v113h759v-113h-317v-844h-126z" />
    <glyph glyph-name="U" unicode="U" horiz-adv-x="965" 
d="M731 957h127v-553c0 -92.667 -8.83301 -163.334 -26.5 -212.001s-42 -88 -73 -118s-69.5 -52.5 -115.5 -67.5s-99 -22.5 -159 -22.5c-124.667 0 -219 30 -283 90s-96 170 -96 330v553h127v-552c0 -76 5.5 -130.833 16.5 -164.5s26.5 -60.667 46.5 -81
s44.833 -35.666 74.5 -45.999s64.167 -15.5 103.5 -15.5c56 0 102.667 8 140 24s66.333 44 87 84s31 106.333 31 199v552z" />
    <glyph glyph-name="V" unicode="V" horiz-adv-x="892" 
d="M377 0l-371 957h137l249 -695c18 -50 34.667 -102.333 50 -157c12 44 29.333 96.333 52 157l258 695h129l-374 -957h-130z" />
    <glyph glyph-name="W" unicode="W" horiz-adv-x="1262" 
d="M270 0l-253.999 957h130l146 -627c15.333 -65.333 28.666 -130.666 39.999 -195.999l43 177l182 646h153l137 -484c36 -128 61 -241 75 -339c12 59.333 27.667 128.666 47 207.999l151 615h127l-263 -957h-122l-201 729l-30 112c-6 -26 -15.333 -63.333 -28 -112
l-203 -729h-130z" />
    <glyph glyph-name="X" unicode="X" horiz-adv-x="892" 
d="M6 0l370 499l-326 458h150l174 -245c36 -50.667 61.667 -90 77 -118c16.667 28 42 64.333 76 109l192 254h138l-336 -451l362 -506h-156l-241 341c-11.333 16 -25.333 37.333 -42 64c-18 -30 -33.333 -53.667 -46 -71l-240 -334h-152z" />
    <glyph glyph-name="Y" unicode="Y" horiz-adv-x="892" 
d="M373 0v405l-369 552h154l189 -289c30 -45.333 62.333 -99 97 -161c37.333 64 72 120.333 104 169l186 281h147l-382 -552v-405h-126z" />
    <glyph glyph-name="Z" unicode="Z" horiz-adv-x="817" 
d="M27 0v118l490 612c37.333 46.667 70.333 84.667 99 114h-534v113h686v-113l-596 -731h611v-113h-756z" />
    <glyph glyph-name="bracketleft" unicode="[" horiz-adv-x="371" 
d="M91 -266v1223h259v-97h-142v-1028h142v-98h-259z" />
    <glyph glyph-name="backslash" unicode="\" horiz-adv-x="371" 
d="M277 -16l-277 989h95l276 -989h-94z" />
    <glyph glyph-name="bracketright" unicode="]" horiz-adv-x="371" 
d="M285 -266h-260v98h142v1028h-142v97h260v-1223z" />
    <glyph glyph-name="asciicircum" unicode="^" horiz-adv-x="627" 
d="M156 450h-121l231 523h94l232 -523h-118l-161 390z" />
    <glyph glyph-name="underscore" unicode="_" 
d="M-20 -266v85h779v-85h-779z" />
    <glyph glyph-name="grave" unicode="`" horiz-adv-x="445" 
d="M304 779h-95l-151 183h157z" />
    <glyph glyph-name="a" unicode="a" 
d="M541 86c-80 -68 -165.333 -102 -256 -102c-72 0 -129.5 17.833 -172.5 53.5s-64.5 84.167 -64.5 145.5c0 35.333 7.66699 67 23 95s40.666 52.833 75.999 74.5s93.333 37.5 174 47.5c96.667 12 166.667 25.333 210 40v31c0 94 -55.667 141 -167 141
c-60.667 0 -103.167 -11.333 -127.5 -34s-42.166 -55.334 -53.499 -98.001l-114 15c30 142.667 134 214 312 214c50 0 92.833 -5.33301 128.5 -16s64.667 -26.667 87 -48s36.833 -45.333 43.5 -72s10 -68.667 10 -126v-305c0 -14.667 2.83301 -36 8.5 -64
s15.167 -54 28.5 -78h-123c-12 24.667 -19.667 53.334 -23 86.001zM531 348c-41.333 -16.667 -105.333 -31.332 -192 -43.999c-70 -10 -115 -25 -135 -45s-30 -44.333 -30 -73c0 -73.333 46.333 -110 139 -110c32.667 0 62 4.16699 88 12.5s48.5 21.166 67.5 38.499
s34.167 38.833 45.5 64.5s17 63.5 17 113.5v43z" />
    <glyph glyph-name="b" unicode="b" 
d="M196 0l-108.999 0.000976562v957h118v-341c49.333 62 112.666 93 189.999 93c60 0 111.5 -14.333 154.5 -43s77 -69.334 102 -122.001s37.5 -115 37.5 -187c0 -110 -27.5 -199.667 -82.5 -269s-127.5 -104 -217.5 -104c-82 0 -146.333 34.333 -193 103v-87z
M195.001 352.001c0 -68.667 7.5 -121 22.5 -157s36.833 -64 65.5 -84s60.667 -30 96 -30c58 0 104.167 24.833 138.5 74.5s51.5 113.5 51.5 191.5c0 55.333 -7.66699 102.833 -23 142.5s-36.5 70 -63.5 91s-59.5 31.5 -97.5 31.5c-61.333 0 -108.333 -25.5 -141 -76.5
s-49 -112.167 -49 -183.5z" />
    <glyph glyph-name="c" unicode="c" horiz-adv-x="668" 
d="M541 254l114.998 -14.999c-12 -78 -43.667 -140 -95 -186s-115.666 -69 -192.999 -69c-99.333 0 -176.833 32.167 -232.5 96.5s-83.5 152.166 -83.5 263.499c0 80 12.333 146.833 37 200.5s62.334 94.5 113.001 122.5s106 42 166 42c156.667 0 249 -73 277 -219l-114 -18
c-22 93.333 -74.667 140 -158 140c-133.333 0 -200 -88.333 -200 -265c0 -177.333 64.333 -266 193 -266c100 0 158.333 57.667 175 173z" />
    <glyph glyph-name="d" unicode="d" 
d="M538 0l-0.00195312 86.999c-44 -68.667 -108.667 -103 -194 -103c-92.667 0 -165.5 34.833 -218.5 104.5s-79.5 155.5 -79.5 257.5c0 75.333 12.333 140.333 37 195s58.334 96.334 101.001 125.001s94.334 43 155.001 43c81.333 0 145 -31.667 191 -95v343h117v-957h-109
zM165.998 345.999c0 -52 7.50098 -97.999 22.501 -137.999s36.667 -71.167 65 -93.5s62.166 -33.5 101.499 -33.5c57.333 0 102.5 23.167 135.5 69.5s49.5 108.166 49.5 185.499c0 86 -16.667 153.5 -50 202.5s-80 73.5 -140 73.5c-122.667 0 -184 -88.667 -184 -266z" />
    <glyph glyph-name="e" unicode="e" 
d="M563 223l121.001 -15.002c-40 -149.333 -141.667 -224 -305 -224c-69.333 0 -128.5 14.167 -177.5 42.5s-86.667 69 -113 122s-39.5 117.167 -39.5 192.5c0 112.667 29 202.167 87 268.5s137 99.5 237 99.5c22 0 43 -1.66699 63 -5c19.333 -3.33301 38 -8.33301 56 -15
s34.667 -15 50 -25c16 -10 30.667 -21.333 44 -34c14 -14 26.667 -29.333 38 -46c12 -17.333 22.333 -35.666 31 -54.999c8 -19.333 14.667 -40.333 20 -63c5.33301 -22 9 -45.333 11 -70c0.666992 -7.33301 1 -33.666 1 -78.999h-517c4 -72.667 24.667 -130.167 62 -172.5
s86.666 -63.5 147.999 -63.5c88 0 149 47.333 183 142zM177.001 412.998l387 -0.00195312c-5.33301 66.667 -25.666 116.5 -60.999 149.5s-78.333 49.5 -129 49.5c-37.333 0 -70 -8.16699 -98 -24.5s-50.833 -39.166 -68.5 -68.499s-27.834 -64.666 -30.501 -105.999z" />
    <glyph glyph-name="f" unicode="f" horiz-adv-x="371" 
d="M116 0v602h-104v91h104v74c0 42.667 3.83301 75.667 11.5 99s19.5 43 35.5 59s36.167 28 60.5 36s52.5 12 84.5 12c33.333 0 70 -3.66699 110 -11l-18 -103c-24 4.66699 -47 7 -69 7c-36.667 0 -62.167 -7.83301 -76.5 -23.5s-21.5 -44.167 -21.5 -85.5v-64h135v-91h-135
v-602h-117z" />
    <glyph glyph-name="g" unicode="g" 
d="M67 -57l113.996 -17.001c10 -73.333 63 -110 159 -110c36 0 66.833 5 92.5 15s46.334 24.833 62.001 44.5s26.334 41.834 32.001 66.501s8.5 74.334 8.5 149.001c-51.333 -60.667 -115.333 -91 -192 -91c-60.667 0 -113.167 14.667 -157.5 44
s-79.166 70.166 -104.499 122.499s-38 113.833 -38 184.5c0 109.333 27.333 196.333 82 261s127.334 97 218.001 97c82 0 149.667 -33 203 -99v83h108v-599c0 -87.333 -6.33301 -151.333 -19 -192s-32 -74.5 -58 -101.5s-58.667 -47.333 -98 -61s-85.333 -20.5 -138 -20.5
c-92 0 -161.167 20.333 -207.5 61s-68.5 95 -66.5 163zM163.996 358.999c0 -174.667 63.332 -262 189.999 -262c60 0 106.667 23 140 69s50 109 50 189c0 76.667 -17.167 138.667 -51.5 186s-81.166 71 -140.499 71c-62 0 -108.833 -24.667 -140.5 -74
s-47.5 -109 -47.5 -179z" />
    <glyph glyph-name="h" unicode="h" 
d="M88 0l0.000976562 957.001h118v-343c54.667 63.333 123.667 95 207 95c61.333 0 110.5 -11.833 147.5 -35.5s61.667 -55 74 -94s18.5 -85.833 18.5 -140.5v-439h-118v439c0 112.667 -48.667 169 -146 169c-44.667 0 -81.334 -10.333 -110.001 -31
s-48 -47.334 -58 -80.001s-15 -72 -15 -118v-379h-118z" />
    <glyph glyph-name="i" unicode="i" horiz-adv-x="297" 
d="M89 822v135h117v-135h-117zM89 0v693h117v-693h-117z" />
    <glyph glyph-name="j" unicode="j" horiz-adv-x="297" 
d="M87 821v136h118v-136h-118zM-61 -269l22.001 99.999c23.333 -6 41.666 -9 54.999 -9c20 0 35.5 5.66699 46.5 17s17.833 26 20.5 44s4 45.333 4 82v728h118v-731c0 -56.667 -4.83301 -102.167 -14.5 -136.5s-28 -60.666 -55 -78.999s-61.833 -27.5 -104.5 -27.5
c-32 0 -62.667 4 -92 12z" />
    <glyph glyph-name="k" unicode="k" horiz-adv-x="668" 
d="M89 0v957h117v-546l278 282h152l-265 -257l292 -436h-145l-229 354l-83 -79v-275h-117z" />
    <glyph glyph-name="l" unicode="l" horiz-adv-x="297" 
d="M86 0v957h117v-957h-117z" />
    <glyph glyph-name="m" unicode="m" horiz-adv-x="1114" 
d="M88 0l0.000976562 693h105v-97c48.667 75.333 118.667 113 210 113c102 0 167.333 -40.333 196 -121c55.333 80.667 126.666 121 213.999 121c143.333 0 215 -77.667 215 -233v-476h-117v437c0 113.333 -41.333 170 -124 170c-112.667 0 -169 -68 -169 -204v-403h-118
v450c0 104.667 -41 157 -123 157c-38 0 -69.667 -8.5 -95 -25.5s-44.333 -42.5 -57 -76.5s-19 -82.333 -19 -145v-360h-118z" />
    <glyph glyph-name="n" unicode="n" 
d="M88 0l-0.000976562 693h106v-98c50.667 76 124.334 114 221.001 114c157.333 0 236 -84 236 -252v-457h-117v422c0 123.333 -48 185 -144 185c-122.667 0 -184 -76 -184 -228v-379h-118z" />
    <glyph glyph-name="o" unicode="o" 
d="M44 347c0 120 30.6689 210.331 92.002 270.998s139 91 233 91c59.333 0 112.666 -12.167 159.999 -36.5s86.666 -63.166 117.999 -116.499s47 -120 47 -200c0 -127.333 -31.5 -221.166 -94.5 -281.499s-139.833 -90.5 -230.5 -90.5c-68 0 -126 14.5 -174 43.5
s-85.167 70.5 -111.5 124.5s-39.5 119 -39.5 195zM165.002 346.998c0 -56.667 8.5 -105 25.5 -145s40.333 -70.167 70 -90.5s65.834 -30.5 108.501 -30.5c66 0 116.5 24.333 151.5 73s52.5 114.334 52.5 197.001c0 79.333 -18 142.666 -54 189.999s-86 71 -150 71
c-68.667 0 -119.834 -25.167 -153.501 -75.5s-50.5 -113.5 -50.5 -189.5z" />
    <glyph glyph-name="p" unicode="p" 
d="M88 -266l0.000976562 959h107v-90c50.667 70.667 117.667 106 201 106c97.333 0 170.666 -35 219.999 -105s74 -154 74 -252c0 -122.667 -30.833 -214.667 -92.5 -276s-131.5 -92 -209.5 -92c-75.333 0 -136 29.333 -182 88v-338h-118zM195.001 343
c0 -53.333 7.16699 -99.668 21.5 -139.001s35.333 -69.666 63 -90.999s61.167 -32 100.5 -32c62.667 0 110 26 142 78s48 116.667 48 194c0 78 -16.667 141.5 -50 190.5s-78.333 73.5 -135 73.5c-60 0 -106.667 -26.833 -140 -80.5s-50 -118.167 -50 -193.5z" />
    <glyph glyph-name="q" unicode="q" 
d="M530 -266l0.00195312 339.999c-42.667 -60 -103 -90 -181 -90c-45.333 0 -86.333 9 -123 27s-68.834 44.833 -96.501 80.5s-48.334 75.334 -62.001 119.001s-20.5 91.167 -20.5 142.5c0 118.667 28.5 207.667 85.5 267s125.833 89 206.5 89c86 0 153.667 -36 203 -108v92
h106v-959h-118zM168.002 348.999c0 -53.333 7.50098 -100.169 22.501 -140.502s36.833 -71.666 65.5 -93.999s62.667 -33.5 102 -33.5c60.667 0 106.5 24.833 137.5 74.5s46.5 110.5 46.5 182.5c0 80.667 -17 147.167 -51 199.5s-80.667 78.5 -140 78.5
c-60.667 0 -106.334 -25.167 -137.001 -75.5s-46 -114.166 -46 -191.499z" />
    <glyph glyph-name="r" unicode="r" horiz-adv-x="445" 
d="M87 0l0.00195312 693h106v-105c44 80.667 94 121 150 121c39.333 0 79.333 -12.667 120 -38l-40 -109c-28.667 17.333 -57.334 26 -86.001 26c-30 0 -54.833 -8.33301 -74.5 -25s-34.334 -44 -44.001 -82s-14.5 -77.333 -14.5 -118v-363h-117z" />
    <glyph glyph-name="s" unicode="s" horiz-adv-x="668" 
d="M41 207l116.003 17.9971c14 -96 74 -144 180 -144s159 36.667 159 110c0 26.667 -9.33301 46.334 -28 59.001s-61 27.334 -127 44.001c-42.667 10.667 -80.834 20.834 -114.501 30.501s-63.334 23.5 -89.001 41.5s-44.834 38.833 -57.501 62.5s-19 50.5 -19 80.5
c0 34.667 8.5 66.5 25.5 95.5s44.5 53.667 82.5 74s87 30.5 147 30.5c55.333 0 102.333 -7 141 -21s68.667 -34.833 90 -62.5s36 -64.834 44 -111.501l-115 -15c-11.333 75.333 -62 113 -152 113c-100 0 -150 -29.667 -150 -89c0 -16.667 4.83301 -31 14.5 -43
s21.334 -20.667 35.001 -26s51.5 -16.666 113.5 -33.999c16 -4 52.167 -13.667 108.5 -29s99 -38.833 128 -70.5s43.5 -70.5 43.5 -116.5c0 -68 -26.667 -121.667 -80 -161s-120 -59 -200 -59c-170.667 0 -269.334 74.333 -296.001 223z" />
    <glyph glyph-name="t" unicode="t" horiz-adv-x="371" 
d="M345 105l17.001 -104c-33.333 -6.66699 -63 -10 -89 -10c-36.667 0 -67.167 5.5 -91.5 16.5s-42.333 27.5 -54 49.5s-17.5 70.667 -17.5 146v399h-86v91h86v172l117 70v-242h118v-91h-118v-406c0 -31.333 2 -52.5 6 -63.5s11 -19 21 -24s23 -7.5 39 -7.5
c13.333 0 30.666 1.33301 51.999 4z" />
    <glyph glyph-name="u" unicode="u" 
d="M542 0l-0.00292969 102c-53.333 -78.667 -126.666 -118 -219.999 -118c-42.667 0 -79.5 6 -110.5 18s-56.167 30 -75.5 54s-32.5 51.5 -39.5 82.5s-10.5 72.833 -10.5 125.5v429h117v-384c0 -60 2.16699 -100.5 6.5 -121.5s12.333 -39.167 24 -54.5
s26.834 -27 45.501 -35s41 -12 67 -12c46.667 0 84.334 10.5 113.001 31.5s47.667 48.167 57 81.5s14 74.333 14 123v371h118v-693h-106z" />
    <glyph glyph-name="v" unicode="v" horiz-adv-x="668" 
d="M281 0l-264.001 693.001h124l149 -415c16 -44.667 30.667 -91.334 44 -140.001c10.667 36.667 25.334 80.667 44.001 132l154 423h121l-263 -693h-109z" />
    <glyph glyph-name="w" unicode="w" horiz-adv-x="965" 
d="M216 0l-212 693h121l152 -549c6.66699 32 18.667 79.667 36 143l110 406h121l138 -534l159 534h114l-217 -693h-122l-137 533l-140 -533h-123z" />
    <glyph glyph-name="x" unicode="x" horiz-adv-x="668" 
d="M10 0l253 360l-234 333h147l106 -162c16 -24 32 -50 48 -78l53 76l117 164h140l-239 -326l258 -367h-145l-180 274l-182 -274h-142z" />
    <glyph glyph-name="y" unicode="y" horiz-adv-x="668" 
d="M83 -267l-13.001 109.998c25.333 -6.66699 47.666 -10 66.999 -10c27.333 0 49.833 5.33301 67.5 16s30.334 24.334 38.001 41.001s20.834 51 39.501 103l3 6l-263 694h126l144 -401c21.333 -60 38.333 -113.667 51 -161c12.667 52.667 28.667 105.334 48 158.001
l148 404h118l-264 -705c-25.333 -67.333 -46.666 -118.5 -63.999 -153.5s-40.333 -63 -69 -84s-62.334 -31.5 -101.001 -31.5c-22.667 0 -48 4.66699 -76 14z" />
    <glyph glyph-name="z" unicode="z" horiz-adv-x="668" 
d="M26 0v95l441 507c-50 -2.66699 -94 -4 -132 -4h-283v95h567v-77l-448 -521c52.667 4 102 6 148 6h321v-101h-614z" />
    <glyph glyph-name="braceleft" unicode="{" horiz-adv-x="447" 
d="M37 400c33.333 0.666992 60.332 8.83105 80.999 24.498s34.834 39.167 42.501 70.5s11.5 83.333 11.5 156c0 72 1.66699 123.333 5 154s10.333 57 21 79s25.167 40.333 43.5 55s36.833 24 55.5 28s46 6 82 6h36v-102h-20c-49.333 0 -80.333 -9.33301 -93 -28
s-19 -54 -19 -106c0 -90.667 -1.83301 -156.5 -5.5 -197.5s-16.334 -78.5 -38.001 -112.5s-52.834 -61 -93.501 -81c40.667 -16 73.667 -43.833 99 -83.5s38 -109.834 38 -210.501c0 -77.333 0.5 -125.666 1.5 -144.999s5.16699 -35.833 12.5 -49.5s18.333 -23.167 33 -28.5
s36.334 -8 65.001 -8h20v-102h-36c-36.667 0 -64.5 2.33301 -83.5 7s-37.667 14.167 -56 28.5s-32.166 31.833 -41.499 52.5s-15 39.334 -17 56.001l-6 215c-2 70.667 -13 123.834 -33 159.501s-55 54.167 -105 55.5v107z" />
    <glyph glyph-name="bar" unicode="|" horiz-adv-x="347" 
d="M123 -281v1254h102v-1254h-102z" />
    <glyph glyph-name="braceright" unicode="}" horiz-adv-x="447" 
d="M409 400l0.000976562 -107.003c-50 -1.33301 -85.167 -18.666 -105.5 -51.999s-30.5 -97.666 -30.5 -192.999c0 -78.667 -1.16699 -131.167 -3.5 -157.5s-9 -51.666 -20 -75.999s-25.667 -44 -44 -59s-37.5 -24.833 -57.5 -29.5s-47 -7 -81 -7h-36v102h20
c49.333 0 80.333 9.33301 93 28s19 54.334 19 107.001c0 93.333 1.66699 160.333 5 201s16 78 38 112s53.333 59.667 94 77c-39.333 18.667 -69.333 42.167 -90 70.5s-33.667 63.833 -39 106.5s-9 132.667 -11 270c-3.33301 25.333 -11.333 44.666 -24 57.999s-41 20 -85 20
h-20v102h36c38.667 0 70 -3.33301 94 -10s45.667 -21 65 -43s31.833 -49 37.5 -81s8.5 -82 8.5 -150c0 -72 2.83301 -127.5 8.5 -166.5s18.667 -69 39 -90s50.166 -31.833 89.499 -32.5z" />
    <glyph glyph-name="asciitilde" unicode="~" horiz-adv-x="781" 
d="M57 364l-0.000976562 133c46 52.667 106.333 79 181 79c47.333 0 115.666 -19 204.999 -57c48.667 -20.667 86.334 -31 113.001 -31c58 0 114.333 30 169 90v-139c-53.333 -49.333 -113.666 -74 -180.999 -74c-46 0 -108.667 17.667 -188 53
c-50.667 22.667 -93.667 34 -129 34c-52 0 -108.667 -29.333 -170 -88z" />
    <glyph glyph-name="delete" horiz-adv-x="1024" 
 />
    <glyph glyph-name="exclamdown" unicode="&#xa1;" horiz-adv-x="445" 
d="M290 693v-134h-135v134h135zM260 455l36 -507v-212h-146v212l34 507h76z" />
    <glyph glyph-name="cent" unicode="&#xa2;" horiz-adv-x="743" 
d="M486 584l-144.999 -499.998c14 -4 27.333 -6 40 -6c100 0 159 58.667 177 176l117 -13c-14 -81.333 -48 -144.833 -102 -190.5s-117.667 -68.5 -191 -68.5c-24.667 0 -47 3 -67 9l-77 -258l-73 21l75 260c-113.333 58 -170 167.667 -170 329
c0 125.333 30.333 217.666 91 276.999s132.667 89 216 89c19.333 0 41.333 -1.66699 66 -5l73 253l72 -21l-73 -253c80 -32 129 -96.333 147 -193l-114 -18c-10.667 47.333 -31.334 84.666 -62.001 111.999zM416.001 614.002l-32 1c-128.667 0 -193 -88.667 -193 -266
c0 -115.333 26.667 -193 80 -233z" />
    <glyph glyph-name="sterling" unicode="&#xa3;" horiz-adv-x="743" 
d="M258 528l205.999 -0.000976562v-97h-185c8 -18 12 -37 12 -57c0 -84 -38.667 -167 -116 -249c35.333 9.33301 66.666 14 93.999 14c36.667 0 77.334 -5.33301 122.001 -16c74 -18 124.667 -27 152 -27c32 0 73.667 12 125 36l38 -107c-65.333 -27.333 -118 -41 -158 -41
c-21.333 0 -40 1.66699 -56 5l-85 23l-86 25c-23.333 3.33301 -43.666 5 -60.999 5c-69.333 0 -135 -20 -197 -60l-45 113c100 57.333 150 142.333 150 255c0 23.333 -3.66699 50.333 -11 81h-128v97h100c-22 72 -33 129.333 -33 172c0 88.667 29.5 156.334 88.5 203.001
s128.167 70 207.5 70c167.333 0 263.666 -82.333 288.999 -247l-116 -18c-17.333 112.667 -75.666 169 -174.999 169c-53.333 0 -94.833 -17.167 -124.5 -51.5s-44.5 -70.5 -44.5 -108.5c0 -46 12.333 -109 37 -189z" />
    <glyph glyph-name="currency" unicode="&#xa4;" horiz-adv-x="743" 
d="M139 627l-91.001 88.999l75 78l91 -91c46.667 31.333 98.334 47 155.001 47c57.333 0 108.666 -15.667 153.999 -47l91 91l76 -78l-91 -89c31.333 -47.333 47 -98.333 47 -153c0 -55.333 -15.667 -106.666 -47 -153.999l91 -89l-76 -78l-91 92
c-45.333 -32 -96.666 -48 -153.999 -48s-109 16 -155 48l-91 -92l-75 78l91 89c-30.667 46.667 -46 98 -46 154c0 54.667 15.333 105.667 46 153zM198.999 473.999c0 -41.333 14.667 -80 44 -116s71 -54 125 -54c40.667 0 79 14.833 115 44.5s54 71.5 54 125.5
c0 32 -7.66699 60.5 -23 85.5s-35.5 45.167 -60.5 60.5s-53.5 23 -85.5 23c-40.667 0 -79 -14.833 -115 -44.5s-54 -71.167 -54 -124.5z" />
    <glyph glyph-name="yen" unicode="&#xa5;" horiz-adv-x="743" 
d="M311 0v212h-271v91h271v93h-271v97h223l-265 464h131l189 -337c18 -32.667 34.333 -66 49 -100c12 26 30 61.333 54 106l179 331h140l-265 -464h223v-97h-269v-93h269v-91h-269v-212h-118z" />
    <glyph glyph-name="brokenbar" unicode="&#xa6;" horiz-adv-x="347" 
d="M225 973v-515h-102v515h102zM225 235v-516h-102v516h102z" />
    <glyph glyph-name="section" unicode="&#xa7;" horiz-adv-x="743" 
d="M93 -46l117.998 17c20 -102 75.667 -153 167 -153c44.667 0 79.5 11.5 104.5 34.5s37.5 49.167 37.5 78.5c0 20.667 -9.66699 43.667 -29 69s-91.666 76.333 -216.999 153c-83.333 50.667 -141 95.5 -173 134.5s-48 83.167 -48 132.5c0 94 49 155.667 147 185
c-56 52 -84 106 -84 162s21.833 104.333 65.5 145s101.167 61 172.5 61c161.333 0 252.333 -75.333 273 -226l-122 -13c-15.333 95.333 -62.333 143 -141 143c-43.333 0 -76.5 -11.667 -99.5 -35s-34.5 -46.333 -34.5 -69c0 -20.667 9 -43 27 -67s83.667 -70.333 197 -139
c112 -68.667 178 -121.167 198 -157.5s30 -71.833 30 -106.5c0 -82.667 -49.333 -145 -148 -187c69.333 -52 104 -113 104 -183c0 -60.667 -23.833 -111.5 -71.5 -152.5s-110.167 -61.5 -187.5 -61.5c-165.333 0 -260.666 78.333 -285.999 235zM474.998 159
c64 34 96 74.667 96 122c0 52.667 -60.333 115.667 -181 189c-55.333 34 -99.666 64 -132.999 90c-65.333 -36.667 -98 -79 -98 -127c0 -52 55 -111 165 -177c65.333 -38 115.666 -70.333 150.999 -97z" />
    <glyph glyph-name="dieresis" unicode="&#xa8;" horiz-adv-x="445" 
d="M40 829v134h123v-134h-123zM283 829v134h123v-134h-123z" />
    <glyph glyph-name="copyright" unicode="&#xa9;" horiz-adv-x="985" 
d="M495 973c132 0 247.001 -46.1689 345.001 -138.502s147 -210.5 147 -354.5c0 -137.333 -48.333 -253.666 -145 -348.999s-212.334 -143 -347.001 -143s-250.5 47.333 -347.5 142s-145.5 211.334 -145.5 350.001c0 137.333 47.167 253.833 141.5 349.5
s211.5 143.5 351.5 143.5zM495.001 891.998c-112.667 0 -209.332 -39.833 -289.999 -119.5s-121 -177.167 -121 -292.5c0 -113.333 39.667 -210 119 -290s176.666 -120 291.999 -120c112 0 208.333 39.167 289 117.5s121 175.833 121 292.5c0 118.667 -41.667 217 -125 295
s-178.333 117 -285 117zM653.003 400.998l80 -23.999c-32 -119.333 -111.333 -179 -238 -179c-66.667 0 -126.334 22.333 -179.001 67s-79 116 -79 214c0 89.333 24.333 158 73 206s112.334 72 191.001 72c115.333 0 189.333 -51.333 222 -154l-77 -19
c-28.667 66.667 -78 100 -148 100c-49.333 0 -90.333 -17.833 -123 -53.5s-49 -86.834 -49 -153.501c0 -134.667 55 -202 165 -202c85.333 0 139.333 42 162 126z" />
    <glyph glyph-name="ordfeminine" unicode="&#xaa;" horiz-adv-x="495" 
d="M358 557c-52.667 -46.667 -108.333 -70 -167 -70c-106.667 0 -160 47.667 -160 143c0 62 31.333 104 94 126l65 14l96 14l63 13c0 66.667 -34.333 100 -103 100c-64.667 0 -100.667 -27.333 -108 -82l-90 22c16 90.667 82.333 136 199 136
c130.667 0 196 -52.667 196 -158v-156l-1 -40c0 -59.333 9 -99.333 27 -120h-97c-9.33301 18.667 -14 38 -14 58zM348.001 721c-49.333 -11.333 -98.333 -20.833 -147 -28.5s-73 -28.5 -73 -62.5c0 -43.333 28.333 -65 85 -65c90 0 135 52 135 156z" />
    <glyph glyph-name="guillemotleft" unicode="&#xab;" horiz-adv-x="743" 
d="M222 345l169 -298h-95l-209 298l209 297h96zM475 345l172 -298h-99l-205 298l205 297h99z" />
    <glyph glyph-name="logicalnot" unicode="&#xac;" horiz-adv-x="781" 
d="M706 277h-111v286h-521v109h632v-395z" />
    <glyph glyph-name="minus" unicode="&#xad;" horiz-adv-x="445" 
d="M42 287v118h361v-118h-361z" />
    <glyph glyph-name="registered" unicode="&#xae;" horiz-adv-x="985" 
d="M495 973c132 0 247.001 -46.1689 345.001 -138.502s147 -210.5 147 -354.5c0 -137.333 -48.333 -253.666 -145 -348.999s-212.334 -143 -347.001 -143s-250.5 47.333 -347.5 142s-145.5 211.334 -145.5 350.001c0 137.333 47.167 253.833 141.5 349.5
s211.5 143.5 351.5 143.5zM495.001 891.998c-112.667 0 -209.332 -39.833 -289.999 -119.5s-121 -177.167 -121 -292.5c0 -113.333 39.667 -210 119 -290s176.666 -120 291.999 -120c112 0 208.333 39.167 289 117.5s121 175.833 121 292.5c0 118.667 -41.667 217 -125 295
s-178.333 117 -285 117zM279.003 207.998v530.002h182c150.667 0 226 -47.667 226 -143c0 -38.667 -13.833 -72.334 -41.5 -101.001s-64.167 -45 -109.5 -49c32.667 -10 73.667 -54.333 123 -133l65 -104h-105l-47 84c-34 61.333 -60.833 100.166 -80.5 116.499
s-45.5 24.5 -77.5 24.5h-50v-225h-85zM364.003 506h104c86 0 129 27 129 81c0 52.667 -45.333 79 -136 79h-97v-160z" />
    <glyph glyph-name="macron" unicode="&#xaf;" horiz-adv-x="738" 
d="M-20 1022v84h778v-84h-778z" />
    <glyph glyph-name="degree" unicode="&#xb0;" horiz-adv-x="535" 
d="M84 792c0 50 17.501 92.667 52.501 128s77.5 53 127.5 53c50.667 0 93.667 -17.667 129 -53s53 -78 53 -128c0 -49.333 -17.833 -91.833 -53.5 -127.5s-78.5 -53.5 -128.5 -53.5c-48.667 0 -90.834 17.5 -126.501 52.5s-53.5 77.833 -53.5 128.5zM155.001 792
c0 -20.667 4.83105 -39.166 14.498 -55.499s22.834 -29.5 39.501 -39.5s35.334 -15 56.001 -15c25.333 0 50 10 74 30s36 46.667 36 80c0 30 -10.833 56 -32.5 78s-47.5 33 -77.5 33c-26 0 -50.833 -9.83301 -74.5 -29.5s-35.5 -46.834 -35.5 -81.501z" />
    <glyph glyph-name="plusminus" unicode="&#xb1;" horiz-adv-x="734" 
d="M311 170v263h-260v109h260v260h111v-260h261v-109h-261v-263h-111zM683 0h-632v110h632v-110z" />
    <glyph glyph-name="twosuperior" unicode="&#xb2;" horiz-adv-x="445" 
d="M16 478c4.66699 54.667 59.668 120.664 165.001 197.997c68 50 107.833 82.5 119.5 97.5s17.5 30.5 17.5 46.5c0 48 -30 72 -90 72c-53.333 0 -86.333 -25 -99 -75l-99 11c23.333 94 90 141 200 141c126.667 0 190 -44.333 190 -133
c0 -27.333 -7.83301 -55.166 -23.5 -83.499s-65.167 -72.166 -148.5 -131.499c-34.667 -25.333 -60.334 -46.666 -77.001 -63.999h252v-79h-407z" />
    <glyph glyph-name="threesuperior" unicode="&#xb3;" horiz-adv-x="445" 
d="M22 606l95 10.001c14.667 -48.667 48 -73 100 -73c68.667 0 103 29 103 87c0 48 -34.667 72 -104 72l-21 -2h-15l15 71c67.333 0 101 22.333 101 67c0 38.667 -25.667 58 -77 58c-46 0 -77 -22 -93 -66l-93 15c29.333 82.667 91.333 124 186 124
c120 0 180 -40.667 180 -122c0 -51.333 -30 -86.333 -90 -105c75.333 -18.667 113 -60.334 113 -125.001c0 -40 -17.167 -75 -51.5 -105s-83.5 -45 -147.5 -45c-116 0 -183 46.333 -201 139z" />
    <glyph glyph-name="acute" unicode="&#xb4;" horiz-adv-x="445" 
d="M145 779l87 183h154l-144 -183h-97z" />
    <glyph glyph-name="mu" unicode="&#xb5;" horiz-adv-x="770" 
d="M664 693l0.000976562 -693.001h-105v82c-38.667 -65.333 -96.334 -98 -173.001 -98c-67.333 0 -122.333 28.667 -165 86v-336h-117v959h117v-294c0 -117.333 11.167 -198.166 33.5 -242.499s64.5 -66.5 126.5 -66.5c60 0 103 21 129 63s39 123.333 39 244v296h115z" />
    <glyph glyph-name="paragraph" unicode="&#xb6;" horiz-adv-x="718" 
d="M264 -266v682.001c-74.667 0 -137.167 24.5 -187.5 73.5s-75.5 112.833 -75.5 191.5c0 73.333 23.5 137.666 70.5 192.999s126.167 83 237.5 83h414v-113h-94v-1110h-111v1110h-146v-1110h-108z" />
    <glyph glyph-name="periodcentered" unicode="&#xb7;" horiz-adv-x="371" 
d="M121 404v134h134v-134h-134z" />
    <glyph glyph-name="periodcentered" unicode="&#x2219;" horiz-adv-x="371" 
d="M121 404v134h134v-134h-134z" />
    <glyph glyph-name="cedilla" unicode="&#xb8;" horiz-adv-x="445" 
d="M141 -101l34 116h87l-21 -70c74 -8 111 -40 111 -96c0 -28.667 -14.333 -56.5 -43 -83.5s-77 -40.5 -145 -40.5c-34 0 -65.333 2.66699 -94 8l7 76l61 -2c70 0 105 16.333 105 49c0 28.667 -34 43 -102 43z" />
    <glyph glyph-name="onesuperior" unicode="&#xb9;" horiz-adv-x="445" 
d="M216 478l0.000976562 361.999c-42.667 -34 -91.334 -58.667 -146.001 -74v81c66 22.667 122.667 63.334 170 122.001h71v-491h-95z" />
    <glyph glyph-name="ordmasculine" unicode="&#xba;" horiz-adv-x="488" 
d="M243 973c72.667 0 126.667 -24.333 162 -73s53 -106 53 -172s-17.833 -123.333 -53.5 -172s-89.167 -73 -160.5 -73c-62.667 0 -114.167 21.5 -154.5 64.5s-60.5 102.167 -60.5 177.5c0 78 20 138.833 60 182.5s91.333 65.5 154 65.5zM243 886
c-78 0 -117 -52.667 -117 -158c0 -106 39 -159 117 -159c78.667 0 118 54 118 162c0 103.333 -39.333 155 -118 155z" />
    <glyph glyph-name="guillemotright" unicode="&#xbb;" horiz-adv-x="743" 
d="M516 345l-170 297h97l208 -297l-208 -298h-96zM264 345l-173 297h99l205 -297l-205 -298h-99z" />
    <glyph glyph-name="onequarter" unicode="&#xbc;" horiz-adv-x="1115" 
d="M164 -37l720 1010h102l-719 -1010h-103zM216 478l0.000976562 361.999c-42.667 -34 -91.334 -58.667 -146.001 -74v81c66 22.667 122.667 63.334 170 122.001h71v-491h-95zM933.001 -20.001v100h-250v81l265 309h79v-319h68v-71h-68v-100h-94zM933.001 150.999v171
l-150 -171h150z" />
    <glyph glyph-name="onehalf" unicode="&#xbd;" horiz-adv-x="1115" 
d="M149 -37l718 1010h103l-719 -1010h-102zM216 478l0.000976562 361.999c-42.667 -34 -91.334 -58.667 -146.001 -74v81c66 22.667 122.667 63.334 170 122.001h71v-491h-95zM685.001 -20.001c0 51.333 55 117.332 165 197.999c90.667 64.667 136 112.334 136 143.001
c0 47.333 -30 71 -90 71c-49.333 0 -82.333 -24.333 -99 -73l-99 9c24 94.667 90.667 142 200 142c127.333 0 191 -44.333 191 -133c0 -36 -11.167 -68 -33.5 -96s-68.5 -68 -138.5 -120c-30.667 -21.333 -56.667 -42 -78 -62h252v-79h-406z" />
    <glyph glyph-name="threequarters" unicode="&#xbe;" horiz-adv-x="1115" 
d="M164 -37l719 1010h103l-719 -1010h-103zM22 606l95 10.001c14.667 -48.667 48 -73 100 -73c68.667 0 103 29 103 87c0 48 -34 72 -102 72l-38 -2l15 71c67.333 0 101 22.333 101 67c0 38.667 -25.667 58 -77 58c-46 0 -77 -22 -93 -66l-93 15
c29.333 82.667 91.333 124 186 124c120 0 180 -40.667 180 -122c0 -51.333 -30 -86.333 -90 -105c75.333 -18.667 113 -60.334 113 -125.001c0 -40 -17.167 -75 -51.5 -105s-83.5 -45 -147.5 -45c-116 0 -183 46.333 -201 139zM933 -19.999v100h-250v81l264 309h80v-319h68
v-71h-68v-100h-94zM933 151.001v171l-150 -171h150z" />
    <glyph glyph-name="questiondown" unicode="&#xbf;" horiz-adv-x="817" 
d="M478 693v-134h-133v134h133zM471 458l-0.000976562 -34c0 -63.333 -10.167 -112.833 -30.5 -148.5s-60.166 -79.167 -119.499 -130.5c-64.667 -56 -97 -108 -97 -156c0 -46 17.833 -86.167 53.5 -120.5s79.5 -51.5 131.5 -51.5c106.667 0 170.334 64.333 191.001 193
l120 -14c-25.333 -184 -128.333 -276 -309 -276c-94.667 0 -169.667 25.5 -225 76.5s-83 112.5 -83 184.5c0 78 48 159.333 144 244c47.333 42 77.666 75.833 90.999 101.5s20 69.5 20 131.5h113z" />
    <glyph glyph-name="Agrave" unicode="&#xc0;" horiz-adv-x="892" 
d="M-2 0l368 957h136l392 -957h-145l-111 290h-400l-105 -290h-135zM274 393h325l-100 265c-33.333 88.667 -56 154.667 -68 198c-12 -61.333 -29.333 -122 -52 -182zM464 1049h-95l-151 183h157z" />
    <glyph glyph-name="Aacute" unicode="&#xc1;" horiz-adv-x="892" 
d="M-2 0l368 957h136l392 -957h-145l-111 290h-400l-105 -290h-135zM274 393h325l-100 265c-33.333 88.667 -56 154.667 -68 198c-12 -61.333 -29.333 -122 -52 -182zM365 1049l87 183h154l-144 -183h-97z" />
    <glyph glyph-name="Acircumflex" unicode="&#xc2;" horiz-adv-x="892" 
d="M-2 0l368 957h136l392 -957h-145l-111 290h-400l-105 -290h-135zM274 393h325l-100 265c-33.333 88.667 -56 154.667 -68 198c-12 -61.333 -29.333 -122 -52 -182zM430 1160l-74 -111h-135l141 183h126l146 -183h-133z" />
    <glyph glyph-name="Atilde" unicode="&#xc3;" horiz-adv-x="892" 
d="M-2 0l368 957h136l392 -957h-145l-111 290h-400l-105 -290h-135zM274 393h325l-100 265c-33.333 88.667 -56 154.667 -68 198c-12 -61.333 -29.333 -122 -52 -182zM205 1046c0 98.667 43.998 148 131.998 148c27.333 0 64 -11.667 110 -35c25.333 -12.667 46 -19 62 -19
c26.667 0 42.334 18.667 47.001 56h85c0 -98.667 -42.667 -148 -128 -148c-28.667 0 -64.667 12 -108 36c-29.333 16 -50.666 24 -63.999 24c-33.333 0 -50 -20.667 -50 -62h-86z" />
    <glyph glyph-name="Adieresis" unicode="&#xc4;" horiz-adv-x="892" 
d="M-2 0l368 957h136l392 -957h-145l-111 290h-400l-105 -290h-135zM274 393h325l-100 265c-33.333 88.667 -56 154.667 -68 198c-12 -61.333 -29.333 -122 -52 -182zM240 1079v134h123v-134h-123zM483 1079v134h123v-134h-123z" />
    <glyph glyph-name="Aring" unicode="&#xc5;" horiz-adv-x="892" 
d="M-2 0l368 957h136l392 -957h-145l-111 290h-400l-105 -290h-135zM274 393h325l-100 265c-33.333 88.667 -56 154.667 -68 198c-12 -61.333 -29.333 -122 -52 -182zM306 1153c0 33.333 11.667 61.167 35 83.5s50.666 33.5 81.999 33.5c28 0 54.667 -10.5 80 -31.5
s38 -50.167 38 -87.5c0 -34 -11.667 -62.5 -35 -85.5s-50.666 -34.5 -81.999 -34.5c-28.667 0 -55.5 10.333 -80.5 31s-37.5 51 -37.5 91zM355 1153c0 -48.667 23.332 -73 69.999 -73c16.667 0 32.334 7 47.001 21s22 30.667 22 50c0 47.333 -23 71 -69 71
c-46.667 0 -70 -23 -70 -69z" />
    <glyph glyph-name="AE" unicode="&#xc6;" horiz-adv-x="1337" 
d="M1 0l460 957h785v-113h-481v-294h447v-113h-447v-324h499v-113h-626v276h-370l-130 -276h-137zM322 388h316v456h-95z" />
    <glyph glyph-name="Ccedilla" unicode="&#xc7;" horiz-adv-x="965" 
d="M786 336l127.001 -32c-54.667 -213.333 -187 -320 -397 -320c-154 0 -267.333 48.167 -340 144.5s-109 215.5 -109 357.5c0 161.333 43.333 282.833 130 364.5s193.667 122.5 321 122.5c198 0 324 -92.667 378 -278l-124 -30c-42.667 133.333 -128 200 -256 200
c-103.333 0 -182.333 -33.333 -237 -100s-82 -159.667 -82 -279c0 -138 29.5 -238.167 88.5 -300.5s132.5 -93.5 220.5 -93.5c151.333 0 244.666 81.333 279.999 244zM431.001 -101l34 116h87l-21 -70c74 -8 111 -40 111 -96c0 -28.667 -14.333 -56.5 -43 -83.5
s-77 -40.5 -145 -40.5c-34 0 -65.333 2.66699 -94 8l7 76l61 -2c70 0 105 16.333 105 49c0 28.667 -34 43 -102 43z" />
    <glyph glyph-name="Egrave" unicode="&#xc8;" horiz-adv-x="892" 
d="M106 0v957h692v-113h-566v-293h530v-112h-530v-326h588v-113h-714zM514 1059h-95l-151 183h157z" />
    <glyph glyph-name="Eacute" unicode="&#xc9;" horiz-adv-x="892" 
d="M106 0v957h692v-113h-566v-293h530v-112h-530v-326h588v-113h-714zM375 1059l87 183h154l-144 -183h-97z" />
    <glyph glyph-name="Ecircumflex" unicode="&#xca;" horiz-adv-x="892" 
d="M106 0v957h692v-113h-566v-293h530v-112h-530v-326h588v-113h-714zM455 1170l-74 -111h-135l141 183h126l146 -183h-133z" />
    <glyph glyph-name="Edieresis" unicode="&#xcb;" horiz-adv-x="892" 
d="M106 0v957h692v-113h-566v-293h530v-112h-530v-326h588v-113h-714zM270 1079v134h123v-134h-123zM513 1079v134h123v-134h-123z" />
    <glyph glyph-name="Igrave" unicode="&#xcc;" horiz-adv-x="371" 
d="M125 0v957h126v-957h-126zM254 1059h-95l-151 183h157z" />
    <glyph glyph-name="Iacute" unicode="&#xcd;" horiz-adv-x="371" 
d="M125 0v957h126v-957h-126zM125 1059l87 183h154l-144 -183h-97z" />
    <glyph glyph-name="Icircumflex" unicode="&#xce;" horiz-adv-x="371" 
d="M125 0v957h126v-957h-126zM185 1170l-74 -111h-135l141 183h126l146 -183h-133z" />
    <glyph glyph-name="Idieresis" unicode="&#xcf;" horiz-adv-x="371" 
d="M125 0v957h126v-957h-126zM0 1079v134h123v-134h-123zM243 1079v134h123v-134h-123z" />
    <glyph glyph-name="Eth" unicode="&#xd0;" horiz-adv-x="965" 
d="M103 0l0.000976562 435h-105v87h105v435h330c102 0 183.167 -13 243.5 -39s111.666 -76 153.999 -150s63.5 -168.667 63.5 -284c0 -322.667 -148.667 -484 -446 -484h-345zM230.001 113h204c76 0 136.333 10.167 181 30.5s80.667 60 108 119s41 133.167 41 222.5
c0 84.667 -12.667 154.667 -38 210s-59.833 94 -103.5 116s-107.5 33 -191.5 33h-201v-322h263v-87h-263v-322z" />
    <glyph glyph-name="Ntilde" unicode="&#xd1;" horiz-adv-x="965" 
d="M102 0v957h130l502 -751v751h122v-957h-130l-503 752v-752h-121zM285 1036c0 98.667 43.998 148 131.998 148c27.333 0 64 -11.667 110 -35c25.333 -12.667 46 -19 62 -19c26.667 0 42.334 18.667 47.001 56h85c0 -98.667 -42.667 -148 -128 -148
c-28.667 0 -64.667 12 -108 36c-29.333 16 -50.666 24 -63.999 24c-33.333 0 -50 -20.667 -50 -62h-86z" />
    <glyph glyph-name="Ograve" unicode="&#xd2;" horiz-adv-x="1040" 
d="M65 466c0 96 17.002 181.667 51.002 257s85.333 136 154 182s153 69 253 69c66.667 0 128.167 -12 184.5 -36s104.666 -57.5 144.999 -100.5s71.666 -95.333 93.999 -157s33.5 -129.5 33.5 -203.5c0 -102.667 -18.5 -190 -55.5 -262s-92 -128.5 -165 -169.5
s-152.167 -61.5 -237.5 -61.5c-88 0 -167.667 21.167 -239 63.5s-125.5 101 -162.5 176s-55.5 155.833 -55.5 242.5zM195.002 464c0 -76 14.167 -141.999 42.5 -197.999s66.333 -99 114 -129s104.5 -45 170.5 -45c102.667 0 182.834 35.5 240.501 106.5
s86.5 164.167 86.5 279.5c0 79.333 -13.667 148.166 -41 206.499s-64.833 103 -112.5 134s-104.834 46.5 -171.501 46.5c-53.333 0 -100.333 -8.83301 -141 -26.5s-75.167 -44.167 -103.5 -79.5s-49.5 -77.5 -63.5 -126.5s-21 -105.167 -21 -168.5zM554.002 1059h-95
l-151 183h157z" />
    <glyph glyph-name="Oacute" unicode="&#xd3;" horiz-adv-x="1040" 
d="M65 466c0 96 17.002 181.667 51.002 257s85.333 136 154 182s153 69 253 69c66.667 0 128.167 -12 184.5 -36s104.666 -57.5 144.999 -100.5s71.666 -95.333 93.999 -157s33.5 -129.5 33.5 -203.5c0 -102.667 -18.5 -190 -55.5 -262s-92 -128.5 -165 -169.5
s-152.167 -61.5 -237.5 -61.5c-88 0 -167.667 21.167 -239 63.5s-125.5 101 -162.5 176s-55.5 155.833 -55.5 242.5zM195.002 464c0 -76 14.167 -141.999 42.5 -197.999s66.333 -99 114 -129s104.5 -45 170.5 -45c102.667 0 182.834 35.5 240.501 106.5
s86.5 164.167 86.5 279.5c0 79.333 -13.667 148.166 -41 206.499s-64.833 103 -112.5 134s-104.834 46.5 -171.501 46.5c-53.333 0 -100.333 -8.83301 -141 -26.5s-75.167 -44.167 -103.5 -79.5s-49.5 -77.5 -63.5 -126.5s-21 -105.167 -21 -168.5zM455.002 1059l87 183h154
l-144 -183h-97z" />
    <glyph glyph-name="Ocircumflex" unicode="&#xd4;" horiz-adv-x="1040" 
d="M65 466c0 96 17.002 181.667 51.002 257s85.333 136 154 182s153 69 253 69c66.667 0 128.167 -12 184.5 -36s104.666 -57.5 144.999 -100.5s71.666 -95.333 93.999 -157s33.5 -129.5 33.5 -203.5c0 -102.667 -18.5 -190 -55.5 -262s-92 -128.5 -165 -169.5
s-152.167 -61.5 -237.5 -61.5c-88 0 -167.667 21.167 -239 63.5s-125.5 101 -162.5 176s-55.5 155.833 -55.5 242.5zM195.002 464c0 -76 14.167 -141.999 42.5 -197.999s66.333 -99 114 -129s104.5 -45 170.5 -45c102.667 0 182.834 35.5 240.501 106.5
s86.5 164.167 86.5 279.5c0 79.333 -13.667 148.166 -41 206.499s-64.833 103 -112.5 134s-104.834 46.5 -171.501 46.5c-53.333 0 -100.333 -8.83301 -141 -26.5s-75.167 -44.167 -103.5 -79.5s-49.5 -77.5 -63.5 -126.5s-21 -105.167 -21 -168.5zM525.002 1170l-74 -111
h-135l141 183h126l146 -183h-133z" />
    <glyph glyph-name="Otilde" unicode="&#xd5;" horiz-adv-x="1040" 
d="M65 466c0 96 17.002 181.667 51.002 257s85.333 136 154 182s153 69 253 69c66.667 0 128.167 -12 184.5 -36s104.666 -57.5 144.999 -100.5s71.666 -95.333 93.999 -157s33.5 -129.5 33.5 -203.5c0 -102.667 -18.5 -190 -55.5 -262s-92 -128.5 -165 -169.5
s-152.167 -61.5 -237.5 -61.5c-88 0 -167.667 21.167 -239 63.5s-125.5 101 -162.5 176s-55.5 155.833 -55.5 242.5zM195.002 464c0 -76 14.167 -141.999 42.5 -197.999s66.333 -99 114 -129s104.5 -45 170.5 -45c102.667 0 182.834 35.5 240.501 106.5
s86.5 164.167 86.5 279.5c0 79.333 -13.667 148.166 -41 206.499s-64.833 103 -112.5 134s-104.834 46.5 -171.501 46.5c-53.333 0 -100.333 -8.83301 -141 -26.5s-75.167 -44.167 -103.5 -79.5s-49.5 -77.5 -63.5 -126.5s-21 -105.167 -21 -168.5zM295.002 1046
c0 98.667 43.998 148 131.998 148c27.333 0 64 -11.667 110 -35c25.333 -12.667 46 -19 62 -19c26.667 0 42.334 18.667 47.001 56h85c0 -98.667 -42.667 -148 -128 -148c-28.667 0 -64.667 12 -108 36c-29.333 16 -50.666 24 -63.999 24c-33.333 0 -50 -20.667 -50 -62h-86
z" />
    <glyph glyph-name="Odieresis" unicode="&#xd6;" horiz-adv-x="1040" 
d="M65 466c0 96 17.002 181.667 51.002 257s85.333 136 154 182s153 69 253 69c66.667 0 128.167 -12 184.5 -36s104.666 -57.5 144.999 -100.5s71.666 -95.333 93.999 -157s33.5 -129.5 33.5 -203.5c0 -102.667 -18.5 -190 -55.5 -262s-92 -128.5 -165 -169.5
s-152.167 -61.5 -237.5 -61.5c-88 0 -167.667 21.167 -239 63.5s-125.5 101 -162.5 176s-55.5 155.833 -55.5 242.5zM195.002 464c0 -76 14.167 -141.999 42.5 -197.999s66.333 -99 114 -129s104.5 -45 170.5 -45c102.667 0 182.834 35.5 240.501 106.5
s86.5 164.167 86.5 279.5c0 79.333 -13.667 148.166 -41 206.499s-64.833 103 -112.5 134s-104.834 46.5 -171.501 46.5c-53.333 0 -100.333 -8.83301 -141 -26.5s-75.167 -44.167 -103.5 -79.5s-49.5 -77.5 -63.5 -126.5s-21 -105.167 -21 -168.5zM335.002 1079v134h123
v-134h-123zM578.002 1079v134h123v-134h-123z" />
    <glyph glyph-name="multiply" unicode="&#xd7;" horiz-adv-x="781" 
d="M105 267l206 206l-205 204l79 80l205 -205l205 204l78 -79l-204 -204l205 -205l-79 -79l-205 205l-206 -206z" />
    <glyph glyph-name="Oslash" unicode="&#xd8;" horiz-adv-x="1040" 
d="M816 869l110 123l64 -55l-115 -129c68 -96.667 102 -206.667 102 -330c0 -154.667 -43.333 -275.667 -130 -363s-194.667 -131 -324 -131c-104 0 -202.333 33.333 -295 100l-109 -123l-65 55l115 129c-71.333 106 -107 216.333 -107 331c0 150 42.667 270.333 128 361
s196 136 332 136c108 0 206 -34.667 294 -104zM738 781c-68.667 56 -140.667 84 -216 84c-94.667 0 -173.167 -32.167 -235.5 -96.5s-93.5 -161.166 -93.5 -290.499c0 -88.667 19.333 -169.334 58 -242.001zM791 714l-485 -543.001c64 -52.667 135 -79 213 -79
c96.667 0 175.5 34.333 236.5 103s91.5 162 91.5 280c0 88.667 -18.667 168.334 -56 239.001z" />
    <glyph glyph-name="Ugrave" unicode="&#xd9;" horiz-adv-x="965" 
d="M731 957h127v-553c0 -92.667 -8.83301 -163.334 -26.5 -212.001s-42 -88 -73 -118s-69.5 -52.5 -115.5 -67.5s-99 -22.5 -159 -22.5c-124.667 0 -219 30 -283 90s-96 170 -96 330v553h127v-552c0 -76 5.5 -130.833 16.5 -164.5s26.5 -60.667 46.5 -81
s44.833 -35.666 74.5 -45.999s64.167 -15.5 103.5 -15.5c56 0 102.667 8 140 24s66.333 44 87 84s31 106.333 31 199v552zM534 1059h-95l-151 183h157z" />
    <glyph glyph-name="Uacute" unicode="&#xda;" horiz-adv-x="965" 
d="M731 957h127v-553c0 -92.667 -8.83301 -163.334 -26.5 -212.001s-42 -88 -73 -118s-69.5 -52.5 -115.5 -67.5s-99 -22.5 -159 -22.5c-124.667 0 -219 30 -283 90s-96 170 -96 330v553h127v-552c0 -76 5.5 -130.833 16.5 -164.5s26.5 -60.667 46.5 -81
s44.833 -35.666 74.5 -45.999s64.167 -15.5 103.5 -15.5c56 0 102.667 8 140 24s66.333 44 87 84s31 106.333 31 199v552zM395 1059l87 183h154l-144 -183h-97z" />
    <glyph glyph-name="Ucircumflex" unicode="&#xdb;" horiz-adv-x="965" 
d="M731 957h127v-553c0 -92.667 -8.83301 -163.334 -26.5 -212.001s-42 -88 -73 -118s-69.5 -52.5 -115.5 -67.5s-99 -22.5 -159 -22.5c-124.667 0 -219 30 -283 90s-96 170 -96 330v553h127v-552c0 -76 5.5 -130.833 16.5 -164.5s26.5 -60.667 46.5 -81
s44.833 -35.666 74.5 -45.999s64.167 -15.5 103.5 -15.5c56 0 102.667 8 140 24s66.333 44 87 84s31 106.333 31 199v552zM480 1170l-74 -111h-135l141 183h126l146 -183h-133z" />
    <glyph glyph-name="Udieresis" unicode="&#xdc;" horiz-adv-x="965" 
d="M731 957h127v-553c0 -92.667 -8.83301 -163.334 -26.5 -212.001s-42 -88 -73 -118s-69.5 -52.5 -115.5 -67.5s-99 -22.5 -159 -22.5c-124.667 0 -219 30 -283 90s-96 170 -96 330v553h127v-552c0 -76 5.5 -130.833 16.5 -164.5s26.5 -60.667 46.5 -81
s44.833 -35.666 74.5 -45.999s64.167 -15.5 103.5 -15.5c56 0 102.667 8 140 24s66.333 44 87 84s31 106.333 31 199v552zM300 1079v134h123v-134h-123zM543 1079v134h123v-134h-123z" />
    <glyph glyph-name="Yacute" unicode="&#xdd;" horiz-adv-x="892" 
d="M373 0v405l-369 552h154l189 -289c30 -45.333 62.333 -99 97 -161c37.333 64 72 120.333 104 169l186 281h147l-382 -552v-405h-126zM365 1059l87 183h154l-144 -183h-97z" />
    <glyph glyph-name="Thorn" unicode="&#xde;" horiz-adv-x="892" 
d="M103 0v957h127v-195h234c124 0 216.5 -21.167 277.5 -63.5s91.5 -113.5 91.5 -213.5c0 -193.333 -119.333 -290 -358 -290h-245v-195h-127zM230 307h246.999c150.667 0 226 58 226 174c0 58 -17.167 100.5 -51.5 127.5s-93.166 40.5 -176.499 40.5h-245v-342z" />
    <glyph glyph-name="germandbls" unicode="&#xdf;" horiz-adv-x="817" 
d="M100 0l-0.00195312 652c0 214 93 321 279 321c74 0 132.833 -18.833 176.5 -56.5s65.5 -81.167 65.5 -130.5c0 -41.333 -18 -93.666 -54 -156.999l-38 -73c-4.66699 -8.66699 -7 -20.667 -7 -36c0 -30 31 -64.667 93 -104c60 -39.333 101.667 -73.5 125 -102.5
s35 -65.5 35 -109.5c0 -60 -22.333 -111.667 -67 -155s-101.667 -65 -171 -65c-108.667 0 -187.667 52.333 -237 157l101 47c36 -72 80.667 -108 134 -108c28.667 0 55.834 10.167 81.501 30.5s38.5 48.166 38.5 83.499c0 37.333 -31.333 77.333 -94 120
c-73.333 50.667 -118.333 88.167 -135 112.5s-25 49.5 -25 75.5c0 32 17 77 51 135c36 59.333 54 105 54 137c0 23.333 -11 46.333 -33 69s-54.333 34 -97 34c-45.333 0 -83.166 -14.333 -113.499 -43s-45.5 -91 -45.5 -187v-647h-117z" />
    <glyph glyph-name="agrave" unicode="&#xe0;" 
d="M541 86c-80 -68 -165.333 -102 -256 -102c-72 0 -129.5 17.833 -172.5 53.5s-64.5 84.167 -64.5 145.5c0 35.333 7.66699 67 23 95s40.666 52.833 75.999 74.5s93.333 37.5 174 47.5c96.667 12 166.667 25.333 210 40v31c0 94 -55.667 141 -167 141
c-60.667 0 -103.167 -11.333 -127.5 -34s-42.166 -55.334 -53.499 -98.001l-114 15c30 142.667 134 214 312 214c50 0 92.833 -5.33301 128.5 -16s64.667 -26.667 87 -48s36.833 -45.333 43.5 -72s10 -68.667 10 -126v-305c0 -14.667 2.83301 -36 8.5 -64
s15.167 -54 28.5 -78h-123c-12 24.667 -19.667 53.334 -23 86.001zM531 348c-41.333 -16.667 -105.333 -31.332 -192 -43.999c-70 -10 -115 -25 -135 -45s-30 -44.333 -30 -73c0 -73.333 46.333 -110 139 -110c32.667 0 62 4.16699 88 12.5s48.5 21.166 67.5 38.499
s34.167 38.833 45.5 64.5s17 63.5 17 113.5v43zM436 779.002h-95l-151 183h157z" />
    <glyph glyph-name="aacute" unicode="&#xe1;" 
d="M541 86c-80 -68 -165.333 -102 -256 -102c-72 0 -129.5 17.833 -172.5 53.5s-64.5 84.167 -64.5 145.5c0 35.333 7.66699 67 23 95s40.666 52.833 75.999 74.5s93.333 37.5 174 47.5c96.667 12 166.667 25.333 210 40v31c0 94 -55.667 141 -167 141
c-60.667 0 -103.167 -11.333 -127.5 -34s-42.166 -55.334 -53.499 -98.001l-114 15c30 142.667 134 214 312 214c50 0 92.833 -5.33301 128.5 -16s64.667 -26.667 87 -48s36.833 -45.333 43.5 -72s10 -68.667 10 -126v-305c0 -14.667 2.83301 -36 8.5 -64
s15.167 -54 28.5 -78h-123c-12 24.667 -19.667 53.334 -23 86.001zM531 348c-41.333 -16.667 -105.333 -31.332 -192 -43.999c-70 -10 -115 -25 -135 -45s-30 -44.333 -30 -73c0 -73.333 46.333 -110 139 -110c32.667 0 62 4.16699 88 12.5s48.5 21.166 67.5 38.499
s34.167 38.833 45.5 64.5s17 63.5 17 113.5v43zM307 779.002l87 183h154l-144 -183h-97z" />
    <glyph glyph-name="acircumflex" unicode="&#xe2;" 
d="M541 86c-80 -68 -165.333 -102 -256 -102c-72 0 -129.5 17.833 -172.5 53.5s-64.5 84.167 -64.5 145.5c0 35.333 7.66699 67 23 95s40.666 52.833 75.999 74.5s93.333 37.5 174 47.5c96.667 12 166.667 25.333 210 40v31c0 94 -55.667 141 -167 141
c-60.667 0 -103.167 -11.333 -127.5 -34s-42.166 -55.334 -53.499 -98.001l-114 15c30 142.667 134 214 312 214c50 0 92.833 -5.33301 128.5 -16s64.667 -26.667 87 -48s36.833 -45.333 43.5 -72s10 -68.667 10 -126v-305c0 -14.667 2.83301 -36 8.5 -64
s15.167 -54 28.5 -78h-123c-12 24.667 -19.667 53.334 -23 86.001zM531 348c-41.333 -16.667 -105.333 -31.332 -192 -43.999c-70 -10 -115 -25 -135 -45s-30 -44.333 -30 -73c0 -73.333 46.333 -110 139 -110c32.667 0 62 4.16699 88 12.5s48.5 21.166 67.5 38.499
s34.167 38.833 45.5 64.5s17 63.5 17 113.5v43zM371 890.002l-74 -111h-135l141 183h126l146 -183h-133z" />
    <glyph glyph-name="atilde" unicode="&#xe3;" 
d="M541 86c-80 -68 -165.333 -102 -256 -102c-72 0 -129.5 17.833 -172.5 53.5s-64.5 84.167 -64.5 145.5c0 35.333 7.66699 67 23 95s40.666 52.833 75.999 74.5s93.333 37.5 174 47.5c96.667 12 166.667 25.333 210 40v31c0 94 -55.667 141 -167 141
c-60.667 0 -103.167 -11.333 -127.5 -34s-42.166 -55.334 -53.499 -98.001l-114 15c30 142.667 134 214 312 214c50 0 92.833 -5.33301 128.5 -16s64.667 -26.667 87 -48s36.833 -45.333 43.5 -72s10 -68.667 10 -126v-305c0 -14.667 2.83301 -36 8.5 -64
s15.167 -54 28.5 -78h-123c-12 24.667 -19.667 53.334 -23 86.001zM531 348c-41.333 -16.667 -105.333 -31.332 -192 -43.999c-70 -10 -115 -25 -135 -45s-30 -44.333 -30 -73c0 -73.333 46.333 -110 139 -110c32.667 0 62 4.16699 88 12.5s48.5 21.166 67.5 38.499
s34.167 38.833 45.5 64.5s17 63.5 17 113.5v43zM150 796.002c0 98.667 43.998 148 131.998 148c27.333 0 64 -11.667 110 -35c25.333 -12.667 46 -19 62 -19c26.667 0 42.334 18.667 47.001 56h85c0 -98.667 -42.667 -148 -128 -148c-28.667 0 -64.667 12 -108 36
c-29.333 16 -50.666 24 -63.999 24c-33.333 0 -50 -20.667 -50 -62h-86z" />
    <glyph glyph-name="adieresis" unicode="&#xe4;" 
d="M541 86c-80 -68 -165.333 -102 -256 -102c-72 0 -129.5 17.833 -172.5 53.5s-64.5 84.167 -64.5 145.5c0 35.333 7.66699 67 23 95s40.666 52.833 75.999 74.5s93.333 37.5 174 47.5c96.667 12 166.667 25.333 210 40v31c0 94 -55.667 141 -167 141
c-60.667 0 -103.167 -11.333 -127.5 -34s-42.166 -55.334 -53.499 -98.001l-114 15c30 142.667 134 214 312 214c50 0 92.833 -5.33301 128.5 -16s64.667 -26.667 87 -48s36.833 -45.333 43.5 -72s10 -68.667 10 -126v-305c0 -14.667 2.83301 -36 8.5 -64
s15.167 -54 28.5 -78h-123c-12 24.667 -19.667 53.334 -23 86.001zM531 348c-41.333 -16.667 -105.333 -31.332 -192 -43.999c-70 -10 -115 -25 -135 -45s-30 -44.333 -30 -73c0 -73.333 46.333 -110 139 -110c32.667 0 62 4.16699 88 12.5s48.5 21.166 67.5 38.499
s34.167 38.833 45.5 64.5s17 63.5 17 113.5v43zM186 789.002v134h123v-134h-123zM429 789.002v134h123v-134h-123z" />
    <glyph glyph-name="aring" unicode="&#xe5;" 
d="M541 86c-80 -68 -165.333 -102 -256 -102c-72 0 -129.5 17.833 -172.5 53.5s-64.5 84.167 -64.5 145.5c0 35.333 7.66699 67 23 95s40.666 52.833 75.999 74.5s93.333 37.5 174 47.5c96.667 12 166.667 25.333 210 40v31c0 94 -55.667 141 -167 141
c-60.667 0 -103.167 -11.333 -127.5 -34s-42.166 -55.334 -53.499 -98.001l-114 15c30 142.667 134 214 312 214c50 0 92.833 -5.33301 128.5 -16s64.667 -26.667 87 -48s36.833 -45.333 43.5 -72s10 -68.667 10 -126v-305c0 -14.667 2.83301 -36 8.5 -64
s15.167 -54 28.5 -78h-123c-12 24.667 -19.667 53.334 -23 86.001zM531 348c-41.333 -16.667 -105.333 -31.332 -192 -43.999c-70 -10 -115 -25 -135 -45s-30 -44.333 -30 -73c0 -73.333 46.333 -110 139 -110c32.667 0 62 4.16699 88 12.5s48.5 21.166 67.5 38.499
s34.167 38.833 45.5 64.5s17 63.5 17 113.5v43zM246 873.002c0 33.333 11.667 61.167 35 83.5s50.666 33.5 81.999 33.5c28 0 54.667 -10.5 80 -31.5s38 -50.167 38 -87.5c0 -34 -11.667 -62.5 -35 -85.5s-50.666 -34.5 -81.999 -34.5c-28.667 0 -55.5 10.333 -80.5 31
s-37.5 51 -37.5 91zM295 873.003c0 -48.667 23.332 -73 69.999 -73c16.667 0 32.334 7 47.001 21s22 30.667 22 50c0 47.333 -23 71 -69 71c-46.667 0 -70 -23 -70 -69z" />
    <glyph glyph-name="ae" unicode="&#xe6;" horiz-adv-x="1189" 
d="M1132 212c-48 -152 -150 -228 -306 -228c-106.667 0 -192.667 43.333 -258 130c-86 -86.667 -181.667 -130 -287 -130c-82 0 -142 20.833 -180 62.5s-57 87.167 -57 136.5c0 122 102.333 196 307 222c62.667 8 117.667 18.667 165 32v26
c0 54.667 -11.5 93.167 -34.5 115.5s-62.833 33.5 -119.5 33.5c-109.333 0 -170.666 -44.667 -183.999 -134l-115 14c29.333 144.667 129.666 217 300.999 217c124 0 204 -31.333 240 -94c54.667 62.667 128.667 94 222 94c97.333 0 173 -33.667 227 -101
s81 -151.333 81 -252l-1 -39h-501c0 -157.333 66.333 -236 199 -236c94 0 153.333 49 178 147zM632 413h382c-12 132.667 -74.667 199 -188 199c-51.333 0 -96.5 -17.667 -135.5 -53s-58.5 -84 -58.5 -146zM518 348c-60 -21.333 -133.165 -37.668 -219.498 -49.001
s-129.5 -48.666 -129.5 -111.999c0 -73.333 45 -110 135 -110c53.333 0 97.666 12.833 132.999 38.5s57.666 52.167 66.999 79.5s14 78.333 14 153z" />
    <glyph glyph-name="ccedilla" unicode="&#xe7;" horiz-adv-x="668" 
d="M541 254l114.998 -14.999c-12 -78 -43.667 -140 -95 -186s-115.666 -69 -192.999 -69c-99.333 0 -176.833 32.167 -232.5 96.5s-83.5 152.166 -83.5 263.499c0 80 12.333 146.833 37 200.5s62.334 94.5 113.001 122.5s106 42 166 42c156.667 0 249 -73 277 -219l-114 -18
c-22 93.333 -74.667 140 -158 140c-133.333 0 -200 -88.333 -200 -265c0 -177.333 64.333 -266 193 -266c100 0 158.333 57.667 175 173zM282.998 -100.999l34 116h87l-21 -70c74 -8 111 -40 111 -96c0 -28.667 -14.333 -56.5 -43 -83.5s-77 -40.5 -145 -40.5
c-34 0 -65.333 2.66699 -94 8l7 76l61 -2c70 0 105 16.333 105 49c0 28.667 -34 43 -102 43z" />
    <glyph glyph-name="egrave" unicode="&#xe8;" 
d="M563 223l121.001 -15.002c-40 -149.333 -141.667 -224 -305 -224c-69.333 0 -128.5 14.167 -177.5 42.5s-86.667 69 -113 122s-39.5 117.167 -39.5 192.5c0 112.667 29 202.167 87 268.5s137 99.5 237 99.5c22 0 43 -1.66699 63 -5c19.333 -3.33301 38 -8.33301 56 -15
s34.667 -15 50 -25c16 -10 30.667 -21.333 44 -34c14 -14 26.667 -29.333 38 -46c12 -17.333 22.333 -35.666 31 -54.999c8 -19.333 14.667 -40.333 20 -63c5.33301 -22 9 -45.333 11 -70c0.666992 -7.33301 1 -33.666 1 -78.999h-517c4 -72.667 24.667 -130.167 62 -172.5
s86.666 -63.5 147.999 -63.5c88 0 149 47.333 183 142zM177.001 412.998l387 -0.00195312c-5.33301 66.667 -25.666 116.5 -60.999 149.5s-78.333 49.5 -129 49.5c-37.333 0 -70 -8.16699 -98 -24.5s-50.833 -39.166 -68.5 -68.499s-27.834 -64.666 -30.501 -105.999z
M436.001 778.996h-95l-151 183h157z" />
    <glyph glyph-name="eacute" unicode="&#xe9;" 
d="M563 223l121.001 -15.002c-40 -149.333 -141.667 -224 -305 -224c-69.333 0 -128.5 14.167 -177.5 42.5s-86.667 69 -113 122s-39.5 117.167 -39.5 192.5c0 112.667 29 202.167 87 268.5s137 99.5 237 99.5c22 0 43 -1.66699 63 -5c19.333 -3.33301 38 -8.33301 56 -15
s34.667 -15 50 -25c16 -10 30.667 -21.333 44 -34c14 -14 26.667 -29.333 38 -46c12 -17.333 22.333 -35.666 31 -54.999c8 -19.333 14.667 -40.333 20 -63c5.33301 -22 9 -45.333 11 -70c0.666992 -7.33301 1 -33.666 1 -78.999h-517c4 -72.667 24.667 -130.167 62 -172.5
s86.666 -63.5 147.999 -63.5c88 0 149 47.333 183 142zM177.001 412.998l387 -0.00195312c-5.33301 66.667 -25.666 116.5 -60.999 149.5s-78.333 49.5 -129 49.5c-37.333 0 -70 -8.16699 -98 -24.5s-50.833 -39.166 -68.5 -68.499s-27.834 -64.666 -30.501 -105.999z
M297.001 778.996l87 183h154l-144 -183h-97z" />
    <glyph glyph-name="ecircumflex" unicode="&#xea;" 
d="M563 223l121.001 -15.002c-40 -149.333 -141.667 -224 -305 -224c-69.333 0 -128.5 14.167 -177.5 42.5s-86.667 69 -113 122s-39.5 117.167 -39.5 192.5c0 112.667 29 202.167 87 268.5s137 99.5 237 99.5c22 0 43 -1.66699 63 -5c19.333 -3.33301 38 -8.33301 56 -15
s34.667 -15 50 -25c16 -10 30.667 -21.333 44 -34c14 -14 26.667 -29.333 38 -46c12 -17.333 22.333 -35.666 31 -54.999c8 -19.333 14.667 -40.333 20 -63c5.33301 -22 9 -45.333 11 -70c0.666992 -7.33301 1 -33.666 1 -78.999h-517c4 -72.667 24.667 -130.167 62 -172.5
s86.666 -63.5 147.999 -63.5c88 0 149 47.333 183 142zM177.001 412.998l387 -0.00195312c-5.33301 66.667 -25.666 116.5 -60.999 149.5s-78.333 49.5 -129 49.5c-37.333 0 -70 -8.16699 -98 -24.5s-50.833 -39.166 -68.5 -68.499s-27.834 -64.666 -30.501 -105.999z
M371.001 889.996l-74 -111h-135l141 183h126l146 -183h-133z" />
    <glyph glyph-name="edieresis" unicode="&#xeb;" 
d="M563 223l121.001 -15.002c-40 -149.333 -141.667 -224 -305 -224c-69.333 0 -128.5 14.167 -177.5 42.5s-86.667 69 -113 122s-39.5 117.167 -39.5 192.5c0 112.667 29 202.167 87 268.5s137 99.5 237 99.5c22 0 43 -1.66699 63 -5c19.333 -3.33301 38 -8.33301 56 -15
s34.667 -15 50 -25c16 -10 30.667 -21.333 44 -34c14 -14 26.667 -29.333 38 -46c12 -17.333 22.333 -35.666 31 -54.999c8 -19.333 14.667 -40.333 20 -63c5.33301 -22 9 -45.333 11 -70c0.666992 -7.33301 1 -33.666 1 -78.999h-517c4 -72.667 24.667 -130.167 62 -172.5
s86.666 -63.5 147.999 -63.5c88 0 149 47.333 183 142zM177.001 412.998l387 -0.00195312c-5.33301 66.667 -25.666 116.5 -60.999 149.5s-78.333 49.5 -129 49.5c-37.333 0 -70 -8.16699 -98 -24.5s-50.833 -39.166 -68.5 -68.499s-27.834 -64.666 -30.501 -105.999z
M186.001 788.996v134h123v-134h-123zM429.001 788.996v134h123v-134h-123z" />
    <glyph glyph-name="igrave" unicode="&#xec;" horiz-adv-x="371" 
d="M129 0v693h118v-693h-118zM264 779h-95l-151 183h157z" />
    <glyph glyph-name="iacute" unicode="&#xed;" horiz-adv-x="371" 
d="M129 0v693h118v-693h-118zM120 779l87 183h154l-144 -183h-97z" />
    <glyph glyph-name="icircumflex" unicode="&#xee;" horiz-adv-x="371" 
d="M129 0v693h118v-693h-118zM185 890l-74 -111h-135l141 183h126l146 -183h-133z" />
    <glyph glyph-name="idieresis" unicode="&#xef;" horiz-adv-x="371" 
d="M129 0v693h118v-693h-118zM0 799v134h123v-134h-123zM243 799v134h123v-134h-123z" />
    <glyph glyph-name="eth" unicode="&#xf0;" horiz-adv-x="743" 
d="M201 957l142 0.000976562c33.333 -26 60.333 -48.333 81 -67l140 67l29 -67l-112 -54c139.333 -160.667 209 -326 209 -496c0 -122.667 -33.167 -212.667 -99.5 -270s-140.5 -86 -222.5 -86c-106 0 -185.833 33.333 -239.5 100s-80.5 151 -80.5 253
c0 113.333 28 201 84 263s126.333 93 211 93c44.667 0 90.667 -12.667 138 -38c-25.333 51.333 -56.333 97.666 -93 138.999l-179 -83l-29 67l156 71c-42 39.333 -87 75.333 -135 108zM568 345.001c0 82.667 -19.8311 146.333 -59.498 191s-87.834 67 -144.501 67
c-56 0 -102.667 -22.167 -140 -66.5s-56 -111.833 -56 -202.5c0 -92 20.5 -157.333 61.5 -196s86.833 -58 137.5 -58c49.333 0 95.166 20.333 137.499 61s63.5 108.667 63.5 204z" />
    <glyph glyph-name="ntilde" unicode="&#xf1;" 
d="M88 0l-0.000976562 693h106v-98c50.667 76 124.334 114 221.001 114c157.333 0 236 -84 236 -252v-457h-117v422c0 123.333 -48 185 -144 185c-122.667 0 -184 -76 -184 -228v-379h-118zM155.999 796c0 98.667 43.998 148 131.998 148c27.333 0 64 -11.667 110 -35
c25.333 -12.667 46 -19 62 -19c26.667 0 42.334 18.667 47.001 56h85c0 -98.667 -42.667 -148 -128 -148c-28.667 0 -64.667 12 -108 36c-29.333 16 -50.666 24 -63.999 24c-33.333 0 -50 -20.667 -50 -62h-86z" />
    <glyph glyph-name="ograve" unicode="&#xf2;" 
d="M44 347c0 120 30.6689 210.331 92.002 270.998s139 91 233 91c59.333 0 112.666 -12.167 159.999 -36.5s86.666 -63.166 117.999 -116.499s47 -120 47 -200c0 -127.333 -31.5 -221.166 -94.5 -281.499s-139.833 -90.5 -230.5 -90.5c-68 0 -126 14.5 -174 43.5
s-85.167 70.5 -111.5 124.5s-39.5 119 -39.5 195zM165.002 346.998c0 -56.667 8.5 -105 25.5 -145s40.333 -70.167 70 -90.5s65.834 -30.5 108.501 -30.5c66 0 116.5 24.333 151.5 73s52.5 114.334 52.5 197.001c0 79.333 -18 142.666 -54 189.999s-86 71 -150 71
c-68.667 0 -119.834 -25.167 -153.501 -75.5s-50.5 -113.5 -50.5 -189.5zM427.002 778.998h-95l-151 183h157z" />
    <glyph glyph-name="oacute" unicode="&#xf3;" 
d="M44 347c0 120 30.6689 210.331 92.002 270.998s139 91 233 91c59.333 0 112.666 -12.167 159.999 -36.5s86.666 -63.166 117.999 -116.499s47 -120 47 -200c0 -127.333 -31.5 -221.166 -94.5 -281.499s-139.833 -90.5 -230.5 -90.5c-68 0 -126 14.5 -174 43.5
s-85.167 70.5 -111.5 124.5s-39.5 119 -39.5 195zM165.002 346.998c0 -56.667 8.5 -105 25.5 -145s40.333 -70.167 70 -90.5s65.834 -30.5 108.501 -30.5c66 0 116.5 24.333 151.5 73s52.5 114.334 52.5 197.001c0 79.333 -18 142.666 -54 189.999s-86 71 -150 71
c-68.667 0 -119.834 -25.167 -153.501 -75.5s-50.5 -113.5 -50.5 -189.5zM308.002 778.998l87 183h154l-144 -183h-97z" />
    <glyph glyph-name="ocircumflex" unicode="&#xf4;" 
d="M44 347c0 120 30.6689 210.331 92.002 270.998s139 91 233 91c59.333 0 112.666 -12.167 159.999 -36.5s86.666 -63.166 117.999 -116.499s47 -120 47 -200c0 -127.333 -31.5 -221.166 -94.5 -281.499s-139.833 -90.5 -230.5 -90.5c-68 0 -126 14.5 -174 43.5
s-85.167 70.5 -111.5 124.5s-39.5 119 -39.5 195zM165.002 346.998c0 -56.667 8.5 -105 25.5 -145s40.333 -70.167 70 -90.5s65.834 -30.5 108.501 -30.5c66 0 116.5 24.333 151.5 73s52.5 114.334 52.5 197.001c0 79.333 -18 142.666 -54 189.999s-86 71 -150 71
c-68.667 0 -119.834 -25.167 -153.501 -75.5s-50.5 -113.5 -50.5 -189.5zM370.002 889.998l-74 -111h-135l141 183h126l146 -183h-133z" />
    <glyph glyph-name="otilde" unicode="&#xf5;" 
d="M44 347c0 120 30.6689 210.331 92.002 270.998s139 91 233 91c59.333 0 112.666 -12.167 159.999 -36.5s86.666 -63.166 117.999 -116.499s47 -120 47 -200c0 -127.333 -31.5 -221.166 -94.5 -281.499s-139.833 -90.5 -230.5 -90.5c-68 0 -126 14.5 -174 43.5
s-85.167 70.5 -111.5 124.5s-39.5 119 -39.5 195zM165.002 346.998c0 -56.667 8.5 -105 25.5 -145s40.333 -70.167 70 -90.5s65.834 -30.5 108.501 -30.5c66 0 116.5 24.333 151.5 73s52.5 114.334 52.5 197.001c0 79.333 -18 142.666 -54 189.999s-86 71 -150 71
c-68.667 0 -119.834 -25.167 -153.501 -75.5s-50.5 -113.5 -50.5 -189.5zM148.002 795.998c0 98.667 43.998 148 131.998 148c27.333 0 64 -11.667 110 -35c25.333 -12.667 46 -19 62 -19c26.667 0 42.334 18.667 47.001 56h85c0 -98.667 -42.667 -148 -128 -148
c-28.667 0 -64.667 12 -108 36c-29.333 16 -50.666 24 -63.999 24c-33.333 0 -50 -20.667 -50 -62h-86z" />
    <glyph glyph-name="odieresis" unicode="&#xf6;" 
d="M44 347c0 120 30.6689 210.331 92.002 270.998s139 91 233 91c59.333 0 112.666 -12.167 159.999 -36.5s86.666 -63.166 117.999 -116.499s47 -120 47 -200c0 -127.333 -31.5 -221.166 -94.5 -281.499s-139.833 -90.5 -230.5 -90.5c-68 0 -126 14.5 -174 43.5
s-85.167 70.5 -111.5 124.5s-39.5 119 -39.5 195zM165.002 346.998c0 -56.667 8.5 -105 25.5 -145s40.333 -70.167 70 -90.5s65.834 -30.5 108.501 -30.5c66 0 116.5 24.333 151.5 73s52.5 114.334 52.5 197.001c0 79.333 -18 142.666 -54 189.999s-86 71 -150 71
c-68.667 0 -119.834 -25.167 -153.501 -75.5s-50.5 -113.5 -50.5 -189.5zM183.002 798.998v134h123v-134h-123zM426.002 798.998v134h123v-134h-123z" />
    <glyph glyph-name="divide" unicode="&#xf7;" horiz-adv-x="734" 
d="M300 602v134h133v-134h-133zM683 417h-632v110h632v-110zM300 208v134h133v-134h-133z" />
    <glyph glyph-name="oslash" unicode="&#xf8;" horiz-adv-x="817" 
d="M603 652l65 84l62 -46l-69 -90c50.667 -65.333 76 -150 76 -254c0 -121.333 -30.833 -212 -92.5 -272s-139.5 -90 -233.5 -90c-70 0 -131 17.667 -183 53l-69 -89l-61 47l70 92c-54 60 -81 143.333 -81 250c0 130 32 224.5 96 283.5s139.333 88.5 226 88.5
c65.333 0 130 -19 194 -57zM537 566c-40 30.667 -81.333 46 -124 46c-56.667 0 -105 -22.333 -145 -67s-60 -110.667 -60 -198c0 -66 11.333 -120.667 34 -164zM586 503l-293 -381c34.667 -27.333 73 -41 115 -41c60.667 0 110.667 22.167 150 66.5s59 110.833 59 199.5
c0 63.333 -10.333 115.333 -31 156z" />
    <glyph glyph-name="ugrave" unicode="&#xf9;" 
d="M542 0l-0.00292969 102c-53.333 -78.667 -126.666 -118 -219.999 -118c-42.667 0 -79.5 6 -110.5 18s-56.167 30 -75.5 54s-32.5 51.5 -39.5 82.5s-10.5 72.833 -10.5 125.5v429h117v-384c0 -60 2.16699 -100.5 6.5 -121.5s12.333 -39.167 24 -54.5
s26.834 -27 45.501 -35s41 -12 67 -12c46.667 0 84.334 10.5 113.001 31.5s47.667 48.167 57 81.5s14 74.333 14 123v371h118v-693h-106zM426.997 779h-95l-151 183h157z" />
    <glyph glyph-name="uacute" unicode="&#xfa;" 
d="M542 0l-0.00292969 102c-53.333 -78.667 -126.666 -118 -219.999 -118c-42.667 0 -79.5 6 -110.5 18s-56.167 30 -75.5 54s-32.5 51.5 -39.5 82.5s-10.5 72.833 -10.5 125.5v429h117v-384c0 -60 2.16699 -100.5 6.5 -121.5s12.333 -39.167 24 -54.5
s26.834 -27 45.501 -35s41 -12 67 -12c46.667 0 84.334 10.5 113.001 31.5s47.667 48.167 57 81.5s14 74.333 14 123v371h118v-693h-106zM279.997 779l87 183h154l-144 -183h-97z" />
    <glyph glyph-name="ucircumflex" unicode="&#xfb;" 
d="M542 0l-0.00292969 102c-53.333 -78.667 -126.666 -118 -219.999 -118c-42.667 0 -79.5 6 -110.5 18s-56.167 30 -75.5 54s-32.5 51.5 -39.5 82.5s-10.5 72.833 -10.5 125.5v429h117v-384c0 -60 2.16699 -100.5 6.5 -121.5s12.333 -39.167 24 -54.5
s26.834 -27 45.501 -35s41 -12 67 -12c46.667 0 84.334 10.5 113.001 31.5s47.667 48.167 57 81.5s14 74.333 14 123v371h118v-693h-106zM369.997 890l-74 -111h-135l141 183h126l146 -183h-133z" />
    <glyph glyph-name="udieresis" unicode="&#xfc;" 
d="M542 0l-0.00292969 102c-53.333 -78.667 -126.666 -118 -219.999 -118c-42.667 0 -79.5 6 -110.5 18s-56.167 30 -75.5 54s-32.5 51.5 -39.5 82.5s-10.5 72.833 -10.5 125.5v429h117v-384c0 -60 2.16699 -100.5 6.5 -121.5s12.333 -39.167 24 -54.5
s26.834 -27 45.501 -35s41 -12 67 -12c46.667 0 84.334 10.5 113.001 31.5s47.667 48.167 57 81.5s14 74.333 14 123v371h118v-693h-106zM181.997 799v134h123v-134h-123zM424.997 799v134h123v-134h-123z" />
    <glyph glyph-name="yacute" unicode="&#xfd;" horiz-adv-x="668" 
d="M83 -267l-13.001 109.998c25.333 -6.66699 47.666 -10 66.999 -10c27.333 0 49.833 5.33301 67.5 16s30.334 24.334 38.001 41.001s20.834 51 39.501 103l3 6l-263 694h126l144 -401c21.333 -60 38.333 -113.667 51 -161c12.667 52.667 28.667 105.334 48 158.001
l148 404h118l-264 -705c-25.333 -67.333 -46.666 -118.5 -63.999 -153.5s-40.333 -63 -69 -84s-62.334 -31.5 -101.001 -31.5c-22.667 0 -48 4.66699 -76 14zM267.999 778.998l87 183h154l-144 -183h-97z" />
    <glyph glyph-name="thorn" unicode="&#xfe;" horiz-adv-x="743" 
d="M88 -266l-0.000976562 1223h118v-337c52 59.333 115.333 89 190 89c90.667 0 162.334 -32.833 215.001 -98.5s79 -151.834 79 -258.501c0 -110 -28.167 -198.833 -84.5 -266.5s-128.833 -101.5 -217.5 -101.5c-69.333 0 -130 29.333 -182 88v-338h-118zM194.999 343.001
c0 -96.667 19.333 -164.5 58 -203.5s81 -58.5 127 -58.5s89.167 20.167 129.5 60.5s60.5 110.5 60.5 210.5c0 88 -18.167 154.167 -54.5 198.5s-79.833 66.5 -130.5 66.5c-49.333 0 -93.333 -23.333 -132 -70s-58 -114.667 -58 -204z" />
    <glyph glyph-name="ydieresis" unicode="&#xff;" horiz-adv-x="668" 
d="M83 -267l-13.001 109.998c25.333 -6.66699 47.666 -10 66.999 -10c27.333 0 49.833 5.33301 67.5 16s30.334 24.334 38.001 41.001s20.834 51 39.501 103l3 6l-263 694h126l144 -401c21.333 -60 38.333 -113.667 51 -161c12.667 52.667 28.667 105.334 48 158.001
l148 404h118l-264 -705c-25.333 -67.333 -46.666 -118.5 -63.999 -153.5s-40.333 -63 -69 -84s-62.334 -31.5 -101.001 -31.5c-22.667 0 -48 4.66699 -76 14zM154.999 798.998v134h123v-134h-123zM397.999 798.998v134h123v-134h-123z" />
    <glyph glyph-name="dotlessi" unicode="&#x131;" horiz-adv-x="371" 
d="M129 0v693h118v-693h-118z" />
    <glyph glyph-name="OE" unicode="&#x152;" horiz-adv-x="1337" 
d="M1294 113l-0.000976562 -113h-562v138c-58.667 -102.667 -145.667 -154 -261 -154c-124 0 -219.5 45 -286.5 135s-100.5 210.333 -100.5 361c0 132.667 29.833 248 89.5 346s158.834 147 297.501 147c114 0 201 -48.333 261 -145v129h542v-113h-424v-292h391v-113h-391
v-326h444zM469.999 871c-67.333 0 -126.667 -29.499 -178 -88.499s-77 -163.167 -77 -312.5c0 -142.667 27 -242.334 81 -299.001s112 -85 174 -85s119.833 28.167 173.5 84.5s80.5 161.5 80.5 315.5c0 144 -27 244.167 -81 300.5s-111.667 84.5 -173 84.5z" />
    <glyph glyph-name="oe" unicode="&#x153;" horiz-adv-x="1262" 
d="M638 114c-64 -86.667 -150.003 -129.998 -258.003 -129.998c-98.667 0 -177.667 31.167 -237 93.5s-89 149.166 -89 260.499c0 120.667 29.833 212.667 89.5 276s138.834 95 237.501 95c114.667 0 200.334 -44.333 257.001 -133c62 88.667 146.667 133 254 133
c83.333 0 157.5 -29.333 222.5 -88s97.5 -160.667 97.5 -306h-512c0 -78.667 21.833 -137.334 65.5 -176.001s90.834 -58 141.501 -58c90.667 0 150 48.333 178 145l118 -17c-40 -150 -139.333 -225 -298 -225c-116.667 0 -205.667 43.333 -267 130zM173.997 348.002
c0 -75.333 16.666 -138.668 49.999 -190.001s84.333 -77 153 -77c54.667 0 102.334 23 143.001 69s61 112.333 61 199c0 86 -20 151.333 -60 196s-88 67 -144 67c-61.333 0 -110.5 -24.167 -147.5 -72.5s-55.5 -112.166 -55.5 -191.499zM704.996 412h382.999
c0 55.333 -17.667 102.5 -53 141.5s-80.666 58.5 -135.999 58.5c-56.667 0 -103.167 -20 -139.5 -60s-54.5 -86.667 -54.5 -140z" />
    <glyph glyph-name="Scaron" unicode="&#x160;" horiz-adv-x="892" 
d="M60 307l120.005 11.001c9.33301 -76.667 40 -132.667 92 -168s115.333 -53 190 -53c79.333 0 138.833 15.833 178.5 47.5s59.5 70.167 59.5 115.5c0 31.333 -9.83301 58.5 -29.5 81.5s-46.5 40.667 -80.5 53s-94.667 28.5 -182 48.5c-64.667 14.667 -119 31.667 -163 51
s-79.667 47.333 -107 84s-41 80.667 -41 132c0 54.667 13.167 101 39.5 139s65.833 68.167 118.5 90.5s112 33.5 178 33.5c115.333 0 203.166 -26.333 263.499 -79s92.5 -121.667 96.5 -207l-121 -9c-13.333 122.667 -91 184 -233 184c-146.667 0 -220 -48 -220 -144
c0 -28 9 -52.167 27 -72.5s41.167 -35.5 69.5 -45.5s72.166 -21.667 131.499 -35c105.333 -24 176.666 -44.667 213.999 -62s67.666 -37.5 90.999 -60.5s40.833 -48.833 52.5 -77.5s17.5 -60.334 17.5 -95.001c0 -89.333 -34.333 -159.333 -103 -210
s-152.334 -76 -251.001 -76c-132 0 -232 29.667 -300 89s-104 137.333 -108 234zM444.005 1121l72 111h133l-147 -183h-125l-141 183h135z" />
    <glyph glyph-name="scaron" unicode="&#x161;" horiz-adv-x="668" 
d="M41 207l116.003 17.9971c14 -96 74 -144 180 -144s159 36.667 159 110c0 26.667 -9.33301 46.334 -28 59.001s-61 27.334 -127 44.001c-42.667 10.667 -80.834 20.834 -114.501 30.501s-63.334 23.5 -89.001 41.5s-44.834 38.833 -57.501 62.5s-19 50.5 -19 80.5
c0 34.667 8.5 66.5 25.5 95.5s44.5 53.667 82.5 74s87 30.5 147 30.5c55.333 0 102.333 -7 141 -21s68.667 -34.833 90 -62.5s36 -64.834 44 -111.501l-115 -15c-11.333 75.333 -62 113 -152 113c-100 0 -150 -29.667 -150 -89c0 -16.667 4.83301 -31 14.5 -43
s21.334 -20.667 35.001 -26s51.5 -16.666 113.5 -33.999c16 -4 52.167 -13.667 108.5 -29s99 -38.833 128 -70.5s43.5 -70.5 43.5 -116.5c0 -68 -26.667 -121.667 -80 -161s-120 -59 -200 -59c-170.667 0 -269.334 74.333 -296.001 223zM329.003 850.997l72 111h133
l-147 -183h-125l-141 183h135z" />
    <glyph glyph-name="Ydieresis" unicode="&#x178;" horiz-adv-x="892" 
d="M373 0v405l-369 552h154l189 -289c30 -45.333 62.333 -99 97 -161c37.333 64 72 120.333 104 169l186 281h147l-382 -552v-405h-126zM255 1079v134h123v-134h-123zM498 1079v134h123v-134h-123z" />
    <glyph glyph-name="Zcaron" unicode="&#x17d;" horiz-adv-x="817" 
d="M27 0v118l490 612c37.333 46.667 70.333 84.667 99 114h-534v113h686v-113l-596 -731h611v-113h-756zM410 1115l72 111h133l-147 -183h-125l-141 183h135z" />
    <glyph glyph-name="zcaron" unicode="&#x17e;" horiz-adv-x="668" 
d="M26 0v95l441 507c-50 -2.66699 -94 -4 -132 -4h-283v95h567v-77l-448 -521c52.667 4 102 6 148 6h321v-101h-614zM335 851l72 111h133l-147 -183h-125l-141 183h135z" />
    <glyph glyph-name="florin" unicode="&#x192;" horiz-adv-x="743" 
d="M30 -264l23.002 101c48.667 -10 81.667 -15 99 -15c44 0 72 33.333 84 100l115 680h-131l16 91h131l15 87c14 81.333 36.667 134 68 158s70.666 36 117.999 36c35.333 0 82 -8.33301 140 -25l-23 -100c-42.667 10.667 -76 16 -100 16c-22 0 -39.333 -5 -52 -15
s-24 -40 -34 -90l-12 -67h133l-16 -91h-133l-125 -713c-20 -113.333 -76.667 -170 -170 -170c-44.667 0 -93.334 5.66699 -146.001 17z" />
    <glyph glyph-name="circumflex" unicode="&#x2c6;" horiz-adv-x="445" 
d="M225 890l-74 -111h-135l141 183h126l146 -183h-133z" />
    <glyph glyph-name="caron" unicode="&#x2c7;" horiz-adv-x="445" 
d="M234 851l72 111h133l-147 -183h-125l-141 183h135z" />
    <glyph glyph-name="ring" unicode="&#x2da;" horiz-adv-x="445" 
d="M106 873c0 33.333 11.667 61.167 35 83.5s50.666 33.5 81.999 33.5c28 0 54.667 -10.5 80 -31.5s38 -50.167 38 -87.5c0 -34 -11.667 -62.5 -35 -85.5s-50.666 -34.5 -81.999 -34.5c-28.667 0 -55.5 10.333 -80.5 31s-37.5 51 -37.5 91zM155 873.001
c0 -48.667 23.332 -73 69.999 -73c16.667 0 32.334 7 47.001 21s22 30.667 22 50c0 47.333 -23 71 -69 71c-46.667 0 -70 -23 -70 -69z" />
    <glyph glyph-name="ring" unicode="&#x25e6;" horiz-adv-x="445" 
d="M106 873c0 33.333 11.667 61.167 35 83.5s50.666 33.5 81.999 33.5c28 0 54.667 -10.5 80 -31.5s38 -50.167 38 -87.5c0 -34 -11.667 -62.5 -35 -85.5s-50.666 -34.5 -81.999 -34.5c-28.667 0 -55.5 10.333 -80.5 31s-37.5 51 -37.5 91zM155 873.001
c0 -48.667 23.332 -73 69.999 -73c16.667 0 32.334 7 47.001 21s22 30.667 22 50c0 47.333 -23 71 -69 71c-46.667 0 -70 -23 -70 -69z" />
    <glyph glyph-name="tilde" unicode="&#x2dc;" horiz-adv-x="445" 
d="M5 796c0 98.667 43.998 148 131.998 148c27.333 0 64 -11.667 110 -35c25.333 -12.667 46 -19 62 -19c26.667 0 42.334 18.667 47.001 56h85c0 -98.667 -42.667 -148 -128 -148c-28.667 0 -64.667 12 -108 36c-29.333 16 -50.666 24 -63.999 24
c-33.333 0 -50 -20.667 -50 -62h-86z" />
    <glyph glyph-name="uni0E01" unicode="&#xe01;" horiz-adv-x="860" 
d="M240 592c-39.333 37.333 -101.666 65.3301 -186.999 83.9971c0 4 9 13.5 27 28.5s43.667 31.5 77 49.5s74.833 34.167 124.5 48.5s97.834 21.5 144.501 21.5c95.333 0 172.166 -20.667 230.499 -62s87.5 -103.666 87.5 -186.999v-575h-96v577
c0 108.667 -72.667 163 -218 163c-78.667 0 -142 -16 -190 -48c4.66699 0 23 -9.66699 55 -29s66.333 -44.333 103 -75c-42 0 -76.167 -16.333 -102.5 -49s-39.5 -69.667 -39.5 -111v-428h-97v447c0 21.333 4.16699 41.833 12.5 61.5s18.666 36.834 30.999 51.501
s24.833 25.334 37.5 32.001z" />
    <glyph glyph-name="uni0E02" unicode="&#xe02;" horiz-adv-x="834" 
d="M221 742c46.667 -30 69.999 -64.333 69.999 -103c0 -97.333 -45 -146 -135 -146c-94 0 -141 44.667 -141 134c0 54.667 19 100.667 57 138s83.667 56 137 56c62.667 0 114.834 -8.16699 156.501 -24.5s72.5 -40.333 92.5 -72s30 -64.834 30 -99.501
c0 -22 -10.667 -59 -32 -111c-21.333 -51.333 -32 -84.666 -32 -99.999v-322h117c48 0 72 24.667 72 74v653h96v-655c0 -55.333 -13.833 -96.5 -41.5 -123.5s-63.167 -40.5 -106.5 -40.5h-335v92h101v301c0 32.667 2.16699 56.5 6.5 71.5s16.5 42.833 36.5 83.5
c14 28.667 21 55 21 79c0 79.333 -45.667 119 -137 119c-4.66699 0 -15.667 -1.33301 -33 -4zM155.999 695c-44 0 -66 -22.667 -66 -68c0 -42.667 21.333 -64 64 -64c43.333 0 65 22.667 65 68c0 42.667 -21 64 -63 64z" />
    <glyph glyph-name="uni0E03" unicode="&#xe03;" horiz-adv-x="877" 
d="M303 0v92h99l1 483c0 13.333 9.33301 30.666 28 51.999c18.667 14 28.334 26.333 29.001 37c0 9.33301 -20 32.333 -60 69l-103 -51l-94 51c-31.333 -14 -53.166 -33 -65.499 -57s-18.5 -44.667 -18.5 -62c14.667 8.66699 33.667 13 57 13c90.667 0 136 -43.667 136 -131
c0 -26 -5.5 -48.5 -16.5 -67.5s-26 -34 -45 -45s-41.5 -16.5 -67.5 -16.5c-48.667 0 -86.834 17.5 -114.501 52.5s-41.5 80.833 -41.5 137.5c0 55.333 14 107.333 42 156s67.333 85.334 118 110.001l110 -63l112 61c16 -8 43.667 -30.5 83 -67.5s59 -59.833 59 -68.5v-37
c-35.333 -38.667 -53 -68.667 -53 -90v-466h93c46.667 0 70 24.667 70 74v653h97v-655c0 -38 -6 -68.5 -18 -91.5s-28.833 -40.833 -50.5 -53.5s-47.834 -19 -78.501 -19h-308zM248 498c0 43.333 -21.667 65 -65 65c-44 0 -66 -21.667 -66 -65c0 -45.333 22 -68 66 -68
c43.333 0 65 22.667 65 68z" />
    <glyph glyph-name="uni0E04" unicode="&#xe04;" horiz-adv-x="858" 
d="M209 0l0.000976562 134.999c0 26.667 -4.66699 49.334 -14 68.001c-12.667 24.667 -30.334 61.667 -53.001 111l-44 98c-7.33301 15.333 -12.833 33.166 -16.5 53.499s-5.5 42.833 -5.5 67.5c0 48 12.333 93.833 37 137.5s62.167 80.167 112.5 109.5
s113.166 44 188.499 44c96.667 0 174.334 -24.5 233.001 -73.5s88 -115.5 88 -199.5v-551h-96v547c0 61.333 -20.5 108.833 -61.5 142.5s-98.167 50.5 -171.5 50.5c-78.667 0 -138.334 -22.5 -179.001 -67.5s-61 -92.167 -61 -141.5c0 -69.333 15.667 -129.666 47 -180.999
v91c0 38.667 12.667 72.167 38 100.5s58.333 42.5 99 42.5c36 0 68 -10 96 -30s42 -50 42 -90c0 -97.333 -43.667 -146 -131 -146c-11.333 0 -28.666 2.66699 -51.999 8v-326h-96zM353.001 513.999c-42.667 0 -64 -21 -64 -63c0 -44 21.333 -66 64 -66c43.333 0 65 22 65 66
c0 42 -21.667 63 -65 63z" />
    <glyph glyph-name="uni0E05" unicode="&#xe05;" horiz-adv-x="834" 
d="M226 277c0 112 14.334 192.163 43.001 240.496s72.334 72.5 131.001 72.5c91.333 0 137 -46.333 137 -139c0 -86 -48 -129 -144 -129c-33.333 0 -60.333 7.33301 -81 22c-13.333 -75.333 -20 -147 -20 -215c0 -39.333 1.66699 -82.333 5 -129h-100
c-6.66699 65.333 -16.334 115.333 -29.001 150c-10.667 27.333 -25 68.333 -43 123l-37 110c-6.66699 19.333 -11.667 41.666 -15 66.999s-5 52.333 -5 81c0 130.667 86 228.334 258 293.001l94 -72l105 72c58 -13.333 104.167 -42.666 138.5 -87.999
s51.5 -98.666 51.5 -159.999v-576h-97v568c0 82.667 -28.333 139.334 -85 170.001l-111 -82l-115 88c-102 -56.667 -153 -129 -153 -217c0 -31.333 7.16699 -73.666 21.5 -126.999s31.166 -94.333 50.499 -123zM402.001 524.996c-46.667 0 -70 -23.333 -70 -70
c0 -48 23.333 -72 70 -72c47.333 0 71 24 71 72c0 46.667 -23.667 70 -71 70z" />
    <glyph glyph-name="uni0E06" unicode="&#xe06;" horiz-adv-x="1032" 
d="M512 330l161.998 -166.001c45.333 -46.667 78 -70 98 -70c24.667 0 37 26 37 78v647h96v-630c0 -77.333 -13 -128.5 -39 -153.5s-56.667 -37.5 -92 -37.5c-40.667 0 -76.667 17 -108 51l-154 168v-102c0 -32.667 -12 -60.667 -36 -84s-52.333 -35 -85 -35
c-30.667 0 -57.5 8 -80.5 24s-40.5 36.833 -52.5 62.5s-18 52.834 -18 81.501c0 48 14.167 90.667 42.5 128s72.5 56 132.5 56v222c0 10 10 27.333 30 52c20 17.333 30 31.333 30 42c0 10 -7.66699 24 -23 42s-27.666 27 -36.999 27l-101 -51l-95 51
c-27.333 -12 -48.166 -30.833 -62.499 -56.5s-21.5 -46.167 -21.5 -61.5c14.667 8 34 12 58 12c90 0 135 -43.667 135 -131c0 -24 -4.66699 -45.5 -14 -64.5s-23.666 -34.5 -42.999 -46.5s-43.333 -18 -72 -18c-48.667 0 -86.834 17.5 -114.501 52.5
s-41.5 80.833 -41.5 137.5c0 57.333 14.5 110 43.5 158s67.833 84.333 116.5 109l111 -64l112 64c21.333 -12 50.333 -35.333 87 -70s55 -58 55 -70v-45c-37.333 -31.333 -56 -58.333 -56 -81v-228zM198.998 562.999c-44 0 -66 -21.667 -66 -65c0 -45.333 22 -68 66 -68
c43.333 0 65 22.667 65 68c0 43.333 -21.667 65 -65 65zM323.998 163.999c0 -58.667 18.333 -88 55 -88c24 0 36 18.333 36 55v131c-60.667 0 -91 -32.667 -91 -98z" />
    <glyph glyph-name="uni0E07" unicode="&#xe07;" horiz-adv-x="662" 
d="M439 565c-21.333 -5.33301 -38.6689 -7.99707 -52.002 -7.99707c-84.667 0 -127 45.667 -127 137c0 25.333 5.83301 47.666 17.5 66.999s27.334 34.666 47.001 45.999s42.5 17 68.5 17c94.667 0 142 -48 142 -144v-514c0 -68 -14.667 -114 -44 -138s-61 -36 -95 -36
c-33.333 0 -64.5 12 -93.5 36s-55.333 69.833 -79 137.5s-46.667 109.5 -69 125.5s-57.5 25 -105.5 27v86c104.667 0 174.334 -34.667 209.001 -104c10 -24 26.333 -59.667 49 -107l40 -84c4.66699 -8.66699 10.5 -15.334 17.5 -20.001s15.167 -7 24.5 -7
c33.333 0 50 24 50 72v411zM392.997 754.003c-42 0 -63 -21.333 -63 -64c0 -43.333 21 -65 63 -65c44.667 0 67 21.667 67 65c0 42.667 -22.333 64 -67 64z" />
    <glyph glyph-name="uni0E08" unicode="&#xe08;" horiz-adv-x="762" 
d="M329 305c-20.667 -5.33301 -37.333 -7.99902 -50 -7.99902c-86 0 -129 46 -129 138c0 36.667 12.667 67.167 38 91.5s57.666 36.5 96.999 36.5c94 0 141 -47.667 141 -143v-270c0 -45.333 20 -68 60 -68c34.667 0 52 23.333 52 70v430
c0 55.333 -17.167 95.166 -51.5 119.499s-85.166 36.5 -152.499 36.5c-108 0 -181 -46 -219 -138l-80 39c56 123.333 159.667 185 311 185c81.333 0 149.833 -18.5 205.5 -55.5s83.5 -95.833 83.5 -176.5v-461c0 -40 -14.833 -72.5 -44.5 -97.5s-67.5 -37.5 -113.5 -37.5
c-37.333 0 -71.333 11 -102 33s-46 53.333 -46 94v182zM285.001 494.001c-42.667 0 -64 -21.333 -64 -64c0 -43.333 21.333 -65 64 -65c43.333 0 65 21.667 65 65c0 42.667 -21.667 64 -65 64z" />
    <glyph glyph-name="uni0E09" unicode="&#xe09;" horiz-adv-x="889" 
d="M243 285c-23.333 -6 -41.001 -9.00195 -53.001 -9.00195c-82 0 -123 46 -123 138c0 26 5.66699 48.667 17 68s26.833 34.333 46.5 45s42.5 16 68.5 16c94 0 141 -47.667 141 -143v-238c0 -50.667 10.333 -76 31 -76c23.333 0 63.666 44.333 120.999 133
c35.333 54.667 69.333 90.334 102 107.001v256c0 48 -19.167 86.333 -57.5 115s-87.5 43 -147.5 43c-114.667 0 -193 -44.667 -235 -134l-74 41c62.667 118 162.334 177 299.001 177c112.667 0 192.667 -23 240 -69s71 -99.667 71 -161v-264
c50.667 0 91.334 -15.5 122.001 -46.5s46 -72.833 46 -125.5c0 -108 -45 -162 -135 -162c-24.667 0 -46.167 4.83301 -64.5 14.5s-33.666 23.334 -45.999 41.001s-18.5 37.5 -18.5 59.5v129c-12 -9.33301 -34 -37.333 -66 -84c-30 -54.667 -61.833 -95 -95.5 -121
s-61.834 -39 -84.501 -39c-70 0 -105 42.333 -105 127v162zM198.999 472.998c-42.667 0 -64 -21 -64 -63c0 -44 21.333 -66 64 -66c43.333 0 65 22 65 66c0 42 -21.667 63 -65 63zM687.999 251.998v-121c0 -35.333 12.667 -53 38 -53c32 0 48 25.333 48 76
c0 65.333 -28.667 98 -86 98z" />
    <glyph glyph-name="uni0E0A" unicode="&#xe0a;" horiz-adv-x="850" 
d="M811 789c-41.333 -40.667 -114.33 -76.998 -218.997 -108.998c19.333 -6 50 -24.333 92 -55c30 -32 45 -69 45 -111v-350c0 -109.333 -49 -164 -147 -164h-336v92h102v301c0 31.333 2.16699 54.666 6.5 69.999s16.166 43.666 35.499 84.999c14.667 30 22 56.333 22 79
c0 79.333 -45.667 119 -137 119c-4.66699 0 -15.667 -1.33301 -33 -4c46 -30 69 -65.667 69 -107c0 -42.667 -14.167 -77 -42.5 -103s-59.5 -39 -93.5 -39c-93.333 0 -140 44.667 -140 134c0 54 19.167 99.833 57.5 137.5s84.166 56.5 137.499 56.5
c132 0 217.333 -36 256 -108c32 5.33301 81.167 25 147.5 59s113.166 71.667 140.499 113zM240.003 631.002c0 42.667 -21.333 64 -64 64c-43.333 0 -65 -22.667 -65 -68c0 -42.667 21 -64 63 -64c44 0 66 22.667 66 68zM633.003 166.002v324.001
c0 37.333 -8 67.666 -24 90.999s-49.333 44.333 -100 63c-1.33301 -28 -5.33301 -52.5 -12 -73.5s-13.667 -40.167 -21 -57.5c-20.667 -51.333 -31 -84.333 -31 -99v-322h117c47.333 0 71 24.667 71 74z" />
    <glyph glyph-name="uni0E0B" unicode="&#xe0b;" horiz-adv-x="914" 
d="M556 708c17.333 4 57.834 21.334 121.501 52.001s118.5 70.667 164.5 120l37 -91c-28 -22.667 -52 -39.667 -72 -51s-69 -30.666 -147 -57.999c9.33301 -1.33301 25.166 -6.83301 47.499 -16.5s42.833 -31.334 61.5 -65.001s28 -61.834 28 -84.501v-350
c0 -55.333 -13.833 -96.5 -41.5 -123.5s-63.167 -40.5 -106.5 -40.5h-335v92h101v502l64 66c-11.333 36 -33.666 62.667 -66.999 80l-90 -48l-92 48c-36.667 -14.667 -61.334 -44.667 -74.001 -90c14.667 2.66699 27 4 37 4c34 0 64.667 -10.5 92 -31.5s41 -52.5 41 -94.5
c0 -98.667 -42.333 -148 -127 -148c-101.333 0 -152 60.333 -152 181c0 51.333 9.33301 96.333 28 135s43.667 70 75 94s50.333 36 57 36l113 -48l110 46c38 0 80 -38.667 126 -116zM512.001 574.001l-0.000976562 -482h117c48 0 72 24.667 72 74v324
c0 46 -12.167 81.167 -36.5 105.5s-54.166 40.833 -89.499 49.5zM191 584.001c-44 0 -66 -22.667 -66 -68c0 -42 21.333 -63 64 -63c43.333 0 65 22.333 65 67c0 42.667 -21 64 -63 64z" />
    <glyph glyph-name="uni0E0C" unicode="&#xe0c;" horiz-adv-x="1108" 
d="M874 819l96.998 0.000976562v-688c0 -80 -26 -123.667 -78 -131c-58.667 0 -102.334 24 -131.001 72l-54 91l-28 44v-110c0 -30 -12.167 -54.333 -36.5 -73s-49.5 -28 -75.5 -28c-40.667 0 -72 17.833 -94 53.5s-33 79.167 -33 130.5
c0 86.667 47.333 137.334 142 152.001v284c0 82.667 -64 124 -192 124c-81.333 0 -137.666 -16 -168.999 -48c10 -4 33.5 -17.5 70.5 -40.5s65.833 -44.167 86.5 -63.5c-35.333 0 -67.666 -15.833 -96.999 -47.5s-44 -69.167 -44 -112.5v-94
c99.333 -10 149 -66.667 149 -170c0 -110.667 -48.333 -166 -145 -166c-66.667 0 -100 42.333 -100 127v322c0 63.333 26.667 111.666 80 144.999c-49.333 44 -111.666 72 -186.999 84c30 41.333 79.5 76.333 148.5 105s136.833 43 203.5 43c88 0 158.833 -17.333 212.5 -52
s80.5 -85.334 80.5 -152.001v-296c31.333 -26 65 -69.333 101 -130s61 -91 75 -91c12 0 18 17.667 18 53v663zM517.998 193.001c0 -75.333 13 -113 39 -113c17.333 0 26 9.66699 26 29v147c-43.333 0 -65 -21 -65 -63zM237.998 254.001v-121c0 -31.333 9 -47 27 -47
c26.667 0 40 18.667 40 56c0 74.667 -22.333 112 -67 112z" />
    <glyph glyph-name="uni0E0D" unicode="&#xe0d;" horiz-adv-x="1151" 
d="M1018 819l0.00195312 -664.998c0 -45.333 -5 -77.5 -15 -96.5s-23.333 -33.333 -40 -43s-36.667 -14.5 -60 -14.5h-362v92h59v525c0 82 -62.667 123 -188 123c-58.667 0 -114 -16 -166 -48c58 -28.667 110.667 -63.334 158 -104.001c-36 0 -68.667 -16 -98 -48
s-44 -69.333 -44 -112v-172c16 5.33301 33.333 8 52 8c81.333 0 122 -46.333 122 -139c0 -37.333 -11.833 -67.833 -35.5 -91.5s-54.834 -35.5 -93.501 -35.5c-94 0 -141 48 -141 144v305c0 63.333 26.667 111.666 80 144.999c-34 35.333 -96 63.333 -186 84
c25.333 36 73.166 69.667 143.499 101s138.5 47 204.5 47c96 0 168.167 -19.5 216.5 -58.5s72.5 -87.167 72.5 -144.5v-529h174c33.333 0 50 22 50 66v662zM307.002 68.002c44 0 66 21.667 66 65c0 42.667 -22 64 -66 64c-42 0 -63 -21.333 -63 -64c0 -43.333 21 -65 63 -65
zM920.002 -85.998h91.998c0 -65.333 -10.5 -120 -31.5 -164s-49.667 -78.833 -86 -104.5s-79.166 -38.5 -128.499 -38.5c-66 0 -123.833 15 -173.5 45s-74.5 70 -74.5 120c0 93.333 41.667 140 125 140c38 0 69 -11.5 93 -34.5s36 -53.167 36 -90.5
c0 -39.333 -19 -69.333 -57 -90c18 -6 32.333 -9 43 -9c46.667 0 84.834 18 114.501 54s45.5 93.333 47.5 172zM647 -153.998c-39.333 0 -59 -20.333 -59 -61c0 -38.667 19 -58 57 -58c40 0 60 20.667 60 62c0 38 -19.333 57 -58 57z" />
    <glyph glyph-name="uni0E0E" unicode="&#xe0e;" horiz-adv-x="946" 
d="M455 -303c-20.667 -32.667 -50.1699 -59.999 -88.5029 -81.999s-76.5 -33 -114.5 -33c-94 0 -141 40.333 -141 121c0 46.667 16.5 83.167 49.5 109.5s76.5 39.5 130.5 39.5c18.667 0 44.334 -3.66699 77.001 -11s51.334 -15.333 56.001 -24
c11.333 25.333 22.333 52 33 80s16 59 16 93h97c0 -53.333 -24.667 -126 -74 -218l100 -86l108 101v791c0 108 -62.667 162 -188 162c-78 0 -137 -16 -177 -48c11.333 -4 31.166 -14.5 59.499 -31.5s60.833 -41.167 97.5 -72.5c-35.333 0 -67.666 -15.833 -96.999 -47.5
s-44 -69.167 -44 -112.5v-286c0 -96 -47.333 -144 -142 -144c-40.667 0 -73.167 11 -97.5 33s-36.5 50 -36.5 84c0 99.333 42.667 149 128 149c18.667 0 35.667 -2.66699 51 -8v191c0 62 27 110.333 81 145c-37.333 35.333 -99.666 63.333 -186.999 84
c32.667 42.667 84.5 78 155.5 106s139.167 42 204.5 42c91.333 0 162.333 -21.167 213 -63.5s76 -101.833 76 -178.5v-808l-208 -216c-76 89.333 -122 135.666 -138 138.999zM212.997 68.001c44 0 66 21.667 66 65c0 42.667 -22 64 -66 64c-42 0 -63 -21.333 -63 -64
c0 -43.333 21 -65 63 -65zM378.997 -249.999c-36 19.333 -69.333 29 -100 29c-52 0 -78 -20.667 -78 -62c0 -36.667 21 -55 63 -55c20 0 44.167 9.83301 72.5 29.5s42.5 39.167 42.5 58.5z" />
    <glyph glyph-name="uni0E0F" unicode="&#xe0f;" horiz-adv-x="928" 
d="M699 -221l-0.00195312 831.999c0 29.333 -6.5 53.333 -19.5 72s-33.333 32.834 -61 42.501s-62.5 14.5 -104.5 14.5c-60 0 -119 -16 -177 -48c64 -34 116.333 -68.667 157 -104c-36.667 0 -69.334 -15.667 -98.001 -47s-43 -69 -43 -113v-286c0 -96 -49 -144 -147 -144
c-21.333 0 -41.166 4.83301 -59.499 14.5s-34 24.167 -47 43.5s-19.5 41.666 -19.5 66.999c0 94 41.667 141 125 141c12.667 0 29.667 -2.66699 51 -8v191c0 62 27 110.333 81 145c-37.333 35.333 -99.666 63.333 -186.999 84c25.333 35.333 73.833 68.833 145.5 100.5
s143.167 47.5 214.5 47.5c92.667 0 163.334 -16.5 212.001 -49.5s73 -86.167 73 -159.5v-836c0 -33.333 -9.5 -65.666 -28.5 -96.999s-64.167 -68.666 -135.5 -111.999l-94 131l-96 -133l-74 102c-8.66699 -18.667 -28.667 -45.334 -60 -80.001c-20.667 -14 -50 -21 -88 -21
c-30 0 -55.833 14.333 -77.5 43s-32.5 59.667 -32.5 93c0 42 11.667 78.833 35 110.5s53.333 47.5 90 47.5c42 0 80 -18.667 114 -56c28.667 78 43 138 43 180h84c0 -33.333 -6.5 -72.5 -19.5 -117.5s-28.833 -84.167 -47.5 -117.5l28 -47l101 147l104 -161
c16.667 9.33301 30.5 20.5 41.5 33.5s16.5 31.167 16.5 54.5zM210.998 67.999c44 0 66 21.667 66 65c0 42.667 -22 64 -66 64c-42 0 -63 -21.333 -63 -64c0 -43.333 21 -65 63 -65zM235.998 -211.001c-32.667 0 -49.002 -28 -49.002 -84c0 -44 13 -66 39 -66
c36.667 0 66.334 33.667 89.001 101c-29.333 32.667 -55.666 49 -78.999 49z" />
    <glyph glyph-name="uni0E10" unicode="&#xe10;" horiz-adv-x="725" 
d="M668 723c-26 -13.333 -53.335 -20 -82.002 -20c-27.333 0 -67.666 5.66699 -120.999 17c-53.333 12 -93.666 18 -120.999 18c-67.333 0 -114.333 -16 -141 -48c76.667 0 148.5 -14.833 215.5 -44.5s112 -60 135 -91s34.5 -67.5 34.5 -109.5v-314
c0 -44 -16 -77.5 -48 -100.5s-68.667 -34.5 -110 -34.5s-76.333 12 -105 36s-43 54.333 -43 91v105c-22 -6 -38.667 -9 -50 -9c-84 0 -126 49.333 -126 148c0 79.333 44 119 132 119c94 0 141 -48 141 -144v-192c0 -45.333 20 -68 60 -68c34.667 0 52 23.333 52 70v282
c0 28.667 -7.33301 54 -22 76s-37.334 41 -68.001 57s-81.5 31 -152.5 45s-137.5 21 -199.5 21c40.667 74 83 123.167 127 147.5s96 36.5 156 36.5c28.667 0 70 -6.33301 124 -19c54.667 -12 86.334 -18 95.001 -18c20.667 0 51.667 6.33301 93 19h-1zM302.998 353
c0 42 -21.667 63 -65 63c-42.667 0 -64 -21 -64 -63c0 -44 21.333 -66 64 -66c43.333 0 65 22 65 66zM519.998 -289c-17.333 -4 -30 -5.99902 -38 -5.99902c-66 0 -99 33.333 -99 100c0 31.333 10.5 55.166 31.5 71.499s44.167 24.5 69.5 24.5
c70.667 0 106 -42.333 106 -127v-133l-143 -96l-94 64l-111 -63l-41 69c-22 -39.333 -54.333 -59 -97 -59c-66.667 0 -100 37.333 -100 112c0 28 9 53.5 27 76.5s44 34.5 78 34.5c38.667 0 68.334 -10.333 89.001 -31c13.333 40 22.666 89 27.999 147h75
c0 -63.333 -19 -132.333 -57 -207l27 -47l84 45l92 -57l73 47v35zM483.998 -151.999c-28.667 0 -43 -14.333 -43 -43c0 -31.333 15.667 -47 47 -47c28 0 42 14.333 42 43c0 31.333 -15.333 47 -46 47zM103.998 -285.999c-22.667 0 -34 -16.001 -34 -48.001
c0 -31.333 12.333 -47 37 -47c14 0 25.667 6.83301 35 20.5s14 27.834 14 42.501c0 21.333 -17.333 32 -52 32z" />
    <glyph glyph-name="uni0E11" unicode="&#xe11;" horiz-adv-x="1096" 
d="M973 0l-97.0039 -0.00195312v658c0 36.667 -11.333 55 -34 55c-9.33301 0 -18.166 -2.5 -26.499 -7.5s-16.5 -12.5 -24.5 -22.5c-17.333 -22 -42.666 -63.333 -75.999 -124c-30 -54 -60.333 -113 -91 -177c-40 -82.667 -68.333 -145 -85 -187
c-10.667 -26 -17.834 -50.5 -21.501 -73.5s-5.5 -63.5 -5.5 -121.5h-103v580c0 8 10.667 22 32 42c16.667 20.667 25.334 34.667 26.001 42c0 9.33301 -7.33301 23.166 -22 41.499s-27 27.5 -37 27.5l-103 -51l-94 51c-9.33301 -4 -27.666 -19 -54.999 -45
c-18.667 -23.333 -28.334 -47.666 -29.001 -72.999c24 8 43.333 12 58 12c90 0 135 -43.667 135 -131c0 -25.333 -5.66699 -47.666 -17 -66.999s-26.5 -34.5 -45.5 -45.5s-41.167 -16.5 -66.5 -16.5c-49.333 0 -87.666 17.5 -114.999 52.5s-41 80.833 -41 137.5
c0 57.333 14.5 110 43.5 158s67.833 84.333 116.5 109l110 -64l113 64c24.667 -14 54.334 -37.5 89.001 -70.5s52 -56.167 52 -69.5v-45c-26 -24 -41.333 -39.333 -46 -46s-7 -15 -7 -25v-242c19.333 44 54 115.333 104 214s93.167 169.834 129.5 213.501
s67.833 65.5 94.5 65.5c22 0 43.167 -5.5 63.5 -16.5s38 -27.667 53 -50s22.5 -47.833 22.5 -76.5v-676zM190.996 562.998c-44 0 -66 -21.667 -66 -65c0 -45.333 22 -68 66 -68c43.333 0 65 22.667 65 68c0 43.333 -21.667 65 -65 65z" />
    <glyph glyph-name="uni0E12" unicode="&#xe12;" horiz-adv-x="1131" 
d="M617 348l0.00292969 246.002c0 71.333 -29.333 119.333 -88 144l-117 -89l-123 89c-101.333 -56 -152 -135.333 -152 -238c0 -50.667 20.333 -119 61 -205l64 -141c7.33301 32.667 15.5 58.167 24.5 76.5s27.5 50.833 55.5 97.5c-24.667 0 -45.334 3.66699 -62.001 11
s-31.667 21 -45 41s-20 45 -20 75c0 26.667 5.83301 50 17.5 70s27.667 35.833 48 47.5s43.5 17.5 69.5 17.5c25.333 0 48.5 -6.16699 69.5 -18.5s37.667 -28.333 50 -48s18.5 -41.834 18.5 -66.501c0 -30.667 -14 -70 -42 -118l-60 -97
c-22.667 -36 -40.334 -74.5 -53.001 -115.5s-19.667 -83.167 -21 -126.5h-103c0 60 -26.333 144 -79 252s-79 192 -79 252c0 74.667 18.5 137.334 55.5 188.001s102.5 94.667 196.5 132l109 -80l113 82c50.667 -18 94.667 -47 132 -87s56 -88.333 56 -145v-264
c34 -38 67.667 -89 101 -153c30 -56.667 53 -85 69 -85c12 0 18 18.667 18 56v671h97v-679c0 -56 -10.167 -94 -30.5 -114s-44.5 -30 -72.5 -30c-27.333 0 -52.333 12.5 -75 37.5s-46.334 63.833 -71.001 116.5c-11.333 22.667 -23.333 39.667 -36 51v-102
c0 -68.667 -37 -103 -111 -103c-42 0 -75.333 18.167 -100 54.5s-37 76.166 -37 119.499c0 30.667 5.66699 58.667 17 84s28.5 46.666 51.5 63.999s50.833 27.333 83.5 30zM350.003 527.002c-44.667 0 -67 -22.667 -67 -68c0 -46.667 22.333 -70 67 -70
c45.333 0 68 22.667 68 68c0 46.667 -22.667 70 -68 70zM543.003 170.002c0 -61.333 15.667 -92 47 -92c18 0 27 10.333 27 31v168c-49.333 -15.333 -74 -51 -74 -107z" />
    <glyph glyph-name="uni0E13" unicode="&#xe13;" horiz-adv-x="1215" 
d="M936 347v473h94v-463c45.333 0 86.166 -14 122.499 -42s54.5 -68 54.5 -120c0 -132.667 -48 -199 -144 -199c-84.667 0 -127 41 -127 123v135c-51.333 -35.333 -95.333 -76.333 -132 -123s-59.667 -82.667 -69 -108c-3.33301 -9.33301 -6.66602 -17 -9.99902 -23h-97v615
c0 28.667 -6.5 52 -19.5 70s-33.167 31.667 -60.5 41s-61.666 14 -102.999 14c-66 0 -125.333 -16 -178 -48c11.333 -4.66699 36.333 -19.167 75 -43.5s66 -44.5 82 -60.5c-22.667 -5.33301 -56 -22.333 -100 -51c-27.333 -30 -41 -66.333 -41 -109v-172
c22.667 5.33301 39.667 8 51 8c84 0 126 -49.667 126 -149c0 -34 -14.667 -62 -44 -84s-58.666 -33 -87.999 -33c-94 0 -141 48 -141 144v305c0 20.667 5 43.5 15 68.5s31.667 50.5 65 76.5c-49.333 40.667 -111.666 68.667 -186.999 84
c25.333 35.333 73.166 68.833 143.499 100.5s142.833 47.5 217.5 47.5c64 0 117.167 -7.66699 159.5 -23s73.666 -38 93.999 -68s30.5 -68 30.5 -114v-459c63.333 96 133.666 158.333 210.999 187zM1030 269v-142c0 -32.667 15 -49 45 -49c34.667 0 52 27.333 52 82
c0 72.667 -32.333 109 -97 109zM328 68c43.333 0 65 21.667 65 65c0 42.667 -21.667 64 -65 64c-42 0 -63 -21.333 -63 -64c0 -43.333 21 -65 63 -65z" />
    <glyph glyph-name="uni0E14" unicode="&#xe14;" horiz-adv-x="862" 
d="M383 320c-34.667 0 -64.4971 14.166 -89.4971 42.499s-37.5 60.5 -37.5 96.5c0 40 13.5 72.167 40.5 96.5s60.833 36.5 101.5 36.5c27.333 0 51.333 -6 72 -18s37 -28.333 49 -49s18 -44.667 18 -72c0 -49.333 -17.667 -96.333 -53 -141
c-83.333 -106 -130 -210 -140 -312h-100c-4 36.667 -9.33301 70.167 -16 100.5s-15.834 59 -27.501 86s-35.5 75.833 -71.5 146.5c-35.333 68.667 -53 136.667 -53 204c0 82.667 33.5 150.334 100.5 203.001s146.833 79 239.5 79c85.333 0 160.333 -19.167 225 -57.5
s97 -100.166 97 -185.499v-576h-96v568c0 36 -8.83301 66.667 -26.5 92s-42.834 45 -75.501 59s-72 21 -118 21c-50 0 -95.333 -10.167 -136 -30.5s-71.834 -45.5 -93.501 -75.5s-32.5 -64.333 -32.5 -103c0 -86 21 -163.333 63 -232c20 -32 44.667 -84.333 74 -157
c4.66699 12.667 12.667 32.667 24 60s21.333 48.666 30 63.999zM398.003 526.999c-46.667 0 -70 -23.333 -70 -70c0 -48 23.333 -72 70 -72c47.333 0 71 24 71 72c0 46.667 -23.667 70 -71 70z" />
    <glyph glyph-name="uni0E15" unicode="&#xe15;" horiz-adv-x="871" 
d="M565 738l-110.001 -81.998l-115 88c-113.333 -45.333 -170 -116.333 -170 -213c0 -84.667 21.333 -162 64 -232c18.667 -30.667 43 -83 73 -157c22.667 58.667 38.334 96.167 47.001 112.5s22.667 38.166 42 65.499c-35.333 0 -65.833 14.167 -91.5 42.5
s-38.5 60.5 -38.5 96.5c0 44 14.5 77.167 43.5 99.5s61.833 33.5 98.5 33.5c28 0 52.333 -6 73 -18s36.834 -28.333 48.501 -49s17.5 -44.667 17.5 -72c0 -49.333 -17.667 -96.333 -53 -141c-84 -106.667 -130.333 -210.667 -139 -312h-101c-16 108.667 -44 200 -84 274
c-56 103.333 -84 191.666 -84 264.999c0 140.667 91 235.667 273 285l94 -72l104 72c58 -12.667 104.333 -40.834 139 -84.501s52 -98.167 52 -163.5v-576h-96v568c0 36.667 -4.83301 67.334 -14.5 92.001s-33.834 50.667 -72.501 78zM407.999 527.002
c-46.667 0 -70 -23.333 -70 -70c0 -48 23.333 -72 70 -72c47.333 0 71 24 71 72c0 46.667 -23.667 70 -71 70z" />
    <glyph glyph-name="uni0E16" unicode="&#xe16;" horiz-adv-x="873" 
d="M256 256c22.667 5.33301 39.668 8 51.001 8c86 0 129 -47.333 129 -142c0 -36.667 -13.333 -66.5 -40 -89.5s-58.334 -34.5 -95.001 -34.5c-94.667 0 -142 48 -142 144v305c0 56 27 104.333 81 145c-17.333 13.333 -44.666 30.333 -81.999 51
c-30 11.333 -65 22.333 -105 33c116 98.667 240.333 148 373 148c87.333 0 162.166 -19 224.499 -57s93.5 -98.333 93.5 -181v-586h-96v582c0 35.333 -7.5 64.5 -22.5 87.5s-39 40.5 -72 52.5s-74.167 18 -123.5 18c-34 0 -70 -5 -108 -15s-65.333 -21 -82 -33
c57.333 -28.667 110 -63.334 158 -104.001c-23.333 -6 -57 -23 -101 -51c-27.333 -29.333 -41 -65.666 -41 -108.999v-172zM301.001 68c44 0 66 21.667 66 65c0 42.667 -22 64 -66 64c-42 0 -63 -21.333 -63 -64c0 -43.333 21 -65 63 -65z" />
    <glyph glyph-name="uni0E17" unicode="&#xe17;" horiz-adv-x="942" 
d="M819 0l-96.001 -0.00292969v652c0 28.667 -9.16699 50.834 -27.5 66.501s-37.166 23.5 -56.499 23.5c-26 0 -65.5 -44.167 -118.5 -132.5s-97.667 -182.166 -134 -281.499s-54.5 -208.666 -54.5 -327.999h-97v563c-16 -5.33301 -32.667 -8 -50 -8
c-85.333 0 -128 47 -128 141c0 22 4.83301 42.167 14.5 60.5s24.667 33.666 45 45.999s45.166 18.5 74.499 18.5c94 0 141 -47.667 141 -143v-262c41.333 94.667 92.333 186.334 153 275.001s114 133 160 133c33.333 0 63.333 -8.83301 90 -26.5s47.334 -41 62.001 -70
s22 -62.5 22 -100.5v-627zM190.999 751.997c-42.667 0 -64 -21.333 -64 -64c0 -43.333 21.333 -65 64 -65c43.333 0 65 21.667 65 65c0 42.667 -21.667 64 -65 64z" />
    <glyph glyph-name="uni0E18" unicode="&#xe18;" horiz-adv-x="764" 
d="M721 819l38 -74c-61.333 -35.333 -112.333 -53 -153 -53c-29.333 0 -72.666 7 -129.999 21c-57.333 14.667 -100 22 -128 22v-73c187.333 -40.667 281 -105.667 281 -195v-344c0 -68.667 -40.333 -109.667 -121 -123h-364l-1 92h109v502c-17.333 3.33301 -48 8 -92 14
s-71.333 9 -82 9c-12 0 -18 7.33301 -18 22c0 30 12.5 60.167 37.5 90.5s55 52.5 90 66.5s75.5 21 121.5 21c23.333 0 72.666 -7.33301 147.999 -22c75.333 -14 123.666 -21 144.999 -21c36.667 0 76.334 15 119.001 45zM166 686l86.001 -8.00098v60
c-11.333 -1.33301 -27.333 -5.66602 -48 -12.999c-8.66699 -6 -21.334 -19 -38.001 -39zM348.001 569.999v-478h146c26 0 39 14.333 39 43v312c0 64.667 -61.667 105.667 -185 123z" />
    <glyph glyph-name="uni0E19" unicode="&#xe19;" horiz-adv-x="914" 
d="M617 361l0.000976562 458h96v-448c116 0 174 -64.333 174 -193c0 -47.333 -12 -89.166 -36 -125.499s-61 -54.5 -111 -54.5c-82 0 -123 54 -123 162v111c-35.333 0 -85 -29.333 -149 -88s-108.667 -119.667 -134 -183h-97v563c-20.667 -5.33301 -37.334 -8 -50.001 -8
c-86 0 -129 46.667 -129 140c0 36 12.667 66 38 90s57.666 36 96.999 36c46.667 0 81.834 -11.167 105.501 -33.5s35.5 -58.833 35.5 -109.5v-512c38 51.333 89 96.666 153 135.999s107.333 59 130 59zM193.001 752c-42.667 0 -64 -21.333 -64 -64
c0 -43.333 21.333 -65 64 -65c43.333 0 65 21.667 65 65c0 42.667 -21.667 64 -65 64zM713.001 287v-121c0 -54.667 15.667 -82 47 -82s47 38.333 47 115c0 58.667 -31.333 88 -94 88z" />
    <glyph glyph-name="uni0E1A" unicode="&#xe1a;" horiz-adv-x="926" 
d="M703 819l96.001 0.000976562v-696c0 -36.667 -12.5 -66.334 -37.5 -89.001s-56.833 -34 -95.5 -34h-537v92h108v471c-20.667 -5.33301 -37.334 -8 -50.001 -8c-85.333 0 -128 47 -128 141c0 36.667 12.5 66.667 37.5 90s57.167 35 96.5 35c48 0 83.5 -11.333 106.5 -34
s34.5 -59 34.5 -109v-586h303c44 0 66 24 66 72v655zM193.001 752.001c-42.667 0 -64 -21.333 -64 -64c0 -43.333 21.333 -65 64 -65c43.333 0 65 21.667 65 65c0 42.667 -21.667 64 -65 64z" />
    <glyph glyph-name="uni0E1B" unicode="&#xe1b;" horiz-adv-x="928" 
d="M703 1219l96 0.000976562v-1096c0 -36.667 -12.5 -66.334 -37.5 -89.001s-56.833 -34 -95.5 -34h-537v92h108v471c-15.333 -5.33301 -32 -8 -50 -8c-84.667 0 -127 45.333 -127 136c0 37.333 12.333 68.333 37 93s56.667 37 96 37c48 0 83.5 -11.333 106.5 -34
s34.5 -59 34.5 -109v-586h303c44 0 66 24 66 72v1055zM193 752.001c-42.667 0 -64 -21.333 -64 -64c0 -43.333 21.333 -65 64 -65c43.333 0 65 21.667 65 65c0 42.667 -21.667 64 -65 64z" />
    <glyph glyph-name="uni0E1C" unicode="&#xe1c;" horiz-adv-x="875" 
d="M116 0v678.002l2 26c0.666992 10 3 20.5 7 31.5s9.83301 21.5 17.5 31.5s17.5 19.167 29.5 27.5s25.167 14.833 39.5 19.5s29.833 7 46.5 7c24.667 0 47.667 -5.83301 69 -17.5s37.833 -26.834 49.5 -45.501s17.5 -40 17.5 -64c0 -92.667 -43.333 -139 -130 -139
c-20 0 -37 2.66699 -51 8v-383c28 39.333 63 86 105 140c46 46 84.667 80 116 102c32 -22 65 -49.5 99 -82.5s75.667 -86.167 125 -159.5v639h96v-819h-96c-18 51.333 -48.667 108.166 -92 170.499s-87.333 110.833 -132 145.5c-102 -82 -175.667 -187.333 -221 -316h-97z
M258 752.002c-42 0 -63 -21.333 -63 -64c0 -43.333 21 -65 63 -65c44 0 66 21.667 66 65c0 42.667 -22 64 -66 64z" />
    <glyph glyph-name="uni0E1D" unicode="&#xe1d;" horiz-adv-x="873" 
d="M116 0v678.002l2 26c0.666992 10 3 20.5 7 31.5s9.83301 21.5 17.5 31.5s17.5 19.167 29.5 27.5s25.167 14.833 39.5 19.5s29.833 7 46.5 7c24.667 0 47.667 -5.83301 69 -17.5s37.833 -26.834 49.5 -45.501s17.5 -40 17.5 -64c0 -92.667 -43.333 -139 -130 -139
c-20 0 -37 2.66699 -51 8v-383c28 39.333 63 86 105 140c46 46 84.667 80 116 102c32 -22 65 -49.5 99 -82.5s75.667 -86.167 125 -159.5v1039h96v-1219h-96c-18 51.333 -48.667 108.166 -92 170.499s-87.333 110.833 -132 145.5c-102 -82 -175.667 -187.333 -221 -316h-97z
M258 752.002c-42 0 -63 -21.333 -63 -64c0 -43.333 21 -65 63 -65c44 0 66 21.667 66 65c0 42.667 -22 64 -66 64z" />
    <glyph glyph-name="uni0E1E" unicode="&#xe1e;" horiz-adv-x="1014" 
d="M237 563c-20.667 -5.33301 -37.333 -8 -50 -8c-86 0 -129 46.333 -129 139c0 36.667 12.667 67 38 91s57.666 36 96.999 36c48 0 83.5 -11.333 106.5 -34s34.5 -59 34.5 -109v-405l76 168c61.333 135.333 92 261.333 92 378h100c0 -98 35 -219.333 105 -364
c32 -65.333 59.333 -126 82 -182v546h96v-819h-94c-28 112 -73 229.667 -135 353c-18 36.667 -37.167 85.667 -57.5 147s-34.166 109 -41.499 143c-18.667 -110 -50.667 -210.333 -96 -301c-83.333 -165.333 -125 -279.333 -125 -342h-99v563zM193.001 752
c-42.667 0 -64 -21.333 -64 -64c0 -43.333 21.333 -65 64 -65c43.333 0 65 21.667 65 65c0 42.667 -21.667 64 -65 64z" />
    <glyph glyph-name="uni0E1F" unicode="&#xe1f;" horiz-adv-x="1014" 
d="M237 563c-20.667 -5.33301 -37.333 -8 -50 -8c-86 0 -129 46.333 -129 139c0 36.667 12.667 67 38 91s57.666 36 96.999 36c48 0 83.5 -11.333 106.5 -34s34.5 -59 34.5 -109v-405l76 168c61.333 135.333 92 261.333 92 378h100c0 -98 35 -219.333 105 -364
c32 -65.333 59.333 -126 82 -182v946h96v-1219h-94c-28 112 -73 229.667 -135 353c-18 36.667 -37.167 85.667 -57.5 147s-34.166 109 -41.499 143c-18.667 -110 -50.667 -210.333 -96 -301c-83.333 -165.333 -125 -279.333 -125 -342h-99v563zM193.001 752
c-42.667 0 -64 -21.333 -64 -64c0 -43.333 21.333 -65 64 -65c43.333 0 65 21.667 65 65c0 42.667 -21.667 64 -65 64z" />
    <glyph glyph-name="uni0E20" unicode="&#xe20;" horiz-adv-x="961" 
d="M324 592c-17.333 13.333 -44.668 30.335 -82.001 51.002c-30 11.333 -65 22.333 -105 33c112.667 98.667 237 148 373 148c90.667 0 166.334 -19.333 227.001 -58s91 -98.667 91 -180v-586h-96v582c0 30 -5.5 56.167 -16.5 78.5s-32.333 41.166 -64 56.499
s-77.5 23 -137.5 23c-34 0 -69.5 -4.83301 -106.5 -14.5s-64.833 -20.834 -83.5 -33.501c57.333 -28.667 110 -63.334 158 -104.001c-23.333 -6 -57 -23 -101 -51c-27.333 -29.333 -41 -65.666 -41 -108.999v-286c0 -96 -47 -144 -141 -144c-34.667 0 -65.667 10.5 -93 31.5
s-41 52.833 -41 95.5c0 92.667 42.667 139 128 139c20 0 36.667 -2.66699 50 -8v191c0 56 27 104.333 81 145zM198.998 68.002c43.333 0 65 21.667 65 65c0 42.667 -21.667 64 -65 64c-42.667 0 -64 -21.333 -64 -64c0 -43.333 21.333 -65 64 -65z" />
    <glyph glyph-name="uni0E21" unicode="&#xe21;" horiz-adv-x="885" 
d="M273 348v214.998c-21.333 -5.33301 -38.666 -8 -51.999 -8c-86.667 0 -130 44.667 -130 134c0 36.667 13.167 67.834 39.5 93.501s58.833 38.5 97.5 38.5c48 0 83.5 -11.333 106.5 -34s34.5 -59 34.5 -109v-348l162 -166c45.333 -46.667 78 -70 98 -70
c13.333 0 22.666 5 27.999 15s8 31 8 63v647h97v-630c0 -69.333 -11.333 -118.5 -34 -147.5s-55 -43.5 -97 -43.5s-78.333 17 -109 51l-153 168v-102c0 -22 -5.5 -41.833 -16.5 -59.5s-25.5 -32 -43.5 -43s-38.333 -16.5 -61 -16.5c-47.333 0 -84.333 17.333 -111 52
s-40 73.334 -40 116.001c0 54 15.833 98.167 47.5 132.5s74.5 51.5 128.5 51.5zM228 751.998c-42.667 0 -64 -21.333 -64 -64c0 -43.333 21.333 -65 64 -65c44 0 66 21.667 66 65c0 42.667 -22 64 -66 64zM180 163.998c0 -58.667 18.667 -88 56 -88
c24.667 0 37 18.333 37 55v131c-62 0 -93 -32.667 -93 -98z" />
    <glyph glyph-name="uni0E22" unicode="&#xe22;" horiz-adv-x="836" 
d="M391 369c-15.333 -7.33301 -40.832 -21.332 -76.499 -41.999s-58.334 -41.167 -68.001 -61.5s-14.5 -41.166 -14.5 -62.499v-111h324c42.667 0 64 23.333 64 70v657h97v-661c0 -47.333 -14.167 -85.5 -42.5 -114.5s-66.166 -43.5 -113.499 -43.5h-426v197
c0 34 7 65.667 21 95s44.667 53.666 92 72.999c-16.667 4.66699 -39.334 14.667 -68.001 30c-30 26 -45 68.333 -45 127v154c0 41.333 13.333 75.5 40 102.5s60.667 40.5 102 40.5c36 0 67.667 -12 95 -36s41 -54 41 -90c0 -93.333 -43.333 -140 -130 -140
c-11.333 0 -28.333 2.66699 -51 8v-45c0 -18.667 6.5 -38.834 19.5 -60.501s45.167 -44.167 96.5 -67.5zM277.001 750.001c-42 0 -63 -21.333 -63 -64c0 -43.333 21 -65 63 -65c43.333 0 65 21.667 65 65c0 42.667 -21.667 64 -65 64z" />
    <glyph glyph-name="uni0E23" unicode="&#xe23;" horiz-adv-x="668" 
d="M643 737c-40.667 -22.667 -72.001 -34 -94.001 -34c-28.667 0 -71 7 -127 21c-56 14.667 -98.333 22 -127 22c-56.667 0 -99.667 -17 -129 -51c36.667 -4 78.834 -12.333 126.501 -25s92.834 -31.5 135.501 -56.5s71.167 -49.667 85.5 -74s21.5 -61.5 21.5 -111.5v-286
c0 -96 -47.333 -144 -142 -144c-24 0 -46 4.83301 -66 14.5s-36.5 24.167 -49.5 43.5s-19.5 42 -19.5 68c0 93.333 43 140 129 140c21.333 0 38.666 -2.66699 51.999 -8v187c0 42 -25.5 78.667 -76.5 110s-135.167 57.333 -252.5 78l-91 16
c37.333 74 79.833 121.5 127.5 142.5s95.167 31.5 142.5 31.5c26 0 64.333 -7.33301 115 -22c50.667 -14 88 -21 112 -21c24.667 0 53 9 85 27zM392.999 68c44.667 0 67 21.667 67 65c0 42.667 -22.333 64 -67 64c-42 0 -63 -21.333 -63 -64c0 -43.333 21 -65 63 -65z" />
    <glyph glyph-name="uni0E24" unicode="&#xe24;" horiz-adv-x="871" 
d="M256 256c17.333 5.33301 34.333 7.99707 51 7.99707c44 0 76.667 -13.833 98 -41.5s32 -59.167 32 -94.5c0 -38 -13.167 -69.167 -39.5 -93.5s-58.5 -36.5 -96.5 -36.5c-94.667 0 -142 48 -142 144v305c0 56 27 104.333 81 145c-23.333 16 -48 31.333 -74 46
s-63.667 27.334 -113 38.001c34 37.333 86.333 71.333 157 102s142.667 46 216 46c94 0 170.5 -20 229.5 -60s88.5 -99.333 88.5 -178v-883h-96v879c0 32.667 -6.5 60.334 -19.5 83.001s-35.833 40.834 -68.5 54.501s-76 20.5 -130 20.5c-76.667 0 -140 -16 -190 -48
c57.333 -28.667 110 -63.334 158 -104.001c-23.333 -6 -57 -23 -101 -51c-27.333 -29.333 -41 -65.666 -41 -108.999v-172zM301 67.9971c44 0 66 21.667 66 65c0 42.667 -22 64 -66 64c-42 0 -63 -21.333 -63 -64c0 -43.333 21 -65 63 -65z" />
    <glyph glyph-name="uni0E25" unicode="&#xe25;" horiz-adv-x="795" 
d="M579 297l0.00195312 271.001c0 113.333 -68 170 -204 170c-104.667 0 -181.334 -42.333 -230.001 -127l-63 46c11.333 19.333 36.333 49.666 75 90.999c62 47.333 138 71 228 71c56.667 0 105.5 -8.33301 146.5 -25s75.333 -42.667 103 -78s41.5 -83.333 41.5 -144v-572
h-97v88c0 22.667 -21.333 74.667 -64 156s-84.5 145.333 -125.5 192s-74.5 70 -100.5 70c-42 0 -63 -26 -63 -78v-172c14.667 5.33301 31.667 8 51 8c85.333 0 128 -48.333 128 -145c0 -37.333 -14.333 -66.833 -43 -88.5s-59 -32.5 -91 -32.5c-94.667 0 -142 48 -142 144
v282c0 46 11.667 83.667 35 113s55.666 44 96.999 44c76 0 145 -37.833 207 -113.5s99 -132.5 111 -170.5zM271.002 68.001c43.333 0 65 21.667 65 65c0 42.667 -21.667 64 -65 64c-42 0 -63 -21.333 -63 -64c0 -43.333 21 -65 63 -65z" />
    <glyph glyph-name="uni0E26" unicode="&#xe26;" horiz-adv-x="967" 
d="M337 592c-19.333 17.333 -47.3311 34.833 -83.998 52.5s-71 28.167 -103 31.5c12 12.667 33.333 30.334 64 53.001c30.667 17.333 72.5 37.5 125.5 60.5s113.833 34.5 182.5 34.5c92.667 0 168.834 -19.833 228.501 -59.5s89.5 -99.167 89.5 -178.5v-883h-96v879
c0 36 -7.33301 65.167 -22 87.5s-38.334 39.666 -71.001 51.999s-74 18.5 -124 18.5c-76 0 -139.333 -16 -190 -48c57.333 -25.333 109.666 -60 156.999 -104c-23.333 -6 -57 -23 -101 -51c-26.667 -29.333 -40 -65.666 -40 -108.999v-286c0 -96 -47.333 -144 -142 -144
c-44.667 0 -77.834 13 -99.501 39s-32.5 55 -32.5 87c0 93.333 42 140 126 140c20 0 37 -2.66699 51 -8v191c0 57.333 27 105.666 81 144.999zM211.002 68c44 0 66 21.667 66 65c0 42.667 -22 64 -66 64c-42 0 -63 -21.333 -63 -64c0 -43.333 21 -65 63 -65z" />
    <glyph glyph-name="uni0E27" unicode="&#xe27;" horiz-adv-x="748" 
d="M615 590l0.00195312 -448c0 -96 -47.333 -144 -142 -144c-24.667 0 -47.334 6.16699 -68.001 18.5s-37.167 27.666 -49.5 45.999s-18.5 38.833 -18.5 61.5c0 93.333 43.333 140 130 140c18 0 35 -2.66699 51 -8v316c0 61.333 -17.167 105 -51.5 131
s-83.166 39 -146.499 39c-50.667 0 -96.334 -13.5 -137.001 -40.5s-67.667 -61.833 -81 -104.5l-73 34c23.333 59.333 61.166 106.333 113.499 141s110.833 52 175.5 52c53.333 0 102.5 -8.66699 147.5 -26s81.167 -43.166 108.5 -77.499s41 -77.833 41 -130.5zM473.002 68
c44 0 66 21.667 66 65c0 42.667 -22 64 -66 64c-42 0 -63 -21.333 -63 -64c0 -43.333 21 -65 63 -65z" />
    <glyph glyph-name="uni0E28" unicode="&#xe28;" horiz-adv-x="856" 
d="M475 492c6 -16.667 8.99902 -33.0029 8.99902 -49.0029c0 -23.333 -4.66699 -44.166 -14 -62.499s-23.833 -33.666 -43.5 -45.999s-43.5 -18.5 -71.5 -18.5c-13.333 0 -30 3.33301 -50 10v-326h-96v135c0 26.667 -4.66699 49.334 -14 68.001l-72 144
c-13.333 27.333 -24.5 57.666 -33.5 90.999s-13.5 65 -13.5 95c0 78.667 29.667 146.834 89 204.501s142.333 86.5 249 86.5c40.667 0 79.5 -4.33301 116.5 -13s76.5 -31 118.5 -67c6.66699 7.33301 15.334 18.833 26.001 34.5s18.334 29 23.001 40s9.66699 24.833 15 41.5
l86 -30c-2.66699 -12.667 -13.334 -37 -32.001 -73s-40.667 -63.667 -66 -83c22.667 -36 34 -77 34 -123v-551h-96v508c0 50 -6 84.333 -18 103c-62 -61.333 -110.667 -101 -146 -119zM212.999 349.997l-0.00195312 90.999c0 40 13.167 73.833 39.5 101.5
s58.833 41.5 97.5 41.5c32.667 0 62.334 -10.333 89.001 -31c62 44 111.667 86.333 149 127c-12.667 11.333 -31.667 25 -57 41c-31.333 12.667 -73 19 -125 19c-79.333 0 -139.166 -23.333 -179.499 -70s-60.5 -93 -60.5 -139c0 -35.333 3.33301 -65.166 10 -89.499
s19 -54.833 37 -91.5zM352.997 513.996c-42.667 0 -64 -21 -64 -63c0 -44 21.333 -66 64 -66c43.333 0 65 22 65 66c0 42 -21.667 63 -65 63z" />
    <glyph glyph-name="uni0E29" unicode="&#xe29;" horiz-adv-x="994" 
d="M154 0l0.000976562 92h108v471c-21.333 -5.33301 -38.333 -8 -51 -8c-86.667 0 -130 46.333 -130 139c0 36.667 12.833 67 38.5 91s58.167 36 97.5 36c48 0 83.667 -11.333 107 -34s35 -59 35 -109v-586h320c43.333 0 65 24 65 72v145
c-32.667 -5.33301 -56.667 -8 -72 -8c-49.333 0 -92.5 6.66699 -129.5 20s-64.667 31.333 -83 54s-27.5 50 -27.5 82c0 24 5.5 45.167 16.5 63.5s25.667 32.833 44 43.5s39.166 16 62.499 16c26 0 48.667 -5.16699 68 -15.5s33.666 -24 42.999 -41s14 -35.833 14 -56.5
c0 -41.333 -13.667 -70.666 -41 -87.999c14 -3.33301 31 -5 51 -5c10 0 28 5 54 15v430h96v-403c46.667 25.333 78 69 94 131l76 -45c-10.667 -23.333 -35 -60.333 -73 -111c-25.333 -25.333 -57.666 -46.333 -96.999 -63v-205c0 -36.667 -12.5 -66.334 -37.5 -89.001
s-56.833 -34 -95.5 -34h-553zM217.001 752c-42 0 -63 -21.333 -63 -64c0 -43.333 21 -65 63 -65c44 0 66 21.667 66 65c0 42.667 -22 64 -66 64zM555.001 518c-38 0 -57 -19 -57 -57c0 -40.667 20.333 -61 61 -61c38.667 0 58 19 58 57c0 40.667 -20.667 61 -62 61z" />
    <glyph glyph-name="uni0E2A" unicode="&#xe2a;" horiz-adv-x="813" 
d="M731 830l69.999 -60.001c-22.667 -48 -55 -90.667 -97 -128l-22 -21c1.33301 -8 2 -16.333 2 -25v-596h-96v88c0 43.333 -37.667 123.833 -113 241.5s-134.666 176.5 -177.999 176.5c-14 0 -28 -6.16699 -42 -18.5s-21 -32.166 -21 -59.499v-172
c12.667 5.33301 29.667 8 51 8c86 0 129 -52.333 129 -157c0 -29.333 -14.333 -54.833 -43 -76.5s-59.334 -32.5 -92.001 -32.5c-12.667 0 -24.5 0.833008 -35.5 2.5s-21.167 4 -30.5 7s-17.833 7 -25.5 12s-14.5 10.667 -20.5 17s-11 13.5 -15 21.5
s-7.33301 16.833 -10 26.5s-4.33398 19.834 -5.00098 30.501v309c0 52 15.333 91.667 46 119s68.667 41 114 41c43.333 0 82.333 -12.333 117 -37c26 13.333 70 39.333 132 78l28 20c-8 13.333 -21.333 30.666 -40 51.999c-34 27.333 -83 41 -147 41
c-109.333 0 -185.666 -44 -228.999 -132l-70 50c62.667 108.667 162.334 163 299.001 163c57.333 0 107 -8.16699 149 -24.5s77.667 -45.5 107 -87.5c46 45.333 75.333 86.333 88 123zM587.999 296.999v271c-28.667 -23.333 -72.334 -48 -131.001 -74l39 -51
c22.667 -30 53.334 -78.667 92.001 -146zM278.999 67.999c43.333 0 65 21.667 65 65c0 42.667 -21.667 64 -65 64c-42 0 -63 -21.333 -63 -64c0 -43.333 21 -65 63 -65z" />
    <glyph glyph-name="uni0E2B" unicode="&#xe2b;" horiz-adv-x="938" 
d="M570 561c-58.667 20 -87.999 66.665 -87.999 139.998c0 40 15.167 70.5 45.5 91.5s63.5 31.5 99.5 31.5c88.667 0 133 -46.333 133 -139c0 -53.333 -20.333 -89.666 -61 -108.999c50 -33.333 82.167 -69.166 96.5 -107.499s21.5 -83.833 21.5 -136.5v-332h-96v381
c0 22 -7.5 46 -22.5 72s-34.167 44.333 -57.5 55c-154 -132.667 -257.667 -302 -311 -508h-96v563c-21.333 -5.33301 -38.333 -8 -51 -8c-88 0 -132 47.333 -132 142c0 36.667 13.167 66.5 39.5 89.5s59.166 34.5 98.499 34.5c48 0 83.5 -11.333 106.5 -34
s34.5 -59 34.5 -109v-426c78 135.333 158 238.333 240 309zM189.001 751.998c-42.667 0 -64 -21.333 -64 -64c0 -43.333 21.333 -65 64 -65c44 0 66 21.667 66 65c0 42.667 -22 64 -66 64zM625.001 751.998c-42.667 0 -64 -21.333 -64 -64c0 -43.333 21.333 -65 64 -65
c43.333 0 65 21.667 65 65c0 42.667 -21.667 64 -65 64z" />
    <glyph glyph-name="uni0E2C" unicode="&#xe2c;" horiz-adv-x="1026" 
d="M879 617v-617.002h-94c-17.333 89.333 -62.666 207 -135.999 353c-15.333 31.333 -31.5 68 -48.5 110s-33.5 102 -49.5 180c-8.66699 -58 -20.667 -110.333 -36 -157s-35.333 -94.667 -60 -144c-83.333 -166.667 -125 -280.667 -125 -342h-98v563
c-21.333 -5.33301 -38.666 -8 -51.999 -8c-86 0 -129 47.333 -129 142c0 40.667 13.833 71.5 41.5 92.5s59.167 31.5 94.5 31.5c43.333 0 77.666 -9.83301 102.999 -29.5s38 -57.5 38 -113.5v-405l76 168c24 52.667 45.333 113.834 64 183.501s28 134.5 28 194.5h100
c0 -98.667 35 -220 105 -364c31.333 -64.667 58.666 -125.334 81.999 -182.001v313c-16 0 -42 6 -78 18c-38.667 22.667 -58 56.334 -58 101.001c0 77.333 39 116 117 116c76.667 0 115 -43 115 -129c44 36.667 71.333 80.667 82 132l49 -54
c-6 -23.333 -20.833 -50.666 -44.5 -81.999s-52.5 -55 -86.5 -71zM764 761.998c-35.333 0 -53 -17.667 -53 -53c0 -38 19 -57 57 -57c36 0 54 17.667 54 53c0 38 -19.333 57 -58 57zM187 751.998c-42.667 0 -64 -21.333 -64 -64c0 -43.333 21.333 -65 64 -65
c44 0 66 21.667 66 65c0 42.667 -22 64 -66 64z" />
    <glyph glyph-name="uni0E2D" unicode="&#xe2d;" horiz-adv-x="809" 
d="M297 92l238.002 -0.00195312c24 0 39.5 5.33301 46.5 16s10.5 28 10.5 52v420c0 34.667 -6.66699 63.5 -20 86.5s-34.833 42 -64.5 57s-64.834 22.5 -105.501 22.5c-111.333 0 -184.333 -44.333 -219 -133l-76 45c57.333 110.667 155 166 293 166
c82.667 0 151.334 -21.167 206.001 -63.5s82 -101.166 82 -176.499v-457c0 -38.667 -11 -69.5 -33 -92.5s-51 -34.5 -87 -34.5h-299c-23.333 0 -44.333 4.83301 -63 14.5s-34.334 24.667 -47.001 45s-19 45.5 -19 75.5v289c0 28.667 6 53.834 18 75.501s28.5 38.5 49.5 50.5
s45.5 18 73.5 18c33.333 0 64.166 -12 92.499 -36s42.5 -52.667 42.5 -86c0 -96.667 -43 -145 -129 -145c-11.333 0 -28.333 2.66699 -51 8v-143c0 -49.333 20.333 -74 61 -74zM281.002 497.998c-42 0 -63 -21.333 -63 -64c0 -43.333 21.667 -65 65 -65
c42 0 63 21.667 63 65c0 42.667 -21.667 64 -65 64z" />
    <glyph glyph-name="uni0E2E" unicode="&#xe2e;" horiz-adv-x="832" 
d="M645 733c30 28.667 52.667 61.668 68 99.001l72 -47c-24 -53.333 -56 -95.666 -96 -126.999c8 -26.667 12 -51.334 12 -74.001v-457c0 -38 -11.167 -68.667 -33.5 -92s-51.5 -35 -87.5 -35h-299c-38 0 -69 12.667 -93 38s-36 57.666 -36 96.999v195
c0 42 13 76.333 39 103s60 40 102 40c43.333 0 77 -14.333 101 -43s36 -58.667 36 -90c0 -88.667 -43.667 -133 -131 -133c-11.333 0 -28.333 2.66699 -51 8v-49c0 -49.333 20.333 -74 61 -74h238c24 0 39.5 5.33301 46.5 16s10.5 28 10.5 52v399l-6 52
c-65.333 -37.333 -151.333 -56 -258 -56c-77.333 0 -140.333 15.833 -189 47.5s-73 60.167 -73 85.5c0 31.333 34.333 61.833 103 91.5s136.667 44.5 204 44.5c48.667 0 94 -5.66699 136 -17s83.333 -36 124 -74zM574 686.001c-60 40.667 -126.667 61 -200 61
c-31.333 0 -71 -6.16699 -119 -18.5s-72 -26.5 -72 -42.5c0 -14.667 24.667 -28.167 74 -40.5s92 -18.5 128 -18.5c66 0 129 19.667 189 59zM293 404.001c-42 0 -63 -21.333 -63 -64c0 -43.333 21 -65 63 -65c44 0 66 21.667 66 65c0 42.667 -22 64 -66 64z" />
    <glyph glyph-name="uni0E2F" unicode="&#xe2f;" horiz-adv-x="801" 
d="M568 819c64 0 96.001 -27 96.001 -81v-537c0 -38 -7.5 -71.833 -22.5 -101.5s-35.5 -53.5 -61.5 -71.5s-56.667 -28 -92 -30l-41 72c18 0 37.167 5.66699 57.5 17s36 25.833 47 43.5s16.5 41.834 16.5 72.501v313c-48 -83.333 -125.667 -125 -233 -125
c-77.333 0 -136.833 24.167 -178.5 72.5s-62.5 115.833 -62.5 202.5c0 41.333 15.667 77.166 47 107.499s67.666 45.5 108.999 45.5c84.667 0 127 -40.667 127 -122c0 -37.333 -11.667 -69 -35 -95s-53.333 -39 -90 -39c-20 0 -40.333 5 -61 15
c2.66699 -36 16 -63.5 40 -82.5s57 -28.5 99 -28.5c72.667 0 130.5 34 173.5 102s64.5 151.333 64.5 250zM248.001 758c-42 0 -63 -22 -63 -66c0 -43.333 21 -65 63 -65c44 0 66 21.667 66 65c0 44 -22 66 -66 66z" />
    <glyph glyph-name="uni0E30" unicode="&#xe30;" horiz-adv-x="666" 
d="M576 795l-0.00195312 -138.998c-28 -40.667 -74.167 -75.5 -138.5 -104.5s-125.5 -43.5 -183.5 -43.5s-104.667 13.167 -140 39.5s-53 63.166 -53 110.499c0 40 12 72 36 96s55.667 36 95 36c42.667 0 76.667 -9.83301 102 -29.5s38 -44.5 38 -74.5
c0 -39.333 -6 -70 -18 -92c54.667 13.333 105.834 39.166 153.501 77.499s83.834 79.5 108.501 123.5zM198.998 727.002c-44 0 -66 -21.667 -66 -65c0 -45.333 22 -68 66 -68c43.333 0 65 22.667 65 68c0 43.333 -21.667 65 -65 65zM575.998 301.002l0.000976562 -139.001
c-28 -40.667 -74.167 -75.5 -138.5 -104.5s-125.5 -43.5 -183.5 -43.5c-40.667 0 -75.667 6.16699 -105 18.5s-51.333 29.5 -66 51.5s-22 48.667 -22 80c0 40 11.833 72 35.5 96s55.5 36 95.5 36c44 0 78.333 -10.167 103 -30.5s37 -44.833 37 -73.5
c0 -39.333 -6 -70 -18 -92c54.667 14 105.667 39.833 153 77.5s83.666 78.834 108.999 123.501zM198.999 233.001c-44 0 -66 -21.667 -66 -65c0 -45.333 22 -68 66 -68c43.333 0 65 22.667 65 68c0 43.333 -21.667 65 -65 65z" />
    <glyph glyph-name="uni0E31" unicode="&#xe31;" horiz-adv-x="0" 
d="M158 1309l0.000976562 -150c-103.333 -92.667 -235.333 -139 -396 -139c-44.667 0 -85.5 6.66699 -122.5 20s-66 32.333 -87 57s-31.5 55 -31.5 91c0 26 5 49.333 15 70s25.167 37.667 45.5 51s45.166 20 74.499 20c88.667 0 133 -46 133 -138
c0 -39.333 -11.667 -67 -35 -83c66 -8 135.5 5 208.5 39s138.167 88 195.5 162zM-343.999 1268c-48 0 -72 -23.333 -72 -70c0 -47.333 24 -71 72 -71c46 0 69 23.667 69 71c0 46.667 -23 70 -69 70z" />
    <glyph glyph-name="uni0E32" unicode="&#xe32;" horiz-adv-x="684" 
d="M467 0l-0.00195312 571.999c0 62.667 -16.333 106.667 -49 132s-79 38 -139 38c-106 0 -174 -47.667 -204 -143l-75 36c46.667 126 140.334 189 281.001 189c86.667 0 155.334 -20.667 206.001 -62s76 -98.666 76 -171.999v-590h-96z" />
    <glyph glyph-name="uni0E33" unicode="&#xe33;" horiz-adv-x="715" 
d="M491 0l-0.00195312 571.999c0 62.667 -16.333 106.667 -49 132s-79 38 -139 38c-106 0 -174 -47.667 -204 -143l-75 36c46.667 126 140.334 189 281.001 189c86.667 0 155.334 -20.667 206.001 -62s76 -98.666 76 -171.999v-590h-96zM-137.002 1014
c-41.333 0 -75.334 13.499 -102.001 40.499s-40 61.167 -40 102.5c0 25.333 5.33301 48.333 16 69s26.834 38 48.501 52s47.5 21 77.5 21c28 0 52.5 -6 73.5 -18s37.5 -28.667 49.5 -50s18 -46 18 -74c0 -25.333 -5.33301 -48.666 -16 -69.999s-26.667 -38.833 -48 -52.5
s-47 -20.5 -77 -20.5zM-137.003 1234c-52 0 -78 -25.667 -78 -77s26 -77 78 -77c50 0 75 25.667 75 77s-25 77 -75 77z" />
    <glyph glyph-name="uni0E34" unicode="&#xe34;" horiz-adv-x="0" 
d="M-131 942c-106 44 -215.335 65.999 -328.002 65.999c-97.333 0 -195.666 -19 -294.999 -57c0 88.667 29.333 162 88 220s132.334 87 221.001 87c48.667 0 92.167 -8.33301 130.5 -25s71.333 -40.667 99 -72s48.667 -65.166 63 -101.499s21.5 -75.5 21.5 -117.5z
M-646.002 1055c66.667 19.333 133.334 29 200.001 29c72 0 147 -13 225 -39c-40.667 91.333 -113.334 137 -218.001 137c-95.333 0 -164.333 -42.333 -207 -127z" />
    <glyph glyph-name="uni0E35" unicode="&#xe35;" horiz-adv-x="0" 
d="M-248 1183l0.00195312 169h97v-296c14 -40 21 -78 21 -114c-106 44 -215.333 66 -328 66c-96.667 0 -195 -19 -295 -57c0 87.333 29.667 160.333 89 219s132.666 88 219.999 88c93.333 0 158.666 -25 195.999 -75zM-644.998 1055c65.333 19.333 132.001 29 200.001 29
c71.333 0 146.333 -13 225 -39c-40.667 91.333 -113.334 137 -218.001 137c-95.333 0 -164.333 -42.333 -207 -127z" />
    <glyph glyph-name="uni0E36" unicode="&#xe36;" horiz-adv-x="0" 
d="M-370 1256c-2.66699 10 -3.99902 20 -3.99902 30c0 34.667 13.167 61.5 39.5 80.5s55.166 28.5 86.499 28.5c34.667 0 65.5 -10 92.5 -30s40.5 -51 40.5 -93c0 -56.667 -25.333 -95.667 -76 -117c28.667 -39.333 46.334 -77.333 53.001 -114s10 -69.667 10 -99
c-105.333 44 -214.333 66 -327 66c-96.667 0 -195.334 -19 -296.001 -57c0 99.333 31.333 176 94 230s135.667 81 219 81c14.667 0 37.667 -2 69 -6h-1zM-243.999 1336c-42.667 0 -64 -21.333 -64 -64c0 -42 21.333 -63 64 -63c42 0 63 21 63 63c0 42.667 -21 64 -63 64z
M-642.999 1055c67.333 19.333 134.333 29 201 29c72 0 146.667 -13 224 -39c-39.333 91.333 -111.333 137 -216 137c-96 0 -165.667 -42.333 -209 -127z" />
    <glyph glyph-name="uni0E37" unicode="&#xe37;" horiz-adv-x="0" 
d="M-419 1260l0.000976562 97.999h92v-119c14 -5.33301 38.667 -21.333 74 -48v167h92v-278c20.667 -54 31 -100 31 -138c-104.667 44 -214 66 -328 66c-96.667 0 -195.334 -19 -296.001 -57c0 96.667 30.333 172.334 91 227.001s142 82 244 82zM-645.999 1055
c68 19.333 135.333 29 202 29c72 0 146.333 -13 223 -39c-39.333 91.333 -111.333 137 -216 137c-96 0 -165.667 -42.333 -209 -127z" />
    <glyph glyph-name="uni0E38" unicode="&#xe38;" horiz-adv-x="0" 
d="M-221 -588l-0.000976562 191.999c-23.333 -5.33301 -40.666 -8 -51.999 -8c-85.333 0 -128 45 -128 135c0 25.333 6 47.833 18 67.5s28 35.334 48 47.001s43 17.5 69 17.5c94 0 141 -48 141 -144v-307h-96zM-266.001 -207.001c-44 0 -66 -22 -66 -66c0 -42 22 -63 66 -63
c42 0 63 21 63 63c0 44 -21 66 -63 66z" />
    <glyph glyph-name="uni0E39" unicode="&#xe39;" horiz-adv-x="0" 
d="M-240 -508v363.999h96v-448h-311v196c-21.333 -5.33301 -38.333 -8 -51 -8c-38.667 0 -70 12.333 -94 37s-36 57 -36 97c0 38.667 13 70.5 39 95.5s58.333 37.5 97 37.5c44 0 78.5 -10.167 103.5 -30.5s37.5 -58.166 37.5 -113.499v-227h119zM-500 -207.001
c-43.333 0 -65 -22 -65 -66c0 -42 21.667 -63 65 -63c42 0 63 21 63 63c0 44 -21 66 -63 66z" />
    <glyph glyph-name="uni0E3A" unicode="&#xe3a;" horiz-adv-x="0" 
d="M-164 -262c-56.667 0 -85 28 -85 84c0 24 8.16699 44 24.5 60s36.5 24 60.5 24c54.667 0 82 -28 82 -84s-27.333 -84 -82 -84z" />
    <glyph glyph-name="uni0E3F" unicode="&#xe3f;" horiz-adv-x="892" 
d="M461 0l-0.000976562 -135.001h-98v135h-265v957h265v146h98v-146c70.667 0 129 -10.5 175 -31.5s80.5 -51 103.5 -90s34.5 -80.167 34.5 -123.5c0 -91.333 -44.667 -159 -134 -203c120.667 -35.333 181 -112.666 181 -231.999c0 -62 -14.5 -114.167 -43.5 -156.5
s-69.167 -73 -120.5 -92s-116.666 -28.5 -195.999 -28.5zM362.999 554.999v289h-138v-289h138zM460.999 842.999l-0.000976562 -288c126 0 189 47.333 189 142c0 50 -14.667 86.833 -44 110.5s-77.666 35.5 -144.999 35.5zM460.998 441.999l-0.00292969 -329.003
c32.667 0 60.834 1.5 84.501 4.5s47.334 10.833 71.001 23.5s41.667 30.334 54 53.001s18.5 50.334 18.5 83.001c0 54.667 -17.667 95.834 -53 123.501s-93.666 41.5 -174.999 41.5zM362.995 112.996v329h-138v-329h138z" />
    <glyph glyph-name="uni0E40" unicode="&#xe40;" horiz-adv-x="459" 
d="M223 819l-0.000976562 -563c18 5.33301 35.333 8 52 8c85.333 0 128 -47.333 128 -142c0 -22 -4.83301 -42 -14.5 -60s-24.667 -33.167 -45 -45.5s-45.166 -18.5 -74.499 -18.5c-44.667 0 -79.5 10.5 -104.5 31.5s-37.5 58.5 -37.5 112.5v677h96zM268.999 68
c43.333 0 65 21.667 65 65c0 42.667 -21.667 64 -65 64c-42.667 0 -64 -21.333 -64 -64c0 -43.333 21.333 -65 64 -65z" />
    <glyph glyph-name="uni0E41" unicode="&#xe41;" horiz-adv-x="799" 
d="M586 819l0.000976562 -563c17.333 5.33301 34.333 8 51 8c86 0 129 -45.333 129 -136c0 -38 -13 -69.167 -39 -93.5s-58 -36.5 -96 -36.5c-44.667 0 -79.334 10.5 -104.001 31.5s-37 58.5 -37 112.5v677h96zM631.001 68c44 0 66 21.667 66 65c0 42.667 -22 64 -66 64
c-42 0 -63 -21.333 -63 -64c0 -43.333 21 -65 63 -65zM223.001 819v-563c16.667 5.33301 33.667 8 51 8c86 0 129 -45.333 129 -136c0 -42 -14 -74.167 -42 -96.5s-59 -33.5 -93 -33.5c-48 0 -83.5 11.5 -106.5 34.5s-34.5 59.5 -34.5 109.5v677h96zM268.001 68
c44 0 66 21.667 66 65c0 42.667 -22 64 -66 64c-42 0 -63 -21.333 -63 -64c0 -43.333 21 -65 63 -65z" />
    <glyph glyph-name="uni0E42" unicode="&#xe42;" horiz-adv-x="570" 
d="M-41 1301c65.333 87.333 146 131.002 242 131.002c28.667 0 69 -8.33301 121 -25c52 -16 88.667 -24 110 -24c13.333 0 36 8 68 24l31 -71c-28 -22 -63 -33 -105 -33c-21.333 0 -57 10 -107 30c-50 20.667 -87.333 31 -112 31c-14.667 0 -30.667 -2.5 -48 -7.5
s-36 -15.5 -56 -31.5c27.333 -10.667 58.833 -23.834 94.5 -39.501s63.167 -32.334 82.5 -50.001s32.666 -35 39.999 -52s11 -46.167 11 -87.5l1 -840c22.667 5.33301 39.667 8 51 8c86 0 129 -43 129 -129c0 -40 -12.5 -72.833 -37.5 -98.5s-57.5 -38.5 -97.5 -38.5
c-94.667 0 -142 48 -142 144l-1 939c0 40 -4.5 67.833 -13.5 83.5s-29.167 33.667 -60.5 54s-66.166 38.333 -104.499 54s-70.5 25.167 -96.5 28.5zM377 68.002c44 0 66 21.667 66 65c0 42.667 -22 64 -66 64c-42 0 -63 -21.333 -63 -64c0 -43.333 21 -65 63 -65z" />
    <glyph glyph-name="uni0E43" unicode="&#xe43;" horiz-adv-x="535" 
d="M324 1266l-0.00195312 -1010c12.667 5.33301 29.667 8 51 8c85.333 0 128 -43.333 128 -130c0 -90.667 -44.667 -136 -134 -136c-94 0 -141 48 -141 144v1130c0 18 -3 32.833 -9 44.5s-15.167 21.167 -27.5 28.5s-26.166 11 -41.499 11c-55.333 0 -83 -22 -83 -66
c28.667 0 49.334 -3 62.001 -9s22.667 -17.5 30 -34.5s11 -39.167 11 -66.5c0 -79.333 -31.333 -119 -94 -119c-70 0 -105 48.667 -105 146c0 64.667 16.5 117 49.5 157s78.167 60 135.5 60c32 0 60.167 -5.33301 84.5 -16s44.333 -27.167 60 -49.5
s23.5 -53.166 23.5 -92.499zM71.998 1231c-26 0 -39 -18.333 -39 -55c0 -35.333 13 -53 39 -53s39 17 39 51c0 38 -13 57 -39 57zM368.998 67.999c43.333 0 65 21.667 65 65c0 42.667 -21.667 64 -65 64c-42 0 -63 -21.333 -63 -64c0 -43.333 21 -65 63 -65z" />
    <glyph glyph-name="uni0E44" unicode="&#xe44;" horiz-adv-x="629" 
d="M-25 1352l0.000976562 78.001l46 -2c17.333 -0.666992 33.666 -5.83398 48.999 -15.501s27.5 -23.667 36.5 -42s14.5 -40.833 16.5 -67.5l23 -291l80 340c12 52 46 78 102 78c65.333 0 98 -41 98 -123v-1051c22.667 5.33301 39.667 8 51 8c84 0 126 -45.667 126 -137
c0 -86 -44 -129 -132 -129c-94.667 0 -142 48 -142 144v1157c0 34 -4.33301 51 -13 51c-10.667 0 -19 -13 -25 -39l-63 -287c-12 -56 -38.667 -84 -80 -84c-53.333 0 -82 29.333 -86 88l-15 237c-3.33301 53.333 -27.333 82.333 -72 87zM471.001 68.001
c44 0 66 21.667 66 65c0 42.667 -22 64 -66 64c-42 0 -63 -21.333 -63 -64c0 -43.333 21 -65 63 -65z" />
    <glyph glyph-name="uni0E45" unicode="&#xe45;" horiz-adv-x="703" 
d="M488 -297l0.000976562 868.998c0 35.333 -5.33301 65 -16 89s-29.834 43.5 -57.501 58.5s-64.834 22.5 -111.501 22.5c-35.333 0 -66.666 -5.66699 -93.999 -17s-50.333 -27.666 -69 -48.999s-32 -46.666 -40 -75.999l-79 35c46 126 139.333 189 280 189
c86 0 154.667 -19.833 206 -59.5s77 -102.167 77 -187.5v-874h-96z" />
    <glyph glyph-name="uni0E46" unicode="&#xe46;" horiz-adv-x="965" 
d="M348 572c24.667 18.667 57.0039 27.9971 97.0039 27.9971c20 0 39.167 -5.16699 57.5 -15.5s34.166 -26.166 47.499 -47.499s20 -46 20 -74c0 -36.667 -13.333 -67.334 -40 -92.001s-58.667 -37 -96 -37c-30.667 0 -59.834 8 -87.501 24s-50 41.333 -67 76
s-25.5 79.334 -25.5 134.001c0 33.333 5.33301 66.5 16 99.5s30.667 63.5 60 91.5s67.666 48 114.999 60l98 -67l92 67c61.333 0 112.5 -19.167 153.5 -57.5s61.5 -80.5 61.5 -126.5v-715c0 -79.333 -26.833 -140.833 -80.5 -184.5s-108.167 -68.167 -163.5 -73.5l-45 69
c60 16 107 37.833 141 65.5s51 68.834 51 123.501v693c0 78.667 -37.333 118 -112 118l-98 -57l-90 51c-32.667 0 -58.334 -12.667 -77.001 -38s-28 -63.666 -28 -114.999zM432.004 536.997c-46 0 -69 -23.333 -69 -70c0 -46 23 -69 69 -69c46.667 0 70 23 70 69
c0 46.667 -23.333 70 -70 70z" />
    <glyph glyph-name="uni0E47" unicode="&#xe47;" horiz-adv-x="0" 
d="M-340 1070c4 47.333 31.334 71 82.001 71c58.667 0 88 -31.333 88 -94c0 -56 -29.333 -84 -88 -84c-11.333 0 -22.333 1.5 -33 4.5s-19.5 6.83301 -26.5 11.5s-31.833 23.667 -74.5 57c-26.667 19.333 -50.334 29 -71.001 29c-53.333 0 -80 -34.667 -80 -104
c-70 26 -105 70.333 -105 133c0 125.333 61 188 183 188c23.333 0 58.333 -3 105 -9c46 -6 80.667 -9 104 -9c58.667 0 88 26.667 88 80h80c0 -90 -60.333 -135 -181 -135c-20.667 0 -52 2.33301 -94 7s-73.333 7 -94 7c-82.667 0 -124 -30.667 -124 -92
c0 -28.667 4.33301 -48.667 13 -60c24.667 38 53.667 57 87 57c48.667 0 95.667 -19.333 141 -58zM-255.999 1092c-26.667 0 -40 -13 -40 -39s13.333 -39 40 -39c26 0 39 13 39 39s-13 39 -39 39z" />
    <glyph glyph-name="uni0E48" unicode="&#xe48;" horiz-adv-x="0" 
d="M-144 1200v-258h-96v258h96z" />
    <glyph glyph-name="uni0E49" unicode="&#xe49;" horiz-adv-x="0" 
d="M-300 1061c-94 0 -141.001 40.332 -141.001 120.999c0 36.667 10.833 66.167 32.5 88.5s49.834 33.5 84.501 33.5c94 0 141 -38.667 141 -116c0 -20 -3.5 -45.5 -10.5 -76.5s-19.833 -60.167 -38.5 -87.5c66 13.333 128 44 186 92s104 109 138 183v-153
c-45.333 -61.333 -103.5 -109.666 -174.5 -144.999s-144.5 -53 -220.5 -53c-24 0 -49.667 2.33301 -77 7c43.333 28.667 70 64 80 106zM-312.001 1248c-42.667 0 -64 -21.333 -64 -64c0 -42 21.333 -63 64 -63c42 0 63 21 63 63c0 42.667 -21 64 -63 64z" />
    <glyph glyph-name="uni0E4A" unicode="&#xe4a;" horiz-adv-x="0" 
d="M-454 1088c21.333 13.333 43.332 19.999 65.999 19.999s41.667 -8.5 57 -25.5s23 -36.833 23 -59.5c0 -27.333 -9.83301 -48.666 -29.5 -63.999s-41.834 -23 -66.501 -23c-32.667 0 -60.334 13.5 -83.001 40.5s-34 61.5 -34 103.5c0 107.333 38.667 161 116 161
c44 0 76.333 -17 97 -51c21.333 34 54 51 98 51c20 0 38.5 -5.33301 55.5 -16s30.833 -24.334 41.5 -41.001s16 -35 16 -55c0 -45.333 -11.667 -89 -35 -131c84.667 44 127 121.667 127 233l60 -53c0 -59.333 -25.5 -113.5 -76.5 -162.5s-121.5 -73.5 -211.5 -73.5
c16.667 10.667 31.834 33.334 45.501 68.001s20.5 62 20.5 82c0 57.333 -18.333 86 -55 86c-41.333 0 -70 -14 -86 -42c-20 29.333 -50 44 -90 44c-23.333 0 -39.666 -7.33301 -48.999 -22s-11.666 -38 -6.99902 -70zM-397.001 1067c-31.333 0 -47 -15.667 -47 -47
c0 -30 15 -45 45 -45c32 0 48 15.667 48 47c0 30 -15.333 45 -46 45z" />
    <glyph glyph-name="uni0E4B" unicode="&#xe4b;" horiz-adv-x="0" 
d="M-127 1274v-127h114v-90h-114v-121h-96v121h-115v90h115v127h96z" />
    <glyph glyph-name="uni0E4C" unicode="&#xe4c;" horiz-adv-x="0" 
d="M-331 1151c34.667 16.667 61 25 79 25c34 0 62.167 -11.333 84.5 -34s33.5 -51 33.5 -85c0 -36 -12.167 -65.833 -36.5 -89.5s-54.5 -35.5 -90.5 -35.5c-46.667 0 -85.334 16.833 -116.001 50.5s-46 74.167 -46 121.5c0 72.667 24.5 125 73.5 157s121.5 48.667 217.5 50
c74 1.33301 112.333 22.666 115 63.999l2 26h105c-3.33301 -31.333 -13.333 -59 -30 -83s-40 -41.833 -70 -53.5s-90.667 -20.834 -182 -27.501c-46.667 -3.33301 -81.667 -13.666 -105 -30.999s-34.666 -35.666 -33.999 -54.999zM-260 991c40.667 2.66699 61 23.333 61 62
c0 43.333 -21 65 -63 65s-63 -20.333 -63 -61c0 -41.333 21.667 -63.333 65 -66z" />
    <glyph glyph-name="uni0E4D" unicode="&#xe4d;" horiz-adv-x="0" 
d="M-264 901c-28 0 -52.499 6 -73.499 18s-37.667 28.833 -50 50.5s-18.5 46.834 -18.5 75.501c0 28 6 52.5 18 73.5s28.667 37.5 50 49.5s46 18 74 18s52.5 -6 73.5 -18s37.5 -28.5 49.5 -49.5s18 -45.5 18 -73.5c0 -42.667 -12.833 -77.334 -38.5 -104.001
s-59.834 -40 -102.501 -40zM-263.999 1121c-52.667 0 -79 -25.333 -79 -76c0 -52 26.333 -78 79 -78c50 0 75 26 75 78c0 50.667 -25 76 -75 76z" />
    <glyph glyph-name="uni0E4E" unicode="&#xe4e;" horiz-adv-x="0" 
d="M-42 1024c-38 -31.333 -92.999 -46.998 -164.999 -46.998c-94.667 0 -142 34.333 -142 103c0 47.333 20.167 83.666 60.5 108.999s87.166 38 140.499 38c-62.667 3.33301 -94 32 -94 86c0 35.333 21.333 62.666 64 81.999s95 29 157 29c43.333 0 76.333 -5.66699 99 -17
l-51 -39c-20.667 7.33301 -38.667 11 -54 11c-27.333 0 -53 -6.83301 -77 -20.5s-36 -32.167 -36 -55.5c0 -42.667 32.667 -64 98 -64l-22 -47c-46.667 0 -86.667 -9 -120 -27s-50 -43 -50 -75c0 -38.667 22.667 -58 68 -58c34 0 60.667 9.66699 80 29z" />
    <glyph glyph-name="uni0E4F" unicode="&#xe4f;" horiz-adv-x="1057" 
d="M959 410c0 -82 -17.168 -153.331 -51.501 -213.998s-82.166 -108.5 -143.499 -143.5s-133 -52.5 -215 -52.5s-153 17 -213 51s-107.333 81.667 -142 143s-52 133.333 -52 216c0 83.333 17 155.166 51 215.499s81.333 107.666 142 141.999s132 51.5 214 51.5
c83.333 0 155.333 -17 216 -51s108.167 -81.5 142.5 -142.5s51.5 -132.833 51.5 -215.5zM902.999 410.002c0 106.667 -32.667 192.333 -98 257s-150.666 97 -255.999 97c-71.333 0 -132.833 -14.833 -184.5 -44.5s-92.5 -70.834 -122.5 -123.501s-45 -114.667 -45 -186
c0 -104 32.667 -189.167 98 -255.5s150 -99.5 254 -99.5c70.667 0 132.167 15.167 184.5 45.5s93.666 71.833 123.999 124.5s45.5 114.334 45.5 185.001zM782.999 410.001c0 -46.667 -10 -87.3311 -30 -121.998s-47.333 -62 -82 -82s-75.334 -30 -122.001 -30
c-42 0 -80.167 8.66699 -114.5 26s-62.833 43.833 -85.5 79.5s-34 78.5 -34 128.5c0 68.667 21.833 124.667 65.5 168s99.834 65 168.501 65c43.333 0 82 -8.33301 116 -25s62.167 -42.834 84.5 -78.501s33.5 -78.834 33.5 -129.501z" />
    <glyph glyph-name="uni0E50" unicode="&#xe50;" horiz-adv-x="850" 
d="M420 577c98.667 0 177.666 -26.001 236.999 -78.001s89 -122 89 -210c0 -92.667 -30.167 -164.334 -90.5 -215.001s-138.833 -76 -235.5 -76c-59.333 0 -113.166 10.5 -161.499 31.5s-87.833 53.333 -118.5 97s-46 97.834 -46 162.501c0 52.667 11 99.834 33 141.501
s57.667 76.5 107 104.5s111.333 42 186 42zM192.999 288.999c0 -64.667 20.333 -115.999 61 -153.999s96 -57 166 -57c68.667 0 123.667 18.667 165 56s62 89 62 155c0 40 -7.66699 75.667 -23 107s-40 56.833 -74 76.5s-77.333 29.5 -130 29.5
c-71.333 0 -127 -18.833 -167 -56.5s-60 -89.834 -60 -156.501z" />
    <glyph glyph-name="uni0E51" unicode="&#xe51;" horiz-adv-x="895" 
d="M443 111c-30.667 0 -57.167 5.49902 -79.5 16.499s-39.666 26 -51.999 45s-18.5 41.5 -18.5 67.5c0 38 12.167 70.333 36.5 97s55.166 40 92.499 40c105.333 0 158 -56.667 158 -170c0 -56.667 -21.167 -105.667 -63.5 -147s-92.166 -62 -149.499 -62
c-80.667 0 -143.667 26 -189 78s-68 125 -68 219c0 84 32.167 151.833 96.5 203.5s143.166 77.5 236.499 77.5c66 0 125.333 -11.833 178 -35.5s94.167 -58 124.5 -103s45.5 -99.167 45.5 -162.5c0 -194 -65.667 -322.667 -197 -386l-53 68
c102.667 48.667 154 153.334 154 314.001c0 66 -24.167 120.333 -72.5 163s-107.5 64 -177.5 64c-46 0 -87.167 -9.33301 -123.5 -28s-64.5 -43 -84.5 -73s-30 -64.667 -30 -104c0 -42.667 6.66699 -80 20 -112s31.5 -56.167 54.5 -72.5s50.833 -24.5 83.5 -24.5
c25.333 0 51.333 9 78 27zM434 303.999c-40.667 0 -61 -19.333 -61 -58c0 -44 22 -66 66 -66c38 0 57 19.333 57 58c0 44 -20.667 66 -62 66z" />
    <glyph glyph-name="uni0E52" unicode="&#xe52;" horiz-adv-x="1041" 
d="M422 430c40 0 69.3301 -4.50098 87.9971 -13.501s33.334 -23.333 44.001 -43s16 -42.5 16 -68.5c0 -42 -13.167 -73.333 -39.5 -94s-56.166 -31 -89.499 -31c-45.333 0 -80 17.667 -104 53s-36 76 -36 122c0 56.667 16.833 108 50.5 154s76.167 69 127.5 69
c82.667 0 134.667 -26 156 -78c16 52 56.333 78 121 78c50 0 87 -16 111 -48s36 -69.333 36 -112v-258c0 -40.667 -2.83301 -71 -8.5 -91s-18.167 -36.5 -37.5 -49.5s-42.666 -19.5 -69.999 -19.5h-523c-20 0 -41 6.66699 -63 20s-35.833 29.5 -41.5 48.5
s-8.5 40.5 -8.5 64.5v576c0 22 -8 37.333 -24 46s-42 13 -78 13v84c134 0 201 -46.333 201 -139v-557c0 -49.333 21.333 -74 64 -74h415c18 0 33.167 2.33301 45.5 7s20.833 11.834 25.5 21.501s7 26.167 7 49.5v252c0 56 -20.333 84 -61 84
c-23.333 0 -41.833 -10.5 -55.5 -31.5s-20.5 -44.833 -20.5 -71.5h-70c0 24 -10.667 47.167 -32 69.5s-44 33.5 -68 33.5c-42 0 -68 -22 -78 -66zM440.997 362.999c-37.333 0 -56 -18.667 -56 -56c0 -38 18.667 -57 56 -57c36.667 0 55 19 55 57c0 37.333 -18.333 56 -55 56
z" />
    <glyph glyph-name="uni0E53" unicode="&#xe53;" horiz-adv-x="998" 
d="M204 241c24 13.333 52.001 20 84.001 20c30.667 0 57.667 -13.5 81 -40.5s35 -59.5 35 -97.5c0 -40 -14.333 -71.167 -43 -93.5s-59.334 -33.5 -92.001 -33.5c-112 0 -168 92.333 -168 277c0 92.667 21.167 166.667 63.5 222s98.833 83 169.5 83
c60 0 107.167 -14 141.5 -42s51.5 -49.667 51.5 -65c23.333 71.333 75.666 107 156.999 107c38.667 0 72.334 -8.33301 101.001 -25s51.167 -39.167 67.5 -67.5s24.5 -61.833 24.5 -100.5v-385h-94v367c0 84.667 -31.667 127 -95 127c-33.333 0 -60.666 -13.333 -81.999 -40
s-32 -57 -32 -91v-363h-96v365c0 42 -14.833 73.667 -44.5 95s-63.5 32 -101.5 32c-23.333 0 -43.333 -5 -60 -15s-30.334 -25.167 -41.001 -45.5s-17.167 -40 -19.5 -59s-4.83301 -62.833 -7.5 -131.5zM269.001 193c-41.333 0 -62 -20.667 -62 -62
c0 -40.667 20.667 -61 62 -61c40.667 0 61 20.333 61 61c0 41.333 -20.333 62 -61 62z" />
    <glyph glyph-name="uni0E54" unicode="&#xe54;" horiz-adv-x="1016" 
d="M889 66l-48.999 -73.9971c-50.667 22.667 -86.834 36.167 -108.501 40.5s-42.167 6.5 -61.5 6.5c-35.333 0 -87.333 -6.66699 -156 -20c-68.667 -12.667 -120.334 -19 -155.001 -19c-50 0 -93.833 11.5 -131.5 34.5s-68 55.167 -91 96.5s-34.5 88.666 -34.5 141.999
c0 56 12.333 106.5 37 151.5s64.667 82.833 120 113.5s125.333 46 210 46l164 -4c54.667 0 101.334 9 140.001 27s71.834 55.167 99.501 111.5s43.5 115.166 47.5 176.499l92 -33c-0.666992 -68 -27 -146 -79 -234s-145 -132 -279 -132l-158 4
c-99.333 0 -172.666 -19.167 -219.999 -57.5s-71 -91.5 -71 -159.5c0 -38.667 6.83301 -73.667 20.5 -105s32.667 -55.5 57 -72.5s53.166 -25.5 86.499 -25.5c18.667 0 46.667 2.66699 84 8c38 6 66.667 9 86 9c-18.667 0 -40.334 7.5 -65.001 22.5s-47 32.667 -67 53
s-33.833 39.666 -41.5 57.999s-11.5 37.833 -11.5 58.5c0 90.667 42.333 136 127 136c93.333 0 140 -45.667 140 -137c0 -47.333 -22 -81.666 -66 -102.999c0 -4 4.66699 -9.5 14 -16.5s21.333 -13.167 36 -18.5c8 -2.66699 29.833 -7 65.5 -13s76.167 -14 121.5 -24
c20.667 -4.66699 53 -20.334 97 -47.001zM486.001 357.003c-37.333 0 -56 -18.667 -56 -56c0 -42 20.667 -63 62 -63c38 0 57 18.333 57 55c0 42.667 -21 64 -63 64z" />
    <glyph glyph-name="uni0E55" unicode="&#xe55;" horiz-adv-x="969" 
d="M807 660c-38.667 -31.333 -81.667 -46.999 -129 -46.999c-100.667 0 -151 40 -151 120c0 79.333 52.333 119 157 119c44 0 89 -13.667 135 -41c9.33301 14 21 35.333 35 64c6 20 11 46.667 15 80l90 -33c0 -14.667 -5.66699 -39.5 -17 -74.5
s-31.666 -71.5 -60.999 -109.5c22 -33.333 33 -67.666 33 -102.999c0 -42.667 -16.167 -78.167 -48.5 -106.5s-83.166 -42.5 -152.499 -42.5c-25.333 0 -63.333 2 -114 6c-50 4 -87.667 6 -113 6c-180.667 0 -271 -71.667 -271 -215c0 -59.333 14.833 -108 44.5 -146
s69.5 -57 119.5 -57c18.667 0 46.667 2.66699 84 8c38 6 66.667 9 86 9c-28.667 0 -66.5 19.667 -113.5 59s-70.5 79.666 -70.5 120.999c0 44 11.667 79.667 35 107s54.333 41 93 41c92.667 0 139 -48.333 139 -145c0 -41.333 -22.333 -73 -67 -95
c0 -2.66699 2.33301 -5.66699 7 -9s13 -8 25 -14s22.667 -10.667 32 -14s25.333 -6.66602 48 -9.99902l72 -9c50.667 -11.333 100.667 -32.333 150 -63l-49 -74c-62.667 31.333 -119.334 47 -170.001 47c-34.667 0 -86.667 -6.66699 -156 -20
c-68.667 -12.667 -120.334 -19 -155.001 -19c-50 0 -93.833 11.5 -131.5 34.5s-68 55.167 -91 96.5s-34.5 88.666 -34.5 141.999c0 91.333 32 165.666 96 222.999s149 86 255 86c26 0 64.667 -1.66699 116 -5s90 -5 116 -5c77.333 0 116 19 116 57
c0 6.66699 -1.33301 17 -4 31zM772 742.001c-19.333 21.333 -47.333 32 -84 32c-46 0 -69 -12 -69 -36c0 -27.333 23.667 -41 71 -41c40.667 0 68 15 82 45zM496 357.001c-36.667 0 -55 -18.667 -55 -56c0 -42 21 -63 63 -63c36.667 0 55 18.333 55 55
c0 42.667 -21 64 -63 64z" />
    <glyph glyph-name="uni0E56" unicode="&#xe56;" horiz-adv-x="865" 
d="M223 365l-28.001 -0.00292969c0 95.333 -10.667 182.5 -32 261.5s-60.666 154.833 -117.999 227.5l82 51c87.333 -112.667 135.333 -236 144 -370c48.667 32.667 120.334 49 215.001 49c74.667 0 136 -29.333 184 -88s72 -129 72 -211c0 -92 -29.167 -162.5 -87.5 -211.5
s-124.833 -73.5 -199.5 -73.5c-51.333 0 -97.833 8.33301 -139.5 25s-73.167 38.334 -94.5 65.001s-32 58.334 -32 95.001c0 34.667 11 66.834 33 96.501s53.333 44.5 94 44.5c43.333 0 78.166 -13.5 104.499 -40.5s39.5 -62.167 39.5 -105.5c0 -44 -18 -75.333 -54 -94
c160 0 240 69.667 240 209c0 60 -18.667 109.167 -56 147.5s-86.333 57.5 -147 57.5c-106.667 0 -180 -45 -220 -135zM325.999 253.997c-42.667 0 -64 -21 -64 -63c0 -40 20 -60 60 -60c42 0 63 21.333 63 64c0 39.333 -19.667 59 -59 59z" />
    <glyph glyph-name="uni0E57" unicode="&#xe57;" horiz-adv-x="1092" 
d="M209 223c27.333 26 58.667 38.999 94 38.999c40 0 71.167 -14.167 93.5 -42.5s33.5 -58.5 33.5 -90.5c0 -26 -6.16699 -49.167 -18.5 -69.5s-28.333 -36.333 -48 -48s-41.834 -17.5 -66.501 -17.5c-60.667 0 -107.5 27.333 -140.5 82s-49.5 121.667 -49.5 201
c0 82.667 21.5 153.834 64.5 213.501s99.167 89.5 168.5 89.5c62.667 0 111.334 -30.667 146.001 -92c32 61.333 83.667 92 155 92c106.667 0 160 -84 160 -252c0 -76.667 -24.667 -154.667 -74 -234c67.333 42 111.5 93.167 132.5 153.5s31.5 130.833 31.5 211.5v74
c0 45.333 3.83301 92.666 11.5 141.999s33.834 103 78.501 161h101c-31.333 -37.333 -55 -71.5 -71 -102.5s-25.667 -92.167 -29 -183.5l-3 -80c-2 -58.667 -5.33301 -107.834 -10 -147.501s-14.834 -79.667 -30.501 -120s-40 -76.5 -73 -108.5s-72.167 -56 -117.5 -72
s-97.333 -24 -156 -24c78.667 115.333 118 239 118 371c0 87.333 -27.667 131 -83 131c-65.333 0 -98 -50.667 -98 -152h-80c0 30.667 -4.66699 57.667 -14 81s-22 41 -38 53s-35 18 -57 18c-42 0 -75.667 -21.667 -101 -65s-38 -92.666 -38 -147.999
c0 -13.333 2.66699 -34.666 8 -63.999zM293.001 188.999c-38 0 -57 -19.333 -57 -58c0 -40.667 20.333 -61 61 -61c38.667 0 58 19 58 57c0 41.333 -20.667 62 -62 62z" />
    <glyph glyph-name="uni0E58" unicode="&#xe58;" horiz-adv-x="973" 
d="M715 117c-106.667 0 -160.002 42.333 -160.002 127c0 26.667 5.66699 50 17 70s26.666 35.833 45.999 47.5s42 17.5 68 17.5c101.333 0 152 -56.667 152 -170c0 -60.667 -14.167 -111 -42.5 -151s-64.833 -60 -109.5 -60c-54 0 -121.333 30 -202 90
c-80 60 -122.333 90 -127 90c-15.333 0 -23 -17.667 -23 -53c0 -47.333 11 -89.666 33 -126.999c-73.333 4.66699 -135.666 33 -186.999 85s-77 120 -77 204c0 83.333 27.833 152 83.5 206s137.5 81 245.5 81c24.667 0 61.667 -2.33301 111 -7c49.333 -4 86.333 -6 111 -6
c69.333 0 115 15.833 137 47.5s33 76.834 33 135.501c0 11.333 -3 45.666 -9 102.999c46.667 -0.666992 78 -0.666992 94 0c7.33301 -67.333 11 -106 11 -116c0 -168 -82.667 -252 -248 -252c-29.333 0 -73.333 2.33301 -132 7c-58.667 5.33301 -102.667 8 -132 8
c-60.667 0 -111 -16.833 -151 -50.5s-60 -73.5 -60 -119.5c0 -32 2.83301 -63.167 8.5 -93.5s21.834 -58.833 48.501 -85.5c0 19.333 6.33301 48.666 19 87.999c18 29.333 39.667 44 65 44c33.333 0 89 -33 167 -99c78.667 -65.333 138.334 -98 179.001 -98
c20.667 0 31 12.333 31 37zM694.998 305c-38.667 0 -58 -19 -58 -57c0 -39.333 19.333 -59 58 -59c39.333 0 59 19.667 59 59c0 38 -19.667 57 -59 57z" />
    <glyph glyph-name="uni0E59" unicode="&#xe59;" horiz-adv-x="908" 
d="M432 117c-14.667 -4 -27.001 -6.00195 -37.001 -6.00195c-32 0 -57.5 11.667 -76.5 35s-28.5 52.666 -28.5 87.999c0 86 38.333 129 115 129c83.333 0 125 -52.667 125 -158c0 -37.333 -7.5 -72.166 -22.5 -104.499s-35.167 -57.833 -60.5 -76.5s-54.333 -28 -87 -28
c-47.333 0 -88 11.833 -122 35.5s-60.833 57.834 -80.5 102.501s-29.5 97 -29.5 157c0 82 21 150.667 63 206s97 83 165 83c74 0 132 -31.333 174 -94c0 62.667 17.667 94 53 94c17.333 0 44 -9.66699 80 -29s60.667 -29 74 -29c14.667 0 22 33.667 22 101v65
c0 34.667 -6.66699 91.334 -20 170.001h98c12 -94 18 -156.667 18 -188c0 -161.333 -30 -242 -90 -242c-25.333 0 -54.666 7.66699 -87.999 23c-32.667 16 -51.667 24 -57 24c-10 0 -15 -7.33301 -15 -22c0 -26.667 28 -85.334 84 -176.001l104 -168
c23.333 -38.667 36 -60.667 38 -66l-78 -43l-183 302c-50 83.333 -89.333 136.5 -118 159.5s-60.667 34.5 -96 34.5c-40 0 -71.5 -22.667 -94.5 -68s-34.5 -104 -34.5 -176c0 -41.333 11.5 -81.666 34.5 -120.999s53.833 -59 92.5 -59c42 0 68 15 78 45zM404.999 288.998
c-30 0 -45 -19 -45 -57c0 -36 15.667 -54 47 -54s47 18 47 54c0 38 -16.333 57 -49 57z" />
    <glyph glyph-name="uni0E5A" unicode="&#xe5a;" horiz-adv-x="873" 
d="M475 819c64.667 0 97 -27.001 97 -81.001v-537c0 -56 -16.5 -103.167 -49.5 -141.5s-75.167 -58.833 -126.5 -61.5l-41 72c34 5.33301 62.5 18.166 85.5 38.499s34.5 51.833 34.5 94.5v313c-29.333 -53.333 -57.5 -87.5 -84.5 -102.5s-61.5 -22.5 -103.5 -22.5
c-50 0 -92.5 11 -127.5 33s-62.167 53.667 -81.5 95s-29 91 -29 149c0 40 16.333 75.167 49 105.5s69 45.5 109 45.5c84.667 0 127 -40.667 127 -122c0 -37.333 -11.667 -69 -35 -95s-53.333 -39 -90 -39c-22.667 0 -43 5 -61 15c10 -41.333 24.5 -70.166 43.5 -86.499
s49.5 -24.5 91.5 -24.5c34 0 62.667 12.667 86 38s46.833 64.833 70.5 118.5s35.5 118.834 35.5 195.501zM205 757.999c-42 0 -63 -22 -63 -66c0 -43.333 21 -65 63 -65c44 0 66 21.667 66 65c0 44 -22 66 -66 66zM721 808.999l96 -16v-594
c0 -56.667 -16.5 -104.167 -49.5 -142.5s-75.167 -58.5 -126.5 -60.5l-41 72c80.667 10 121 54.333 121 133v608z" />
    <glyph glyph-name="uni0E5B" unicode="&#xe5b;" horiz-adv-x="1637" 
d="M629 684l-5.99902 -90.002c-66.667 48 -136.334 72 -209.001 72c-44.667 0 -84.167 -9.5 -118.5 -28.5s-64.166 -51.167 -89.499 -96.5s-38 -104.666 -38 -177.999c0 -52.667 9 -99 27 -139s45.667 -72 83 -96s84 -36 140 -36c46.667 0 86.834 9.83301 120.501 29.5
s63.5 49 89.5 88s63.333 107.167 112 204.5l122 -152l121 154l105 -160l125 156c81.333 -130.667 144.666 -196 189.999 -196c74 0 121.667 67.333 143 202h74c-30.667 -185.333 -103 -278 -217 -278c-73.333 0 -137.333 54.333 -192 163l-131 -146l-103 148
c-40 -57.333 -80.333 -103.666 -121 -138.999l-94 117c-31.333 -62 -61.666 -113 -90.999 -153s-65.333 -70.167 -108 -90.5s-90.334 -30.5 -143.001 -30.5c-61.333 0 -116.833 13 -166.5 39s-91.334 67 -125.001 123s-50.5 124.667 -50.5 206
c0 108 30.5 197.167 91.5 267.5s141.833 105.5 242.5 105.5c70 0 142.333 -22 217 -66z" />
    <glyph glyph-name="uni200B" unicode="&#x200b;" horiz-adv-x="0" 
 />
    <glyph glyph-name="uni2013" unicode="&#x2013;" 
d="M-3 299v95h744v-95h-744z" />
    <glyph glyph-name="uni2014" unicode="&#x2014;" horiz-adv-x="1337" 
d="M0 299v95h1337v-95h-1337z" />
    <glyph glyph-name="uni2018" unicode="&#x2018;" horiz-adv-x="297" 
d="M210 796v-135.999h-126v108c0 39.333 2.83301 70.833 8.5 94.5s17 45.167 34 64.5s38.5 34.666 64.5 45.999l29 -45c-45.333 -19.333 -69.333 -63.333 -72 -132h62z" />
    <glyph glyph-name="uni2019" unicode="&#x2019;" horiz-adv-x="297" 
d="M81 830v137.002h126v-108c0 -38.667 -2.83301 -69.834 -8.5 -93.501s-17 -45.334 -34 -65.001s-38.833 -35.5 -65.5 -47.5l-28 47c45.333 18.667 69 62 71 130h-61z" />
    <glyph glyph-name="quotesinglbase" unicode="&#x201a;" horiz-adv-x="297" 
d="M81 0v136h126v-107c0 -106.667 -36 -175.334 -108 -206.001l-29 46c48 20.667 72 64.334 72 131.001h-61z" />
    <glyph glyph-name="uni201C" unicode="&#x201c;" horiz-adv-x="445" 
d="M180 796l-0.000976562 -136.002h-126v108c0 40.667 3.33301 72.834 10 96.501s18.334 44.834 35.001 63.501s37.667 33.667 63 45l29 -45c-46 -19.333 -70 -63.333 -72 -132h61zM382.999 795.998v-135.999h-126v108c0 39.333 2.83301 70.833 8.5 94.5s17 45.167 34 64.5
s38.5 34.666 64.5 45.999l29 -45c-45.333 -19.333 -69.333 -63.333 -72 -132h62z" />
    <glyph glyph-name="uni201D" unicode="&#x201d;" horiz-adv-x="445" 
d="M57 830v137h126v-108c0 -36 -2.66699 -66.5 -8 -91.5s-16.833 -47.333 -34.5 -67s-39.5 -35.5 -65.5 -47.5l-29 47c45.333 18.667 69.333 62 72 130h-61zM259 830v137h126v-108c0 -36 -2.66699 -66.5 -8 -91.5s-16.833 -47.333 -34.5 -67s-39.5 -35.5 -65.5 -47.5l-28 47
c45.333 18.667 69.333 62 72 130h-62z" />
    <glyph glyph-name="uni201E" unicode="&#x201e;" horiz-adv-x="445" 
d="M57 0v136h126v-107c0 -106.667 -36 -175.334 -108 -206.001l-29 46c48 20.667 72 64.334 72 131.001h-61zM259 0v135.999h126v-107c0 -105.333 -36 -174 -108 -206l-28 46c47.333 20.667 71 64.334 71 131.001h-61z" />
    <glyph glyph-name="uni2020" unicode="&#x2020;" horiz-adv-x="743" 
d="M308 -226v791h-260v105h260v265h118v-265h262v-105h-262v-791h-118z" />
    <glyph glyph-name="uni2021" unicode="&#x2021;" horiz-adv-x="743" 
d="M310 -226v242h-262v105h262v473h-262v105h262v245h118v-245h263v-105h-263v-473h263v-105h-263v-242h-118z" />
    <glyph glyph-name="uni2022" unicode="&#x2022;" horiz-adv-x="468" 
d="M71 469c0 28 6.33203 54 18.999 78s31.834 44.5 57.501 61.5s55.167 25.5 88.5 25.5c46 0 85.167 -16 117.5 -48s48.5 -71 48.5 -117c0 -31.333 -7.5 -59.333 -22.5 -84s-34.833 -44.5 -59.5 -59.5s-52.667 -22.5 -84 -22.5c-46 0 -85 16.167 -117 48.5
s-48 71.5 -48 117.5z" />
    <glyph glyph-name="uni2026" unicode="&#x2026;" horiz-adv-x="1337" 
d="M156 0v134h134v-134h-134zM602 0v134h134v-134h-134zM1047 0v134h135v-134h-135z" />
    <glyph glyph-name="uni2030" unicode="&#x2030;" horiz-adv-x="1337" 
d="M209 -35l392 1008h86l-392 -1008h-86zM24 717c0 165.333 62.333 248 187 248c125.333 0 188 -81.667 188 -245c0 -172 -62.333 -258 -187 -258c-125.333 0 -188 85 -188 255zM121 712c0 -112 31.333 -168 94 -168c58 0 87 56.333 87 169c0 114 -30 171 -90 171
c-60.667 0 -91 -57.333 -91 -172zM498 219c0 165.333 62 248 186 248c126 0 189 -81.667 189 -245c0 -171.333 -62.333 -257 -187 -257c-125.333 0 -188 84.667 -188 254zM595 214c0 -112 31.333 -168 94 -168c58 0 87 56.333 87 169c0 114 -30 171 -90 171
c-60.667 0 -91 -57.333 -91 -172zM938 219c0 165.333 62.333 248 187 248c125.333 0 188 -81.667 188 -245c0 -171.333 -62.333 -257 -187 -257c-125.333 0 -188 84.667 -188 254zM1035 214c0 -112 31.333 -168 94 -168c58 0 87 56.333 87 169c0 114 -30 171 -90 171
c-60.667 0 -91 -57.333 -91 -172z" />
    <glyph glyph-name="uni2039" unicode="&#x2039;" horiz-adv-x="445" 
d="M190 344l173 -297h-97l-206 297l206 298h97z" />
    <glyph glyph-name="uni203A" unicode="&#x203a;" horiz-adv-x="445" 
d="M256 346l-173 296h97l199 -292l-199 -303h-97z" />
    <glyph glyph-name="Euro" unicode="&#x20ac;" 
d="M513 861c-116.667 0 -204.334 -47 -263.001 -141c-24 -38.667 -38.333 -76 -43 -112h444l-18 -87h-436c-0.666992 -9.33301 -1 -18 -1 -26c0 -33.333 0.333008 -53.333 1 -60h419l-19 -87h-386c18 -99.333 61.667 -170 131 -212c50 -29.333 104 -44 162 -44
c80.667 0 144 21 190 63v-134c-54.667 -24.667 -114.667 -37 -180 -37c-196 0 -328.333 81.333 -397 244c-14 32.667 -26 72.667 -36 120h-99l18 87h68c-1.33301 18 -2 37.667 -2 59c0 8.66699 0.333008 17.667 1 27h-85l18 87h75c27.333 140.667 97.333 242 210 304
c70 38 147 57 231 57c80.667 0 148.667 -17.667 204 -53l-26 -120c-53.333 43.333 -113.666 65 -180.999 65z" />
    <glyph glyph-name="uni2122" unicode="&#x2122;" horiz-adv-x="1337" 
d="M319 425v453h-172v79h435v-79h-174v-453h-89zM641 425v532h130l135 -425l130 425h128v-532h-81v446l-137 -446h-81l-142 453v-453h-82z" />
    <glyph glyph-name="uni25CC" unicode="&#x25cc;" horiz-adv-x="1020" 
d="M838 756c0 -26.667 -13.667 -40 -41 -40c-30 0 -45 13.333 -45 40c0 29.333 15 44 45 44c27.333 0 41 -14.667 41 -44zM709 842c0 -28 -13.333 -42 -40 -42c-30 0 -45 14 -45 42c0 30 15 45 45 45c26.667 0 40 -15 40 -45zM925 628c0 -29.333 -15 -44 -45 -44
c-28 0 -42 14.667 -42 44c0 28.667 14.667 43 44 43c28.667 0 43 -14.333 43 -43zM956 477c0 -28.667 -13.667 -43 -41 -43c-30 0 -45 14.333 -45 43s15 43 45 43c27.333 0 41 -14.333 41 -43zM558 875c0 -30.667 -14.333 -46 -43 -46s-43 15.333 -43 46
c0 28 14.333 42 43 42s43 -14 43 -42zM408 842c0 -28 -14.667 -42 -44 -42c-28.667 0 -43 14 -43 42c0 30 14.333 45 43 45c29.333 0 44 -15 44 -45zM925 326c0 -28.667 -15 -43 -45 -43c-28 0 -42 14.333 -42 43c0 29.333 14 44 42 44c30 0 45 -14.667 45 -44zM278 756
c0 -26.667 -14.333 -40 -43 -40s-43 13 -43 39c0 30 14.333 45 43 45s43 -14.667 43 -44zM838 195c0 -28.667 -13.667 -43 -41 -43c-28.667 0 -43 14.333 -43 43c0 30 14.333 45 43 45c27.333 0 41 -15 41 -45zM709 109c0 -26.667 -13.333 -40 -40 -40
c-28.667 0 -43 13.333 -43 40c0 30 14.333 45 43 45c26.667 0 40 -15 40 -45zM192 628c0 -29.333 -13.667 -44 -41 -44c-29.333 0 -44 14.667 -44 44c0 28.667 14.333 43 43 43c28 0 42 -14.333 42 -43zM163 477c0 -28.667 -14.333 -43 -43 -43c-30 0 -45 14.333 -45 43
s15 43 45 43c28.667 0 43 -14.333 43 -43zM558 81c0 -30 -14.333 -45 -43 -45s-43 15 -43 45c0 28.667 14.333 43 43 43s43 -14.333 43 -43zM192 326c0 -28.667 -14 -43 -42 -43c-28.667 0 -43 14.333 -43 43c0 29.333 14.333 44 43 44c28 0 42 -14.667 42 -44zM408 113
c0 -29.333 -14.667 -44 -44 -44c-28.667 0 -43 13.333 -43 40c0 30 14.333 45 43 45c29.333 0 44 -13.667 44 -41zM278 195c0 -28.667 -14.333 -43 -43 -43s-43 14.333 -43 43c0 30 14.333 45 43 45s43 -15 43 -45z" />
    <glyph glyph-name="000a" horiz-adv-x="1536" 
d="M256 0v1280h1024v-1280h-1024zM288 32h960v1216h-960v-1216z" />
    <glyph glyph-name="glyph1" horiz-adv-x="0" 
 />
    <glyph glyph-name="glyph2" horiz-adv-x="455" 
 />
    <glyph glyph-name="DEL" horiz-adv-x="0" 
d="M-615 1024h615v-1024h-615v1024z" />
    <glyph glyph-name="glyph99" horiz-adv-x="715" 
d="M668 723c-26 -13.333 -53.335 -20 -82.002 -20c-27.333 0 -67.666 5.66699 -120.999 17c-53.333 12 -93.666 18 -120.999 18c-67.333 0 -114.333 -16 -141 -48c76.667 0 148.5 -14.833 215.5 -44.5s112 -60 135 -91s34.5 -67.5 34.5 -109.5v-314
c0 -44 -16 -77.5 -48 -100.5s-68.667 -34.5 -110 -34.5s-76.333 12 -105 36s-43 54.333 -43 91v105c-22 -6 -38.667 -9 -50 -9c-84 0 -126 49.333 -126 148c0 79.333 44 119 132 119c94 0 141 -48 141 -144v-192c0 -45.333 20 -68 60 -68c34.667 0 52 23.333 52 70v282
c0 28.667 -7.33301 54 -22 76s-37.334 41 -68.001 57s-81.5 31 -152.5 45s-137.5 21 -199.5 21c40.667 74 83 123.167 127 147.5s96 36.5 156 36.5c28.667 0 70 -6.33301 124 -19c54.667 -12 86.334 -18 95.001 -18c20.667 0 51.667 6.33301 93 19h-1zM302.998 353
c0 42 -21.667 63 -65 63c-42.667 0 -64 -21 -64 -63c0 -44 21.333 -66 64 -66c43.333 0 65 22 65 66z" />
    <glyph glyph-name="glyph100" horiz-adv-x="0" 
d="M-313 942c-104.667 44 -214.001 66 -328.001 66c-96.667 0 -195 -19 -295 -57c0.666992 91.333 30.334 165.333 89.001 222s132 85 220 85c96.667 0 173.167 -32.333 229.5 -97s84.5 -137.667 84.5 -219zM-828.001 1055c66.667 19.333 133.334 29 200.001 29
c71.333 0 146.333 -13 225 -39c-40.667 91.333 -113.334 137 -218.001 137c-95.333 0 -164.333 -42.333 -207 -127z" />
    <glyph glyph-name="glyph101" horiz-adv-x="0" 
d="M-432 1176l-0.000976562 176h98v-281c12.667 -36 19 -79 19 -129c-106 44 -215.333 66 -328 66c-97.333 0 -195.666 -19 -294.999 -57c0 87.333 29.667 160.333 89 219s132.666 88 219.999 88c88.667 0 154.334 -27.333 197.001 -82zM-830.001 1055
c66.667 19.333 133.333 29 200 29c72 0 146.667 -13 224 -39c-38.667 91.333 -111 137 -217 137c-95.333 0 -164.333 -42.333 -207 -127z" />
    <glyph glyph-name="glyph102" horiz-adv-x="0" 
d="M-381 1155c28.667 -39.333 46.334 -77.333 53.001 -114s10 -69.667 10 -99c-106.667 44 -215.667 66 -327 66c-96.667 0 -195.334 -19 -296.001 -57c0 100 31.333 176.833 94 230.5s135.334 80.5 218.001 80.5c20.667 0 44 -2 70 -6c-3.33301 13.333 -5 23.333 -5 30
c0 25.333 10.167 49.833 30.5 73.5s51.833 35.5 94.5 35.5c31.333 0 56.666 -6.16699 75.999 -18.5s33.833 -27.166 43.5 -44.499s14.5 -37.333 14.5 -60c0 -18.667 -5.5 -39.834 -16.5 -63.501s-30.833 -41.5 -59.5 -53.5zM-434 1336c-42.667 0 -64 -21.333 -64 -64
c0 -42 21.333 -63 64 -63c42 0 63 21 63 63c0 42.667 -21 64 -63 64zM-833 1055c66.667 19.333 133.665 29 200.998 29c71.333 0 146 -13 224 -39c-39.333 91.333 -111.666 137 -216.999 137c-95.333 0 -164.666 -42.333 -207.999 -127z" />
    <glyph glyph-name="glyph103" horiz-adv-x="0" 
d="M-584 1264l-0.000976562 93.999h92v-113c22.667 0 47.334 -16 74.001 -48v161h92v-278c20.667 -53.333 31 -99.333 31 -138c-106.667 44 -216 66 -328 66c-96.667 0 -195 -19 -295 -57c0 58 10.833 109.833 32.5 155.5s56.5 83.334 104.5 113.001s113.667 44.5 197 44.5z
M-810.001 1055c66.667 19.333 133.333 29 200 29c72 0 147 -13 225 -39c-40.667 91.333 -113 137 -217 137c-96 0 -165.333 -42.333 -208 -127z" />
    <glyph glyph-name="glyph105" horiz-adv-x="0" 
d="M-353 1200v-258h-96v258h96z" />
    <glyph glyph-name="glyph106" horiz-adv-x="0" 
d="M-611 1043c-84.667 0 -127.002 35.3359 -127.002 106.003c0 76.667 35 115 105 115c85.333 0 128 -35.667 128 -107c0 -37.333 -6.16699 -70.5 -18.5 -99.5s-21.166 -44.833 -26.499 -47.5c57.333 13.333 113.666 41.666 168.999 84.999s98.333 97.666 129 162.999v-139
c-41.333 -54.667 -94.666 -98.167 -159.999 -130.5s-132.333 -48.5 -201 -48.5c-23.333 0 -46.666 2 -69.999 6c37.333 25.333 61.333 57.666 72 96.999zM-623.002 1211c-40 0 -60 -19.333 -60 -58c0 -39.333 20 -59 60 -59c38 0 57 19.667 57 59c0 38.667 -19 58 -57 58z
" />
    <glyph glyph-name="glyph107" horiz-adv-x="0" 
d="M-747 1086c20.667 13.333 42.666 20 65.999 20c24.667 0 44.167 -9 58.5 -27s21.5 -37.333 21.5 -58c0 -28 -9.83301 -49.5 -29.5 -64.5s-41.834 -22.5 -66.501 -22.5c-34 0 -62 14.167 -84 42.5s-33 62.166 -33 101.499c0 107.333 38.667 161 116 161
c44 0 76.333 -17 97 -51c21.333 34 54 51 98 51c21.333 0 40.5 -5.16699 57.5 -15.5s30.5 -23.833 40.5 -40.5s15 -35.334 15 -56.001c0 -46 -11 -89.667 -33 -131c83.333 38 125 115.667 125 233l62 -53c0 -45.333 -15.167 -87.666 -45.5 -126.999
s-64.166 -67.333 -101.499 -84s-85 -25 -143 -25c43.333 30.667 65 79.334 65 146.001c0 58.667 -18.333 88 -55 88c-40.667 0 -68.334 -13 -83.001 -39c-16 24.667 -44.667 37 -86 37c-12.667 0 -24.667 -4 -36 -12s-19.166 -17 -23.499 -27s-5.16602 -25.667 -2.49902 -47
zM-689.001 1067c-31.333 0 -47 -15.667 -47 -47s15.667 -47 47 -47c30 0 45 15.667 45 47s-15 47 -45 47z" />
    <glyph glyph-name="glyph108" horiz-adv-x="0" 
d="M-439 1274v-127h115v-90h-115v-121h-96v121h-114v90h114v127h96z" />
    <glyph glyph-name="glyph109" horiz-adv-x="0" 
d="M-534 1137c22 14.667 46.332 22.002 72.999 22.002c34.667 0 60.834 -11 78.501 -33s26.5 -46.333 26.5 -73c0 -33.333 -10.667 -60.5 -32 -81.5s-48.666 -31.5 -81.999 -31.5c-27.333 0 -51.833 7 -73.5 21s-39.167 32.667 -52.5 56s-20 49.666 -20 78.999
c0 56 21.833 100.667 65.5 134s109.5 50 197.5 50c23.333 0 44.666 3.83301 63.999 11.5s33 31.167 41 70.5h94c-2.66699 -14 -12 -39.333 -28 -76c-21.333 -35.333 -64 -56.333 -128 -63c-52 -3.33301 -93.833 -7.33301 -125.5 -12s-56 -13.834 -73 -27.501
s-25.5 -29.167 -25.5 -46.5zM-471.001 1108c-38 0 -57 -18.333 -57 -55c0 -39.333 19.667 -59 59 -59c36 0 54 18.333 54 55c0 39.333 -18.667 59 -56 59z" />
    <glyph glyph-name="glyph115" horiz-adv-x="1118" 
d="M1004 820l0.00195312 -666c0 -60.667 -11.667 -101.5 -35 -122.5s-50 -31.5 -80 -31.5h-362v92h58v525c0 44.667 -16.333 76.334 -49 95.001s-78.667 28 -138 28c-78.667 0 -134 -16 -166 -48c4 0 22 -9.5 54 -28.5s66.333 -44.167 103 -75.5
c-22.667 -6 -56 -23 -100 -51c-27.333 -29.333 -41 -65.666 -41 -108.999v-172c16 5.33301 33 8 51 8c86 0 129 -47.667 129 -143c0 -38.667 -14.333 -68.834 -43 -90.501s-59.334 -32.5 -92.001 -32.5c-94.667 0 -142 48 -142 144v305c0 21.333 5 44.333 15 69s32 50 66 76
c-20.667 15.333 -51.334 34.666 -92.001 57.999c-30 11.333 -61.667 20 -95 26c9.33301 10.667 25.333 26.667 48 48c32.667 24 77.167 46.667 133.5 68s111.833 32 166.5 32c56 0 105.5 -7.5 148.5 -22.5s77.167 -37.333 102.5 -67s38 -67.5 38 -113.5v-529h174
c34.667 0 52 22 52 66v662h96zM293.002 68c44 0 66 21.667 66 65c0 42.667 -22 64 -66 64c-42 0 -63 -21.333 -63 -64c0 -43.333 21 -65 63 -65z" />
    <glyph glyph-name="glyph123" horiz-adv-x="0" 
d="M-27 1333l0.00195312 -149.002c-102.667 -92.667 -234.334 -139 -395.001 -139c-78.667 0 -138.834 16.333 -180.501 49s-62.5 72.334 -62.5 119.001c0 38.667 11.333 71.167 34 97.5s54.667 39.5 96 39.5c94 0 141 -46 141 -138c0 -25.333 -12.333 -51.666 -37 -78.999
c64 0 120 8 168 24s92.667 39.333 134 70s75.333 66 102 106zM-524.998 1290c-47.333 0 -71 -23 -71 -69c0 -44 23 -66 69 -66s69 23.333 69 70c0 43.333 -22.333 65 -67 65z" />
    <glyph glyph-name="glyph124" horiz-adv-x="0" 
d="M-459 901c-42 0 -76 13.499 -102 40.499s-39 61.5 -39 103.5c0 25.333 5.16699 48.333 15.5 69s26.333 37.834 48 51.501s47.5 20.5 77.5 20.5c41.333 0 75.333 -13.167 102 -39.5s40 -60.166 40 -101.499c0 -28.667 -6.16699 -53.834 -18.5 -75.501s-29 -38.5 -50 -50.5
s-45.5 -18 -73.5 -18zM-459 1121c-52 0 -78 -25.333 -78 -76c0 -52 26 -78 78 -78c50.667 0 76 26 76 78c0 50.667 -25.333 76 -76 76z" />
    <glyph glyph-name="glyph125" horiz-adv-x="0" 
d="M-500 1051c0 13.333 8.00195 26.833 24.002 40.5s34.667 20.5 56 20.5c52 0 78 -30.667 78 -92c0 -48 -28 -72 -84 -72c-30.667 0 -67.334 18.333 -110.001 55c-36 30.667 -65.667 46 -89 46c-52 0 -78 -35 -78 -105c-70 26 -105 70.333 -105 133
c0 126 62.333 189 187 189c16 0 39.667 -2.33301 71 -7s55 -7 71 -7c21.333 0 41.666 6.5 60.999 19.5s29 31.5 29 55.5h80c0 -42 -14.833 -74.667 -44.5 -98s-61.5 -35 -95.5 -35c-20 0 -50 2.33301 -90 7c-40 5.33301 -70 8 -90 8c-32.667 0 -59.5 -9 -80.5 -27
s-31.5 -41.333 -31.5 -70c0 -8 4.66699 -27 14 -57c24 36.667 48.333 55 73 55c60.667 0 112 -19.667 154 -59zM-421.998 1071c-28 0 -42 -13.667 -42 -41s14 -41 42 -41c26 0 39 13.667 39 41s-13 41 -39 41z" />
    <glyph glyph-name="glyph126" horiz-adv-x="0" 
d="M-332 1653v-244h-96v244h96z" />
    <glyph glyph-name="glyph127" horiz-adv-x="0" 
d="M-389 1526c-84.667 0 -127 35.667 -127 107c0 22.667 4.83301 42.667 14.5 60s22.667 31 39 41s35.5 15 57.5 15c81.333 0 122 -36 122 -108c0 -46 -15 -95.333 -45 -148c34 12 84.667 36 152 72c63.333 45.333 112 104 146 176v-139
c-41.333 -54 -94.833 -97.333 -160.5 -130s-132.5 -49 -200.5 -49c-24 0 -47.333 2.33301 -70 7c37.333 24.667 61.333 56.667 72 96zM-400 1694c-39.333 0 -59 -19.667 -59 -59c0 -40 19.667 -60 59 -60c38.667 0 58 20 58 60c0 39.333 -19.333 59 -58 59z" />
    <glyph glyph-name="glyph128" horiz-adv-x="0" 
d="M-501 1617c14.667 12 35.0029 18 61.0029 18c56 0 84 -28.667 84 -86c0 -25.333 -9.83301 -45.666 -29.5 -60.999s-42.5 -23 -68.5 -23c-34 0 -61.667 14.667 -83 44s-32 63.666 -32 102.999c0 105.333 39 158 117 158c44 0 76 -17 96 -51c21.333 34 54.333 51 99 51
c34.667 0 62 -12.167 82 -36.5s30 -49.5 30 -75.5c0 -38 -10.667 -82 -32 -132c83.333 44.667 125 122.667 125 234l68 -59c-6 -39.333 -18.833 -74.166 -38.5 -104.499s-42.834 -55 -69.501 -74s-53.167 -32 -79.5 -39s-62.5 -11.167 -108.5 -12.5
c42.667 42.667 64 83.667 64 123c0 74 -18.667 111 -56 111c-39.333 0 -67.333 -14.667 -84 -44c-18 26.667 -48 40 -90 40c-10.667 0 -21.334 -3.83301 -32.001 -11.5s-17.834 -15.834 -21.501 -24.501s-4.16699 -24.667 -1.5 -48zM-445.997 1596
c-27.333 0 -41 -14.333 -41 -43c0 -30 14.333 -45 43 -45s43 14.333 43 43c0 30 -15 45 -45 45z" />
    <glyph glyph-name="glyph129" horiz-adv-x="0" 
d="M-323 1741v-127h114v-91h-114v-120h-97v120h-115v91h115v127h97z" />
    <glyph glyph-name="glyph130" horiz-adv-x="0" 
d="M-468 1436c29.333 13.333 50.6641 19.999 63.9971 19.999c24.667 0 47 -8 67 -24s30 -40 30 -72c0 -68 -33.667 -102 -101 -102c-40.667 0 -72.667 15 -96 45s-35 62.667 -35 98c0 109.333 78 164 234 164c22.667 0 42.334 3.83301 59.001 11.5s28.334 28.5 35.001 62.5
h84c-4 -26.667 -12.167 -49.5 -24.5 -68.5s-30.166 -33.167 -53.499 -42.5s-73.333 -17.333 -150 -24c-24.667 -2 -45 -5.83301 -61 -11.5s-27 -12.167 -33 -19.5s-12.333 -19.666 -19 -36.999zM-412.002 1409c-33.333 0 -50 -16.333 -50 -49c0 -35.333 17.333 -53 52 -53
c32.667 0 49 16.333 49 49c0 35.333 -17 53 -51 53z" />
    <glyph glyph-name="glyph131" horiz-adv-x="211" 
 />
    <glyph glyph-name="glyph190" horiz-adv-x="455" 
 />
    <glyph glyph-name="glyph191" horiz-adv-x="455" 
d="M24 -184v180h406v-180h-98v67h-215v-67h-93z" />
    <glyph glyph-name="glyph201" horiz-adv-x="0" 
d="M-135 1657v-248h-97v248h97z" />
    <glyph glyph-name="glyph202" horiz-adv-x="0" 
d="M-256 1497c-86 0 -129.001 36.332 -129.001 108.999c0 34 10.333 61.667 31 83s47 32 79 32c83.333 0 125 -36.333 125 -109c0 -55.333 -15 -104.333 -45 -147c52 9.33301 106.667 35.333 164 78s102 99.334 134 170.001v-140c-90.667 -118.667 -211 -178 -361 -178
c-15.333 0 -38.666 2 -69.999 6c29.333 18.667 53.333 50.667 72 96zM-269.001 1666c-38 0 -57 -19.333 -57 -58c0 -38 19 -57 57 -57c38.667 0 58 19 58 57c0 38.667 -19.333 58 -58 58z" />
    <glyph glyph-name="glyph203" horiz-adv-x="0" 
d="M-371 1551c14.667 12 35.0029 18 61.0029 18c56 0 84 -28.667 84 -86c0 -25.333 -9.83301 -45.666 -29.5 -60.999s-42.5 -23 -68.5 -23c-34 0 -61.667 14.667 -83 44s-32 63.666 -32 102.999c0 105.333 39 158 117 158c44 0 76 -17 96 -51c21.333 34 54.333 51 99 51
c34.667 0 62 -12.167 82 -36.5s30 -49.5 30 -75.5c0 -38 -10.667 -82 -32 -132c83.333 44.667 125 122.667 125 234l68 -59c-6 -39.333 -18.833 -74.166 -38.5 -104.499s-42.834 -55 -69.501 -74s-53.167 -32 -79.5 -39s-62.5 -11.167 -108.5 -12.5
c42.667 42.667 64 83.667 64 123c0 74 -18.667 111 -56 111c-39.333 0 -67.333 -14.667 -84 -44c-18 26.667 -48 40 -90 40c-10.667 0 -21.334 -3.83301 -32.001 -11.5s-17.834 -15.834 -21.501 -24.501s-4.16699 -24.667 -1.5 -48zM-315.997 1530
c-27.333 0 -41 -14.333 -41 -43c0 -30 14.333 -45 43 -45s43 14.333 43 43c0 30 -15 45 -45 45z" />
    <glyph glyph-name="glyph204" horiz-adv-x="0" 
d="M-131 1737v-127h114v-90h-114v-121h-97v121h-114v90h114v127h97z" />
    <glyph glyph-name="glyph205" horiz-adv-x="0" 
d="M-275 1448c30.667 15.333 54 23.001 70 23.001c34.667 0 61 -11.167 79 -33.5s27 -46.833 27 -73.5c0 -32 -10.333 -58.667 -31 -80s-48.667 -32 -84 -32c-41.333 0 -75.833 15.333 -103.5 46s-41.5 67 -41.5 109c0 123.333 87.333 185 262 185
c33.333 0 57.5 5.66699 72.5 17s25.833 32.666 32.5 63.999h93c-12 -92.667 -63.333 -139 -154 -139c-49.333 0 -98.5 -5.33301 -147.5 -16s-73.833 -34 -74.5 -70zM-215 1420c-37.333 0 -56 -18.667 -56 -56c0 -39.333 19.333 -59 58 -59c36.667 0 55 18.333 55 55
c0 40 -19 60 -57 60z" />
    <glyph glyph-name="glyph221" horiz-adv-x="0" 
d="M-221 -778l-0.000976562 94c-23.333 -5.33301 -40.666 -8 -51.999 -8c-84.667 0 -127 46.667 -127 140c0 36.667 12.667 66.834 38 90.501s57.333 35.5 96 35.5c44 0 78.5 -10.333 103.5 -31s37.5 -58.334 37.5 -113.001v-208h-96zM-266.001 -496
c-44 0 -66 -21.667 -66 -65c0 -42.667 22 -64 66 -64c42 0 63 21.333 63 64c0 43.333 -21 65 -63 65z" />
    <glyph glyph-name="glyph222" horiz-adv-x="0" 
d="M-240 -705l0.000976562 262.001h96v-346h-311v94c-21.333 -5.33301 -38.333 -8 -51 -8c-85.333 0 -128 48.667 -128 146c0 31.333 14.5 59.333 43.5 84s59.167 37 90.5 37c25.333 0 47.166 -3 65.499 -9s33.333 -15 45 -27s19 -23.833 22 -35.5
s6.16699 -35.834 9.5 -72.501v-125h118zM-499.999 -505.999c-43.333 0 -65 -22 -65 -66c0 -42 21.667 -63 65 -63c42.667 0 64 21 64 63c0 44 -21.333 66 -64 66z" />
    <glyph glyph-name="glyph223" horiz-adv-x="0" 
d="M-246 -514c0 22 7.33301 42.333 22 61s34.667 28 60 28s45.333 -9.33301 60 -28s22 -39 22 -61c0 -24.667 -8 -45.834 -24 -63.501s-35.333 -26.5 -58 -26.5s-42 8.83301 -58 26.5s-24 38.834 -24 63.501z" />
    <glyph glyph-name="zero.alt1" 
d="M105 404c0 278.667 89.333 418 268 418c177.333 0 266 -139.333 266 -418s-88.667 -418 -266 -418c-178.667 0 -268 139.333 -268 418zM208 404c0 -224 55 -336 165 -336c108.667 0 163 112 163 336c0 223.333 -55 335 -165 335c-108.667 0 -163 -111.667 -163 -335z" />
    <glyph glyph-name="one.alt1" 
d="M522 0l-100.001 -0.000976562v640c-54 -51.333 -121 -91.666 -201 -120.999v97c116.667 55.333 195.334 124 236.001 206h65v-822z" />
    <glyph glyph-name="two.alt1" 
d="M642 97l-0.00195312 -97h-541c0 48 16.833 95.667 50.5 143s86.5 100.666 158.5 159.999c53.333 44 95.5 81 126.5 111s55.667 61 74 93s27.5 62 27.5 90s-6.66699 52.5 -20 73.5s-31.5 37.667 -54.5 50s-49.5 18.5 -79.5 18.5c-50 0 -89.167 -14.667 -117.5 -44
s-42.833 -69.333 -43.5 -120l-103 10c14.667 158 103 237 265 237c75.333 0 136.833 -20.667 184.5 -62s71.5 -96.666 71.5 -165.999c0 -40 -12.333 -83.167 -37 -129.5s-93 -116.5 -205 -210.5c-49.333 -41.333 -84.166 -71.5 -104.499 -90.5
s-38.166 -41.167 -53.499 -66.5h401z" />
    <glyph glyph-name="three.alt1" 
d="M104 216l100.999 13.001c21.333 -107.333 74.666 -161 159.999 -161c32 0 60.667 7.66699 86 23s45.333 35.666 60 60.999s22 54.333 22 87c0 47.333 -15 85.666 -45 114.999s-68.333 44 -115 44c-19.333 0 -43 -3.66699 -71 -11l11 88h24c18.667 0 36 2 52 6
s30.667 10 44 18s24.833 17.667 34.5 29s16.834 24 21.501 38s7 29 7 45c0 38.667 -12.667 69.667 -38 93s-57.333 35 -96 35c-83.333 0 -132.666 -49 -147.999 -147l-100 18c26 141.333 108 212 246 212c68.667 0 125.834 -19.667 171.501 -59s68.5 -90.666 68.5 -153.999
c0 -76 -37.667 -131.333 -113 -166c102 -23.333 153 -90.333 153 -201c0 -75.333 -26.333 -137 -79 -185s-118.334 -72 -197.001 -72c-48 0 -90.667 9.66699 -128 29s-67.5 46 -90.5 80s-36.833 74.667 -41.5 122z" />
    <glyph glyph-name="four.alt1" 
d="M443 0v196h-354v92l373 530h82v-530h111v-92h-111v-196h-101zM443 288v369l-255 -369h255z" />
    <glyph glyph-name="five.alt1" 
d="M100 215l106 8c15.333 -103.333 67.666 -155 156.999 -155c30.667 0 58.167 7 82.5 21s45.5 36.5 63.5 67.5s27 68.167 27 111.5c0 56 -15.5 101 -46.5 135s-73.5 51 -127.5 51c-66 0 -115.667 -26.667 -149 -80l-95 12l79 421h407v-96h-326l-44 -220
c49.333 34.667 100.666 52 153.999 52c50 0 94 -11.5 132 -34.5s68 -54.333 90 -94s33 -85.5 33 -137.5c0 -56.667 -12.833 -107.5 -38.5 -152.5s-58.667 -79.333 -99 -103s-87.833 -35.5 -142.5 -35.5c-73.333 0 -133.666 20.5 -180.999 61.5s-74.666 96.833 -81.999 167.5
z" />
    <glyph glyph-name="six.alt1" 
d="M628 618l-100.001 -8.00098c-10 46.667 -27.333 79.834 -52 99.501s-53.667 29.5 -87 29.5c-53.333 0 -97.666 -25.5 -132.999 -76.5s-53.333 -131.167 -54 -240.5c48 72.667 114.333 109 199 109c47.333 0 88.833 -11.5 124.5 -34.5s64 -54.333 85 -94
s31.5 -85.167 31.5 -136.5c0 -88 -24.833 -156.667 -74.5 -206s-110.167 -74 -181.5 -74c-189.333 0 -284 132.333 -284 397c0 292.667 98 439 294 439c43.333 0 81.333 -8.16699 114 -24.5s59 -39.5 79 -69.5s33 -66.667 39 -110zM216.999 264.999
c0 -55.333 15.501 -102.002 46.501 -140.002s71.5 -57 121.5 -57c46.667 0 84.167 18.333 112.5 55s42.5 82.334 42.5 137.001c0 36.667 -7 68.834 -21 96.501s-32.667 48.834 -56 63.501s-51 22 -83 22s-59.833 -7.33301 -83.5 -22s-42.834 -35.334 -57.501 -62.001
s-22 -57.667 -22 -93z" />
    <glyph glyph-name="seven.alt1" 
d="M107 711v96.999h530v-79c-86.667 -91.333 -158.334 -203.666 -215.001 -336.999s-89 -264 -97 -392h-104c3.33301 128 33.333 257 90 387s122.334 238 197.001 324h-401z" />
    <glyph glyph-name="eight.alt1" 
d="M258 444c-81.333 30 -122.001 85.333 -122.001 166c0 37.333 8.16699 71.333 24.5 102s42.5 56.667 78.5 78s80 32 132 32c42.667 0 81.834 -8.33301 117.501 -25s64.5 -41.167 86.5 -73.5s33 -70.833 33 -115.5c0 -79.333 -40 -134 -120 -164
c102.667 -34 154 -104 154 -210c0 -72.667 -25.5 -132.167 -76.5 -178.5s-115.833 -69.5 -194.5 -69.5c-78 0 -142.333 23.333 -193 70s-76 107 -76 181c0 110.667 52 179.667 156 207zM237.999 614c0 -39.333 12.498 -71.168 37.498 -95.501s57.167 -36.5 96.5 -36.5
c38 0 69.667 11.833 95 35.5s38 54.167 38 91.5c0 22 -5 42.5 -15 61.5s-25.333 35.167 -46 48.5s-45 20 -73 20c-25.333 0 -48.166 -5.66699 -68.499 -17s-36.166 -26.166 -47.499 -44.499s-17 -39.5 -17 -63.5zM205.997 235.998c0 -52.667 16.333 -93.832 49 -123.499
s72 -44.5 118 -44.5c48 0 87.667 15.5 119 46.5s47 70.5 47 118.5c0 32 -7.33301 60.667 -22 86s-34.667 45.166 -60 59.499s-54.333 21.5 -87 21.5c-29.333 0 -56 -6.16699 -80 -18.5s-44 -31 -60 -56s-24 -54.833 -24 -89.5z" />
    <glyph glyph-name="nine.alt1" 
d="M117 189l96.9961 8.99902c15.333 -86.667 60.666 -130 135.999 -130c16.667 0 32.334 2.16699 47.001 6.5s28.5 11 41.5 20s24.667 19.667 35 32s19.333 26.333 27 42s14.334 31.834 20.001 48.501s10 34.5 13 53.5s5.16699 39.5 6.5 61.5v53
c-45.333 -72 -110.333 -108 -195 -108c-71.333 0 -129.666 25.5 -174.999 76.5s-68 114.833 -68 191.5c0 55.333 11.333 103.833 34 145.5s52.834 74 90.501 97s81.834 34.5 132.501 34.5c54.667 0 101.834 -12.167 141.501 -36.5s73 -63 100 -116
s40.5 -134.167 40.5 -243.5c0 -149.333 -25.833 -260 -77.5 -332s-123.834 -108 -216.501 -108c-39.333 0 -74.833 7 -106.5 21s-58.667 36.167 -81 66.5s-36.5 68.833 -42.5 115.5zM528.996 550.999c0 52.667 -14.334 97.167 -43.001 133.5s-66.667 54.5 -114 54.5
c-49.333 0 -89.5 -19.5 -120.5 -58.5s-46.5 -85.167 -46.5 -138.5c0 -50 15.5 -91.833 46.5 -125.5s70.5 -50.5 118.5 -50.5c48.667 0 87.334 17.167 116.001 51.5s43 78.833 43 133.5z" />
    <glyph glyph-name="uni0E47.sm" horiz-adv-x="0" 
d="M-285 1447c4 47.333 31.3301 71 81.9971 71c58.667 0 88 -31.333 88 -94c0 -56 -29.333 -84 -88 -84c-11.333 0 -22.166 1.33301 -32.499 4s-19.166 6.66699 -26.499 12c-21.333 17.333 -39.666 31.5 -54.999 42.5s-31.333 21 -48 30s-31 13.5 -43 13.5
c-53.333 0 -80 -34.667 -80 -104c-70 26 -105 70.333 -105 133c0 125.333 61 188 183 188c9.33301 0 23.666 -1 42.999 -3s39.666 -4 60.999 -6l61.5 -6c19.667 -2 34.167 -3 43.5 -3c58.667 0 88 26.667 88 80h80c0 -90 -60.333 -135 -181 -135
c-8.66699 0 -21.667 0.666992 -39 2s-35.666 3 -54.999 5s-37.666 3.66699 -54.999 5s-30.333 2 -39 2c-82.667 0 -124 -30.667 -124 -92c0 -29.333 4.33301 -49.333 13 -60c24.667 38 53.667 57 87 57c49.333 0 96.333 -19.333 141 -58zM-201.003 1469
c-26.667 0 -40 -13 -40 -39s13.333 -39 40 -39c26 0 39 13 39 39s-13 39 -39 39z" />
    <glyph glyph-name="uni0E48.small" horiz-adv-x="0" 
d="M-125 1597v-248h-97v248h97z" />
    <glyph glyph-name="uni0E49.small" horiz-adv-x="0" 
d="M-231 1497c-86 0 -128.999 36.3359 -128.999 109.003c0 34 10.333 61.667 31 83s47 32 79 32c83.333 0 125 -36.333 125 -109c0 -55.333 -15 -104.333 -45 -147c25.333 4 52.166 12.667 80.499 26s56 30.666 83 51.999s52.167 46.166 75.5 74.499s43 60.166 59 95.499
v-140c-90.667 -118.667 -211 -178 -361 -178c-16 0 -39.333 2 -70 6c28.667 18.667 52.667 50.667 72 96zM-243.999 1666c-38 0 -57 -19.333 -57 -58c0 -38 19 -57 57 -57c38.667 0 58 19 58 57c0 38.667 -19.333 58 -58 58z" />
    <glyph glyph-name="uni0E4A.small" horiz-adv-x="0" 
d="M-481 1551c14.667 12 34.9951 17.998 60.9951 17.998c56 0 84 -28.667 84 -86c0 -25.333 -9.83301 -45.666 -29.5 -60.999s-42.5 -23 -68.5 -23c-17.333 0 -33 4 -47 12s-26 18.833 -36 32.5s-17.833 29.334 -23.5 47.001s-8.5 36.167 -8.5 55.5
c0 105.333 39 158 117 158c44 0 76 -17 96 -51c20.667 34 53.667 51 99 51c17.333 0 32.833 -3.5 46.5 -10.5s25.334 -15.833 35.001 -26.5s17.167 -22.667 22.5 -36s8 -26.333 8 -39c0 -37.333 -10.667 -81.333 -32 -132c83.333 45.333 125 123.333 125 234l68 -59
c-4.66699 -29.333 -13.167 -56 -25.5 -80s-27.166 -45.333 -44.499 -64s-36.166 -34.334 -56.499 -47.001s-40.5 -21.667 -60.5 -27c-27.333 -7.33301 -63.666 -11.333 -108.999 -12c42.667 42.667 64 83.667 64 123c0 74 -18.667 111 -56 111
c-38.667 0 -66.667 -14.667 -84 -44c-18 26.667 -48 40 -90 40c-13.333 0 -26.166 -5.16699 -38.499 -15.5s-18.5 -25.166 -18.5 -44.499c0 -3.33301 0.166992 -6.83301 0.5 -10.5s0.833008 -8.16699 1.5 -13.5zM-426.005 1530c-27.333 0 -41 -14.333 -41 -43
c0 -30 14.333 -45 43 -45s43 14.333 43 43c0 30 -15 45 -45 45z" />
    <glyph glyph-name="uni0E4B.small" horiz-adv-x="0" 
d="M-125 1737v-127h114v-90h-114v-121h-97v121h-114v90h114v127h97z" />
    <glyph glyph-name="uni0E4C.small" horiz-adv-x="0" 
d="M-251 1516c28.667 14 50.6709 21.001 66.0039 21.001c16 0 30 -2.83301 42 -8.5s22.167 -13.167 30.5 -22.5s14.666 -20 18.999 -32s6.5 -24 6.5 -36c0 -30 -9.5 -55 -28.5 -75s-45.167 -30 -78.5 -30c-20 0 -38.167 4 -54.5 12s-30.5 18.667 -42.5 32
s-21.333 28.666 -28 45.999s-10 35.666 -10 54.999c0 114.667 81 172 243 172c31.333 0 54.166 4.33301 68.499 13s24.166 27.667 29.499 57h87c-5.33301 -44 -19.833 -75.667 -43.5 -95s-57.167 -29 -100.5 -29c-21.333 0 -43.833 -1 -67.5 -3s-45.667 -5.83301 -66 -11.5
s-37.333 -13.667 -51 -24s-20.834 -24.166 -21.501 -41.499zM-194.996 1490c-34.667 0 -52 -17.333 -52 -52c0 -36.667 18 -55 54 -55c34 0 51 17 51 51c0 37.333 -17.667 56 -53 56z" />
    <glyph glyph-name="uni0E4D.small" horiz-adv-x="0" 
d="M-49 1437c0 -42.667 -12.8301 -77.3311 -38.4971 -103.998s-59.834 -40 -102.501 -40c-42 0 -76.167 13.167 -102.5 39.5s-39.5 61.166 -39.5 104.499c0 20.667 3.5 39.667 10.5 57s16.667 32.166 29 44.499s27.166 22 44.499 29s36.666 10.5 57.999 10.5
c42 0 76 -13 102 -39s39 -60 39 -102zM-114.997 1437c0 50.667 -25 76 -75 76c-52.667 0 -79 -25.333 -79 -76c0 -52 26.333 -78 79 -78c50 0 75 26 75 78z" />
    <glyph glyph-name="uni0E4E.small" horiz-adv-x="0" 
d="M-80 1439c-27.333 -22 -66.001 -33.001 -116.001 -33.001c-66 0 -99 23.667 -99 71c0 16.667 3.83301 31.5 11.5 44.5s18 23.833 31 32.5s28 15.167 45 19.5s34.5 6.5 52.5 6.5c-43.333 2 -65 21.667 -65 59c0 12.667 4 23.834 12 33.501s19 17.834 33 24.501
s30.333 11.667 49 15s38.667 5 60 5c30 0 52.667 -4 68 -12l-35 -27c-14.667 5.33301 -27 8 -37 8c-9.33301 0 -18.666 -1.16699 -27.999 -3.5s-17.833 -5.83301 -25.5 -10.5s-14 -10.334 -19 -17.001s-7.5 -14 -7.5 -22c0 -30 23.333 -45 70 -45l-17 -32
c-16 0 -31 -1.66699 -45 -5s-26.333 -8 -37 -14s-19.167 -13.5 -25.5 -22.5s-9.5 -19.167 -9.5 -30.5c0 -26.667 15.667 -40 47 -40c24 0 42.667 7 56 21z" />
  </font>
</defs>
</svg>
