<?xml version="1.0" standalone="no"?>
<!DOCTYPE svg PUBLIC "-//W3C//DTD SVG 1.1//EN" "http://www.w3.org/Graphics/SVG/1.1/DTD/svg11.dtd" >
<svg xmlns="http://www.w3.org/2000/svg">
<metadata></metadata>
<defs>
<font id="myriad_prolight_semicondensed" horiz-adv-x="614" >
<font-face units-per-em="2048" ascent="1536" descent="-512" />
<missing-glyph horiz-adv-x="409" />
<glyph unicode="ffj" horiz-adv-x="983" d="M0 0v983h983v-983h-983z" />
<glyph unicode="fj" horiz-adv-x="919" d="M29 905v78h135v66q0 90 20.5 165.5t64.5 131t111.5 87t159.5 31.5q61 0 119.5 -19.5t87.5 -43.5l-41 -74q-29 20 -77 37.5t-105 17.5q-74 0 -121 -26.5t-74.5 -72.5t-39 -108.5t-11.5 -134.5v-57h512v-917q0 -139 -19.5 -228.5t-76.5 -154.5q-25 -27 -56.5 -46.5 t-63.5 -32t-62.5 -19.5t-51.5 -7l-14 78q55 6 103.5 24.5t80.5 59.5q16 23 28.5 51.5t21 71.5t12.5 105.5t4 154.5v782h-418v-905h-94v905h-135z" />
<glyph unicode="ff" horiz-adv-x="1024" d="M29 905v78h135v47q0 111 24.5 196t77.5 138q72 78 201 78q43 0 77 -11.5t54 -23.5l-31 -76q-18 12 -46.5 20.5t-63.5 8.5q-57 0 -95 -23.5t-62 -66.5t-33 -102.5t-9 -131.5v-53h434v59q0 104 21.5 191.5t77.5 146.5q45 47 100 65.5t104 18.5q43 0 78 -9t55 -21l-28 -76 q-18 10 -45 17t-68 7q-63 0 -102 -27.5t-60.5 -74.5t-30 -108.5t-8.5 -127.5v-61h240v-78h-240v-905h-94v905h-434v-905h-94v905h-135z" />
<glyph unicode="fi" horiz-adv-x="923" d="M29 905v78h135v66q0 90 20.5 165.5t64.5 131t111.5 87t159.5 31.5q61 0 119.5 -19.5t87.5 -43.5l-41 -74q-29 20 -77 37.5t-105 17.5q-74 0 -121 -26.5t-74.5 -72.5t-39 -108.5t-11.5 -134.5v-57h512v-983h-94v905h-418v-905h-94v905h-135z" />
<glyph unicode="fl" horiz-adv-x="923" d="M29 905v78h135v49q0 111 29.5 198t93.5 146q47 41 109.5 64.5t150.5 23.5q63 0 123.5 -15t101.5 -38v-1411h-94v1354q-27 12 -63.5 20t-90.5 8q-78 0 -129 -27.5t-81.5 -74.5t-43 -107.5t-12.5 -128.5v-61h240v-78h-240v-905h-94v905h-135z" />
<glyph unicode="ffi" horiz-adv-x="1452" d="M29 905v78h135v47q0 96 22.5 178t79.5 144q39 41 95.5 65.5t123.5 24.5q47 0 91.5 -15.5t68.5 -29.5l-37 -76q-25 16 -60.5 27.5t-72.5 11.5q-94 0 -145 -64q-41 -47 -56.5 -118.5t-15.5 -151.5v-43h434v66q0 90 20.5 165.5t64.5 131t111.5 87t160.5 31.5 q63 0 121.5 -19.5t86.5 -43.5l-40 -74q-29 20 -77 37.5t-108 17.5q-74 0 -121 -26.5t-74.5 -72.5t-39 -108.5t-11.5 -134.5v-57h514v-983h-94v905h-420v-905h-94v905h-434v-905h-94v905h-135z" />
<glyph unicode="ffl" horiz-adv-x="1452" d="M29 905v78h135v35q0 94 20.5 181t79.5 153q39 41 95.5 65.5t125.5 24.5q49 0 93.5 -14.5t64.5 -26.5l-35 -76q-29 16 -62.5 25.5t-68.5 9.5q-94 0 -147 -64q-41 -47 -56.5 -116.5t-15.5 -151.5v-45h434v49q0 111 30 198t93 146q47 41 109.5 64.5t150.5 23.5q63 0 124 -15 t101 -38v-1411h-94v1354q-27 12 -63.5 20t-89.5 8q-78 0 -129.5 -27.5t-82 -74.5t-43 -107.5t-12.5 -128.5v-61h240v-78h-240v-905h-94v905h-434v-905h-94v905h-135z" />
<glyph unicode="&#xd;" horiz-adv-x="409" />
<glyph unicode=" "  horiz-adv-x="409" />
<glyph unicode="&#x09;" horiz-adv-x="409" />
<glyph unicode="&#xa0;" horiz-adv-x="409" />
<glyph unicode="!" horiz-adv-x="409" d="M127 66q0 39 21.5 63.5t56.5 24.5q37 0 57.5 -25t20.5 -63q0 -35 -20.5 -60.5t-57.5 -25.5h-2q-35 0 -55.5 25.5t-20.5 60.5zM147 1380h113l-16 -1024h-80z" />
<glyph unicode="&#x22;" horiz-adv-x="612" d="M123 1411h115l-25 -450h-66zM377 1411h115l-25 -450h-66z" />
<glyph unicode="#" horiz-adv-x="886" d="M70 420v80h166l45 344h-166v78h176l53 409h80l-53 -409h211l53 409h82l-53 -409h155v-78h-166l-43 -344h168v-78h-178l-53 -422h-82l53 422h-209l-53 -422h-84l53 420h-155zM319 500h209l43 344h-211z" />
<glyph unicode="$" horiz-adv-x="919" d="M133 125l41 74q45 -35 109.5 -59.5t136.5 -24.5q117 0 185.5 71.5t68.5 175.5q0 102 -57.5 169t-165.5 120q-66 31 -120.5 64t-95 72.5t-63 90t-22.5 113.5q0 61 20 114.5t56 93.5t85 65.5t105 33.5v207h82v-202q78 -2 136 -24t93 -46l-41 -74q-29 18 -84 42t-135 24 q-59 0 -101 -19.5t-70 -50.5t-41 -69.5t-13 -75.5q0 -51 14 -89t45 -69t77 -57.5t107 -57.5q135 -66 208 -149.5t73 -214.5q0 -125 -74 -217.5t-205 -114.5v-213h-81v209q-78 0 -152 24.5t-121 63.5z" />
<glyph unicode="%" horiz-adv-x="1447" d="M70 940q0 106 23.5 184t62.5 128.5t88 75t100 24.5h2q111 0 187.5 -97.5t76.5 -302.5q0 -104 -22.5 -182t-59 -128t-87 -74.5t-105.5 -24.5q-51 0 -98.5 23.5t-84 71.5t-60 123t-23.5 179zM156 946q-2 -63 9 -122.5t33.5 -106.5t58.5 -76t83 -29q51 0 86 29t56.5 76 t31.5 107.5t10 123.5q0 61 -9 120.5t-30.5 107t-57.5 77t-87 29.5h-2q-47 0 -81 -28.5t-56.5 -77t-33.5 -108.5t-11 -122zM299 -29l766 1387h80l-766 -1387h-80zM838 387q0 106 23.5 183t62.5 127.5t88 75t100 24.5h2q55 0 103.5 -23.5t84 -73t56 -124t20.5 -177.5 q0 -104 -22.5 -182t-59 -129t-87 -75.5t-105.5 -24.5q-51 0 -98.5 23.5t-84 71.5t-60 124t-23.5 180zM924 393q-2 -63 9 -123.5t34.5 -107.5t58.5 -76t82 -29q51 0 86 29t56.5 77t31.5 108.5t10 123.5q0 61 -9 120.5t-30.5 107t-57.5 76t-87 28.5h-2q-47 0 -81 -28.5 t-56.5 -76t-33.5 -107.5t-11 -122z" />
<glyph unicode="&#x26;" horiz-adv-x="1089" d="M68 362q0 133 67.5 232.5t183.5 175.5v6q-53 76 -83.5 152t-30.5 153q0 61 19.5 118.5t56 102t91 72t126.5 27.5q49 0 93 -17.5t77.5 -52.5t54 -86t20.5 -117q0 -111 -68.5 -197.5t-228.5 -174.5v-6q86 -106 186.5 -230.5t186.5 -230.5q51 88 81 201.5t46 242.5h92 q-23 -150 -60.5 -278.5t-107.5 -225.5q41 -43 89.5 -96t115.5 -133h-119q-29 35 -60.5 68.5t-78.5 87.5q-90 -96 -185 -136t-198 -40q-84 0 -152.5 30.5t-115.5 83.5t-72.5 122t-25.5 146zM162 373q0 -66 20.5 -123t58.5 -99t92 -67t120 -25h2q98 0 177 43t134 115 q-76 94 -183.5 223t-220.5 269q-31 -23 -66.5 -53.5t-65 -71.5t-49 -94.5t-19.5 -116.5zM297 1092q0 -86 30.5 -153t73.5 -128q113 66 182.5 137.5t69.5 173.5q0 37 -9 73t-30.5 64.5t-54.5 46t-78 17.5h-2q-45 0 -78.5 -18.5t-57.5 -50t-35 -73.5t-11 -89z" />
<glyph unicode="'" horiz-adv-x="358" d="M123 1411h115l-25 -450h-66z" />
<glyph unicode="(" horiz-adv-x="532" d="M143 584q0 152 23.5 277.5t61.5 229t86 185.5t98 147h88q-57 -76 -105.5 -164t-84.5 -192t-55 -225t-19 -260q0 -274 75.5 -476t188.5 -356h-88q-49 63 -97.5 145t-86.5 184.5t-61.5 227.5t-23.5 277z" />
<glyph unicode=")" horiz-adv-x="532" d="M35 -250q55 76 104 164t84 191.5t55.5 223.5t20.5 259t-20.5 258t-55.5 222t-83 190.5t-105 164.5h88q49 -63 97 -145t86 -184.5t61.5 -228.5t23.5 -277q0 -152 -23.5 -278t-61.5 -228t-86 -185t-97 -147h-88z" />
<glyph unicode="*" horiz-adv-x="784" d="M61 1030v94l281 -22v4l-168 244l82 47l133 -260h4l127 264l86 -47l-174 -250v-4l291 24v-94l-289 25v-6l174 -240l-88 -51l-129 264h-4l-137 -268l-78 51l172 246v6z" />
<glyph unicode="+" horiz-adv-x="1220" d="M82 508v80h485v502h86v-502h486v-80h-486v-508h-86v508h-485z" />
<glyph unicode="," horiz-adv-x="354" d="M49 -258q12 33 27.5 86t31 114.5t29 124t19.5 109.5l127 21q-14 -57 -36 -126t-45.5 -132.5t-44 -114.5t-32.5 -72z" />
<glyph unicode="-" horiz-adv-x="606" d="M61 508v84h484v-84h-484z" />
<glyph unicode="." horiz-adv-x="354" d="M109 68q0 39 22.5 64.5t56.5 25.5q37 0 58.5 -26t21.5 -64q0 -37 -21.5 -62.5t-58.5 -25.5h-2q-35 0 -56 25.5t-21 62.5z" />
<glyph unicode="/" horiz-adv-x="675" d="M0 -82l582 1483h94l-584 -1483h-92z" />
<glyph unicode="0" horiz-adv-x="919" d="M72 662q0 182 32.5 312t89 214t129 124t152.5 40q78 0 146.5 -39t119 -122t79 -210t28.5 -303q0 -180 -28.5 -312.5t-82 -218.5t-127 -126.5t-164.5 -40.5h-2q-72 0 -138 38.5t-117.5 121.5t-83 212t-33.5 310zM170 672q-2 -135 17.5 -247t56.5 -193.5t91 -127t122 -45.5 h2q76 0 130 46.5t90 128t53.5 193.5t17.5 245q0 129 -16.5 238.5t-52.5 189.5t-91 126t-131 46q-68 0 -121 -45t-91 -126t-57.5 -190.5t-19.5 -238.5z" />
<glyph unicode="1" horiz-adv-x="919" d="M211 1176l256 155h82v-1331h-92v1231h-4l-217 -129z" />
<glyph unicode="2" horiz-adv-x="919" d="M88 0v59l115 131q115 119 205 222.5t151.5 198t94 183.5t32.5 181q0 59 -13.5 112.5t-44 93.5t-80.5 63.5t-124 23.5q-90 0 -154.5 -37t-99.5 -68l-39 68q53 49 132 85t179 36q92 0 157 -32t105.5 -84t59 -116.5t18.5 -130.5q0 -96 -32.5 -189t-94 -189.5t-147.5 -198 t-193 -215.5l-94 -111v-4h596v-82h-729z" />
<glyph unicode="3" horiz-adv-x="919" d="M82 61l37 76q35 -23 103.5 -49.5t154.5 -26.5q88 0 147.5 28t95 73t51 100t15.5 109q0 80 -29.5 138t-79 97t-114 58.5t-133.5 19.5h-72v78h72q49 0 103 16.5t100.5 50t76 84t29.5 119.5q0 102 -56.5 170t-179.5 68q-72 0 -131 -26.5t-100 -59.5l-37 71q43 35 119 66 t162 31q84 0 144.5 -26t100 -67.5t58 -97t18.5 -114.5q0 -102 -59.5 -186.5t-175.5 -131.5v-4q57 -12 108.5 -40t90 -72t61 -104t22.5 -136q0 -78 -26.5 -148.5t-78.5 -125t-130 -87t-182 -32.5q-88 0 -166 25.5t-119 55.5z" />
<glyph unicode="4" horiz-adv-x="919" d="M27 393v64l583 874h84v-858h189v-80h-189v-393h-92v393h-575zM139 473h463v510q0 55 2 108.5t6 106.5h-8q-35 -68 -58.5 -111t-49.5 -90l-355 -520v-4z" />
<glyph unicode="5" horiz-adv-x="919" d="M76 57l37 76q35 -23 101.5 -47.5t145.5 -24.5q66 0 125.5 25t103.5 70t69.5 109.5t25.5 144.5q0 154 -90 244.5t-272 90.5q-55 0 -96.5 -4t-69.5 -8l88 598h530v-84h-457l-67 -428q20 4 42.5 6t59.5 2q66 0 130.5 -17t119.5 -52q72 -43 124 -127t52 -207 q0 -100 -32.5 -182t-90 -140.5t-134.5 -90t-165 -31.5q-90 0 -163.5 23.5t-116.5 53.5z" />
<glyph unicode="6" horiz-adv-x="919" d="M72 532q0 195 54 345.5t142 252.5q68 80 160 132.5t197 74.5q35 6 64.5 9.5t51.5 5.5l2 -88q-27 0 -58.5 -2t-68.5 -11q-104 -23 -183 -79t-134 -132.5t-87 -168t-42 -185.5h4q45 72 124 122t189 50q82 0 150 -30.5t115 -86t72.5 -133.5t25.5 -172q0 -90 -24.5 -173 t-72.5 -145.5t-119 -100t-163 -37.5q-88 0 -161.5 37.5t-126 109.5t-82 174t-29.5 231zM166 518q0 -217 82 -337t227 -120h2q57 0 107.5 24t87.5 70t58.5 113.5t21.5 157.5q0 178 -82 264t-207 86q-84 0 -160 -49t-119 -137q-6 -16 -12 -33.5t-6 -38.5z" />
<glyph unicode="7" horiz-adv-x="919" d="M113 1249v82h718v-63l-548 -1268h-95l545 1245v4h-620z" />
<glyph unicode="8" horiz-adv-x="919" d="M78 326q0 135 73.5 228t190.5 153v6q-111 53 -162 135t-51 170q0 74 26.5 135t73.5 105.5t109.5 69t134.5 24.5h2q80 0 141.5 -27t101.5 -71t60.5 -100t20.5 -116q0 -90 -48.5 -175t-170.5 -148v-6q127 -59 194.5 -150.5t67.5 -208.5q0 -80 -30 -147.5t-82 -117.5 t-121.5 -77.5t-149.5 -27.5q-88 0 -159 28.5t-120 75.5t-75.5 110.5t-26.5 131.5zM176 346q-2 -61 16.5 -113.5t55.5 -90.5t89 -60.5t120 -22.5h2q127 0 206.5 73t79.5 204q0 70 -21.5 121t-61 91t-96 70.5t-126.5 55.5q-129 -47 -196.5 -134t-67.5 -194zM223 1032 q0 -61 19.5 -106t54.5 -80t83 -59.5t103 -43.5q98 43 158.5 112t60.5 173q0 49 -13 93t-43 78t-74 54.5t-105 20.5h-2q-115 0 -178.5 -69.5t-63.5 -172.5z" />
<glyph unicode="9" horiz-adv-x="919" d="M88 891q0 92 27.5 176t79 147.5t123 100.5t159.5 37q84 0 152.5 -38t118 -109.5t76 -173t26.5 -226.5q0 -213 -58.5 -366.5t-146.5 -254.5q-63 -74 -145 -123t-162 -65q-47 -10 -87 -13t-69 -3v86q51 -4 129 12q76 14 143.5 50t120.5 95q66 72 113 176.5t66 251.5l-4 -2 q-57 -72 -136 -114.5t-178 -42.5q-84 0 -148.5 31.5t-109.5 86t-67.5 127t-22.5 154.5zM182 897q0 -158 77 -241t198 -83q92 0 166.5 45.5t115.5 120.5q6 12 11.5 25.5t5.5 30.5q0 225 -75 350t-218 125h-2q-57 0 -108.5 -25.5t-89.5 -73t-59.5 -117t-21.5 -157.5z" />
<glyph unicode=":" horiz-adv-x="354" d="M109 68q0 39 22.5 64.5t56.5 25.5q37 0 58.5 -26t21.5 -64q0 -37 -21.5 -62.5t-58.5 -25.5h-2q-35 0 -56 25.5t-21 62.5zM109 840q0 39 22.5 64.5t56.5 25.5q37 0 58.5 -25.5t21.5 -64.5q0 -37 -21.5 -62.5t-58.5 -25.5h-2q-35 0 -56 25.5t-21 62.5z" />
<glyph unicode=";" horiz-adv-x="354" d="M49 -258q12 33 27.5 86t31 114.5t29 124t19.5 109.5l127 21q-14 -57 -36 -126t-45.5 -132.5t-44 -114.5t-32.5 -72zM129 840q0 39 22.5 64.5t57.5 25.5q37 0 58.5 -25.5t21.5 -64.5q0 -37 -21.5 -62.5t-58.5 -25.5h-2q-35 0 -56.5 25.5t-21.5 62.5z" />
<glyph unicode="&#x3c;" horiz-adv-x="1220" d="M145 508v74l930 508v-95l-835 -448v-4l835 -449v-94z" />
<glyph unicode="=" horiz-adv-x="1220" d="M82 319v80h1057v-80h-1057zM82 709v79h1057v-79h-1057z" />
<glyph unicode="&#x3e;" horiz-adv-x="1220" d="M145 0v94l836 449v4l-836 448v95l930 -508v-74z" />
<glyph unicode="?" horiz-adv-x="727" d="M106 1333q41 33 109 52.5t131 19.5q74 0 129 -23.5t92 -62.5t54.5 -90t17.5 -107q0 -102 -49 -187t-123 -181q-68 -94 -92.5 -173t-14.5 -175l5 -54h-89l-6 45q-14 88 11.5 186.5t101.5 200.5q76 98 115 172t39 160q0 98 -55.5 150.5t-153.5 52.5q-53 0 -103.5 -14.5 t-85.5 -42.5zM236 68q0 39 22.5 64.5t56.5 25.5q37 0 58.5 -26t21.5 -64q0 -37 -21.5 -62.5t-58.5 -25.5h-2q-35 0 -56 25.5t-21 62.5z" />
<glyph unicode="@" horiz-adv-x="1378" d="M76 406q0 166 51 313t144.5 257.5t224.5 175.5t288 65q121 0 218.5 -41t165 -115t104.5 -176.5t37 -225.5q0 -127 -29 -225t-75 -164.5t-107.5 -101.5t-124.5 -35q-27 0 -51.5 10.5t-44 33t-28.5 56t-5 82.5h-6q-59 -100 -130 -141t-151 -41q-39 0 -75 15.5t-63.5 46 t-44 75.5t-16.5 103q0 92 34 182t96.5 161.5t150.5 116t195 44.5q55 0 100 -9.5t80 -23.5l-80 -387q-27 -127 -10.5 -187.5t67.5 -60.5q43 0 84 30.5t73 87t52.5 134.5t20.5 172q0 117 -30 210t-87 159.5t-141 102.5t-193 36q-123 0 -233.5 -52.5t-192.5 -148.5t-130 -231.5 t-48 -300.5q0 -125 36 -225.5t101.5 -171t156.5 -108.5t199 -38q90 0 163 18.5t132 53.5l29 -66q-76 -45 -161 -64.5t-177 -19.5q-119 0 -222.5 41t-180 121t-121.5 194.5t-45 262.5zM449 371q0 -76 34.5 -120t100.5 -44q49 0 95 29.5t83 73.5t62.5 98.5t35.5 103.5l58 274 q-16 6 -43 11.5t-64 5.5q-78 0 -143.5 -37t-114.5 -97.5t-76.5 -138t-27.5 -159.5z" />
<glyph unicode="A" horiz-adv-x="1097" d="M61 0l447 1380h92l447 -1380h-99l-153 481h-486l-151 -481h-97zM336 561h432l-145 440q-23 74 -38.5 136.5t-29.5 128.5h-6q-14 -68 -30.5 -130.5t-37.5 -131.5z" />
<glyph unicode="B" horiz-adv-x="952" d="M156 2v1360q53 12 115.5 20.5t134.5 8.5q119 0 200.5 -28t134.5 -81q41 -41 62.5 -97.5t21.5 -129.5q0 -109 -64.5 -191t-168.5 -119v-4q49 -12 99 -38.5t91 -69.5t66.5 -104.5t25.5 -143.5q0 -86 -26.5 -152.5t-73.5 -115.5q-66 -70 -167 -98.5t-230 -28.5 q-78 0 -132.5 4t-88.5 8zM250 80q27 -6 62.5 -8t82.5 -2q78 0 146.5 17t121 54t83 96.5t30.5 145.5q0 82 -30.5 141.5t-83 98.5t-122 57t-145.5 18h-145v-618zM250 776h166q70 0 127 20.5t98 57.5t63.5 86t22.5 109q0 135 -87 198.5t-241 63.5q-57 0 -92 -4t-57 -11v-520z " />
<glyph unicode="C" horiz-adv-x="1038" d="M76 680q0 170 46 304t129 226.5t197.5 140.5t249.5 48q111 0 177.5 -17.5t95.5 -33.5l-31 -82q-45 23 -105.5 37t-138.5 14q-115 0 -211 -40t-164.5 -120t-107.5 -198.5t-39 -274.5q0 -154 37 -269.5t103.5 -193.5t160.5 -116.5t211 -38.5q78 0 147.5 14t116.5 41l29 -78 q-47 -25 -129 -43t-191 -18q-111 0 -216 38.5t-187 123.5t-131 217.5t-49 318.5z" />
<glyph unicode="D" horiz-adv-x="1183" d="M156 2v1360q139 29 299 29q162 0 280.5 -41t194.5 -119q82 -80 130 -202t48 -302q0 -184 -45 -316t-127 -225q-84 -96 -217 -146t-305 -50q-68 0 -132.5 2t-125.5 10zM250 80q35 -6 81 -7t95 -1q281 0 432.5 159.5t151.5 489.5q0 135 -33 243.5t-101.5 185.5t-174 119 t-250.5 42q-63 0 -113.5 -5.5t-87.5 -13.5v-1212z" />
<glyph unicode="E" horiz-adv-x="870" d="M156 0v1380h620v-82h-526v-530h495v-82h-495v-604h557v-82h-651z" />
<glyph unicode="F" horiz-adv-x="856" d="M156 0v1380h620v-82h-526v-550h485v-82h-485v-666h-94z" />
<glyph unicode="G" horiz-adv-x="1148" d="M76 678q0 164 46 297t131 226t205 143.5t267 50.5q96 0 169 -17.5t110 -36.5l-31 -79q-45 23 -106.5 37t-147.5 14q-119 0 -219.5 -40t-172 -119t-112.5 -194.5t-41 -267.5q0 -158 39 -274.5t108.5 -194.5t167 -116.5t213.5 -38.5q92 0 150.5 11t89.5 27v500h-289v78h383 v-633q-49 -20 -140 -42.5t-208 -22.5q-119 0 -228.5 35.5t-203.5 130.5q-80 82 -130 216t-50 310z" />
<glyph unicode="H" horiz-adv-x="1167" d="M156 0v1380h94v-610h668v610h94v-1380h-94v688h-668v-688h-94z" />
<glyph unicode="I" horiz-adv-x="405" d="M156 0v1380h94v-1380h-94z" />
<glyph unicode="J" horiz-adv-x="645" d="M16 4l19 80q23 -8 53.5 -14.5t67.5 -6.5q61 0 108 15.5t80 56.5t49.5 109.5t16.5 177.5v958h94v-974q0 -121 -26.5 -203t-73 -131t-109 -70.5t-135.5 -21.5q-41 0 -80 7t-64 17z" />
<glyph unicode="K" horiz-adv-x="942" d="M156 0v1380h94v-692h6q29 41 57.5 77t53.5 71l434 544h114l-475 -585l512 -795h-110l-467 727l-125 -154v-573h-94z" />
<glyph unicode="L" horiz-adv-x="839" d="M156 0v1380h94v-1300h553v-80h-647z" />
<glyph unicode="M" horiz-adv-x="1468" d="M121 0l92 1380h109l266 -770q45 -135 78.5 -241.5t62.5 -212.5h6q25 104 58.5 207.5t83.5 244.5l270 772h115l88 -1380h-95l-38 657q-4 78 -9.5 161t-8.5 163q-3 81 -5 153q-1 36 -1 68.5t1 61.5h-8q-35 -115 -74 -239t-92 -277l-264 -748h-60l-247 725 q-55 162 -95.5 292t-68.5 247h-6q-2 -123 -9.5 -287t-17.5 -338l-37 -639h-94z" />
<glyph unicode="N" horiz-adv-x="1181" d="M154 0v1380h92l461 -784q74 -131 133 -242.5t106 -220.5l4 2q-6 78 -9 147.5t-4 138t-2 140.5t-1 156v663h92v-1380h-90l-459 786q-68 119 -128 230.5t-111 232.5l-7 -2q4 -68 7.5 -132t4.5 -133t2 -146.5t1 -171.5v-664h-92z" />
<glyph unicode="O" horiz-adv-x="1222" d="M76 680q0 176 43 310t116.5 225.5t173 138.5t214.5 47q111 0 207 -46t166.5 -135.5t110.5 -219.5t40 -300q0 -186 -45 -321t-121 -224t-173 -132t-204 -43h-2q-109 0 -205 45t-167.5 134t-112.5 219t-41 302zM174 682q0 -111 26.5 -222.5t81 -199.5t136.5 -143.5 t190 -55.5h2q111 0 193 54.5t137 143.5t82 202.5t27 234.5q0 106 -25 217t-78 201t-135 147.5t-199 57.5t-199.5 -56.5t-136 -147.5t-78 -204.5t-24.5 -228.5z" />
<glyph unicode="P" horiz-adv-x="942" d="M156 0v1364q53 10 118.5 18.5t145.5 8.5q111 0 195.5 -29t138.5 -82q47 -47 74.5 -115.5t27.5 -156.5q0 -90 -22.5 -155t-63.5 -116q-61 -78 -161.5 -117.5t-217.5 -39.5q-41 0 -75.5 2t-65.5 10v-592h-94zM250 676q29 -10 65.5 -13.5t79.5 -3.5q166 0 265.5 85t99.5 255 q0 150 -91 231t-253 81q-57 0 -99.5 -5.5t-66.5 -9.5v-620z" />
<glyph unicode="Q" horiz-adv-x="1222" d="M76 678q0 178 43 314t116.5 226.5t174 136.5t215.5 46q111 0 206 -46t165.5 -135.5t110.5 -220.5t40 -301q0 -289 -104.5 -457.5t-276.5 -226.5v-6q104 -29 207.5 -54.5t185.5 -41.5l-31 -88q-59 14 -119.5 32.5t-120 37t-113.5 36t-97 31.5q-20 8 -35.5 13.5t-32.5 5.5 q-111 2 -209 47t-169.5 133t-113.5 217t-42 301zM174 680q0 -111 26.5 -221.5t81 -198.5t136.5 -143.5t192 -55.5h2q111 0 193 54.5t136 143.5t81 202.5t27 234.5q0 106 -25 217t-77 201t-134 147.5t-195 57.5q-119 0 -202.5 -57.5t-138 -148.5t-79 -204.5t-24.5 -228.5z " />
<glyph unicode="R" horiz-adv-x="950" d="M156 0v1362q57 14 127.5 21.5t136.5 7.5q123 0 205 -28t137 -81q45 -45 69.5 -110.5t24.5 -141.5q0 -141 -70.5 -229t-185.5 -131v-4q82 -25 132 -102t75 -204q33 -160 54.5 -241.5t39.5 -118.5h-98q-16 31 -37 119t-47 221q-29 150 -96.5 219.5t-198.5 73.5h-174v-633 h-94zM250 709h176q152 0 243 82.5t91 222.5q0 154 -91 226.5t-251 72.5q-59 0 -101.5 -5t-66.5 -12v-587z" />
<glyph unicode="S" horiz-adv-x="874" d="M80 66l35 77q51 -35 120.5 -57.5t145.5 -22.5q143 0 226 78t83 207q0 115 -61.5 189.5t-190.5 134.5q-66 27 -124 62.5t-103 81.5t-71.5 104.5t-26.5 132.5q0 76 28.5 139t78.5 109.5t119 72t150 25.5q88 0 152 -19.5t94 -42.5l-37 -80q-27 18 -83 39t-134 21 q-76 0 -128 -23.5t-84.5 -59.5t-47 -79t-14.5 -84q0 -59 16.5 -104t49 -81t83 -67t115.5 -61q76 -37 135.5 -78t98 -88t59 -105.5t20.5 -130.5q0 -78 -27.5 -146.5t-79.5 -119.5t-128 -79.5t-174 -28.5q-82 0 -165 24.5t-130 59.5z" />
<glyph unicode="T" horiz-adv-x="868" d="M-4 1300v80h881v-80h-394v-1300h-94v1300h-393z" />
<glyph unicode="U" horiz-adv-x="1161" d="M156 504v876h94v-866q0 -123 25.5 -210t69.5 -140t102.5 -78t125.5 -25q76 0 138.5 26t107.5 81t69.5 141t24.5 205v866h95v-856q0 -152 -36 -256t-96.5 -168.5t-139.5 -92t-167 -27.5q-82 0 -156.5 25.5t-132 87t-91 161.5t-33.5 250z" />
<glyph unicode="V" horiz-adv-x="976" d="M14 1380h99l219 -721q43 -141 81 -278t66 -260h6q27 123 68 260t88 278l236 721h98l-455 -1380h-90z" />
<glyph unicode="W" horiz-adv-x="1568" d="M37 1380h96l186 -766q33 -135 60 -255.5t45 -227.5h6q16 109 46 228.5t67 256.5l202 764h91l188 -753q31 -127 59.5 -252t44.5 -244h7q23 127 51 242.5t61 244.5l203 762h96l-375 -1380h-88l-196 799q-35 141 -58.5 251.5t-37.5 211.5h-5q-16 -102 -41.5 -211t-66.5 -254 l-213 -797h-88z" />
<glyph unicode="X" horiz-adv-x="1015" d="M59 0l396 700l-381 680h106l201 -366q37 -61 66.5 -115.5t60.5 -114.5h4q31 66 60.5 117t66.5 115l205 364h108l-391 -669l397 -711h-106l-193 350q-51 86 -85.5 147.5t-67.5 127.5h-6q-31 -66 -65 -128.5t-85 -148.5l-182 -348h-109z" />
<glyph unicode="Y" horiz-adv-x="960" d="M37 1380h106l201 -395q39 -80 75 -153.5t68 -151.5h5q31 74 69.5 149.5t79.5 157.5l207 393h104l-422 -776v-604h-94v604z" />
<glyph unicode="Z" horiz-adv-x="980" d="M63 0v61l732 1235v4h-672v80h788v-61l-731 -1233v-6h738v-80h-855z" />
<glyph unicode="[" horiz-adv-x="532" d="M184 -229v1634h322v-74h-236v-1487h236v-73h-322z" />
<glyph unicode="\" horiz-adv-x="671" d="M0 1401h94l578 -1483h-94z" />
<glyph unicode="]" horiz-adv-x="532" d="M31 -156h233v1487h-233v74h321v-1634h-321v73z" />
<glyph unicode="^" horiz-adv-x="1220" d="M150 401l417 930h86l418 -930h-92l-367 834h-4l-366 -834h-92z" />
<glyph unicode="_" horiz-adv-x="1024" d="M0 -154h1024v-102h-1024v102z" />
<glyph unicode="`" d="M76 1403h135l178 -279h-72z" />
<glyph unicode="a" horiz-adv-x="851" d="M76 250q0 174 138 266q135 90 389 90h11v29q0 45 -6 95t-29.5 93t-68.5 71t-123 28q-55 0 -111.5 -15.5t-103.5 -50.5l-27 70q53 39 122 58.5t134 19.5q88 0 147.5 -30t95.5 -81t50.5 -116.5t14.5 -139.5v-408q0 -57 2 -116.5t10 -112.5h-86l-12 131h-7 q-35 -57 -103.5 -104t-170.5 -47q-66 0 -115 22.5t-82.5 59t-51 86t-17.5 102.5zM174 262q0 -53 15.5 -92t40 -63.5t56 -36t66.5 -11.5q104 0 168 58.5t86 136.5q4 16 6 31.5t2 27.5v213h-30q-52 0 -112 -5q-76 -7 -142 -33.5t-111 -80t-45 -145.5z" />
<glyph unicode="b" horiz-adv-x="1017" d="M143 0q4 45 6.5 108.5t2.5 110.5v1225h94v-627h4q92 186 315 187q80 0 148.5 -35t118 -99.5t78 -159t28.5 -210.5q0 -133 -35 -231.5t-90 -163t-126 -95t-140 -30.5q-111 0 -185.5 48t-121.5 138h-7l-6 -166h-84zM246 369q0 -16 2 -34t6 -34q31 -123 109.5 -182.5 t171.5 -59.5q76 0 133 34t96 93.5t58.5 139.5t19.5 172q0 82 -19.5 159.5t-57.5 136t-94.5 94.5t-131.5 36q-98 0 -177 -71t-106 -181q-10 -41 -10 -82v-221z" />
<glyph unicode="c" horiz-adv-x="817" d="M80 483q0 113 32.5 208t93 165t145.5 109t188 39q76 0 135 -17.5t86 -36.5l-33 -80q-29 16 -78 33t-121 17q-90 0 -155.5 -36t-109.5 -96.5t-65.5 -139.5t-21.5 -163q0 -96 25.5 -174t71.5 -133t109.5 -85t141.5 -30q72 0 122 16.5t87 33.5l25 -74q-31 -16 -95.5 -36.5 t-154.5 -20.5q-96 0 -175 35.5t-135.5 101t-87 158t-30.5 206.5z" />
<glyph unicode="d" horiz-adv-x="1005" d="M80 477q0 125 31.5 223.5t86 166t126 102.5t151.5 35q104 0 175 -46.5t106 -113.5h4v600h94v-1223q0 -49 2 -112.5t6 -108.5h-84l-6 170h-6q-35 -74 -110.5 -132t-196.5 -58q-80 0 -148.5 33.5t-120 98t-81 156.5t-29.5 209zM176 485q0 -84 17.5 -160.5t54.5 -135 t93 -94.5t134 -36q86 0 165 58.5t112 187.5q8 33 8 78v217q0 18 -2 41t-6 43q-10 49 -34 93t-58.5 76t-81 51.5t-97.5 19.5q-74 0 -130 -34t-95 -93.5t-59.5 -139t-20.5 -172.5z" />
<glyph unicode="e" horiz-adv-x="897" d="M80 477q0 121 29.5 218.5t82 166t126 105.5t159.5 37q106 0 173 -46.5t105 -114t51 -142t13 -132.5v-31.5t-2 -27.5h-643q0 -127 27.5 -213t75 -138.5t107.5 -74t126 -21.5q92 0 146.5 15.5t91.5 36.5l22 -74q-31 -18 -99.5 -38.5t-172.5 -20.5q-98 0 -176 36.5 t-132.5 102t-82 157t-27.5 199.5zM178 586h543v16q1 56 -11 108q-14 60 -44.5 107t-80.5 77t-120 30t-121 -31t-86 -80t-54.5 -109.5t-25.5 -117.5z" />
<glyph unicode="f" horiz-adv-x="493" d="M29 905v78h135v59q0 104 21.5 191.5t76.5 146.5q45 47 100.5 65.5t104.5 18.5q43 0 78 -9t55 -21l-29 -76q-18 10 -44.5 17t-67.5 7q-63 0 -102.5 -27.5t-61 -74.5t-29.5 -108.5t-8 -127.5v-61h240v-78h-240v-905h-94v905h-135z" />
<glyph unicode="g" horiz-adv-x="1005" d="M80 485q0 133 36 231.5t92 162t128 94.5t143 31q63 0 111.5 -16.5t82.5 -42t56.5 -56.5t36.5 -58h4l4 152h88q-4 -51 -6 -113.5t-2 -154.5v-574q0 -98 -8 -170.5t-23.5 -125t-38 -90.5t-49.5 -64q-59 -59 -141 -86t-160 -27t-153.5 19.5t-124.5 54.5l32 78 q43 -29 108.5 -50.5t152.5 -21.5q68 0 125 19.5t98 64.5t64.5 117.5t23.5 179.5v133h-4q-35 -72 -110 -122t-187 -50q-82 0 -151.5 36t-120 100.5t-79 153.5t-28.5 195zM176 496q0 -92 20.5 -168t59.5 -131.5t95.5 -86t129.5 -30.5q82 0 156 50t108 161q14 49 15 102v228 q0 25 -2 46t-8 42q-12 41 -35 79.5t-56.5 68.5t-77.5 48.5t-100 18.5q-68 0 -124 -31t-96 -87t-62.5 -135t-22.5 -175z" />
<glyph unicode="h" horiz-adv-x="997" d="M152 0v1444h94v-615h4q20 35 50 69t69 56q37 23 81 36.5t97 13.5q35 0 86 -13.5t99 -53.5t83 -116t35 -198v-623h-94v604q0 61 -12.5 118.5t-40 101.5t-72.5 71t-111 27q-94 0 -164.5 -60.5t-99.5 -154.5q-6 -20 -8 -41t-2 -50v-616h-94z" />
<glyph unicode="i" horiz-adv-x="399" d="M125 1255q0 35 21.5 58.5t54.5 23.5q35 0 54 -23.5t19 -58.5t-20.5 -58t-54.5 -23h-2q-31 0 -51.5 23.5t-20.5 57.5zM152 0v983h94v-983h-94z" />
<glyph unicode="j" horiz-adv-x="409" d="M-84 -344q55 6 103.5 24.5t80.5 59.5q16 23 28.5 51.5t21 71.5t12.5 105.5t4 154.5v860h94v-917q0 -139 -19.5 -228.5t-76.5 -154.5q-25 -27 -56.5 -46.5t-63.5 -32t-62.5 -19.5t-51.5 -7zM139 1255q0 35 21.5 58.5t56.5 23.5q33 0 52.5 -23.5t19.5 -58.5t-19.5 -58 t-56.5 -23h-2q-33 0 -52.5 23.5t-19.5 57.5z" />
<glyph unicode="k" horiz-adv-x="800" d="M152 0v1444h94v-934h4q16 23 38.5 51.5t45.5 52.5l313 369h113l-361 -410l408 -573h-113l-358 512l-90 -102v-410h-94z" />
<glyph unicode="l" horiz-adv-x="407" d="M152 0v1444h94v-1444h-94z" />
<glyph unicode="m" horiz-adv-x="1531" d="M143 983h88l7 -160h4q41 78 108.5 129.5t177.5 51.5q90 0 159 -53.5t97 -145.5h4q23 43 47.5 74.5t51.5 54.5q43 35 91 52.5t116 17.5q37 0 87 -14.5t95 -57.5t76.5 -121t31.5 -205v-606h-94v590q0 147 -53 239.5t-176 92.5q-82 0 -144.5 -55.5t-87.5 -135.5 q-6 -23 -10 -47.5t-4 -50.5v-633h-94v629q0 61 -13.5 114.5t-40 93.5t-67.5 62.5t-98 22.5q-88 0 -154.5 -62.5t-89.5 -154.5q-12 -41 -12 -93v-612h-94v750q0 76 -2.5 126t-6.5 107z" />
<glyph unicode="n" horiz-adv-x="997" d="M143 983h88l7 -162h4q35 78 113.5 130.5t187.5 52.5q37 0 89 -14.5t101 -55.5t83 -117t34 -201v-616h-94v600q0 61 -11.5 119.5t-39 103.5t-73.5 72t-116 27q-92 0 -163.5 -60.5t-96.5 -159.5q-10 -41 -10 -88v-614h-94v750q0 76 -2.5 126t-6.5 107z" />
<glyph unicode="o" horiz-adv-x="978" d="M80 485q0 129 35 226.5t92 162t132 97.5t157 33q86 0 160.5 -34t128 -99.5t84 -160t30.5 -212.5q0 -137 -37 -235.5t-97 -161t-134 -92t-148 -29.5h-2q-84 0 -156.5 33.5t-127 98t-86 159t-31.5 214.5zM176 489q0 -82 21.5 -159.5t61.5 -137t97.5 -96.5t128.5 -37h2 q72 0 130.5 37t99.5 97.5t63.5 139.5t22.5 163q0 63 -16.5 139t-53.5 139.5t-96 106.5t-148 43q-84 0 -143 -40t-97 -103.5t-55.5 -140.5t-17.5 -151z" />
<glyph unicode="p" horiz-adv-x="1017" d="M143 983h90l7 -170h4q100 190 317 191q82 0 151.5 -35t120 -99.5t78 -156.5t27.5 -209q0 -135 -33 -233.5t-88 -163t-128 -96t-152 -31.5q-98 0 -172 44t-115 119h-4v-544h-94v1073q0 104 -2.5 177t-6.5 134zM246 379q0 -45 8 -78q29 -123 108.5 -182.5t169.5 -59.5 q76 0 134.5 34t97.5 93.5t58.5 139.5t19.5 174q0 82 -19.5 158.5t-57.5 135t-94.5 94.5t-131.5 36q-49 0 -94.5 -19.5t-83 -53.5t-65.5 -80t-40 -101q-4 -20 -7 -41t-3 -41v-209z" />
<glyph unicode="q" horiz-adv-x="1003" d="M80 477q0 139 37 239.5t95 164t130 93.5t143 30q104 0 175 -48.5t106 -126.5h4l4 154h88q-4 -51 -6 -113.5t-2 -154.5v-1116h-94v553h-6q-33 -68 -107 -120t-188 -52q-78 0 -147.5 33.5t-121 98t-81 156.5t-29.5 209zM176 485q0 -82 17.5 -158.5t53.5 -136t93 -95.5 t137 -36q84 0 158 52.5t110 171.5q6 23 10.5 49t4.5 49v219q0 23 -2 43.5t-6 40.5q-10 49 -34 92t-58.5 76t-79.5 52.5t-97 19.5q-74 0 -131 -34t-96 -92.5t-59.5 -139t-20.5 -173.5z" />
<glyph unicode="r" horiz-adv-x="557" d="M143 983h88l5 -186h4q29 86 97.5 146.5t162.5 60.5q10 0 17 -1.5t15 -1.5v-94q-10 2 -36 2q-49 0 -91.5 -20.5t-73 -57t-51 -85t-28.5 -103.5q-6 -43 -6 -90v-553h-94v709q0 68 -2.5 138.5t-6.5 135.5z" />
<glyph unicode="s" horiz-adv-x="698" d="M76 47l37 80q35 -23 86 -43.5t112 -20.5q104 0 157.5 53.5t53.5 131.5t-43 127t-141 96q-111 51 -173.5 115.5t-62.5 156.5q0 53 20.5 100.5t57.5 83.5t89.5 56.5t117.5 20.5q66 0 116 -18.5t85 -41.5l-39 -78q-27 18 -69 37t-105 19q-88 0 -133 -49.5t-45 -114.5 q0 -72 44 -114t136 -87q51 -25 95 -52.5t77 -62t50 -79t17 -99.5q0 -133 -87 -207.5t-224 -74.5q-66 0 -125 18t-104 47z" />
<glyph unicode="t" horiz-adv-x="577" d="M33 905v78h153v176l95 39v-215h251v-78h-251v-647q0 -195 133 -195q63 0 94 13l12 -74q-23 -10 -51.5 -15t-69.5 -5q-106 0 -157 65q-31 37 -43.5 94.5t-12.5 139.5v624h-153z" />
<glyph unicode="u" horiz-adv-x="985" d="M145 391v592h95v-573q0 -76 11 -139.5t37.5 -109.5t70.5 -73t110 -27q51 0 93 18.5t75 46.5t54.5 61.5t33.5 64.5q6 23 10 49.5t4 54.5v627h95v-741q0 -72 2 -130.5t6 -111.5h-88l-6 152h-5q-16 -29 -41.5 -59t-63.5 -55.5t-86 -41.5t-106 -16q-51 0 -104 18t-97 64.5 t-72 126t-28 202.5z" />
<glyph unicode="v" horiz-adv-x="841" d="M33 983h98l209 -614q45 -123 80 -250h6q16 59 37.5 121.5t44.5 128.5l209 614h98l-356 -983h-82z" />
<glyph unicode="w" horiz-adv-x="1363" d="M43 983h96l154 -547q23 -84 42 -160.5t36 -150.5h6q16 72 38.5 150.5t49.5 160.5l176 547h86l168 -539q29 -88 50.5 -165.5t39.5 -153.5h6q14 74 35 149.5t47 163.5l158 545h96l-303 -983h-80l-172 551q-29 86 -49.5 161.5t-38.5 159.5h-4q-20 -88 -43 -165.5t-49 -159.5 l-178 -547h-82z" />
<glyph unicode="x" horiz-adv-x="802" d="M25 0l325 502l-307 481h104l152 -235q29 -43 52.5 -84t49.5 -89h5q25 47 51 89.5t51 83.5l149 235h107l-313 -479l319 -504h-106l-156 248q-29 45 -55.5 89t-55.5 95h-4q-25 -49 -51.5 -92t-56.5 -92l-154 -248h-106z" />
<glyph unicode="y" horiz-adv-x="825" d="M27 983h100l225 -629q20 -57 37 -113.5t29 -103.5h4q14 45 31.5 102.5t35.5 118.5l211 625h101l-248 -680q-78 -225 -146.5 -382t-162.5 -253q-53 -53 -99.5 -79.5t-64.5 -34.5l-37 79q37 16 80 46t84 75q35 41 75 100.5t68 131.5q6 18 8 27.5t2 19.5q0 16 -8 41z" />
<glyph unicode="z" horiz-adv-x="755" d="M31 0v57l477 705q25 35 49.5 69.5t50.5 69.5v4h-534v78h647v-61l-477 -703q-23 -35 -46.5 -68.5t-47.5 -68.5v-4h571v-78h-690z" />
<glyph unicode="{" horiz-adv-x="532" d="M61 555v70q51 0 84 13t50.5 36.5t23.5 52.5t6 59q0 47 -5 91.5t-9 89.5q-8 45 -13 89t-5 91q0 70 21.5 119t57 79.5t85 45t104.5 14.5h22v-74h-34q-92 -4 -130 -50t-38 -136q0 -41 5 -84t11 -84t11 -82t5 -84q2 -102 -34.5 -151.5t-96.5 -65.5v-4q59 -16 96 -68.5 t35 -154.5q0 -41 -5 -82t-11 -82q-6 -43 -11 -85t-5 -85q0 -92 39.5 -138.5t128.5 -50.5h34v-73h-22q-55 0 -103.5 14t-85 46t-58 84t-21.5 126q0 45 5 89t11 89q6 43 11 86t5 88q0 27 -6 55.5t-23.5 53t-50 39t-84.5 14.5z" />
<glyph unicode="|" horiz-adv-x="419" d="M166 -512v2048h88v-2048h-88z" />
<glyph unicode="}" horiz-adv-x="532" d="M51 -156h35q88 4 128 50.5t40 138.5q0 43 -5 85t-13 85q-6 41 -11.5 82t-5.5 82q-2 102 35 154t96 69v4q-59 16 -96 65.5t-35 151.5q0 43 5 84t14 82q6 41 11 84t5 84q0 90 -38 136t-130 50h-35v74h23q55 0 104 -14.5t85 -45t57.5 -79.5t21.5 -119q0 -47 -5 -91t-13 -89 q-6 -45 -11.5 -89t-5.5 -92q0 -31 6 -59.5t23.5 -52t49.5 -36.5t85 -13v-70q-53 0 -85 -14.5t-49.5 -39t-23.5 -53t-6 -55.5q0 -45 5 -88t14 -86q6 -45 11 -89t5 -89q0 -74 -21.5 -126t-58.5 -84t-85 -46t-103 -14h-23v73z" />
<glyph unicode="~" horiz-adv-x="1220" d="M127 463q-4 55 10.5 102t43 80t68.5 51.5t89 18.5q53 0 115.5 -20.5t164.5 -65.5q84 -35 152 -60.5t131 -25.5t92 48t27 120h76q4 -68 -11.5 -115t-45 -78t-67.5 -45t-81 -14q-27 0 -54.5 4t-61.5 13t-76 25.5t-97 41.5q-74 33 -140.5 60.5t-131.5 27.5q-61 0 -95 -44 t-32 -124h-76z" />
<glyph unicode="&#xa1;" horiz-adv-x="409" d="M127 913q0 39 21.5 63.5t56.5 24.5h2q35 0 55.5 -24.5t20.5 -63.5q0 -35 -20.5 -60.5t-57.5 -25.5q-35 0 -56.5 26t-21.5 60zM150 -397l16 1018h80l16 -1018h-112z" />
<glyph unicode="&#xa2;" horiz-adv-x="919" d="M129 670q0 98 25.5 183t73.5 149.5t115 105.5t146 53v203h82v-199q66 0 121.5 -16t87.5 -37l-35 -78q-29 18 -79 35.5t-123 17.5q-78 0 -138.5 -36.5t-100.5 -96t-60.5 -134.5t-20.5 -152q0 -188 87 -298t227 -110q80 0 132 17.5t87 35.5l24 -69q-27 -18 -82 -38 t-127 -24v-207h-82v207q-80 10 -138 38t-107 81q-51 55 -83 147.5t-32 221.5z" />
<glyph unicode="&#xa3;" horiz-adv-x="919" d="M100 0v61q49 27 90 68t71 93t47.5 111.5t17.5 121.5q0 51 -3.5 94t-9.5 94h-204v78h194q-8 47 -18.5 114.5t-10.5 139.5q0 90 27 159.5t72 117.5t104.5 74t124.5 26q72 0 120 -15.5t77 -33.5l-33 -74q-23 14 -67 27.5t-105 13.5q-59 0 -101 -21.5t-70 -59.5t-41 -89 t-13 -111q0 -86 8 -147.5t18 -120.5h277v-78h-264q8 -72 10 -146.5t-15 -142.5q-35 -156 -159 -266v-4h606v-84h-750z" />
<glyph unicode="&#xa4;" horiz-adv-x="919" d="M49 289l137 135q-33 45 -52 111.5t-19 134.5q0 72 20.5 139.5t54.5 116.5l-141 137l64 63l127 -141q41 41 100 64.5t119 23.5h2q63 0 122.5 -23.5t96.5 -64.5l135 141l64 -63l-148 -137q33 -47 50.5 -112.5t17.5 -131.5q0 -76 -18.5 -142.5t-47.5 -111.5l139 -139 l-61 -64l-131 142q-43 -43 -104.5 -65.5t-118.5 -22.5q-59 0 -121 22.5t-98 60.5l-127 -137zM205 672q0 -80 22.5 -139.5t59.5 -98.5t81 -58.5t87 -19.5q47 0 92 18.5t81 57.5t58.5 100.5t22.5 147.5q0 61 -16.5 118.5t-47.5 100.5t-78 69.5t-108 26.5h-2 q-59 0 -106.5 -24.5t-79 -67.5t-49 -102.5t-17.5 -128.5z" />
<glyph unicode="&#xa5;" horiz-adv-x="919" d="M47 1331h103l223 -459q25 -51 44 -92t36 -82h6q12 41 31.5 85t46.5 96l235 452h98l-344 -637h265v-71h-299v-162h299v-72h-299v-389h-93v389h-295v72h295v162h-295v71h263z" />
<glyph unicode="&#xa6;" horiz-adv-x="419" d="M166 356h88v-716h-88v716zM166 664v716h88v-716h-88z" />
<glyph unicode="&#xa7;" horiz-adv-x="942" d="M115 727q0 53 29.5 113.5t111.5 122.5q-31 23 -51.5 65.5t-22.5 95.5q0 63 27 113.5t72 85.5t103 54.5t122 19.5q80 0 141.5 -19.5t100.5 -46.5l-39 -71q-35 25 -87.5 44t-123.5 19q-43 0 -83 -12.5t-72 -35t-51.5 -57t-19.5 -79.5q0 -49 21.5 -84t57.5 -60.5t84 -45 t102 -38.5q59 -23 111 -49t92 -62t63.5 -83t23.5 -111q0 -80 -31.5 -138t-90.5 -108q23 -23 47 -69.5t24 -106.5q0 -74 -27.5 -128t-73.5 -90t-108.5 -54t-130.5 -18q-90 0 -160.5 22.5t-111.5 56.5l39 72q31 -25 92 -51.5t147 -26.5q49 0 94.5 13.5t79 39t53 63.5t19.5 87 q0 41 -12 75t-42 62.5t-80 56t-126 56.5q-72 29 -130 58.5t-99 64.5t-62.5 80t-21.5 104zM201 729q0 -59 48 -111.5t171 -99.5q72 -29 130 -55.5t99 -56.5q47 35 68.5 84t21.5 106q0 70 -45 123t-145 92q-57 23 -123 49.5t-119 61.5q-61 -45 -83.5 -91.5t-22.5 -99.5v-2z " />
<glyph unicode="&#xa8;" d="M68 1255q0 31 21.5 53.5t53.5 22.5q31 0 51.5 -22.5t20.5 -53.5q0 -29 -19.5 -52t-54.5 -23h-2q-33 0 -52 23.5t-19 51.5zM397 1255q0 31 21.5 53.5t54.5 22.5q31 0 51.5 -22.5t20.5 -53.5q0 -29 -19.5 -52t-54.5 -23h-2q-33 0 -52.5 23.5t-19.5 51.5z" />
<glyph unicode="&#xa9;" horiz-adv-x="1386" d="M76 696q0 131 48 246t132 201t196.5 135t243.5 49h2q129 0 242 -49t195 -135t129 -201t47 -246q0 -133 -47 -248.5t-130 -201.5t-195 -135.5t-243 -49.5t-243.5 49.5t-196.5 135.5t-132 201.5t-48 248.5zM158 688q0 -119 41 -221t113.5 -178t171 -119t212.5 -43 q113 -2 210.5 41t169 120t112.5 181t41 227q0 119 -41 222.5t-112.5 180.5t-169 120t-210.5 43h-2q-115 0 -212 -44t-169.5 -121t-113.5 -181.5t-41 -227.5zM358 684q0 88 32 158.5t85 120t123 76t147 26.5q84 0 143.5 -18.5t82.5 -34.5l-21 -64q-23 12 -74 30.5t-128 18.5 q-80 0 -137.5 -24.5t-94.5 -66.5t-55.5 -97t-18.5 -119q0 -63 18.5 -119.5t57.5 -98.5t97.5 -66.5t136.5 -24.5q63 0 118.5 15.5t92.5 39.5l20 -59q-53 -37 -120.5 -50.5t-131.5 -13.5q-88 0 -157.5 29t-116.5 79t-73 117.5t-26 145.5z" />
<glyph unicode="&#xaa;" horiz-adv-x="624" d="M63 723q0 111 101.5 174.5t288.5 56.5v27q0 20 -6.5 47t-23.5 51.5t-48 41t-80 16.5q-41 0 -82 -11.5t-76 -40.5l-26 58q43 35 95 50t103 15q63 0 106.5 -20.5t70 -56t38 -85t11.5 -106.5v-242q0 -37 2 -76.5t8 -78.5h-78l-8 90h-4q-25 -37 -75 -69t-120 -32 q-92 0 -144.5 54.5t-52.5 136.5zM150 727q0 -63 40.5 -93t88.5 -30q51 0 89 22.5t60 57.5q25 35 25 57v146q-43 2 -96.5 -2t-99.5 -20.5t-76.5 -49.5t-30.5 -88z" />
<glyph unicode="&#xab;" horiz-adv-x="768" d="M61 518l269 361h96l-266 -361l266 -362h-98zM352 518l266 361h97l-266 -361l268 -362h-99z" />
<glyph unicode="&#xac;" horiz-adv-x="1220" d="M82 709v79h1057v-522h-86v443h-971z" />
<glyph unicode="&#xad;" horiz-adv-x="606" d="M61 508v84h484v-84h-484z" />
<glyph unicode="&#xae;" horiz-adv-x="792" d="M70 1075q0 68 25.5 126.5t69.5 102.5t104.5 68.5t127.5 24.5h2q68 0 127.5 -24.5t103.5 -68.5t69.5 -102.5t25.5 -126.5q0 -70 -25.5 -129t-69.5 -103t-103.5 -69.5t-129.5 -25.5q-68 0 -128 25.5t-104 69.5t-69.5 103.5t-25.5 128.5zM139 1075q0 -55 19.5 -104t54.5 -86 t83 -57.5t103 -20.5t101.5 20.5t80 56.5t53 85t19.5 104t-19.5 103.5t-53 85t-80.5 57t-103 20.5h-2q-55 0 -101 -20.5t-81 -56t-54.5 -84t-19.5 -103.5zM276 895v340q27 4 54.5 7t62.5 3q43 0 66.5 -7t40.5 -19q35 -25 35 -72q0 -33 -19.5 -51.5t-48.5 -28.5v-4 q41 -16 57 -82q8 -39 13.5 -57.5t11.5 -28.5h-64q-14 16 -26 90q-12 53 -80 53h-41v-143h-62zM338 1087h43q35 0 61.5 11.5t26.5 42.5q0 25 -17.5 40t-64.5 15q-18 0 -29.5 -1t-19.5 -3v-105z" />
<glyph unicode="&#xaf;" d="M100 1202v78h416v-78h-416z" />
<glyph unicode="&#xb0;" horiz-adv-x="591" d="M61 1143q0 55 19.5 103t53.5 84t79 55.5t98 19.5h2q57 0 102.5 -20.5t77 -55.5t49 -81t17.5 -97q0 -59 -20.5 -106.5t-56.5 -82t-81 -53t-94 -18.5q-55 0 -100 20.5t-77 54t-50.5 80t-18.5 97.5zM139 1143q0 -39 13.5 -73t36 -58.5t53 -39t67.5 -14.5q74 0 123 54.5 t49 136.5q0 33 -10 65.5t-30.5 60.5t-53.5 45t-78 17h-2q-41 0 -72.5 -17t-53 -45t-32 -62.5t-10.5 -69.5z" />
<glyph unicode="&#xb1;" horiz-adv-x="1220" d="M82 0v80h1057v-80h-1057zM82 657v80h485v424h86v-424h486v-80h-486v-442h-86v442h-485z" />
<glyph unicode="&#xb2;" horiz-adv-x="548" d="M14 891v45l115 115q117 117 190.5 218t73.5 197q0 70 -40 116t-124 46q-53 0 -95 -22.5t-64 -42.5l-31 57q33 31 88 55.5t123 24.5q63 0 107 -19.5t72 -51.5t40 -70.5t12 -75.5q0 -59 -20.5 -114.5t-57 -109t-86 -106.5t-104.5 -109l-74 -75v-4h357v-74h-482z" />
<glyph unicode="&#xb3;" horiz-adv-x="534" d="M10 934l29 67q20 -16 67.5 -33.5t106.5 -17.5q100 0 145 52.5t43 113.5q0 45 -18 78t-50 54.5t-73 30.5t-86 9h-41v66h43q27 0 60.5 9t63.5 27.5t50.5 48t20.5 70.5q0 47 -33 84t-102 37q-53 0 -93.5 -19.5t-62.5 -35.5l-29 63q29 20 79 41t116 21q111 0 161 -56.5 t50 -130.5q0 -57 -37 -106t-107 -78v-4q74 -14 125 -68.5t51 -136.5q0 -47 -18 -90t-53 -75.5t-88.5 -53t-122.5 -20.5q-61 0 -113.5 15t-83.5 38z" />
<glyph unicode="&#xb4;" d="M238 1124l178 279h135l-242 -279h-71z" />
<glyph unicode="&#xb5;" horiz-adv-x="989" d="M152 -72v1055h94v-621q0 -57 11 -110t39 -95t73 -68t110 -26q51 0 93 17.5t73 45.5t52.5 61.5t33.5 64.5q6 23 10 49.5t4 54.5v627h95v-766q0 -80 17 -119t71 -41l-13 -75q-14 -2 -17 -2h-15q-23 0 -44.5 8t-40 27.5t-30.5 51t-14 78.5h-6q-14 -25 -39 -53.5t-60 -53 t-78 -40.5t-94 -16q-74 0 -136 28.5t-97 95.5v-155q0 -41 1 -90t3 -97.5t6 -91.5t12 -73h-86q-16 47 -22 132t-6 197z" />
<glyph unicode="&#xb6;" horiz-adv-x="942" d="M72 934q-2 82 22.5 162t84 143.5t157.5 102t244 38.5q119 0 192 -12v-1470h-82v1405h-139v-1405h-82v653h-14q-66 0 -132.5 23.5t-121 71.5t-91 120t-38.5 168z" />
<glyph unicode="&#xb7;" horiz-adv-x="354" d="M96 535q0 39 22.5 63.5t57.5 24.5q37 0 58.5 -25t21.5 -63q0 -35 -21.5 -60.5t-58.5 -25.5h-2q-35 0 -56.5 25.5t-21.5 60.5z" />
<glyph unicode="&#xb8;" d="M135 -371l25 70q45 -29 106 -29q37 0 65.5 14.5t26.5 55.5q0 47 -46 67.5t-107 26.5l96 170h74l-70 -115q53 -8 95 -45t42 -94q0 -41 -15 -70.5t-41 -48t-58.5 -28t-69.5 -9.5q-31 0 -64.5 9.5t-58.5 25.5z" />
<glyph unicode="&#xb9;" horiz-adv-x="419" d="M41 1602l174 88h72v-797h-82v715h-4l-144 -76z" />
<glyph unicode="&#xba;" horiz-adv-x="663" d="M43 866q0 82 24.5 145.5t66.5 107.5t94.5 66.5t107.5 22.5h2q131 0 208 -90t77 -246q0 -90 -27 -153.5t-68 -105.5t-93 -61.5t-103 -19.5q-59 0 -112.5 23t-92.5 66t-61.5 104t-22.5 141zM129 868q0 -53 15.5 -101t43 -85t64.5 -58.5t80 -21.5q47 0 85 21.5t64.5 58.5 t41 85t14.5 103q0 43 -10.5 90.5t-35 87t-63.5 65.5t-96 26h-2q-51 0 -89 -24.5t-62.5 -63.5t-37 -87.5t-12.5 -95.5z" />
<glyph unicode="&#xbb;" horiz-adv-x="768" d="M51 879h96l269 -361l-266 -362h-97l266 362zM342 156l266 362l-266 361h96l269 -361l-267 -362h-98z" />
<glyph unicode="&#xbc;" horiz-adv-x="1380" d="M92 1253l174 88h72v-798h-82v717h-4l-143 -76zM229 -20l760 1372h80l-760 -1372h-80zM727 229v47l387 533h76v-512h123v-68h-123v-229h-82v229h-381zM831 297h277v283q0 80 6 127h-4q-20 -35 -35.5 -62t-34.5 -55l-209 -289v-4z" />
<glyph unicode="&#xbd;" horiz-adv-x="1380" d="M59 1253l174 88h72v-798h-82v717h-4l-143 -76zM193 -20l757 1372h80l-758 -1372h-79zM799 0v45l114 115q117 117 191 217t74 196q0 72 -40 118t-124 46q-53 0 -95 -22.5t-65 -42.5l-31 57q33 31 88.5 55.5t122.5 24.5q63 0 107.5 -19.5t72 -51t40 -70.5t12.5 -78 q0 -57 -21.5 -111.5t-57.5 -109t-85 -107.5t-105 -108l-73 -76v-4h356v-74h-481z" />
<glyph unicode="&#xbe;" horiz-adv-x="1380" d="M63 586l29 67q20 -14 67.5 -32.5t106.5 -18.5q100 0 145.5 52.5t43.5 113.5q0 45 -18.5 78t-50.5 54.5t-73 30.5t-86 9h-41v66h43q27 0 61 9t63.5 27.5t50 48t20.5 70.5q0 47 -32 84t-103 37q-53 0 -93 -19.5t-63 -35.5l-29 61q29 23 79 43.5t114 20.5q113 0 163 -56.5 t50 -130.5q0 -57 -37 -106t-106 -78v-4q74 -12 125 -67.5t51 -137.5q0 -47 -18.5 -90t-53.5 -76t-88 -53.5t-123 -20.5q-61 0 -113.5 15.5t-83.5 38.5zM299 -20l758 1372h82l-760 -1372h-80zM743 229v47l390 533h75v-512h123v-68h-123v-229h-82v229h-383zM846 297h280v283 q0 80 7 127h-5q-20 -35 -35.5 -63t-33.5 -56l-213 -287v-4z" />
<glyph unicode="&#xbf;" horiz-adv-x="727" d="M111 -145q0 100 49 187t121 183q68 92 92 171t14 175l-4 54h88l6 -45q14 -88 -11.5 -185.5t-100.5 -201.5q-74 -96 -113 -171t-39 -161q0 -98 54.5 -150.5t152.5 -52.5q53 0 103 15.5t85 41.5l33 -71q-41 -31 -108.5 -51.5t-131.5 -20.5q-74 0 -128 23.5t-91 62.5t-54 90 t-17 107zM352 911q0 41 21.5 65.5t58.5 24.5h2q35 0 56.5 -24.5t21.5 -65.5q0 -35 -22.5 -61.5t-57.5 -26.5q-37 0 -58.5 27t-21.5 61z" />
<glyph unicode="&#xc0;" horiz-adv-x="1097" d="M61 0l447 1380h92l447 -1380h-99l-153 481h-486l-151 -481h-97zM293 1679h143l203 -225h-82zM336 561h432l-145 440q-23 74 -38.5 136.5t-29.5 128.5h-6q-14 -68 -30.5 -130.5t-37.5 -131.5z" />
<glyph unicode="&#xc1;" horiz-adv-x="1097" d="M61 0l447 1380h92l447 -1380h-99l-153 481h-486l-151 -481h-97zM336 561h432l-145 440q-23 74 -38.5 136.5t-29.5 128.5h-6q-14 -68 -30.5 -130.5t-37.5 -131.5zM469 1454l203 225h145l-264 -225h-84z" />
<glyph unicode="&#xc2;" horiz-adv-x="1097" d="M61 0l447 1380h92l447 -1380h-99l-153 481h-486l-151 -481h-97zM313 1454l203 211h82l209 -211h-107l-141 139h-4l-139 -139h-103zM336 561h432l-145 440q-23 74 -38.5 136.5t-29.5 128.5h-6q-14 -68 -30.5 -130.5t-37.5 -131.5z" />
<glyph unicode="&#xc3;" horiz-adv-x="1097" d="M61 0l447 1380h92l449 -1380h-99l-155 481h-486l-151 -481h-97zM330 1468q0 72 31.5 122t91.5 50q29 0 53 -11t55 -30q25 -12 48.5 -23t49.5 -11q23 0 37.5 14t18.5 61h65q0 -70 -28.5 -115.5t-94.5 -45.5q-27 0 -53 11t-59 28q-29 16 -50.5 27t-43.5 11 q-29 0 -40.5 -23.5t-15.5 -64.5h-65zM338 561h430l-143 440q-23 74 -38.5 136.5t-31.5 128.5h-6q-14 -68 -29.5 -130.5t-38.5 -131.5z" />
<glyph unicode="&#xc4;" horiz-adv-x="1097" d="M61 0l449 1380h90l449 -1380h-99l-153 481h-488l-151 -481h-97zM313 1561q0 31 20.5 54t53.5 23q35 0 54.5 -22.5t19.5 -54.5q0 -35 -19.5 -57.5t-54.5 -22.5h-2q-33 0 -52.5 22.5t-19.5 57.5zM338 561h430l-143 440q-23 74 -38.5 136.5t-31.5 128.5h-6 q-14 -68 -29.5 -130.5t-38.5 -131.5zM651 1561q0 31 20.5 54t53.5 23q35 0 54.5 -22.5t19.5 -54.5q0 -35 -19.5 -57.5t-54.5 -22.5h-2q-33 0 -52.5 22.5t-19.5 57.5z" />
<glyph unicode="&#xc5;" horiz-adv-x="1097" d="M61 0l449 1380h90l449 -1380h-99l-155 481h-486l-151 -481h-97zM336 561h432l-143 440q-23 74 -38.5 136.5t-31.5 128.5h-6q-14 -68 -29.5 -130.5t-38.5 -131.5zM375 1597q0 72 51 124.5t133 52.5h2q78 0 129 -51.5t51 -125.5q0 -37 -14 -67.5t-38.5 -53t-58.5 -36 t-71 -13.5q-80 0 -132 49.5t-52 120.5zM455 1597q0 -41 28.5 -75.5t73.5 -34.5q47 0 76 33.5t29 81.5q0 47 -29 80.5t-76 33.5h-2q-47 0 -73.5 -35.5t-26.5 -83.5z" />
<glyph unicode="&#xc6;" horiz-adv-x="1384" d="M6 0l586 1380h684v-82h-535l52 -532h464v-82h-454l61 -602h461v-82h-545l-57 539h-389l-232 -539h-96zM367 616h350l-41 447q-4 57 -10.5 124.5t-10.5 123.5h-10q-20 -53 -45 -114.5t-49 -125.5z" />
<glyph unicode="&#xc7;" horiz-adv-x="1071" d="M76 680q0 170 47 304t130 226.5t197.5 140.5t249.5 48q111 0 177.5 -17.5t95.5 -33.5l-31 -82q-45 23 -105.5 37t-140.5 14q-115 0 -210 -40t-164.5 -120t-108.5 -198.5t-39 -274.5q0 -154 37 -269.5t103.5 -193.5t161.5 -118t212 -40q76 0 145.5 14.5t118.5 41.5l27 -78 q-45 -23 -124 -40t-189 -19l-56 -91q55 -8 96.5 -47t41.5 -96q0 -41 -15.5 -69.5t-41 -47t-58.5 -26.5t-68 -8t-68.5 10t-58.5 24l27 70q47 -29 106 -29q35 0 63 16.5t28 53.5q0 47 -47.5 67.5t-106.5 26.5l84 150q-102 10 -195.5 54t-165 129t-113.5 211t-42 300z" />
<glyph unicode="&#xc8;" horiz-adv-x="870" d="M156 0v1380h620v-82h-526v-530h495v-82h-495v-604h557v-82h-651zM213 1679h143l203 -225h-82z" />
<glyph unicode="&#xc9;" horiz-adv-x="870" d="M156 0v1380h620v-82h-526v-530h495v-82h-495v-604h557v-82h-651zM401 1454l201 225h146l-265 -225h-82z" />
<glyph unicode="&#xca;" horiz-adv-x="870" d="M156 0v1380h620v-82h-526v-530h495v-82h-495v-604h557v-82h-651zM215 1454l203 211h82l207 -211h-107l-139 139h-4l-142 -139h-100z" />
<glyph unicode="&#xcb;" horiz-adv-x="870" d="M156 0v1380h620v-82h-526v-530h495v-82h-495v-604h557v-82h-651zM221 1569q0 33 20.5 56.5t53.5 23.5q35 0 54.5 -22.5t19.5 -57.5t-19.5 -56.5t-54.5 -21.5h-2q-33 0 -52.5 21.5t-19.5 56.5zM557 1569q0 33 20.5 56.5t53.5 23.5q35 0 54.5 -22.5t19.5 -57.5t-19.5 -56.5 t-54.5 -21.5h-2q-33 0 -52.5 21.5t-19.5 56.5z" />
<glyph unicode="&#xcc;" horiz-adv-x="405" d="M-63 1679h145l203 -225h-84zM156 0v1380h94v-1380h-94z" />
<glyph unicode="&#xcd;" horiz-adv-x="405" d="M117 1454l202 225h146l-264 -225h-84zM156 0v1380h94v-1380h-94z" />
<glyph unicode="&#xce;" horiz-adv-x="405" d="M-41 1454l203 211h82l207 -211h-107l-139 139h-4l-140 -139h-102zM156 0v1380h94v-1380h-94z" />
<glyph unicode="&#xcf;" horiz-adv-x="405" d="M-37 1569q0 31 20.5 54.5t53.5 23.5q35 0 54.5 -22.5t19.5 -55.5q0 -35 -19.5 -57.5t-54.5 -22.5h-2q-33 0 -52.5 22.5t-19.5 57.5zM156 0v1380h94v-1380h-94zM299 1569q0 31 20.5 54.5t53.5 23.5q35 0 54 -22.5t19 -55.5q0 -35 -19 -57.5t-54 -22.5h-2q-33 0 -52.5 22.5 t-19.5 57.5z" />
<glyph unicode="&#xd0;" horiz-adv-x="1196" d="M-6 668v77h172v619q139 29 299 29q162 0 281.5 -41t195.5 -119q82 -78 130 -202t48 -308q0 -182 -45 -314.5t-127 -224.5q-84 -96 -218 -146t-306 -50q-68 0 -132.5 2t-125.5 10v668h-172zM260 78q35 -6 81 -7t95 -1q279 0 432.5 160.5t153.5 492.5q0 135 -33 243.5 t-101.5 185.5t-175 119t-251.5 42q-63 0 -113.5 -5t-87.5 -14v-549h373v-77h-373v-590z" />
<glyph unicode="&#xd1;" horiz-adv-x="1181" d="M154 0v1380h92l461 -784q74 -131 133 -242.5t106 -220.5l4 2q-6 78 -9 147.5t-4 138t-2 140.5t-1 156v663h92v-1380h-90l-457 786q-68 119 -129 230.5t-112 232.5l-7 -2q4 -68 7.5 -132t4.5 -133t2 -146.5t1 -171.5v-664h-92zM377 1468q0 72 31.5 122t91.5 50 q29 0 53.5 -11t54.5 -30q25 -12 48.5 -23t50.5 -11q23 0 37 14t18 61h65q0 -70 -28.5 -115.5t-93.5 -45.5q-27 0 -53.5 11t-59.5 28q-29 16 -50.5 27t-43.5 11q-29 0 -40.5 -23.5t-15.5 -64.5h-65z" />
<glyph unicode="&#xd2;" horiz-adv-x="1222" d="M76 680q0 176 43 310t116.5 225.5t173 138.5t214.5 47q111 0 207 -46t166.5 -135.5t110.5 -219.5t40 -300q0 -186 -45 -321t-121 -224t-173 -132t-204 -43h-2q-109 0 -205 45t-167.5 134t-112.5 219t-41 302zM174 682q0 -111 26.5 -222.5t81 -199.5t136.5 -143.5 t190 -55.5h2q111 0 193 54.5t137 143.5t82 202.5t27 234.5q0 106 -25 217t-78 201t-135 147.5t-199 57.5t-199.5 -56.5t-136 -147.5t-78 -204.5t-24.5 -228.5zM348 1686h146l202 -226h-84z" />
<glyph unicode="&#xd3;" horiz-adv-x="1222" d="M76 680q0 176 43 310t116.5 225.5t173 138.5t214.5 47q111 0 207 -46t166.5 -135.5t110.5 -219.5t40 -300q0 -186 -45 -321t-121 -224t-173 -132t-204 -43h-2q-109 0 -205 45t-167.5 134t-112.5 219t-41 302zM174 682q0 -111 26.5 -222.5t81 -199.5t136.5 -143.5 t190 -55.5h2q111 0 193 54.5t137 143.5t82 202.5t27 234.5q0 106 -25 217t-78 201t-135 147.5t-199 57.5t-199.5 -56.5t-136 -147.5t-78 -204.5t-24.5 -228.5zM524 1460l203 226h145l-264 -226h-84z" />
<glyph unicode="&#xd4;" horiz-adv-x="1222" d="M76 680q0 176 43 310t116.5 225.5t173 138.5t214.5 47q111 0 207 -46t166.5 -135.5t110.5 -219.5t40 -300q0 -186 -45 -321t-121 -224t-173 -132t-204 -43h-2q-109 0 -205 45t-167.5 134t-112.5 219t-41 302zM174 682q0 -111 26.5 -222.5t81 -199.5t136.5 -143.5 t190 -55.5h2q111 0 193 54.5t137 143.5t82 202.5t27 234.5q0 106 -25 217t-78 201t-135 147.5t-199 57.5t-199.5 -56.5t-136 -147.5t-78 -204.5t-24.5 -228.5zM367 1460l204 211h82l207 -211h-106l-140 139h-4l-141 -139h-102z" />
<glyph unicode="&#xd5;" horiz-adv-x="1222" d="M76 680q0 176 43 310t116.5 225.5t173 138.5t212.5 47q111 0 207 -46t166.5 -135.5t111.5 -219.5t41 -300q0 -186 -45 -321t-121 -224t-174 -132t-203 -43h-2q-109 0 -205 45t-167.5 134t-112.5 219t-41 302zM174 682q0 -111 26.5 -222.5t81 -199.5t136.5 -143.5 t190 -55.5h2q111 0 193 54.5t137 143.5t82 202.5t27 234.5q0 106 -25 217t-78 201t-136 147.5t-198 57.5t-197.5 -56.5t-136 -147.5t-79 -204.5t-25.5 -228.5zM387 1473q0 72 32 122t91 50q29 0 53.5 -11.5t54.5 -29.5q23 -12 46.5 -23.5t50.5 -11.5q23 0 37 14t18 62h66 q0 -70 -29 -116t-94 -46q-27 0 -53.5 11t-57.5 28q-29 16 -50.5 27.5t-43.5 11.5q-29 0 -40 -24t-15 -64h-66z" />
<glyph unicode="&#xd6;" horiz-adv-x="1222" d="M76 680q0 176 43 310t116.5 225.5t173 138.5t212.5 47q111 0 207 -46t166.5 -135.5t111.5 -219.5t41 -300q0 -186 -45 -321t-121 -224t-174 -132t-203 -43h-2q-109 0 -205 45t-167.5 134t-112.5 219t-41 302zM174 682q0 -111 26.5 -222.5t81 -199.5t135.5 -143.5 t191 -55.5h2q111 0 193 54.5t137 143.5t82 202.5t27 234.5q0 106 -25 217t-78 201t-136 147.5t-198 57.5q-117 0 -199.5 -56.5t-136 -147.5t-78 -204.5t-24.5 -228.5zM369 1569q0 31 20.5 54.5t52.5 23.5q35 0 54.5 -22.5t19.5 -55.5q0 -35 -19.5 -57.5t-54.5 -22.5h-2 q-33 0 -52 22.5t-19 57.5zM707 1569q0 31 20.5 54.5t52.5 23.5q35 0 54.5 -22.5t19.5 -55.5q0 -35 -19.5 -57.5t-54.5 -22.5h-2q-33 0 -52 22.5t-19 57.5z" />
<glyph unicode="&#xd7;" horiz-adv-x="1220" d="M82 61l469 478l-469 477l59 61l469 -479l469 479l60 -61l-469 -477l467 -478l-60 -61l-467 477l-469 -477z" />
<glyph unicode="&#xd8;" horiz-adv-x="1222" d="M76 682q0 178 44 312t117.5 224.5t172 136.5t206.5 46q88 0 170 -30t154 -93l107 160l63 -41l-117 -178q72 -92 113 -221.5t41 -295.5q0 -188 -46 -325t-121 -225.5t-171 -130t-195 -41.5q-92 0 -177 31.5t-156 97.5l-113 -166l-57 43l118 184q-72 90 -112.5 219 t-40.5 293zM174 690q0 -127 27.5 -232.5t79.5 -199.5l4 2l604 938q-53 55 -122 88t-153 33q-117 0 -199.5 -57.5t-136 -148.5t-79 -202.5t-25.5 -220.5zM330 188q55 -63 121.5 -95t158.5 -32q111 0 194 55.5t137 145.5t81 204t27 230q0 104 -22.5 214t-84.5 216l-4 2z" />
<glyph unicode="&#xd9;" horiz-adv-x="1161" d="M156 504v876h94v-866q0 -123 25.5 -210t69.5 -140t102.5 -78t125.5 -25q76 0 138.5 26t107.5 81t69.5 141t24.5 205v866h95v-856q0 -152 -36 -256t-96.5 -168.5t-139.5 -92t-167 -27.5q-82 0 -156.5 25.5t-132 87t-91 161.5t-33.5 250zM319 1679h146l203 -225h-82z" />
<glyph unicode="&#xda;" horiz-adv-x="1161" d="M156 504v876h94v-866q0 -123 25.5 -210t69.5 -140t102.5 -78t125.5 -25q76 0 138.5 26t107.5 81t69.5 141t24.5 205v866h95v-856q0 -152 -36 -256t-96.5 -168.5t-139.5 -92t-167 -27.5q-82 0 -156.5 25.5t-132 87t-91 161.5t-33.5 250zM516 1454l203 225h145l-264 -225 h-84z" />
<glyph unicode="&#xdb;" horiz-adv-x="1161" d="M156 504v876h94v-866q0 -123 25.5 -210t69.5 -140t102.5 -78t125.5 -25q76 0 138.5 26t107.5 81t69.5 141t24.5 205v866h95v-856q0 -152 -36 -256t-96.5 -168.5t-139.5 -92t-167 -27.5q-82 0 -156.5 25.5t-132 87t-91 161.5t-33.5 250zM342 1454l203 211h82l209 -211 h-107l-141 139h-4l-140 -139h-102z" />
<glyph unicode="&#xdc;" horiz-adv-x="1161" d="M156 504v876h94v-866q0 -123 25.5 -210t68.5 -140t102.5 -78t126.5 -25q76 0 138.5 26t107.5 81t69.5 141t24.5 205v866h95v-856q0 -152 -36 -256t-96.5 -168.5t-140.5 -92t-166 -27.5q-82 0 -156.5 25.5t-132 87t-91 161.5t-33.5 250zM340 1569q0 31 20.5 54.5 t53.5 23.5q35 0 54 -22.5t19 -55.5q0 -35 -19 -57.5t-54 -22.5h-2q-33 0 -52.5 22.5t-19.5 57.5zM678 1569q0 31 20.5 54.5t53.5 23.5q35 0 54 -22.5t19 -55.5q0 -35 -19.5 -57.5t-53.5 -22.5h-2q-33 0 -52.5 22.5t-19.5 57.5z" />
<glyph unicode="&#xdd;" horiz-adv-x="960" d="M37 1380h106l201 -395q39 -80 75 -153.5t68 -151.5h5q31 74 69.5 149.5t79.5 157.5l207 393h104l-422 -776v-604h-94v604zM422 1444l203 225h145l-266 -225h-82z" />
<glyph unicode="&#xde;" horiz-adv-x="940" d="M154 0v1380h94v-286q88 16 184 16q113 0 194 -28.5t134 -82.5q47 -47 71.5 -110.5t24.5 -136.5q0 -96 -34 -172t-96 -128.5t-148 -80t-191 -27.5q-33 0 -69.5 3t-69.5 7v-354h-94zM248 436q35 -8 71.5 -10t71.5 -2q174 0 271.5 82t97.5 233q0 145 -89 218t-249 73 q-57 0 -102.5 -5t-71.5 -11v-578z" />
<glyph unicode="&#xdf;" horiz-adv-x="980" d="M152 0v950q0 170 35.5 270.5t99.5 157.5q92 86 237 86q53 0 107.5 -18.5t97.5 -57t69.5 -99t26.5 -144.5q0 -55 -15 -100.5t-32 -69.5q-72 -29 -117 -74t-45 -106q0 -63 34 -107.5t85 -97.5q33 -33 61.5 -65.5t50 -69.5t35 -79t13.5 -93q0 -70 -24.5 -126.5t-67.5 -95 t-103.5 -60t-130.5 -21.5q-59 0 -109 11t-89 32l26 79q41 -20 85 -31.5t91 -11.5q111 0 170.5 61.5t59.5 147.5q0 82 -36 140.5t-95 113.5q-63 61 -105.5 119.5t-42.5 138.5q0 84 49.5 146.5t141.5 103.5q18 45 18 100q0 68 -18.5 116t-50 79t-73.5 44t-87 13 q-61 0 -109.5 -23.5t-81 -76.5t-50 -137t-17.5 -207v-938h-94z" />
<glyph unicode="&#xe0;" horiz-adv-x="851" d="M76 250q0 174 138 266t400 90v29q0 45 -6 95t-29.5 93t-68.5 71t-123 28q-55 0 -111.5 -15.5t-103.5 -50.5l-27 70q53 39 122 58.5t134 19.5q88 0 147.5 -30t95.5 -81t50.5 -116.5t14.5 -139.5v-408q0 -57 2 -116.5t10 -112.5h-86l-12 131h-7q-35 -57 -103.5 -104 t-170.5 -47q-66 0 -115 22.5t-82.5 59t-51 86t-17.5 102.5zM160 1403h133l178 -279h-72zM174 262q0 -53 15.5 -92t40 -63.5t56 -36t66.5 -11.5q104 0 168 58.5t86 136.5q4 16 6 31.5t2 27.5v213q-66 2 -142.5 -5t-142 -33.5t-110.5 -80t-45 -145.5z" />
<glyph unicode="&#xe1;" horiz-adv-x="851" d="M76 250q0 174 138 266t400 90v29q0 45 -6 95t-29.5 93t-68.5 71t-123 28q-55 0 -111.5 -15.5t-103.5 -50.5l-27 70q53 39 122 58.5t134 19.5q88 0 147.5 -30t95.5 -81t50.5 -116.5t14.5 -139.5v-408q0 -57 2 -116.5t10 -112.5h-86l-12 131h-7q-35 -57 -103.5 -104 t-170.5 -47q-66 0 -115 22.5t-82.5 59t-51 86t-17.5 102.5zM174 262q0 -53 15.5 -92t40 -63.5t56 -36t66.5 -11.5q104 0 168 58.5t86 136.5q4 16 6 31.5t2 27.5v213q-66 2 -142.5 -5t-142 -33.5t-110.5 -80t-45 -145.5zM342 1124l178 279h133l-239 -279h-72z" />
<glyph unicode="&#xe2;" horiz-adv-x="851" d="M76 250q0 174 138 266t400 90v29q0 45 -6 95t-29.5 93t-68.5 71t-123 28q-55 0 -111.5 -15.5t-103.5 -50.5l-27 70q53 39 122 58.5t134 19.5q88 0 147.5 -30t95.5 -81t50.5 -116.5t14.5 -139.5v-408q0 -57 2 -116.5t10 -112.5h-86l-12 131h-7q-35 -57 -103.5 -104 t-170.5 -47q-66 0 -115 22.5t-82.5 59t-51 86t-17.5 102.5zM174 262q0 -53 15.5 -92t40 -63.5t56 -36t66.5 -11.5q104 0 168 58.5t86 136.5q4 16 6 31.5t2 27.5v213q-66 2 -142.5 -5t-142 -33.5t-110.5 -80t-45 -145.5zM205 1124l176 279h68l180 -279h-92l-119 199h-4 l-121 -199h-88z" />
<glyph unicode="&#xe3;" horiz-adv-x="851" d="M76 250q0 174 138 266t400 90v29q0 45 -6 95t-29.5 93t-68.5 71t-123 28q-57 0 -112.5 -15.5t-102.5 -50.5l-27 70q53 39 122 58.5t132 19.5q90 0 149.5 -30t95.5 -81t50.5 -116.5t14.5 -139.5v-408q0 -57 2 -116.5t10 -112.5h-86l-12 131h-7q-35 -57 -103.5 -104 t-170.5 -47q-66 0 -115 22.5t-82.5 59t-51 86t-17.5 102.5zM174 262q0 -53 15.5 -92t40 -63.5t56 -36t66.5 -11.5q104 0 168 58.5t86 136.5q4 16 6 31.5t2 27.5v213q-66 2 -142.5 -5t-142 -33.5t-110.5 -80t-45 -145.5zM205 1167q-2 78 30.5 126t90.5 48q29 0 53 -13t59 -30 q25 -12 45.5 -22t40.5 -10q23 0 38.5 17t19.5 65h65q0 -74 -27.5 -121t-93.5 -47q-29 0 -55.5 11t-54.5 28q-29 16 -49.5 26t-38.5 10q-27 0 -39.5 -23.5t-16.5 -64.5h-67z" />
<glyph unicode="&#xe4;" horiz-adv-x="851" d="M76 250q0 174 138 266t400 90v29q0 45 -6 95t-29.5 93t-68.5 71t-123 28q-55 0 -111.5 -15.5t-103.5 -50.5l-27 70q53 39 122 58.5t134 19.5q88 0 147.5 -30t95.5 -81t50.5 -116.5t14.5 -139.5v-408q0 -57 2 -116.5t10 -112.5h-86l-12 131h-7q-35 -57 -103.5 -104 t-170.5 -47q-66 0 -115 22.5t-82.5 59t-51 86t-17.5 102.5zM174 262q0 -53 15.5 -92t40 -63.5t56 -36t66.5 -11.5q104 0 168 58.5t86 136.5q4 16 6 31.5t2 27.5v213q-66 2 -142.5 -5t-142 -33.5t-110.5 -80t-45 -145.5zM186 1255q0 31 21.5 53.5t54.5 22.5q31 0 51.5 -22.5 t20.5 -53.5q0 -29 -19.5 -52t-54.5 -23h-2q-33 0 -52.5 23.5t-19.5 51.5zM518 1255q0 31 21.5 53.5t54.5 22.5q31 0 51.5 -22.5t20.5 -53.5q0 -29 -19.5 -52t-54.5 -23h-2q-33 0 -52.5 23.5t-19.5 51.5z" />
<glyph unicode="&#xe5;" horiz-adv-x="851" d="M76 250q0 174 138 266t400 90v29q0 45 -6 95t-29.5 93t-68.5 71t-123 28q-57 0 -112.5 -15.5t-102.5 -50.5l-27 70q53 39 122 58.5t132 19.5q90 0 149.5 -30t95.5 -81t50.5 -116.5t14.5 -139.5v-408q0 -57 2 -116.5t10 -112.5h-86l-12 131h-7q-35 -57 -103.5 -104 t-170.5 -47q-66 0 -115 22.5t-82.5 59t-51 86t-17.5 102.5zM174 262q0 -53 15.5 -92t40 -63.5t56 -36t66.5 -11.5q104 0 168 58.5t86 136.5q4 16 6 31.5t2 27.5v213q-66 2 -142.5 -5t-142 -33.5t-110.5 -80t-45 -145.5zM233 1272q0 76 52.5 129t136.5 53h2q78 0 130 -52 t52 -130q0 -37 -15.5 -70t-40 -57.5t-58 -37.5t-70.5 -13q-80 0 -134.5 52t-54.5 126zM313 1272q0 -45 30 -81t77 -36q49 0 79.5 35t30.5 84q0 51 -30.5 85t-79.5 34h-2q-47 0 -76 -36t-29 -85z" />
<glyph unicode="&#xe6;" horiz-adv-x="1398" d="M76 244q0 168 138 262t404 90v53q0 33 -8 80t-32.5 90t-69.5 74t-119 31q-59 0 -117.5 -19.5t-99.5 -48.5l-31 70q59 41 131 59.5t125 18.5q121 0 190.5 -59.5t92.5 -164.5h2q41 104 122 164t189 60q102 0 167 -48.5t100.5 -116t49 -140t13.5 -121.5v-31t-4 -29h-612 q-4 -121 19.5 -208t66.5 -142t101 -81t128 -26q92 0 147.5 18.5t83.5 35.5l25 -74q-45 -27 -114.5 -44t-155.5 -17q-115 0 -208 60t-128 171h-4q-35 -111 -122 -171t-202 -60q-68 0 -118 21.5t-83.5 58t-50 83.5t-16.5 101zM172 254q0 -98 54.5 -146.5t127.5 -48.5 q104 -2 169 57.5t87 145.5q8 33 8 72v184q-61 2 -139 -5t-146.5 -33.5t-114.5 -80t-46 -145.5zM709 596h516q2 57 -11.5 116.5t-44 105.5t-76.5 76t-108 30q-68 0 -119 -31t-84.5 -78t-52 -105.5t-20.5 -113.5z" />
<glyph unicode="&#xe7;" horiz-adv-x="815" d="M80 483q0 113 32.5 208t93 165t145.5 109t190 39q74 0 133 -17.5t88 -36.5l-33 -80q-31 16 -80 33t-119 17q-90 0 -156.5 -36t-110.5 -96.5t-65.5 -139.5t-21.5 -163q0 -96 25.5 -174t71.5 -133t109.5 -85t141.5 -30q72 0 124 16.5t87 33.5l27 -74q-31 -16 -93.5 -35.5 t-148.5 -21.5l-57 -93q55 -8 97 -43.5t42 -95.5q0 -41 -15.5 -70.5t-41 -48t-58 -28t-69.5 -9.5q-31 0 -66 9.5t-59 25.5l26 70q43 -29 107 -29q37 0 64.5 15.5t27.5 56.5q-2 47 -47 67.5t-106 26.5l84 150q-84 10 -152 50t-116 104.5t-74.5 151.5t-26.5 191z" />
<glyph unicode="&#xe8;" horiz-adv-x="897" d="M80 477q0 121 29.5 218.5t82 166t126 105.5t159.5 37q106 0 173 -46.5t105 -114t51 -142t13 -132.5v-31.5t-2 -27.5h-643q0 -127 27.5 -213t75 -138.5t107.5 -74t126 -21.5q92 0 146.5 15.5t91.5 36.5l22 -74q-31 -18 -99.5 -38.5t-172.5 -20.5q-98 0 -176 36.5 t-132.5 102t-82 157t-27.5 199.5zM178 586h543q2 63 -11.5 123.5t-44 107.5t-80.5 77t-120 30t-121 -31t-86 -80t-54.5 -109.5t-25.5 -117.5zM246 1403h137l178 -279h-74z" />
<glyph unicode="&#xe9;" horiz-adv-x="897" d="M80 477q0 121 29.5 218.5t82 166t126 105.5t159.5 37q106 0 173 -46.5t105 -114t51 -142t13 -132.5v-31.5t-2 -27.5h-643q0 -127 27.5 -213t75 -138.5t107.5 -74t126 -21.5q92 0 146.5 15.5t91.5 36.5l22 -74q-31 -18 -99.5 -38.5t-172.5 -20.5q-98 0 -176 36.5 t-132.5 102t-82 157t-27.5 199.5zM178 586h543q2 63 -11.5 123.5t-44 107.5t-80.5 77t-120 30t-121 -31t-86 -80t-54.5 -109.5t-25.5 -117.5zM401 1124l179 279h135l-242 -279h-72z" />
<glyph unicode="&#xea;" horiz-adv-x="897" d="M80 477q0 121 29.5 218.5t82 166t126 105.5t159.5 37q106 0 173 -46.5t105 -114t51 -142t13 -132.5v-31.5t-2 -27.5h-643q0 -127 27.5 -213t75 -138.5t107.5 -74t126 -21.5q92 0 146.5 15.5t91.5 36.5l22 -74q-31 -18 -99.5 -38.5t-172.5 -20.5q-98 0 -176 36.5 t-132.5 102t-82 157t-27.5 199.5zM178 586h543q2 63 -11.5 123.5t-44 107.5t-80.5 77t-120 30t-121 -31t-86 -80t-54.5 -109.5t-25.5 -117.5zM262 1124l176 279h70l180 -279h-92l-121 199h-4l-121 -199h-88z" />
<glyph unicode="&#xeb;" horiz-adv-x="897" d="M80 477q0 121 29.5 218.5t82 166t126 105.5t159.5 37q106 0 173 -46.5t105 -114t51 -142t13 -132.5v-31.5t-2 -27.5h-643q0 -127 27.5 -213t74 -138.5t107.5 -74t127 -21.5q92 0 146.5 15.5t91.5 36.5l22 -74q-31 -18 -99.5 -38.5t-172.5 -20.5q-98 0 -176 36.5 t-131.5 102t-82 157t-28.5 199.5zM178 586h543q2 63 -11.5 123.5t-44 107.5t-80.5 77t-122 30q-70 0 -120 -31t-85 -80t-54.5 -109.5t-25.5 -117.5zM244 1255q0 31 21.5 53.5t53.5 22.5q31 0 51.5 -22.5t20.5 -53.5q0 -29 -19.5 -52t-54.5 -23h-2q-33 0 -52 23.5t-19 51.5z M575 1255q0 31 21.5 53.5t54.5 22.5q31 0 51.5 -22.5t20.5 -53.5q0 -29 -19.5 -52t-54.5 -23h-2q-33 0 -52.5 23.5t-19.5 51.5z" />
<glyph unicode="&#xec;" horiz-adv-x="399" d="M-57 1403h133l178 -279h-72zM152 0v983h94v-983h-94z" />
<glyph unicode="&#xed;" horiz-adv-x="399" d="M119 1124l178 279h135l-242 -279h-71zM152 0v983h94v-983h-94z" />
<glyph unicode="&#xee;" horiz-adv-x="399" d="M-12 1124l176 279h67l181 -279h-93l-120 199h-4l-119 -199h-88zM152 0v983h94v-983h-94z" />
<glyph unicode="&#xef;" horiz-adv-x="399" d="M-39 1255q0 31 21.5 53.5t54.5 22.5q31 0 51.5 -22.5t20.5 -53.5q0 -29 -19.5 -52t-54.5 -23h-2q-33 0 -52.5 23.5t-19.5 51.5zM152 0v983h94v-983h-94zM291 1255q0 31 21.5 53.5t54.5 22.5q31 0 51 -22.5t20 -53.5q0 -29 -19.5 -52t-53.5 -23h-3q-33 0 -52 23.5 t-19 51.5z" />
<glyph unicode="&#xf0;" horiz-adv-x="962" d="M80 483q0 129 35 226.5t90 163t126.5 98.5t145.5 33q59 0 115.5 -17.5t116.5 -77.5l4 6q-84 154 -234 281l-260 -131l-29 65l230 117q-43 39 -97.5 77t-109.5 73l47 67q63 -41 124.5 -84t115.5 -90l229 121l33 -65l-205 -109q78 -72 137.5 -151.5t98.5 -159.5 q39 -86 62.5 -188.5t23.5 -231.5q0 -139 -36 -239.5t-93.5 -164t-131 -93t-147.5 -29.5q-82 0 -153.5 33.5t-124 98t-83 157.5t-30.5 214zM176 487q0 -82 20.5 -158.5t59.5 -137t94.5 -96.5t122.5 -36h2q74 0 131.5 37t95 97.5t58 138.5t20.5 162q0 104 -14 181t-55 136 q-31 43 -86.5 78t-145.5 35q-84 0 -142 -43t-94 -108.5t-51.5 -141.5t-15.5 -144z" />
<glyph unicode="&#xf1;" horiz-adv-x="997" d="M143 983h88l7 -162h4q37 78 114.5 130.5t188.5 52.5q37 0 89 -14.5t100 -55.5t82 -117t34 -201v-616h-94v600q0 61 -11.5 119.5t-39 103.5t-73.5 72t-114 27q-92 0 -163.5 -60.5t-98.5 -159.5q-10 -41 -10 -88v-614h-94v750q0 76 -2.5 126t-6.5 107zM279 1167 q-2 78 30.5 126t89.5 48q29 0 53.5 -13t59.5 -30q25 -12 45.5 -22t40.5 -10q23 0 38 17t19 65h66q0 -74 -27.5 -121t-93.5 -47q-29 0 -55.5 11t-55.5 28q-29 16 -49 26t-39 10q-27 0 -39 -23.5t-16 -64.5h-67z" />
<glyph unicode="&#xf2;" horiz-adv-x="978" d="M80 485q0 129 35 226.5t92 162t132 97.5t157 33q86 0 160.5 -34t128 -99.5t84 -160t30.5 -212.5q0 -137 -37 -235.5t-97 -161t-134 -92t-148 -29.5h-2q-84 0 -156.5 33.5t-127 98t-86 159t-31.5 214.5zM176 489q0 -82 21.5 -159.5t61.5 -137t97.5 -96.5t128.5 -37h2 q72 0 130.5 37t99.5 97.5t63.5 139.5t22.5 163q0 63 -16.5 139t-53.5 139.5t-96 106.5t-148 43q-84 0 -143 -40t-97 -103.5t-55.5 -140.5t-17.5 -151zM264 1403h135l179 -279h-74z" />
<glyph unicode="&#xf3;" horiz-adv-x="978" d="M80 485q0 129 35 226.5t92 162t132 97.5t157 33q86 0 160.5 -34t128 -99.5t84 -160t30.5 -212.5q0 -137 -37 -235.5t-97 -161t-134 -92t-148 -29.5h-2q-84 0 -156.5 33.5t-127 98t-86 159t-31.5 214.5zM176 489q0 -82 21.5 -159.5t61.5 -137t97.5 -96.5t128.5 -37h2 q72 0 130.5 37t99.5 97.5t63.5 139.5t22.5 163q0 63 -16.5 139t-53.5 139.5t-96 106.5t-148 43q-84 0 -143 -40t-97 -103.5t-55.5 -140.5t-17.5 -151zM406 1124l178 279h135l-242 -279h-71z" />
<glyph unicode="&#xf4;" horiz-adv-x="978" d="M80 485q0 129 35 226.5t92 162t132 97.5t157 33q86 0 160.5 -34t128 -99.5t84 -160t30.5 -212.5q0 -137 -37 -235.5t-97 -161t-134 -92t-148 -29.5h-2q-84 0 -156.5 33.5t-127 98t-86 159t-31.5 214.5zM176 489q0 -82 21.5 -159.5t61.5 -137t97.5 -96.5t128.5 -37h2 q72 0 130.5 37t99.5 97.5t63.5 139.5t22.5 163q0 63 -16.5 139t-53.5 139.5t-96 106.5t-148 43q-84 0 -143 -40t-97 -103.5t-55.5 -140.5t-17.5 -151zM276 1124l179 279h67l180 -279h-92l-121 199h-4l-120 -199h-89z" />
<glyph unicode="&#xf5;" horiz-adv-x="978" d="M80 485q0 129 35 226.5t92 162t132 97.5t157 33q86 0 160.5 -34t128 -99.5t84 -160t30.5 -212.5q0 -137 -37 -235.5t-97 -161t-134 -92t-148 -29.5h-2q-82 0 -154.5 33.5t-128 98t-87 159t-31.5 214.5zM176 489q0 -82 21.5 -159.5t62.5 -137t97.5 -96.5t127.5 -37h2 q72 0 130.5 37t99.5 97.5t63.5 139.5t22.5 163q0 63 -16.5 139t-53.5 139.5t-96 106.5t-145 43q-84 0 -144.5 -40t-98.5 -103.5t-55.5 -140.5t-17.5 -151zM270 1167q-2 78 31 126t88 48q29 0 54.5 -13t60.5 -30q23 -12 43 -22t41 -10q25 0 39 17t18 65h66q0 -74 -28 -121 t-93 -47q-29 0 -54.5 11t-54.5 28q-29 16 -50 26t-40 10q-25 0 -37 -23.5t-16 -64.5h-68z" />
<glyph unicode="&#xf6;" horiz-adv-x="978" d="M80 485q0 129 35 226.5t92 162t133 97.5t156 33q86 0 160.5 -34t128 -99.5t84 -160t30.5 -212.5q0 -137 -37 -235.5t-97 -161t-134 -92t-148 -29.5h-2q-82 0 -154.5 33.5t-128 98t-87 159t-31.5 214.5zM176 489q0 -82 21.5 -159.5t62.5 -137t98.5 -96.5t128.5 -37h2 q72 0 129.5 37t98.5 97.5t63.5 139.5t22.5 163q0 63 -16.5 139t-53.5 139.5t-96 106.5t-145 43q-84 0 -144.5 -40t-98.5 -103.5t-55.5 -140.5t-17.5 -151zM252 1255q0 31 21.5 53.5t54.5 22.5q31 0 51 -22.5t20 -53.5q0 -29 -19.5 -52t-53.5 -23h-2q-33 0 -52.5 23.5 t-19.5 51.5zM582 1255q0 31 21.5 53.5t53.5 22.5q31 0 51.5 -22.5t20.5 -53.5q0 -29 -19.5 -52t-54.5 -23h-2q-33 0 -52 23.5t-19 51.5z" />
<glyph unicode="&#xf7;" horiz-adv-x="1220" d="M82 508v80h1057v-80h-1057zM530 186q0 37 22.5 61.5t59.5 24.5t58.5 -24.5t21.5 -61.5q0 -35 -21.5 -60.5t-60.5 -25.5h-2q-35 0 -56.5 26t-21.5 60zM530 909q0 37 22.5 61.5t59.5 24.5t58.5 -24.5t21.5 -61.5q0 -35 -21.5 -60.5t-60.5 -25.5h-2q-35 0 -56.5 25.5 t-21.5 60.5z" />
<glyph unicode="&#xf8;" horiz-adv-x="978" d="M80 485q0 129 35 226.5t91 162t131 97.5t155 33h2q59 0 117.5 -18.5t109.5 -57.5l70 108l63 -39l-78 -125q59 -68 91 -162t32 -210q0 -137 -37 -235.5t-95 -162t-131 -93t-147 -29.5q-61 0 -120.5 18t-108.5 57l-72 -110l-59 45l76 119q-57 66 -91 159.5t-34 216.5z M176 489q0 -74 17.5 -150.5t60.5 -145.5l2 -3l418 660q-68 74 -185 74q-86 0 -146 -41t-97 -104.5t-53.5 -140.5t-16.5 -149zM307 129q72 -70 176 -70q76 0 136.5 37t100.5 97.5t61.5 139.5t21.5 163q0 59 -15.5 138t-60.5 152h-4z" />
<glyph unicode="&#xf9;" horiz-adv-x="985" d="M145 391v592h95v-573q0 -76 11 -139.5t37.5 -109.5t70.5 -73t110 -27q51 0 93 18.5t75 46.5t54.5 61.5t33.5 64.5q6 23 10 49.5t4 54.5v627h95v-741q0 -72 2 -130.5t6 -111.5h-88l-6 152h-5q-16 -29 -41.5 -59t-63.5 -55.5t-86 -41.5t-106 -16q-51 0 -104 18t-97 64.5 t-72 126t-28 202.5zM256 1403h135l178 -279h-71z" />
<glyph unicode="&#xfa;" horiz-adv-x="985" d="M145 391v592h95v-573q0 -76 11 -139.5t37.5 -109.5t70.5 -73t110 -27q51 0 93 18.5t75 46.5t54.5 61.5t33.5 64.5q6 23 10 49.5t4 54.5v627h95v-741q0 -72 2 -130.5t6 -111.5h-88l-6 152h-5q-16 -29 -41.5 -59t-63.5 -55.5t-86 -41.5t-106 -16q-51 0 -104 18t-97 64.5 t-72 126t-28 202.5zM434 1124l178 279h136l-240 -279h-74z" />
<glyph unicode="&#xfb;" horiz-adv-x="985" d="M145 391v592h95v-573q0 -76 11 -139.5t37.5 -109.5t70.5 -73t110 -27q51 0 93 18.5t75 46.5t54.5 61.5t33.5 64.5q6 23 10 49.5t4 54.5v627h95v-741q0 -72 2 -130.5t6 -111.5h-88l-6 152h-5q-16 -29 -41.5 -59t-63.5 -55.5t-86 -41.5t-106 -16q-51 0 -104 18t-97 64.5 t-72 126t-28 202.5zM279 1124l176 279h69l181 -279h-93l-120 199h-5l-120 -199h-88z" />
<glyph unicode="&#xfc;" horiz-adv-x="985" d="M145 391v592h95v-573q0 -76 11 -139.5t37.5 -109.5t70.5 -73t110 -27q51 0 93 18.5t75 46.5t54.5 61.5t33.5 64.5q6 23 10 49.5t4 54.5v627h95v-741q0 -72 2 -130.5t6 -111.5h-88l-6 152h-5q-16 -29 -41.5 -59t-63.5 -55.5t-86 -41.5t-106 -16q-51 0 -104 18t-97 64.5 t-72 126t-28 202.5zM258 1255q0 31 21.5 53.5t54.5 22.5q31 0 51.5 -22.5t20.5 -53.5q0 -29 -19.5 -52t-54.5 -23h-2q-33 0 -52.5 23.5t-19.5 51.5zM590 1255q0 31 21.5 53.5t54.5 22.5q31 0 51 -22.5t20 -53.5q0 -29 -19.5 -52t-53.5 -23h-2q-33 0 -52.5 23.5t-19.5 51.5z " />
<glyph unicode="&#xfd;" horiz-adv-x="825" d="M27 983h100l225 -629q20 -57 37 -113.5t29 -103.5h4q14 45 31.5 102.5t35.5 118.5l211 625h101l-248 -680q-78 -225 -146.5 -382t-162.5 -253q-53 -53 -99.5 -79.5t-64.5 -34.5l-37 79q37 16 80 46t84 75q35 41 75 100.5t68 131.5q6 18 8 27.5t2 19.5q0 16 -8 41z M352 1124l178 279h136l-242 -279h-72z" />
<glyph unicode="&#xfe;" horiz-adv-x="1017" d="M152 -401v1759h94v-535h4q100 180 315 181q80 0 147.5 -35t118 -99.5t79 -156.5t28.5 -209q0 -135 -34 -234.5t-90 -164t-129 -95t-150 -30.5q-96 0 -169 43t-116 118h-4v-542h-94zM246 373q0 -41 10 -82q33 -121 113 -176.5t172 -55.5q70 0 126 33t95 91.5t59.5 139 t20.5 179.5q0 82 -19.5 158.5t-57.5 135t-95.5 93.5t-130.5 35q-47 0 -91.5 -18.5t-82 -50.5t-65.5 -77t-40 -98q-6 -23 -10 -49.5t-4 -50.5v-207z" />
<glyph unicode="&#xff;" horiz-adv-x="825" d="M29 983h98l225 -629q20 -57 37 -113.5t29 -103.5h4q14 45 31.5 102.5t35.5 118.5l211 625h99l-246 -680q-78 -225 -146.5 -382t-162.5 -253q-53 -53 -99.5 -79.5t-64.5 -34.5l-35 79q35 16 79 46t85 75q35 41 74 100.5t67 131.5q6 18 9 27.5t3 19.5t-10 41zM193 1255 q0 31 21.5 53.5t53.5 22.5q31 0 51.5 -22.5t20.5 -53.5q0 -29 -19.5 -52t-54.5 -23h-2q-33 0 -52 23.5t-19 51.5zM522 1255q0 31 21.5 53.5t54.5 22.5q31 0 51.5 -22.5t20.5 -53.5q0 -29 -19.5 -52t-54.5 -23h-2q-33 0 -52.5 23.5t-19.5 51.5z" />
<glyph unicode="&#x100;" horiz-adv-x="1097" d="M61 0l447 1380h92l447 -1380h-99l-153 481h-486l-151 -481h-97zM326 1503v78h448v-78h-448zM336 561h432l-145 440q-23 74 -38.5 136.5t-29.5 128.5h-6q-14 -68 -30.5 -130.5t-37.5 -131.5z" />
<glyph unicode="&#x101;" horiz-adv-x="851" d="M76 250q0 174 138 266t400 90v29q0 45 -6 95t-29.5 93t-68.5 71t-123 28q-55 0 -111.5 -15.5t-103.5 -50.5l-27 70q53 39 122 58.5t134 19.5q88 0 147.5 -30t95.5 -81t50.5 -116.5t14.5 -139.5v-408q0 -57 2 -116.5t10 -112.5h-86l-12 131h-7q-35 -57 -103.5 -104 t-170.5 -47q-66 0 -115 22.5t-82.5 59t-51 86t-17.5 102.5zM174 262q0 -53 15.5 -92t40 -63.5t56 -36t66.5 -11.5q104 0 168 58.5t86 136.5q4 16 6 31.5t2 27.5v213q-66 2 -142.5 -5t-142 -33.5t-110.5 -80t-45 -145.5zM219 1202v78h416v-78h-416z" />
<glyph unicode="&#x102;" horiz-adv-x="1097" d="M61 0l447 1380h92l447 -1380h-99l-153 481h-486l-151 -481h-97zM326 1647h67q10 -39 46 -69t110 -30q72 0 108.5 28t47.5 71h67q-2 -78 -57.5 -132.5t-167.5 -54.5q-111 0 -165 53.5t-56 133.5zM336 561h430l-143 440q-23 74 -38.5 136.5t-31.5 128.5h-4 q-16 -68 -31.5 -130.5t-38.5 -131.5z" />
<glyph unicode="&#x103;" horiz-adv-x="851" d="M76 250q0 174 138 266t400 90v29q0 45 -6 95t-29.5 93t-68.5 71t-123 28q-55 0 -111.5 -15.5t-103.5 -50.5l-27 70q53 39 122 58.5t134 19.5q88 0 147.5 -30t95.5 -81t50.5 -116.5t14.5 -139.5v-408q0 -57 2 -116.5t10 -112.5h-86l-12 131h-7q-35 -57 -103.5 -104 t-170.5 -47q-66 0 -115 22.5t-82.5 59t-51 86t-17.5 102.5zM174 262q0 -53 15.5 -92t40 -63.5t56 -36t66.5 -11.5q104 0 168 58.5t86 136.5q4 16 6 31.5t2 27.5v213q-66 2 -142.5 -5t-142 -33.5t-110.5 -80t-45 -145.5zM201 1376h69q8 -61 49 -104t107 -43q74 0 113 45 t43 102h69q0 -104 -62.5 -165.5t-162.5 -61.5q-61 0 -104 19.5t-70 52t-39 73.5t-12 82z" />
<glyph unicode="&#x104;" horiz-adv-x="1097" d="M61 0l449 1380h90l447 -1380l-19 -4q-14 -12 -36.5 -37t-44 -55.5t-37 -64.5t-15.5 -66q0 -49 27.5 -74t68.5 -25q49 0 94 23l17 -59q-25 -18 -64 -28.5t-69 -10.5q-72 0 -118 39.5t-46 111.5q0 39 13 76t34.5 70.5t46.5 62.5t47 53l-151 469h-484l-153 -481h-97z M338 561h430l-143 440q-23 74 -38.5 136.5t-31.5 128.5h-6q-14 -68 -29.5 -131.5t-38.5 -130.5z" />
<glyph unicode="&#x105;" horiz-adv-x="851" d="M76 250q0 174 138 266t400 90v29q0 45 -6 95t-29.5 93t-68.5 71t-123 28q-55 0 -111.5 -15.5t-103.5 -50.5l-27 70q53 39 122 58.5t134 19.5q88 0 147.5 -30t95.5 -81t50.5 -116.5t14.5 -139.5v-408q0 -72 3 -126t13 -103h-14q-14 -16 -31.5 -42t-33 -57.5t-27 -65.5 t-11.5 -66q0 -53 28 -77t69 -24q53 0 94 21l16 -62q-27 -18 -64.5 -27.5t-70.5 -9.5q-72 0 -117 40t-45 114q0 39 11.5 76t28.5 70.5t37.5 62.5t37.5 53l-10 125h-7q-35 -57 -103.5 -104t-170.5 -47q-66 0 -115 22.5t-82.5 59t-51 86t-17.5 102.5zM174 262q0 -53 15.5 -92 t40 -63.5t56 -36t66.5 -11.5q104 0 168 58.5t86 136.5q4 16 6 31.5t2 27.5v213q-66 2 -142.5 -5t-142 -33.5t-110.5 -80t-45 -145.5z" />
<glyph unicode="&#x106;" horiz-adv-x="1038" d="M76 680q0 170 46 304t129 226.5t197.5 140.5t249.5 48q111 0 177.5 -17.5t95.5 -33.5l-31 -82q-45 23 -105.5 37t-138.5 14q-115 0 -211 -40t-164.5 -120t-107.5 -198.5t-39 -274.5q0 -154 37 -269.5t103.5 -193.5t160.5 -116.5t211 -38.5q78 0 147.5 14t116.5 41l29 -78 q-47 -25 -129 -43t-191 -18q-111 0 -216 38.5t-187 123.5t-131 217.5t-49 318.5zM573 1458l203 225h144l-265 -225h-82z" />
<glyph unicode="&#x107;" horiz-adv-x="817" d="M80 483q0 113 32.5 208t93 165t145.5 109t188 39q76 0 135 -17.5t86 -36.5l-33 -80q-29 16 -78 33t-121 17q-90 0 -155.5 -36t-109.5 -96.5t-65.5 -139.5t-21.5 -163q0 -96 25.5 -174t71.5 -133t109.5 -85t141.5 -30q72 0 122 16.5t87 33.5l25 -74q-31 -16 -95.5 -36.5 t-154.5 -20.5q-96 0 -175 35.5t-135.5 101t-87 158t-30.5 206.5zM410 1124l178 279h135l-242 -279h-71z" />
<glyph unicode="&#x108;" horiz-adv-x="1038" d="M76 680q0 170 46 304t129 226.5t197.5 140.5t249.5 48q111 0 177.5 -17.5t95.5 -33.5l-31 -82q-45 23 -105.5 37t-138.5 14q-115 0 -211 -40t-164.5 -120t-107.5 -198.5t-39 -274.5q0 -154 37 -269.5t103.5 -193.5t160.5 -116.5t211 -38.5q78 0 147.5 14t116.5 41l29 -78 q-47 -25 -129 -43t-191 -18q-111 0 -216 38.5t-187 123.5t-131 217.5t-49 318.5zM383 1460l203 211h82l209 -211h-109l-139 139h-4l-140 -139h-102z" />
<glyph unicode="&#x109;" horiz-adv-x="817" d="M80 483q0 113 32.5 208t93 165t145.5 109t188 39q76 0 135 -17.5t86 -36.5l-33 -80q-29 16 -78 33t-121 17q-90 0 -155.5 -36t-109.5 -96.5t-65.5 -139.5t-21.5 -163q0 -96 25.5 -174t71.5 -133t109.5 -85t141.5 -30q72 0 122 16.5t87 33.5l25 -74q-31 -16 -95.5 -36.5 t-154.5 -20.5q-96 0 -175 35.5t-135.5 101t-87 158t-30.5 206.5zM270 1124l176 279h70l180 -279h-92l-121 199h-4l-121 -199h-88z" />
<glyph unicode="&#x10a;" horiz-adv-x="1038" d="M76 680q0 170 46 304t129 226.5t197.5 140.5t249.5 48q111 0 177.5 -17.5t95.5 -33.5l-31 -82q-45 23 -105.5 37t-138.5 14q-115 0 -211 -40t-164.5 -120t-107.5 -198.5t-39 -274.5q0 -154 37 -269.5t103.5 -193.5t160.5 -116.5t211 -38.5q78 0 147.5 14t116.5 41l29 -78 q-47 -25 -129 -43t-188 -18q-113 0 -218.5 38.5t-187.5 123.5t-131 217.5t-49 318.5zM559 1559q0 29 21.5 52t54.5 23q31 0 51.5 -23.5t20.5 -51.5q0 -29 -20.5 -52.5t-53.5 -23.5h-2q-29 0 -50.5 23.5t-21.5 52.5z" />
<glyph unicode="&#x10b;" horiz-adv-x="817" d="M80 483q0 113 32.5 208t93 165t145.5 109t188 39q74 0 133 -17.5t88 -36.5l-33 -80q-29 16 -78 33t-121 17q-90 0 -155.5 -36t-109.5 -96.5t-65.5 -139.5t-21.5 -163q0 -96 25.5 -174t71.5 -133t109.5 -85t139.5 -30q72 0 123 16.5t86 33.5l25 -74q-31 -16 -94.5 -36.5 t-153.5 -20.5q-96 0 -175 35.5t-135.5 101t-87 158t-30.5 206.5zM406 1255q0 29 22.5 52.5t52.5 23.5q31 0 52.5 -22.5t21.5 -53.5t-20.5 -54t-53.5 -23h-2q-33 0 -53 23.5t-20 53.5z" />
<glyph unicode="&#x10c;" horiz-adv-x="1038" d="M76 680q0 170 46 304t129 226.5t197.5 140.5t249.5 48q111 0 177.5 -17.5t95.5 -33.5l-31 -82q-45 23 -105.5 37t-138.5 14q-115 0 -211 -40t-164.5 -120t-107.5 -198.5t-39 -274.5q0 -154 37 -269.5t103.5 -193.5t160.5 -116.5t211 -38.5q78 0 147.5 14t116.5 41l29 -78 q-47 -25 -129 -43t-191 -18q-111 0 -216 38.5t-187 123.5t-131 217.5t-49 318.5zM391 1671h107l141 -143h4l139 143h103l-205 -211h-80z" />
<glyph unicode="&#x10d;" horiz-adv-x="817" d="M80 483q0 113 32.5 208t93 165t145.5 109t188 39q76 0 135 -17.5t86 -36.5l-33 -80q-29 16 -78 33t-121 17q-90 0 -155.5 -36t-109.5 -96.5t-65.5 -139.5t-21.5 -163q0 -96 25.5 -174t71.5 -133t109.5 -85t141.5 -30q72 0 122 16.5t87 33.5l25 -74q-31 -16 -95.5 -36.5 t-154.5 -20.5q-96 0 -175 35.5t-135.5 101t-87 158t-30.5 206.5zM264 1403h92l123 -199h4l125 199h86l-176 -279h-74z" />
<glyph unicode="&#x10e;" horiz-adv-x="1183" d="M156 2v1360q139 29 299 29q162 0 280.5 -41t194.5 -119q82 -80 130 -202t48 -302q0 -184 -45 -316t-127 -225q-84 -96 -217 -146t-305 -50q-68 0 -132.5 2t-125.5 10zM250 80q35 -6 81 -7t95 -1q281 0 432.5 159.5t151.5 489.5q0 135 -33 243.5t-101.5 185.5t-174 119 t-250.5 42q-63 0 -113.5 -5.5t-87.5 -13.5v-1212zM293 1669h106l142 -143h4l139 143h102l-202 -211h-82z" />
<glyph unicode="&#x10f;" horiz-adv-x="1026" d="M80 477q0 125 31.5 223.5t86 166t126 102.5t151.5 35q104 0 175 -46.5t106 -113.5h4v600h94v-1223q0 -49 2 -112.5t6 -108.5h-84l-6 170h-6q-35 -74 -110.5 -132t-196.5 -58q-80 0 -148.5 33.5t-120 98t-81 156.5t-29.5 209zM176 485q0 -84 17.5 -160.5t54.5 -135 t93 -94.5t134 -36q86 0 165 58.5t112 187.5q8 33 8 78v217q0 18 -2 41t-6 43q-10 49 -34 93t-58.5 76t-81 51.5t-97.5 19.5q-74 0 -130 -34t-95 -93.5t-59.5 -139t-20.5 -172.5zM950 1126q23 27 49.5 69t26.5 105q0 41 -21.5 75t-54.5 57l88 24q27 -16 50.5 -55t23.5 -90 q0 -47 -14.5 -84t-34 -64.5t-39.5 -46t-31 -29.5z" />
<glyph unicode="&#x110;" horiz-adv-x="1196" d="M-6 668v77h172v619q139 29 299 29q162 0 281.5 -41t195.5 -119q82 -78 130 -202t48 -308q0 -182 -45 -314.5t-127 -224.5q-84 -96 -218 -146t-306 -50q-68 0 -132.5 2t-125.5 10v668h-172zM260 78q35 -6 81 -7t95 -1q279 0 432.5 160.5t153.5 492.5q0 135 -33 243.5 t-101.5 185.5t-175 119t-251.5 42q-63 0 -113.5 -5t-87.5 -14v-549h373v-77h-373v-590z" />
<glyph unicode="&#x111;" horiz-adv-x="1005" d="M80 477q0 125 31.5 223.5t86 166t126 102.5t151.5 35q104 0 175 -46.5t106 -113.5h4v295h-379v78h379v227h94v-227h143v-78h-143v-918q0 -49 2 -112.5t6 -108.5h-84l-6 170h-6q-35 -74 -110.5 -132t-196.5 -58q-80 0 -148.5 33.5t-120 98t-81 156.5t-29.5 209zM176 485 q0 -84 17.5 -160.5t54.5 -135t93 -94.5t134 -36q86 0 165 58.5t112 187.5q8 33 8 78v217q0 18 -2 41t-6 43q-10 49 -34 93t-58.5 76t-81 51.5t-97.5 19.5q-74 0 -130 -34t-95 -93.5t-59.5 -139t-20.5 -172.5z" />
<glyph unicode="&#x112;" horiz-adv-x="870" d="M156 0v1380h620v-82h-526v-530h495v-82h-495v-604h557v-82h-651zM254 1503v78h448v-78h-448z" />
<glyph unicode="&#x113;" horiz-adv-x="897" d="M80 477q0 121 29.5 218.5t82 166t126 105.5t159.5 37q106 0 173 -46.5t105 -114t51 -142t13 -132.5v-31.5t-2 -27.5h-643q0 -127 27.5 -213t75 -138.5t107.5 -74t126 -21.5q92 0 146.5 15.5t91.5 36.5l22 -74q-31 -18 -99.5 -38.5t-172.5 -20.5q-98 0 -176 36.5 t-132.5 102t-82 157t-27.5 199.5zM178 586h543q2 63 -11.5 123.5t-44 107.5t-80.5 77t-120 30t-121 -31t-86 -80t-54.5 -109.5t-25.5 -117.5zM250 1202v78h416v-78h-416z" />
<glyph unicode="&#x114;" horiz-adv-x="870" d="M156 0v1380h620v-82h-526v-530h495v-82h-495v-604h557v-82h-651zM236 1663h67q10 -39 46 -68.5t110 -29.5q72 0 108.5 27.5t46.5 70.5h68q-2 -78 -57.5 -132t-167.5 -54q-111 0 -165 53t-56 133z" />
<glyph unicode="&#x115;" horiz-adv-x="897" d="M80 477q0 121 29.5 218.5t82 166t126 105.5t159.5 37q106 0 173 -46.5t105 -114t51 -142t13 -132.5v-31.5t-2 -27.5h-643q0 -127 27.5 -213t75 -138.5t107.5 -74t126 -21.5q92 0 146.5 15.5t91.5 36.5l22 -74q-31 -18 -99.5 -38.5t-172.5 -20.5q-98 0 -176 36.5 t-132.5 102t-82 157t-27.5 199.5zM178 586h543q2 63 -11.5 123.5t-44 107.5t-80.5 77t-120 30t-121 -31t-86 -80t-54.5 -109.5t-25.5 -117.5zM231 1376h70q8 -61 49 -104t105 -43q76 0 114.5 45t42.5 102h70q0 -104 -62.5 -165.5t-162.5 -61.5q-61 0 -104.5 19.5t-71 52 t-39 73.5t-11.5 82z" />
<glyph unicode="&#x116;" horiz-adv-x="870" d="M156 0v1380h620v-82h-526v-530h495v-82h-495v-604h557v-82h-651zM387 1569q0 29 21.5 52.5t54.5 23.5q31 0 51.5 -24t20.5 -52q0 -29 -20.5 -52.5t-53.5 -23.5h-2q-29 0 -50.5 23.5t-21.5 52.5z" />
<glyph unicode="&#x117;" horiz-adv-x="897" d="M80 477q0 121 29.5 218.5t82 166t126 105.5t159.5 37q106 0 173 -46.5t105 -114t51 -142t13 -132.5v-31.5t-2 -27.5h-643q0 -127 27.5 -213t75 -138.5t107.5 -74t126 -21.5q92 0 146.5 15.5t91.5 36.5l22 -74q-31 -18 -99.5 -38.5t-172.5 -20.5q-98 0 -176 36.5 t-131.5 102t-82 157t-28.5 199.5zM178 586h543q2 63 -11.5 123.5t-44 107.5t-80.5 77t-120 30t-121 -31t-86 -80t-54.5 -109.5t-25.5 -117.5zM383 1255q0 29 22.5 52.5t53.5 23.5t52 -22.5t21 -53.5t-20 -54t-53 -23h-2q-33 0 -53.5 23.5t-20.5 53.5z" />
<glyph unicode="&#x118;" horiz-adv-x="870" d="M156 0v1380h620v-82h-526v-530h495v-82h-495v-606h557v-80q-4 -2 -9 -2t-10 -2q-37 -23 -69.5 -50.5t-58 -57t-41 -61.5t-15.5 -63q0 -47 29 -69.5t69 -22.5q23 0 45.5 3t47.5 14l16 -62q-29 -16 -61.5 -24.5t-67.5 -8.5q-76 0 -122 39t-46 111q0 41 17.5 79t43 71.5 t57.5 60.5t62 45h-538z" />
<glyph unicode="&#x119;" horiz-adv-x="897" d="M80 477q0 121 29.5 218.5t82 166t126 105.5t159.5 37q106 0 173 -46.5t105 -114t51 -142t13 -132.5v-32.5t-2 -26.5h-643q0 -127 27.5 -213t75 -138.5t108.5 -74t127 -21.5q90 0 144.5 15.5t91.5 36.5l22 -74q-18 -10 -44 -19.5t-36 -13.5q-33 -14 -69.5 -39.5 t-67.5 -57.5t-50.5 -69t-19.5 -73q0 -49 28 -72t62 -23q23 0 49.5 6.5t49.5 16.5l16 -62q-27 -16 -61.5 -26t-71.5 -10q-72 0 -117 38.5t-45 110.5q0 37 14.5 72t38 65.5t51 55t54.5 41.5v2q-12 0 -24.5 -1t-28.5 -1q-98 0 -176 36.5t-131.5 102t-82 157t-28.5 199.5z M178 586h543q2 63 -11.5 123.5t-44 107.5t-80.5 77t-120 30t-121 -31t-86 -80t-54.5 -109.5t-25.5 -117.5z" />
<glyph unicode="&#x11a;" horiz-adv-x="870" d="M156 0v1380h620v-82h-526v-530h495v-82h-495v-604h557v-82h-651zM221 1665h107l141 -143h4l139 143h103l-205 -211h-80z" />
<glyph unicode="&#x11b;" horiz-adv-x="897" d="M80 477q0 121 29.5 218.5t82 166t126 105.5t159.5 37q106 0 173 -46.5t105 -114t51 -142t13 -132.5v-31.5t-2 -27.5h-643q0 -127 27.5 -213t75 -138.5t107.5 -74t126 -21.5q92 0 146.5 15.5t91.5 36.5l22 -74q-31 -18 -99.5 -38.5t-172.5 -20.5q-98 0 -176 36.5 t-132.5 102t-82 157t-27.5 199.5zM178 586h543q2 63 -11.5 123.5t-44 107.5t-80.5 77t-120 30t-121 -31t-86 -80t-54.5 -109.5t-25.5 -117.5zM240 1403h92l123 -199h4l125 199h86l-176 -279h-74z" />
<glyph unicode="&#x11c;" horiz-adv-x="1148" d="M76 678q0 164 46 297t131 226t205 143.5t267 50.5q96 0 169 -17.5t110 -36.5l-31 -79q-45 23 -106.5 37t-147.5 14q-119 0 -219.5 -40t-172 -119t-112.5 -194.5t-41 -267.5q0 -158 39 -274.5t108.5 -194.5t167 -116.5t213.5 -38.5q92 0 150.5 11t89.5 27v500h-289v78h383 v-633q-49 -20 -140 -42.5t-208 -22.5q-119 0 -228.5 35.5t-203.5 130.5q-80 82 -130 216t-50 310zM412 1458l202 211h82l209 -211h-106l-142 139h-4l-139 -139h-102z" />
<glyph unicode="&#x11d;" horiz-adv-x="1005" d="M80 485q0 133 36 231.5t92 162t128 94.5t143 31q63 0 111.5 -16.5t82.5 -42t56.5 -56.5t36.5 -58h4l4 152h88q-4 -51 -6 -113.5t-2 -154.5v-574q0 -98 -8 -170.5t-23.5 -125t-38 -90.5t-49.5 -64q-59 -59 -141 -86t-160 -27t-153.5 19.5t-124.5 54.5l32 78 q43 -29 108.5 -50.5t152.5 -21.5q68 0 125 19.5t98 64.5t64.5 117.5t23.5 179.5v133h-4q-35 -72 -110 -122t-187 -50q-82 0 -151.5 36t-120 100.5t-79 153.5t-28.5 195zM176 496q0 -92 20.5 -168t59.5 -131.5t95.5 -86t129.5 -30.5q82 0 156 50t108 161q14 49 15 102v228 q0 25 -2 46t-8 42q-12 41 -35 79.5t-56.5 68.5t-77.5 48.5t-100 18.5q-68 0 -124 -31t-96 -87t-62.5 -135t-22.5 -175zM285 1130l176 279h67l181 -279h-91l-120 199h-4l-121 -199h-88z" />
<glyph unicode="&#x11e;" horiz-adv-x="1148" d="M76 678q0 164 46 297t131 226t205 143.5t267 50.5q96 0 169 -17.5t110 -36.5l-31 -79q-45 23 -106.5 37t-147.5 14q-119 0 -219.5 -40t-172 -119t-112.5 -194.5t-41 -267.5q0 -158 39 -274.5t108.5 -194.5t167 -116.5t213.5 -38.5q92 0 150.5 11t89.5 27v500h-289v78h383 v-633q-49 -20 -140 -42.5t-208 -22.5q-119 0 -228.5 35.5t-203.5 130.5q-80 82 -130 216t-50 310zM412 1663h67q10 -39 46 -68.5t110 -29.5t110.5 27.5t45.5 70.5h69q-2 -78 -57 -132t-170 -54q-111 0 -165 53t-56 133z" />
<glyph unicode="&#x11f;" horiz-adv-x="1005" d="M80 485q0 133 36 231.5t92 162t128 94.5t143 31q63 0 111.5 -16.5t83.5 -42t57.5 -56.5t34.5 -58h4l4 152h88q-4 -51 -6 -113.5t-2 -154.5v-574q0 -98 -8 -170.5t-23.5 -125t-38 -90.5t-49.5 -64q-57 -59 -139 -86t-160 -27t-154.5 19.5t-125.5 54.5l32 78 q45 -29 109.5 -50.5t151.5 -21.5q68 0 125 19.5t99 64.5t64.5 117.5t22.5 179.5v133h-4q-35 -72 -110 -122t-187 -50q-82 0 -151.5 36t-120 100.5t-79 153.5t-28.5 195zM176 496q0 -92 20.5 -168t59.5 -131.5t95.5 -86t129.5 -30.5q84 0 157 50t107 161q14 49 15 102v228 q0 25 -2 46t-8 42q-12 41 -35 79.5t-55.5 68.5t-76.5 48.5t-100 18.5q-70 0 -126 -31t-96 -87t-62.5 -135t-22.5 -175zM256 1376h72q8 -61 49 -104t104 -43q76 0 115 45t43 102h70q0 -104 -62.5 -165.5t-163.5 -61.5q-61 0 -104 19.5t-70.5 52t-40 73.5t-12.5 82z" />
<glyph unicode="&#x120;" horiz-adv-x="1148" d="M76 678q0 164 46 297t131 226t203.5 143.5t266.5 50.5q96 0 170 -17.5t111 -36.5l-31 -79q-45 23 -106.5 37t-149.5 14q-119 0 -218.5 -40t-172 -119t-112.5 -194.5t-40 -267.5q0 -158 39 -274.5t108.5 -194.5t167 -116.5t213.5 -38.5q92 0 150.5 11t89.5 27v500h-289v78 h383v-633q-49 -20 -140 -42.5t-208 -22.5q-119 0 -228.5 35.5t-203.5 130.5q-80 82 -130 216t-50 310zM584 1559q0 29 21.5 52t53.5 23q31 0 51.5 -23.5t20.5 -51.5q0 -29 -20.5 -52.5t-53.5 -23.5h-2q-29 0 -50 23.5t-21 52.5z" />
<glyph unicode="&#x121;" horiz-adv-x="1005" d="M80 485q0 133 36 231.5t92 162t128 94.5t143 31q63 0 111.5 -16.5t82.5 -42t56.5 -56.5t36.5 -58h4l4 152h88q-4 -51 -6 -113.5t-2 -154.5v-574q0 -98 -8 -170.5t-23.5 -125t-38 -90.5t-49.5 -64q-59 -59 -140 -86t-159 -27t-154.5 19.5t-125.5 54.5l32 78 q45 -29 109.5 -50.5t151.5 -21.5q68 0 125 19.5t98 64.5t64.5 117.5t23.5 179.5v133h-4q-35 -72 -110 -122t-187 -50q-82 0 -151.5 36t-120 100.5t-79 153.5t-28.5 195zM176 496q0 -92 20.5 -168t59.5 -131.5t95.5 -86t129.5 -30.5q82 0 156 50t108 161q14 49 15 102v228 q0 25 -2 46t-8 42q-12 41 -35 79.5t-55.5 68.5t-76.5 48.5t-100 18.5q-70 0 -126 -31t-96 -87t-62.5 -135t-22.5 -175zM428 1264q0 29 22.5 52t53.5 23t52.5 -22.5t21.5 -52.5q0 -31 -20.5 -54.5t-53.5 -23.5h-2q-33 0 -53.5 23.5t-20.5 54.5z" />
<glyph unicode="&#x122;" horiz-adv-x="1148" d="M76 678q0 164 46 297t131 226t203.5 143.5t266.5 50.5q96 0 170 -17.5t111 -36.5l-31 -79q-45 23 -106.5 37t-149.5 14q-119 0 -218.5 -40t-172 -119t-112.5 -194.5t-40 -267.5q0 -158 39 -274.5t108.5 -194.5t167 -116.5t213.5 -38.5q92 0 150.5 11t89.5 27v500h-289v78 h383v-633q-49 -20 -140 -42.5t-208 -22.5q-119 0 -228.5 35.5t-203.5 130.5q-80 82 -130 216t-50 310zM535 -375q59 10 108 42t49 97q0 39 -21.5 71t-54.5 54l84 25q29 -18 53.5 -57t24.5 -86q0 -49 -20.5 -85t-52 -59.5t-69.5 -37t-73 -17.5z" />
<glyph unicode="&#x123;" horiz-adv-x="1005" d="M80 485q0 133 36 231.5t92 162t128 94.5t143 31q63 0 111.5 -16.5t82.5 -42t56.5 -56.5t36.5 -58h4l4 152h88q-4 -51 -6 -113.5t-2 -154.5v-574q0 -98 -8 -170.5t-23.5 -125t-38 -90.5t-49.5 -64q-59 -59 -140 -86t-159 -27t-154.5 19.5t-125.5 54.5l32 78 q45 -29 109.5 -50.5t151.5 -21.5q68 0 125 19.5t98 64.5t64.5 117.5t23.5 179.5v133h-4q-35 -72 -110 -122t-187 -50q-82 0 -151.5 36t-120 100.5t-79 153.5t-28.5 195zM176 496q0 -92 20.5 -168t59.5 -131.5t95.5 -86t129.5 -30.5q82 0 156 50t108 161q14 49 15 102v228 q0 25 -2 46t-8 42q-12 41 -35 79.5t-55.5 68.5t-76.5 48.5t-100 18.5q-70 0 -126 -31t-96 -87t-62.5 -135t-22.5 -175zM389 1229q0 49 20.5 85t52.5 59.5t69.5 36.5t72.5 17l29 -53q-61 -10 -109.5 -43t-48.5 -98q0 -37 21.5 -70t52.5 -55l-82 -23q-29 18 -53.5 56.5 t-24.5 87.5z" />
<glyph unicode="&#x124;" horiz-adv-x="1167" d="M156 0v1380h94v-610h668v610h94v-1380h-94v688h-668v-688h-94zM342 1454l203 211h82l207 -211h-107l-139 139h-4l-140 -139h-102z" />
<glyph unicode="&#x125;" horiz-adv-x="997" d="M-41 1481l203 211h82l207 -211h-107l-139 139h-4l-140 -139h-102zM152 0v1444h94v-615h4q20 35 50 69t69 56q37 23 81 36.5t97 13.5q35 0 86 -13.5t99 -53.5t83 -116t35 -198v-623h-94v604q0 61 -12.5 118.5t-40 101.5t-72.5 71t-111 27q-94 0 -164.5 -60.5t-99.5 -154.5 q-6 -20 -8 -41t-2 -50v-616h-94z" />
<glyph unicode="&#x126;" horiz-adv-x="1167" d="M49 995v76h107v309h94v-309h668v309h94v-309h106v-76h-106v-995h-94v676h-668v-676h-94v995h-107zM250 758h668v237h-668v-237z" />
<glyph unicode="&#x127;" horiz-adv-x="997" d="M6 1139v78h146v227h94v-227h370v-78h-370v-310h4q20 35 50 69t69 56q37 23 81 36.5t97 13.5q35 0 86 -13.5t99 -53.5t83 -116t35 -198v-623h-94v604q0 61 -12.5 118.5t-40 101.5t-72.5 71t-111 27q-94 0 -164.5 -60.5t-99.5 -154.5q-6 -20 -8 -41t-2 -50v-616h-94v1139 h-146z" />
<glyph unicode="&#x128;" horiz-adv-x="405" d="M-20 1468q0 72 31.5 122t90.5 50q29 0 53.5 -11t55.5 -30q25 -12 48.5 -23t47.5 -11q23 0 37 14t18 61h66q0 -70 -27.5 -115.5t-93.5 -45.5q-29 0 -54.5 11t-57.5 28q-29 16 -50.5 27t-44.5 11q-29 0 -40 -23.5t-15 -64.5h-65zM156 0v1380h94v-1380h-94z" />
<glyph unicode="&#x129;" horiz-adv-x="399" d="M-20 1167q-2 78 30.5 126t87.5 48q29 0 54.5 -13t60.5 -30q23 -12 43 -22t43 -10t38 17t19 65h66q0 -74 -27.5 -121t-95.5 -47q-29 0 -54.5 11t-54.5 28q-29 16 -50 26t-40 10q-25 0 -37 -23.5t-16 -64.5h-67zM152 0v983h94v-983h-94z" />
<glyph unicode="&#x12a;" horiz-adv-x="405" d="M-18 1503v78h448v-78h-448zM156 0v1380h94v-1380h-94z" />
<glyph unicode="&#x12b;" horiz-adv-x="399" d="M-6 1202v78h414v-78h-414zM152 0v983h94v-983h-94z" />
<glyph unicode="&#x12c;" horiz-adv-x="405" d="M-23 1655h68q10 -39 47 -69t111 -30q72 0 107.5 28t45.5 71h68q-2 -78 -56.5 -132.5t-166.5 -54.5q-111 0 -166 53.5t-58 133.5zM156 0v1380h94v-1380h-94z" />
<glyph unicode="&#x12d;" horiz-adv-x="399" d="M-20 1376h69q10 -61 50 -104t106 -43q74 0 112.5 45t42.5 102h70q0 -104 -62.5 -165.5t-162.5 -61.5q-61 0 -103.5 19.5t-70 52t-39.5 73.5t-12 82zM152 0v983h94v-983h-94z" />
<glyph unicode="&#x12e;" horiz-adv-x="405" d="M41 -264q0 39 11 75.5t28.5 70.5t38 63.5t37.5 54.5v1380h94v-1380h-12q-12 -18 -31 -45t-36 -58.5t-28.5 -67.5t-11.5 -69q0 -51 27.5 -74.5t68.5 -23.5q53 0 95 21l16 -62q-27 -18 -64.5 -27.5t-70.5 -9.5q-72 0 -117 40t-45 112z" />
<glyph unicode="&#x12f;" horiz-adv-x="399" d="M37 -264q0 39 11 75.5t28.5 70.5t38 63.5t37.5 54.5v983h94v-983h-13q-12 -18 -30.5 -45t-35.5 -58.5t-28.5 -67.5t-11.5 -69q0 -51 27.5 -74.5t68.5 -23.5q53 0 94 21l17 -62q-27 -18 -65 -27.5t-70 -9.5q-72 0 -117 40t-45 112zM125 1266q0 35 21.5 58.5t54.5 23.5 q35 0 54 -24t19 -58q0 -35 -20.5 -58.5t-54.5 -23.5h-2q-31 0 -51.5 23.5t-20.5 58.5z" />
<glyph unicode="&#x130;" horiz-adv-x="405" d="M129 1569q0 29 21.5 52.5t54.5 23.5q31 0 51 -24t20 -52q0 -29 -20 -52.5t-53 -23.5q-31 0 -52.5 23.5t-21.5 52.5zM156 0v1380h94v-1380h-94z" />
<glyph unicode="&#x131;" horiz-adv-x="399" d="M152 0v983h94v-983h-94z" />
<glyph unicode="&#x132;" horiz-adv-x="1050" d="M156 0v1380h94v-1380h-94zM424 4l16 80q23 -8 53.5 -14.5t69.5 -6.5q61 0 108.5 15.5t80 56.5t49 109.5t16.5 177.5v958h94v-974q0 -121 -26.5 -203t-72.5 -131t-108.5 -70.5t-136.5 -21.5q-41 0 -81 7t-62 17z" />
<glyph unicode="&#x133;" horiz-adv-x="806" d="M125 1255q0 35 21.5 58.5t54.5 23.5q35 0 54 -23.5t19 -58.5t-20.5 -58t-54.5 -23h-2q-31 0 -51.5 23.5t-20.5 57.5zM152 0v983h94v-983h-94zM315 -344q53 6 102.5 24.5t82.5 59.5q16 23 28.5 51.5t20.5 71.5t12 105.5t4 154.5v860h94v-917q0 -139 -19 -228.5t-77 -154.5 q-25 -27 -56.5 -46.5t-63 -32t-62.5 -19.5t-51 -7zM537 1255q0 35 21.5 58.5t55.5 23.5q33 0 52.5 -23.5t19.5 -58.5t-19.5 -58t-56.5 -23h-2q-33 0 -52 23.5t-19 57.5z" />
<glyph unicode="&#x134;" horiz-adv-x="645" d="M16 4l19 80q23 -8 53.5 -14.5t67.5 -6.5q61 0 108 15.5t80 56.5t49.5 109.5t16.5 177.5v958h94v-974q0 -121 -26.5 -203t-73 -131t-109 -70.5t-135.5 -21.5q-41 0 -80 7t-64 17zM201 1454l205 211h79l209 -211h-106l-142 139h-4l-139 -139h-102z" />
<glyph unicode="&#x135;" horiz-adv-x="409" d="M-84 -344q55 6 103.5 24.5t80.5 59.5q16 23 28.5 51.5t21 71.5t12.5 105.5t4 154.5v860h94v-917q0 -139 -19.5 -228.5t-76.5 -154.5q-25 -27 -56.5 -46.5t-63.5 -32t-62.5 -19.5t-51.5 -7zM-8 1102l176 278h68l180 -278h-92l-121 196h-4l-119 -196h-88z" />
<glyph unicode="&#x136;" horiz-adv-x="942" d="M156 0v1380h94v-692h6q29 41 57.5 77t53.5 71l434 544h114l-475 -585l512 -795h-110l-467 727l-125 -154v-573h-94zM352 -365q59 10 108.5 42t49.5 98q0 39 -21.5 70.5t-54.5 54.5l84 24q29 -18 53.5 -57t24.5 -86q0 -49 -20.5 -85t-52 -59.5t-70.5 -37t-74 -17.5z" />
<glyph unicode="&#x137;" horiz-adv-x="800" d="M152 0v1444h94v-934h4q16 23 38.5 51.5t43.5 52.5l313 369h113l-359 -410l408 -573h-115l-358 512l-88 -102v-410h-94zM279 -375q61 10 109 42t48 97q0 39 -21.5 71t-52.5 54l82 25q29 -18 53.5 -57t24.5 -86q0 -49 -20.5 -85t-52 -59.5t-69.5 -37t-73 -17.5z" />
<glyph unicode="&#x138;" horiz-adv-x="800" d="M152 0v983h94v-473h4q16 23 38.5 51.5t45.5 52.5l313 369h113l-361 -410l408 -573h-113l-358 512l-90 -102v-410h-94z" />
<glyph unicode="&#x139;" horiz-adv-x="839" d="M156 0v1380h94v-1300h553v-80h-647zM166 1454l203 225h145l-264 -225h-84z" />
<glyph unicode="&#x13a;" horiz-adv-x="407" d="M117 1501l200 225h146l-264 -225h-82zM152 0v1444h94v-1444h-94z" />
<glyph unicode="&#x13b;" horiz-adv-x="839" d="M156 0v1380h94v-1300h553v-80h-647zM315 -375q59 10 108.5 42t49.5 97q0 39 -21.5 71t-54.5 54l84 25q29 -18 53.5 -57t24.5 -86q0 -49 -20.5 -85t-52 -59.5t-70.5 -37t-74 -17.5z" />
<glyph unicode="&#x13c;" horiz-adv-x="407" d="M66 -375q59 10 108 42t49 97q0 39 -21.5 71t-54.5 54l84 25q29 -18 53.5 -57t24.5 -86q0 -49 -20.5 -85t-52 -59.5t-70.5 -37t-74 -17.5zM152 0v1444h94v-1444h-94z" />
<glyph unicode="&#x13d;" horiz-adv-x="839" d="M156 0v1380h94v-1300h553v-80h-647zM424 1106q59 10 108.5 42t49.5 97q0 39 -21.5 71t-54.5 54l84 25q29 -18 53.5 -57.5t24.5 -86.5q0 -49 -20.5 -85t-52.5 -59.5t-70 -36.5t-72 -17z" />
<glyph unicode="&#x13e;" horiz-adv-x="419" d="M152 0v1444h94v-1444h-94zM336 1126q25 27 50.5 69t25.5 105q0 41 -21.5 75t-54.5 57l88 24q27 -16 50.5 -55t23.5 -90q0 -47 -14.5 -84t-34 -64.5t-40 -46t-30.5 -29.5z" />
<glyph unicode="&#x13f;" horiz-adv-x="839" d="M156 0v1380h94v-1300h553v-80h-647zM504 745q0 29 21.5 52.5t54.5 23.5q31 0 51 -23.5t20 -52.5t-20.5 -52t-52.5 -23h-3q-29 0 -50 23.5t-21 51.5z" />
<glyph unicode="&#x140;" horiz-adv-x="428" d="M152 0v1444h94v-1444h-94zM340 788q0 31 21.5 53.5t52.5 22.5q29 0 49 -22.5t20 -53.5q0 -29 -19.5 -52t-51.5 -23h-2q-31 0 -50.5 23.5t-19.5 51.5z" />
<glyph unicode="&#x141;" horiz-adv-x="849" d="M-8 438v90l172 146v706h94v-630l268 223v-94l-268 -222v-577h553v-80h-647v582z" />
<glyph unicode="&#x142;" horiz-adv-x="417" d="M20 520v92l142 136v696h94v-610l145 141v-94l-145 -140v-741h-94v655z" />
<glyph unicode="&#x143;" horiz-adv-x="1181" d="M154 0v1380h92l461 -784q74 -131 133 -242.5t106 -220.5l4 2q-6 78 -9 147.5t-4 138t-2 140.5t-1 156v663h92v-1380h-90l-459 786q-68 119 -128 230.5t-111 232.5l-7 -2q4 -68 7.5 -132t4.5 -133t2 -146.5t1 -171.5v-664h-92zM522 1454l203 225h145l-264 -225h-84z" />
<glyph unicode="&#x144;" horiz-adv-x="997" d="M143 983h88l7 -162h4q35 78 113.5 130.5t187.5 52.5q37 0 89 -14.5t101 -55.5t83 -117t34 -201v-616h-94v600q0 61 -11.5 119.5t-39 103.5t-73.5 72t-116 27q-92 0 -163.5 -60.5t-96.5 -159.5q-10 -41 -10 -88v-614h-94v750q0 76 -2.5 126t-6.5 107zM440 1124l178 279 h136l-242 -279h-72z" />
<glyph unicode="&#x145;" horiz-adv-x="1181" d="M154 0v1380h92l461 -784q74 -131 133 -242.5t106 -220.5l4 2q-6 78 -9 147.5t-4 138t-2 140.5t-1 156v663h92v-1380h-90l-457 786q-70 119 -130 230.5t-111 232.5l-7 -2q4 -68 7.5 -132t4.5 -133t2 -146.5t1 -171.5v-664h-92zM455 -375q59 10 108 42t49 97q0 39 -21.5 71 t-53.5 54l84 25q29 -18 53 -57t24 -86q0 -49 -20.5 -85t-52 -59.5t-70.5 -37t-74 -17.5z" />
<glyph unicode="&#x146;" horiz-adv-x="997" d="M143 983h88l7 -162h4q35 78 113.5 130.5t187.5 52.5q37 0 89 -14.5t100 -55.5t83 -117t35 -201v-616h-94v600q0 61 -11.5 119.5t-39 103.5t-73.5 72t-116 27q-92 0 -163.5 -60.5t-96.5 -159.5q-10 -41 -10 -88v-614h-94v750q0 76 -2.5 126t-6.5 107zM381 -367 q59 10 108.5 42t49.5 98q0 39 -21.5 70.5t-54.5 54.5l84 24q29 -18 53.5 -57t24.5 -86q0 -49 -20.5 -85t-52.5 -59.5t-71 -37t-73 -17.5z" />
<glyph unicode="&#x147;" horiz-adv-x="1181" d="M154 0v1380h92l461 -784q74 -131 133 -242.5t106 -220.5l4 2q-6 78 -9 147.5t-4 138t-2 140.5t-1 156v663h92v-1380h-90l-459 786q-68 119 -128 230.5t-111 232.5l-7 -2q4 -68 7.5 -132t4.5 -133t2 -146.5t1 -171.5v-664h-92zM342 1655h107l141 -144h4l139 144h103 l-205 -211h-82z" />
<glyph unicode="&#x148;" horiz-adv-x="997" d="M143 983h88l7 -162h4q35 78 113.5 130.5t187.5 52.5q37 0 89 -14.5t101 -55.5t83 -117t34 -201v-616h-94v600q0 61 -11.5 119.5t-39 103.5t-73.5 72t-116 27q-92 0 -163.5 -60.5t-96.5 -159.5q-10 -41 -10 -88v-614h-94v750q0 76 -2.5 126t-6.5 107zM285 1403h90 l123 -199h6l123 199h88l-176 -279h-74z" />
<glyph unicode="&#x149;" horiz-adv-x="997" d="M53 1143q25 25 50.5 64.5t25.5 99.5q0 41 -21.5 72.5t-54.5 54.5l88 22q27 -16 50.5 -53t23.5 -86q0 -45 -14.5 -80t-34 -61.5t-40 -44t-30.5 -25.5zM143 983h88l7 -162h4q35 78 113.5 130.5t187.5 52.5q37 0 89 -14.5t101 -55.5t83 -117t34 -201v-616h-94v600 q0 61 -11.5 119.5t-39 103.5t-73.5 72t-116 27q-92 0 -163.5 -60.5t-96.5 -159.5q-10 -41 -10 -88v-614h-94v750q0 76 -2.5 126t-6.5 107z" />
<glyph unicode="&#x14a;" horiz-adv-x="1181" d="M154 0v1380h92l461 -784q74 -131 133 -242.5t106 -220.5l4 2q-6 78 -9 147.5t-4 138t-2 140.5t-1 156v663h92v-1325q0 -180 -73.5 -290.5t-250.5 -143.5l-18 78q125 27 187.5 97.5t66.5 203.5l-461 786q-68 119 -128 230.5t-111 232.5l-7 -2q4 -68 7.5 -132t4.5 -133 t2 -146.5t1 -171.5v-664h-92z" />
<glyph unicode="&#x14b;" horiz-adv-x="997" d="M143 983h88l7 -162h4q35 78 113.5 130.5t187.5 52.5q37 0 89 -14.5t101 -55.5t83 -117t34 -201v-514q0 -102 -24.5 -180t-68.5 -132t-104.5 -87t-132.5 -45l-18 82q125 27 189.5 115t64.5 251v494q0 61 -11.5 119.5t-39 103.5t-73.5 72t-116 27q-92 0 -163.5 -60.5 t-96.5 -159.5q-10 -41 -10 -88v-614h-94v750q0 76 -2.5 126t-6.5 107z" />
<glyph unicode="&#x14c;" horiz-adv-x="1222" d="M76 680q0 176 43 310t116.5 225.5t173 138.5t214.5 47q111 0 207 -46t166.5 -135.5t110.5 -219.5t40 -300q0 -186 -45 -321t-121 -224t-173 -132t-204 -43h-2q-109 0 -205 45t-167.5 134t-112.5 219t-41 302zM174 682q0 -111 26.5 -222.5t81 -199.5t136.5 -143.5 t190 -55.5h2q111 0 193 54.5t137 143.5t82 202.5t27 234.5q0 106 -25 217t-78 201t-135 147.5t-199 57.5t-199.5 -56.5t-136 -147.5t-78 -204.5t-24.5 -228.5zM391 1513v78h449v-78h-449z" />
<glyph unicode="&#x14d;" horiz-adv-x="978" d="M80 485q0 129 35 226.5t92 162t132 97.5t157 33q86 0 160.5 -34t128 -99.5t84 -160t30.5 -212.5q0 -137 -37 -235.5t-97 -161t-134 -92t-148 -29.5h-2q-84 0 -156.5 33.5t-127 98t-86 159t-31.5 214.5zM176 489q0 -82 21.5 -159.5t61.5 -137t97.5 -96.5t128.5 -37h2 q72 0 130.5 37t99.5 97.5t63.5 139.5t22.5 163q0 63 -16.5 139t-53.5 139.5t-96 106.5t-148 43q-84 0 -143 -40t-97 -103.5t-55.5 -140.5t-17.5 -151zM283 1202v78h415v-78h-415z" />
<glyph unicode="&#x14e;" horiz-adv-x="1222" d="M76 680q0 176 43 310t116.5 225.5t173 138.5t214.5 47q111 0 207 -46t166.5 -135.5t110.5 -219.5t40 -300q0 -186 -45 -321t-121 -224t-173 -132t-204 -43h-2q-109 0 -205 45t-167.5 134t-112.5 219t-41 302zM174 682q0 -111 26.5 -222.5t81 -199.5t136.5 -143.5 t190 -55.5h2q111 0 193 54.5t137 143.5t82 202.5t27 234.5q0 106 -25 217t-78 201t-135 147.5t-199 57.5q-115 0 -197.5 -56.5t-136 -147.5t-79 -204.5t-25.5 -228.5zM387 1667h68q10 -39 46 -68.5t109 -29.5q72 0 109 27.5t47 70.5h68q-2 -78 -57.5 -132t-168.5 -54 q-111 0 -165 53t-56 133z" />
<glyph unicode="&#x14f;" horiz-adv-x="978" d="M80 485q0 129 35 226.5t92 162t132 97.5t157 33q86 0 159.5 -34t128 -99.5t85 -160t30.5 -212.5q0 -137 -38 -235.5t-97 -161t-133 -92t-148 -29.5h-2q-84 0 -156.5 33.5t-127 98t-86 159t-31.5 214.5zM176 489q0 -82 21.5 -159.5t61.5 -137t97.5 -96.5t128.5 -37h2 q72 0 130.5 37t99.5 97.5t63.5 139.5t22.5 163q0 63 -16.5 139t-53.5 139.5t-97.5 106.5t-146.5 43q-84 0 -143 -40t-97 -103.5t-55.5 -140.5t-17.5 -151zM262 1376h70q8 -61 49 -104t106 -43q74 0 113 45t43 102h70q0 -104 -62.5 -165.5t-163.5 -61.5q-61 0 -103 19.5 t-69.5 52t-40 73.5t-12.5 82z" />
<glyph unicode="&#x150;" horiz-adv-x="1222" d="M76 680q0 176 43 310t116.5 225.5t173 138.5t214.5 47q111 0 207 -46t166.5 -135.5t110.5 -219.5t40 -300q0 -186 -45 -321t-121 -224t-173 -132t-204 -43h-2q-109 0 -205 45t-167.5 134t-112.5 219t-41 302zM174 682q0 -111 26.5 -222.5t81 -199.5t136.5 -143.5 t190 -55.5h2q111 0 193 54.5t137 143.5t82 202.5t27 234.5q0 106 -25 217t-78 201t-135 147.5t-199 57.5t-199.5 -56.5t-136 -147.5t-78 -204.5t-24.5 -228.5zM440 1473l178 213h138l-234 -213h-82zM692 1473l178 213h138l-234 -213h-82z" />
<glyph unicode="&#x151;" horiz-adv-x="978" d="M80 485q0 129 35 226.5t92 162t132 97.5t157 33q86 0 160.5 -34t128 -99.5t84 -160t30.5 -212.5q0 -137 -37 -235.5t-97 -161t-134 -92t-148 -29.5h-2q-84 0 -156.5 33.5t-127 98t-86 159t-31.5 214.5zM176 489q0 -82 21.5 -159.5t61.5 -137t97.5 -96.5t128.5 -37h2 q72 0 130.5 37t99.5 97.5t63.5 139.5t22.5 163q0 63 -16.5 139t-53.5 139.5t-96 106.5t-148 43q-84 0 -143 -40t-97 -103.5t-55.5 -140.5t-17.5 -151zM307 1137l178 264h127l-233 -264h-72zM559 1137l178 264h127l-233 -264h-72z" />
<glyph unicode="&#x152;" horiz-adv-x="1603" d="M76 680q0 182 48 318.5t131 225.5t193.5 133t237.5 44q41 0 77 -3t68 -7q33 -4 62 -6.5t53 -4.5h563v-82h-526v-532h496v-82h-496v-602h557v-82h-608q-29 -2 -58.5 -4t-62.5 -6q-35 -4 -68.5 -7t-72.5 -3q-141 0 -252 53t-186.5 147t-115.5 222t-40 278zM174 688 q0 -154 37 -271.5t104.5 -196.5t162.5 -119t210 -40q57 0 111.5 6.5t89.5 20.5v1202q-41 12 -90 20.5t-125 8.5q-115 0 -207 -43t-156.5 -124t-100.5 -198.5t-36 -265.5z" />
<glyph unicode="&#x153;" horiz-adv-x="1585" d="M80 487q0 125 32.5 221.5t89 162t130.5 99.5t157 34q123 0 216.5 -67t130.5 -192h4q47 129 134 194t197 65q104 0 170 -47.5t103 -115t50 -142t13 -128.5v-33.5t-2 -27.5h-620q-2 -119 21.5 -204t67.5 -139t104.5 -80t131.5 -26q78 0 132.5 17.5t95.5 36.5l26 -74 q-47 -29 -119.5 -45t-150.5 -16q-123 0 -218 64.5t-140 193.5h-5q-23 -68 -59.5 -116t-82.5 -80t-99 -47t-107 -15q-86 0 -159.5 33.5t-128 99t-85 160t-30.5 214.5zM176 489q0 -80 21.5 -157.5t61.5 -138t97.5 -97.5t128.5 -37q74 0 132.5 35t97.5 94.5t59.5 138.5 t20.5 165q0 74 -16.5 150.5t-53.5 139t-95.5 102.5t-144.5 40h-2q-86 0 -145 -43t-95 -107.5t-51.5 -140.5t-15.5 -144zM885 588h524q2 61 -11.5 121.5t-43 108.5t-76.5 77t-115 29t-118 -31t-83.5 -79t-52 -108.5t-24.5 -117.5z" />
<glyph unicode="&#x154;" horiz-adv-x="950" d="M156 0v1362q57 14 127.5 21.5t136.5 7.5q123 0 205 -28t137 -81q45 -45 69.5 -110.5t24.5 -141.5q0 -141 -70.5 -229t-185.5 -131v-4q82 -25 132 -102t75 -204q33 -160 54.5 -241.5t39.5 -118.5h-98q-16 31 -37 119t-47 221q-29 150 -96.5 219.5t-198.5 73.5h-174v-633 h-94zM250 709h176q152 0 243 82.5t91 222.5q0 154 -91 226.5t-251 72.5q-59 0 -101.5 -5t-66.5 -12v-587zM385 1460l203 226h143l-264 -226h-82z" />
<glyph unicode="&#x155;" horiz-adv-x="557" d="M143 983h88l5 -186h4q29 86 97.5 146.5t162.5 60.5q10 0 17 -1.5t15 -1.5v-94q-10 2 -36 2q-49 0 -91.5 -20.5t-73 -57t-51 -85t-28.5 -103.5q-6 -43 -6 -90v-553h-94v709q0 68 -2.5 138.5t-6.5 135.5zM248 1124l178 279h135l-242 -279h-71z" />
<glyph unicode="&#x156;" horiz-adv-x="950" d="M156 0v1362q57 14 127.5 21.5t136.5 7.5q123 0 205 -28t137 -81q45 -45 69.5 -110.5t24.5 -141.5q0 -141 -70.5 -229t-187.5 -131v-4q84 -25 134 -102t75 -204q33 -160 54.5 -241.5t39.5 -118.5h-98q-16 31 -37 119t-47 221q-31 150 -97.5 219.5t-199.5 73.5h-172v-633 h-94zM250 709h176q150 0 242 82.5t92 222.5q0 154 -92.5 226.5t-251.5 72.5q-57 0 -99.5 -5t-66.5 -12v-587zM354 -352q61 10 109.5 41.5t48.5 97.5q0 37 -21.5 69.5t-52.5 55.5l82 22q29 -18 53.5 -56t24.5 -85q0 -49 -20.5 -85t-52 -59.5t-69.5 -36.5t-73 -18z" />
<glyph unicode="&#x157;" horiz-adv-x="557" d="M82 -375q59 10 108.5 42t49.5 97q0 39 -21.5 71t-54.5 54l84 25q29 -18 53.5 -57t24.5 -86q0 -49 -20.5 -85t-52.5 -59.5t-70 -37t-72 -17.5zM143 983h88l5 -186h4q29 86 97.5 146.5t162.5 60.5q10 0 17 -1.5t15 -1.5v-94q-10 2 -36 2q-49 0 -91.5 -20.5t-73 -57t-51 -85 t-28.5 -103.5q-6 -43 -6 -90v-553h-94v709q0 68 -2.5 138.5t-6.5 135.5z" />
<glyph unicode="&#x158;" horiz-adv-x="950" d="M156 0v1362q57 14 127.5 21.5t136.5 7.5q123 0 205 -28t137 -81q45 -45 69.5 -110.5t24.5 -141.5q0 -141 -70.5 -229t-185.5 -131v-4q82 -25 132 -102t75 -204q33 -160 54.5 -241.5t39.5 -118.5h-98q-16 31 -37 119t-47 221q-29 150 -96.5 219.5t-198.5 73.5h-174v-633 h-94zM215 1671h107l141 -143h4l137 143h103l-203 -211h-82zM250 709h176q152 0 243 82.5t91 222.5q0 154 -91 226.5t-251 72.5q-59 0 -101.5 -5t-66.5 -12v-587z" />
<glyph unicode="&#x159;" horiz-adv-x="557" d="M102 1403h91l122 -199h4l125 199h86l-176 -279h-71zM143 983h88l5 -186h4q29 86 97.5 146.5t162.5 60.5q10 0 17 -1.5t15 -1.5v-94q-10 2 -36 2q-49 0 -91.5 -20.5t-73 -57t-51 -85t-28.5 -103.5q-6 -43 -6 -90v-553h-94v709q0 68 -2.5 138.5t-6.5 135.5z" />
<glyph unicode="&#x15a;" horiz-adv-x="874" d="M80 66l35 77q51 -35 120.5 -57.5t145.5 -22.5q143 0 226 78t83 207q0 115 -61.5 189.5t-190.5 134.5q-66 27 -124 62.5t-103 81.5t-71.5 104.5t-26.5 132.5q0 76 28.5 139t78.5 109.5t119 72t150 25.5q88 0 152 -19.5t94 -42.5l-37 -80q-27 18 -83 39t-134 21 q-76 0 -128 -23.5t-84.5 -59.5t-47 -79t-14.5 -84q0 -59 16.5 -104t49 -81t83 -67t115.5 -61q76 -37 135.5 -78t98 -88t59 -105.5t20.5 -130.5q0 -78 -27.5 -146.5t-79.5 -119.5t-128 -79.5t-174 -28.5q-82 0 -165 24.5t-130 59.5zM375 1460l203 226h145l-264 -226h-84z" />
<glyph unicode="&#x15b;" horiz-adv-x="698" d="M76 47l37 80q35 -23 86 -43.5t112 -20.5q104 0 157.5 53.5t53.5 131.5t-43 127t-141 96q-111 51 -173.5 115.5t-62.5 156.5q0 53 20.5 100.5t57.5 83.5t89.5 56.5t117.5 20.5q66 0 116 -18.5t85 -41.5l-39 -78q-27 18 -69 37t-105 19q-88 0 -133 -49.5t-45 -114.5 q0 -72 44 -114t136 -87q51 -25 95 -52.5t77 -62t50 -79t17 -99.5q0 -133 -87 -207.5t-224 -74.5q-66 0 -125 18t-104 47zM291 1124l178 279h135l-242 -279h-71z" />
<glyph unicode="&#x15c;" horiz-adv-x="874" d="M80 66l35 77q51 -35 120.5 -57.5t145.5 -22.5q143 0 226 78t83 207q0 115 -61.5 189.5t-190.5 134.5q-66 27 -124 62.5t-103 81.5t-71.5 104.5t-26.5 132.5q0 76 28.5 139t78.5 109.5t119 72t150 25.5q88 0 152 -19.5t94 -42.5l-37 -80q-27 18 -83 39t-134 21 q-76 0 -128 -23.5t-84.5 -59.5t-47 -79t-14.5 -84q0 -59 16.5 -104t49 -81t83 -67t115.5 -61q76 -37 135.5 -78t98 -88t59 -105.5t20.5 -130.5q0 -78 -27.5 -146.5t-79.5 -119.5t-128 -79.5t-174 -28.5q-82 0 -165 24.5t-130 59.5zM199 1460l204 211h82l207 -211h-106 l-140 139h-4l-141 -139h-102z" />
<glyph unicode="&#x15d;" horiz-adv-x="698" d="M76 47l37 80q35 -23 86 -43.5t112 -20.5q104 0 157.5 53.5t53.5 131.5t-43 127t-141 96q-111 51 -173.5 115.5t-62.5 156.5q0 53 20.5 100.5t57.5 83.5t89.5 56.5t117.5 20.5q66 0 116 -18.5t85 -41.5l-39 -78q-27 18 -69 37t-105 19q-88 0 -133 -49.5t-45 -114.5 q0 -72 44 -114t136 -87q51 -25 95 -52.5t77 -62t50 -79t17 -99.5q0 -133 -87 -207.5t-224 -74.5q-66 0 -125 18t-104 47zM139 1124l176 279h68l182 -279h-92l-121 199h-4l-121 -199h-88z" />
<glyph unicode="&#x15e;" horiz-adv-x="874" d="M80 66l35 77q51 -35 120.5 -57.5t143.5 -22.5q145 0 228 78t83 207q0 115 -61.5 189.5t-190.5 134.5q-66 27 -124 62.5t-103 81.5t-71.5 104.5t-26.5 132.5q0 76 28.5 139t78.5 109.5t119 72t150 25.5q86 0 151 -19.5t95 -42.5l-37 -80q-27 18 -84 39t-135 21 q-74 0 -126 -23.5t-84.5 -59.5t-47 -79t-14.5 -84q0 -59 16.5 -104t49 -81t81.5 -67t115 -61q78 -37 136.5 -78t98 -88t60 -105.5t20.5 -130.5q0 -133 -78.5 -234.5t-230.5 -129.5l-61 -103q55 -8 96 -46t41 -97q0 -78 -56.5 -115t-125.5 -37q-35 0 -69 10.5t-56 24.5l24 70 q23 -14 48.5 -21.5t60.5 -7.5t61.5 16.5t26.5 53.5q0 47 -46 67.5t-106 28.5l82 146h-20q-82 0 -165 24.5t-130 59.5z" />
<glyph unicode="&#x15f;" horiz-adv-x="698" d="M76 47l37 80q35 -23 86 -43.5t112 -20.5q104 0 157.5 53.5t53.5 131.5t-43 127t-141 96q-111 51 -173.5 115.5t-62.5 156.5q0 53 20.5 100.5t57.5 83.5t89.5 56.5t117.5 20.5q66 0 116 -18.5t85 -41.5l-39 -78q-27 18 -69 37t-105 19q-88 0 -133 -49.5t-45 -114.5 q0 -72 44 -114t136 -87q51 -25 95 -52.5t77 -62t50 -79t17 -99.5q0 -109 -60 -179.5t-161 -92.5l-63 -103q55 -6 97 -42.5t42 -96.5q0 -41 -15.5 -70.5t-41 -48t-58 -28t-69.5 -9.5q-31 0 -66 9.5t-59 25.5l26 70q43 -29 107 -29q37 0 65.5 14.5t26.5 55.5q0 47 -46 68.5 t-108 27.5l82 146h-10q-66 0 -125 18t-104 47z" />
<glyph unicode="&#x160;" horiz-adv-x="874" d="M80 66l35 77q51 -35 120.5 -57.5t145.5 -22.5q143 0 226 78t83 207q0 115 -61.5 189.5t-190.5 134.5q-66 27 -124 62.5t-103 81.5t-71.5 104.5t-26.5 132.5q0 76 28.5 139t78.5 109.5t119 72t150 25.5q88 0 152 -19.5t94 -42.5l-37 -80q-27 18 -83 39t-134 21 q-76 0 -128 -23.5t-84.5 -59.5t-47 -79t-14.5 -84q0 -59 16.5 -104t49 -81t83 -67t115.5 -61q76 -37 135.5 -78t98 -88t59 -105.5t20.5 -130.5q0 -78 -27.5 -146.5t-79.5 -119.5t-128 -79.5t-174 -28.5q-82 0 -165 24.5t-130 59.5zM219 1671h107l141 -143h4l139 143h103 l-203 -211h-82z" />
<glyph unicode="&#x161;" horiz-adv-x="698" d="M76 47l37 80q35 -23 86 -43.5t112 -20.5q104 0 157.5 53.5t53.5 131.5t-43 127t-141 96q-111 51 -173.5 115.5t-62.5 156.5q0 53 20.5 100.5t57.5 83.5t89.5 56.5t117.5 20.5q66 0 116 -18.5t85 -41.5l-39 -78q-27 18 -69 37t-105 19q-88 0 -133 -49.5t-45 -114.5 q0 -72 44 -114t136 -87q51 -25 95 -52.5t77 -62t50 -79t17 -99.5q0 -133 -87 -207.5t-224 -74.5q-66 0 -125 18t-104 47zM143 1403h93l122 -199h4l123 199h88l-176 -279h-73z" />
<glyph unicode="&#x162;" horiz-adv-x="868" d="M-4 1300v80h881v-80h-394v-1300h-94v1300h-393zM293 -375q59 10 108.5 42t49.5 97q0 39 -21.5 71t-54.5 54l84 25q29 -18 53.5 -57t24.5 -86q0 -49 -20.5 -85t-52.5 -59.5t-70 -37t-72 -17.5z" />
<glyph unicode="&#x163;" horiz-adv-x="577" d="M33 905v78h153v176l95 39v-215h251v-78h-251v-647q0 -195 133 -195q61 0 96 13l10 -74q-23 -10 -51.5 -15t-69.5 -5q-49 0 -90 15t-67 50q-31 37 -43.5 94.5t-12.5 139.5v624h-153zM193 -385q59 10 108 42t49 97q0 39 -21.5 71t-54.5 54l84 25q29 -18 53.5 -57.5 t24.5 -86.5q0 -49 -20.5 -84.5t-52 -59.5t-70.5 -37t-74 -17z" />
<glyph unicode="&#x164;" horiz-adv-x="868" d="M-4 1300v80h881v-80h-394v-1300h-94v1300h-393zM186 1665h107l141 -143h4l140 143h102l-205 -211h-80z" />
<glyph unicode="&#x165;" horiz-adv-x="598" d="M33 905v78h153v176l95 39v-215h251v-78h-251v-647q0 -195 133 -195q61 0 96 13l10 -74q-23 -10 -51.5 -15t-69.5 -5q-106 0 -157 65q-31 37 -43.5 94.5t-12.5 139.5v624h-153zM449 1145q25 23 50 62.5t25 99.5q0 41 -21.5 72.5t-53.5 54.5l88 22q27 -16 50 -53t23 -86 q0 -45 -14 -80t-33.5 -61.5t-40 -44t-30.5 -25.5z" />
<glyph unicode="&#x166;" horiz-adv-x="868" d="M-4 1300v80h881v-80h-394v-530h240v-78h-240v-692h-94v692h-239v78h239v530h-393z" />
<glyph unicode="&#x167;" horiz-adv-x="577" d="M33 905v78h153v176l95 39v-215h251v-78h-251v-291h198v-77h-198v-279q0 -195 133 -195q63 0 94 13l12 -74q-23 -10 -51.5 -15t-69.5 -5q-106 0 -157 65q-31 37 -43.5 94.5t-12.5 139.5v256h-131v77h131v291h-153z" />
<glyph unicode="&#x168;" horiz-adv-x="1161" d="M156 504v876h94v-866q0 -123 25.5 -210t68.5 -140t102.5 -78t126.5 -25q76 0 138.5 26t107.5 81t69.5 141t24.5 205v866h95v-856q0 -152 -36 -256t-96.5 -168.5t-140.5 -92t-168 -27.5q-80 0 -154.5 25.5t-132 87t-91 161.5t-33.5 250zM356 1468q0 72 32 122t91 50 q29 0 53.5 -11t55.5 -30q25 -12 48 -23t50 -11q23 0 37 14t18 61h66q0 -70 -28.5 -115.5t-94.5 -45.5q-27 0 -53.5 11t-59.5 28q-29 16 -50 27t-44 11q-29 0 -40 -23.5t-15 -64.5h-66z" />
<glyph unicode="&#x169;" horiz-adv-x="985" d="M145 391v592h95v-573q0 -76 11 -139.5t37.5 -109.5t70.5 -73t110 -27q51 0 93 18.5t75 46.5t54.5 61.5t33.5 64.5q6 23 10 49.5t4 54.5v627h95v-741q0 -72 2 -130.5t6 -111.5h-88l-6 152h-5q-16 -29 -41.5 -59t-63.5 -55.5t-86 -41.5t-106 -16q-51 0 -104 18t-97 64.5 t-72 126t-28 202.5zM270 1167q-2 78 31 126t90 48q29 0 53.5 -13t59.5 -30q25 -12 45 -22t41 -10q23 0 38 17t19 65h66q0 -74 -28 -121t-93 -47q-29 0 -55.5 11t-55.5 28q-29 16 -49 26t-39 10q-27 0 -39 -23.5t-16 -64.5h-68z" />
<glyph unicode="&#x16a;" horiz-adv-x="1161" d="M156 504v876h94v-866q0 -123 25.5 -210t69.5 -140t102.5 -78t125.5 -25q76 0 138.5 26t107.5 81t69.5 141t24.5 205v866h95v-856q0 -152 -36 -256t-96.5 -168.5t-139.5 -92t-167 -27.5q-82 0 -156.5 25.5t-132 87t-91 161.5t-33.5 250zM356 1503v78h451v-78h-451z" />
<glyph unicode="&#x16b;" horiz-adv-x="985" d="M145 391v592h95v-573q0 -76 11 -139.5t37.5 -109.5t70.5 -73t110 -27q51 0 93 18.5t75 46.5t54.5 61.5t33.5 64.5q6 23 10 49.5t4 54.5v627h95v-741q0 -72 2 -130.5t6 -111.5h-88l-6 152h-5q-16 -29 -41.5 -59t-63.5 -55.5t-86 -41.5t-106 -16q-51 0 -104 18t-97 64.5 t-72 126t-28 202.5zM283 1202v78h415v-78h-415z" />
<glyph unicode="&#x16c;" horiz-adv-x="1161" d="M156 504v876h94v-866q0 -123 25.5 -210t68.5 -140t102.5 -78t126.5 -25q76 0 138.5 26t107.5 81t69.5 141t24.5 205v866h95v-856q0 -152 -36 -256t-96.5 -168.5t-140.5 -92t-168 -27.5q-80 0 -154.5 25.5t-132 87t-91 161.5t-33.5 250zM358 1667h68q10 -39 46 -68.5 t110 -29.5q72 0 108.5 27.5t46.5 70.5h68q-2 -78 -56.5 -132t-168.5 -54q-111 0 -165.5 53t-56.5 133z" />
<glyph unicode="&#x16d;" horiz-adv-x="985" d="M145 391v592h95v-573q0 -76 11 -139.5t37.5 -109.5t70.5 -73t110 -27q51 0 93 18.5t75 46.5t54.5 61.5t33.5 64.5q6 23 10 49.5t4 54.5v627h95v-741q0 -72 2 -130.5t6 -111.5h-88l-6 152h-5q-16 -29 -41.5 -59t-63.5 -55.5t-86 -41.5t-106 -16q-51 0 -104 18t-97 64.5 t-72 126t-28 202.5zM266 1376h70q8 -61 49 -104t107 -43q74 0 112.5 45t42.5 102h70q0 -104 -62.5 -165.5t-162.5 -61.5q-61 0 -104.5 19.5t-71 52t-39 73.5t-11.5 82z" />
<glyph unicode="&#x16e;" horiz-adv-x="1161" d="M156 504v876h94v-866q0 -123 25.5 -210t68.5 -140t102.5 -78t126.5 -25q76 0 138.5 26t107.5 81t69.5 141t24.5 205v866h95v-856q0 -152 -36 -256t-96.5 -168.5t-139.5 -92t-167 -27.5q-82 0 -156.5 25.5t-132 87t-91 161.5t-33.5 250zM399 1587q0 72 51.5 124t133.5 52 h2q78 0 129 -51t51 -125q0 -37 -14.5 -67.5t-39 -53t-58 -36t-70.5 -13.5q-80 0 -132.5 49.5t-52.5 120.5zM479 1587q0 -41 29 -75.5t74 -34.5q47 0 75.5 33.5t28.5 80.5t-28.5 81t-75.5 34h-2q-47 0 -74 -36t-27 -83z" />
<glyph unicode="&#x16f;" horiz-adv-x="985" d="M145 391v592h95v-573q0 -76 11 -139.5t37.5 -109.5t70.5 -73t110 -27q51 0 93 18.5t75 46.5t54.5 61.5t33.5 64.5q6 23 10 49.5t4 54.5v627h95v-741q0 -72 2 -130.5t6 -111.5h-88l-6 152h-5q-16 -29 -41.5 -59t-63.5 -55.5t-86 -41.5t-106 -16q-51 0 -104 18t-97 64.5 t-72 126t-28 202.5zM307 1272q0 76 52.5 129t134.5 53h2q78 0 130 -52t52 -130q0 -37 -15.5 -70t-40 -57.5t-58.5 -37.5t-70 -13q-39 0 -73 14t-59.5 37.5t-40 56.5t-14.5 70zM387 1272q0 -45 29.5 -81t77.5 -36q47 0 77.5 35t30.5 84q0 51 -30.5 85t-77.5 34h-2 q-47 0 -76 -36t-29 -85z" />
<glyph unicode="&#x170;" horiz-adv-x="1161" d="M156 504v876h94v-866q0 -123 25.5 -210t69.5 -140t102.5 -78t125.5 -25q76 0 138.5 26t107.5 81t69.5 141t24.5 205v866h95v-856q0 -152 -36 -256t-96.5 -168.5t-139.5 -92t-167 -27.5q-82 0 -156.5 25.5t-132 87t-91 161.5t-33.5 250zM377 1466l176 213h137l-231 -213 h-82zM629 1466l176 213h137l-233 -213h-80z" />
<glyph unicode="&#x171;" horiz-adv-x="985" d="M145 391v592h95v-573q0 -76 11 -139.5t37.5 -109.5t70.5 -73t110 -27q51 0 93 18.5t75 46.5t54.5 61.5t33.5 64.5q6 23 10 49.5t4 54.5v627h95v-741q0 -72 2 -130.5t6 -111.5h-88l-6 152h-5q-16 -29 -41.5 -59t-63.5 -55.5t-86 -41.5t-106 -16q-51 0 -104 18t-97 64.5 t-72 126t-28 202.5zM311 1137l178 264h127l-235 -264h-70zM563 1137l178 264h125l-233 -264h-70z" />
<glyph unicode="&#x172;" horiz-adv-x="1161" d="M156 504v876h94v-866q0 -123 25.5 -210t69.5 -140t102.5 -78t125.5 -25q76 0 138.5 26t107.5 81t69.5 141t24.5 205v866h95v-856q0 -119 -23.5 -208t-64.5 -151.5t-96.5 -101t-118.5 -55.5q-25 -20 -50.5 -48t-46 -58.5t-34 -62.5t-13.5 -62q0 -47 27.5 -70.5t68.5 -23.5 q49 0 95 22l16 -59q-25 -18 -63.5 -28.5t-69.5 -10.5q-72 0 -118 40t-46 111q0 59 35 117.5t80 106.5q-4 0 -9.5 -1t-9.5 -1q-82 2 -156.5 28.5t-131 88t-90 160.5t-33.5 247z" />
<glyph unicode="&#x173;" horiz-adv-x="985" d="M145 391v592h95v-573q0 -76 11 -139.5t37.5 -109.5t70.5 -73t110 -27q51 0 93 18.5t75 46.5t54.5 61.5t33.5 64.5q6 23 10 49.5t4 54.5v627h95v-741q0 -72 3 -132.5t11 -109.5l-8 6q-14 -16 -33 -42.5t-36 -58.5t-28.5 -68t-11.5 -68q0 -53 27.5 -77t68.5 -24q53 0 95 21 l16 -62q-27 -18 -64.5 -27.5t-70.5 -9.5q-72 0 -117 40t-45 114q0 39 11.5 76t28.5 70.5t36.5 62.5t36.5 53l-6 146h-5q-16 -29 -41.5 -59t-63.5 -55.5t-86 -41.5t-106 -16q-51 0 -104 18t-97 64.5t-72 126t-28 202.5z" />
<glyph unicode="&#x174;" horiz-adv-x="1568" d="M37 1380h96l186 -766q33 -135 60 -255.5t45 -227.5h6q16 109 46 228.5t67 256.5l202 764h91l188 -753q31 -127 59.5 -252t44.5 -244h7q23 127 51 242.5t61 244.5l203 762h96l-375 -1380h-88l-196 799q-35 141 -58.5 251.5t-37.5 211.5h-5q-16 -102 -41.5 -211t-66.5 -254 l-213 -797h-88zM539 1454l202 211h82l209 -211h-106l-142 139h-4l-139 -139h-102z" />
<glyph unicode="&#x175;" horiz-adv-x="1363" d="M43 983h96l154 -547q23 -84 42 -160.5t36 -150.5h6q16 72 38.5 150.5t49.5 160.5l176 547h86l168 -539q29 -88 50.5 -165.5t39.5 -153.5h6q14 74 35 149.5t47 163.5l158 545h96l-303 -983h-80l-172 551q-29 86 -49.5 161.5t-38.5 159.5h-4q-20 -88 -43 -165.5t-49 -159.5 l-178 -547h-82zM469 1124l176 279h70l180 -279h-92l-121 199h-4l-121 -199h-88z" />
<glyph unicode="&#x176;" horiz-adv-x="960" d="M37 1380h106l201 -395q39 -80 75 -153.5t68 -151.5h5q31 74 69.5 149.5t79.5 157.5l207 393h104l-422 -776v-604h-94v604zM242 1454l202 211h82l207 -211h-106l-140 139h-4l-139 -139h-102z" />
<glyph unicode="&#x177;" horiz-adv-x="825" d="M27 983h100l225 -629q20 -57 37 -113.5t29 -103.5h4q14 45 31.5 102.5t35.5 118.5l211 625h101l-248 -680q-78 -225 -146.5 -382t-162.5 -253q-53 -53 -99.5 -79.5t-64.5 -34.5l-37 79q37 16 80 46t84 75q35 41 75 100.5t68 131.5q6 18 8 27.5t2 19.5q0 16 -8 41z M201 1124l176 279h67l181 -279h-93l-120 199h-4l-121 -199h-86z" />
<glyph unicode="&#x178;" horiz-adv-x="960" d="M37 1380h106l201 -395q39 -80 75 -153.5t68 -151.5h5q31 74 69.5 149.5t79.5 157.5l207 393h104l-422 -776v-604h-94v604zM258 1548q0 31 20.5 54.5t53.5 23.5q35 0 54.5 -22.5t19.5 -55.5q0 -35 -19.5 -57.5t-54.5 -22.5h-2q-33 0 -52.5 22.5t-19.5 57.5zM596 1548 q0 31 20.5 54.5t53.5 23.5q35 0 54 -22.5t19 -55.5q0 -35 -19 -57.5t-54 -22.5h-2q-33 0 -52.5 22.5t-19.5 57.5z" />
<glyph unicode="&#x179;" horiz-adv-x="980" d="M63 0v61l732 1235v4h-672v80h788v-61l-731 -1233v-6h738v-80h-855zM436 1454l203 225h145l-264 -225h-84z" />
<glyph unicode="&#x17a;" horiz-adv-x="755" d="M31 0v57l477 705q25 35 49.5 69.5t50.5 69.5v4h-534v78h647v-61l-477 -703q-23 -35 -46.5 -68.5t-47.5 -68.5v-4h571v-78h-690zM326 1124l178 279h135l-242 -279h-71z" />
<glyph unicode="&#x17b;" horiz-adv-x="980" d="M63 0v61l732 1235v4h-672v80h788v-61l-731 -1233v-6h738v-80h-855zM432 1561q0 29 21.5 52t54.5 23q31 0 51.5 -23.5t20.5 -51.5q0 -29 -20.5 -52.5t-53.5 -23.5h-2q-29 0 -50.5 23.5t-21.5 52.5z" />
<glyph unicode="&#x17c;" horiz-adv-x="755" d="M33 0v57l475 705q25 35 49.5 69.5t50.5 69.5v4h-532v78h647l-2 -61l-475 -703q-23 -35 -46.5 -68.5t-47.5 -68.5v-4h571v-78h-690zM309 1255q0 29 22.5 52.5t53.5 23.5t52.5 -22.5t21.5 -53.5t-20.5 -54t-53.5 -23h-2q-33 0 -53.5 23.5t-20.5 53.5z" />
<glyph unicode="&#x17d;" horiz-adv-x="980" d="M63 0v61l732 1235v4h-672v80h788v-61l-731 -1233v-6h738v-80h-855zM266 1665h107l141 -143h4l139 143h103l-203 -211h-82z" />
<glyph unicode="&#x17e;" horiz-adv-x="755" d="M31 0v57l477 705q25 35 49.5 69.5t50.5 69.5v4h-534v78h647v-61l-477 -703q-23 -35 -46.5 -68.5t-47.5 -68.5v-4h571v-78h-690zM190 1403h93l123 -199h4l122 199h89l-177 -279h-73z" />
<glyph unicode="&#x192;" horiz-adv-x="919" d="M-12 -129l26 70q47 -27 119 -27q98 0 144.5 93t66.5 259l55 475h-194v76h203l16 115q10 82 32.5 158.5t61.5 134t97.5 92.5t142.5 35q78 -4 119 -29l-23 -72q-27 10 -53.5 15.5t-55.5 5.5q-57 0 -97 -27.5t-66.5 -74t-42 -105.5t-21.5 -123l-16 -125h246v-76h-254 l-62 -475q-12 -100 -33.5 -180t-57.5 -135t-89 -85t-129 -30q-84 4 -135 35z" />
<glyph unicode="&#x1fc;" horiz-adv-x="1384" d="M6 0l586 1380h684v-82h-535l52 -532h464v-82h-454l61 -602h461v-82h-545l-57 539h-389l-232 -539h-96zM367 616h350l-41 447q-4 57 -10.5 124.5t-10.5 123.5h-10q-20 -53 -45 -114.5t-49 -125.5zM745 1454l203 225h146l-265 -225h-84z" />
<glyph unicode="&#x1fd;" horiz-adv-x="1398" d="M76 244q0 168 138 262t404 90v53q0 33 -8 80t-32.5 90t-69.5 74t-119 31q-59 0 -117.5 -19.5t-99.5 -48.5l-31 70q59 41 131 59.5t125 18.5q121 0 190.5 -59.5t92.5 -164.5h2q41 104 122 164t189 60q102 0 167 -48.5t100.5 -116t49 -140t13.5 -121.5v-31t-4 -29h-612 q-4 -121 19.5 -208t66.5 -142t101 -81t128 -26q92 0 147.5 18.5t83.5 35.5l25 -74q-45 -27 -114.5 -44t-155.5 -17q-115 0 -208 60t-128 171h-4q-35 -111 -122 -171t-202 -60q-68 0 -118 21.5t-83.5 58t-50 83.5t-16.5 101zM172 254q0 -98 54.5 -146.5t127.5 -48.5 q104 -2 169 57.5t87 145.5q8 33 8 72v184q-61 2 -139 -5t-146.5 -33.5t-114.5 -80t-46 -145.5zM649 1124l178 279h136l-242 -279h-72zM709 596h516q2 57 -11.5 116.5t-44 105.5t-76.5 76t-108 30q-68 0 -119 -31t-84.5 -78t-52 -105.5t-20.5 -113.5z" />
<glyph unicode="&#x1fe;" horiz-adv-x="1222" d="M76 682q0 178 44 312t117.5 224.5t172 136.5t206.5 46q88 0 170 -30t154 -93l107 160l63 -41l-117 -178q72 -92 113 -221.5t41 -295.5q0 -188 -46 -325t-121 -225.5t-171 -130t-195 -41.5q-92 0 -177 31.5t-156 97.5l-113 -166l-57 43l118 184q-72 90 -112.5 219 t-40.5 293zM174 690q0 -127 27.5 -232.5t79.5 -199.5l4 2l604 938q-53 55 -122 88t-153 33q-117 0 -199.5 -57.5t-136 -148.5t-79 -202.5t-25.5 -220.5zM330 188q55 -63 121.5 -95t158.5 -32q111 0 194 55.5t137 145.5t81 204t27 230q0 104 -22.5 214t-84.5 216l-4 2z M553 1468l203 226h145l-264 -226h-84z" />
<glyph unicode="&#x1ff;" horiz-adv-x="978" d="M80 485q0 129 35 226.5t91 162t131 97.5t155 33h2q59 0 117.5 -18.5t109.5 -57.5l70 108l63 -39l-78 -125q59 -68 91 -162t32 -210q0 -137 -37 -235.5t-95 -162t-131 -93t-147 -29.5q-61 0 -120.5 18t-108.5 57l-72 -110l-59 45l76 119q-57 66 -91 159.5t-34 216.5z M176 489q0 -74 17.5 -150.5t60.5 -145.5l2 -3l418 660q-68 74 -185 74q-86 0 -146 -41t-97 -104.5t-53.5 -140.5t-16.5 -149zM307 129q72 -70 176 -70q76 0 136.5 37t100.5 97.5t61.5 139.5t21.5 163q0 59 -15.5 138t-60.5 152h-4zM422 1124l178 279h135l-241 -279h-72z" />
<glyph unicode="&#x218;" horiz-adv-x="874" d="M80 66l35 77q51 -35 120.5 -57.5t145.5 -22.5q143 0 226 78t83 207q0 115 -60.5 189.5t-189.5 134.5q-66 27 -125 62.5t-104 81.5t-71.5 104.5t-26.5 132.5q0 76 28.5 139t78.5 109.5t119 72t150 25.5q86 0 151 -19.5t95 -42.5l-37 -80q-27 18 -83 39t-134 21 q-76 0 -128 -23.5t-84.5 -59.5t-47 -79t-14.5 -84q0 -59 16.5 -104t50 -81t83 -67t114.5 -61q76 -37 135.5 -78t98 -88t59 -105.5t20.5 -130.5q0 -78 -27.5 -146.5t-79.5 -119.5t-128 -79.5t-174 -28.5q-82 0 -165 24.5t-130 59.5zM299 -375q59 10 108.5 43t49.5 99 q0 37 -21.5 69.5t-54.5 54.5l84 23q29 -18 53.5 -56t24.5 -87t-20.5 -85t-52.5 -59.5t-71 -37t-73 -17.5z" />
<glyph unicode="&#x219;" horiz-adv-x="698" d="M76 47l37 80q35 -23 86 -43.5t112 -20.5q104 0 157.5 53.5t53.5 131.5t-44 127t-142 96q-109 51 -171.5 115.5t-62.5 156.5q0 53 20.5 100.5t57.5 83.5t89.5 56.5t117.5 20.5q63 0 114.5 -18.5t86.5 -41.5l-39 -78q-27 18 -70 37t-106 19q-86 0 -131 -49.5t-45 -114.5 q0 -72 44 -114t136 -87q51 -25 95 -52.5t77 -62t50 -79t17 -99.5q0 -66 -23.5 -118t-64.5 -89t-98 -56t-125 -19q-66 0 -125 18t-104 47zM215 -375q59 10 108.5 43t49.5 99q0 37 -21.5 69.5t-52.5 54.5l82 23q29 -18 53.5 -56t24.5 -87t-20.5 -85t-52.5 -59.5t-69.5 -37 t-72.5 -17.5z" />
<glyph unicode="&#x21a;" horiz-adv-x="868" d="M-4 1300v80h881v-80h-394v-1300h-94v1300h-393zM293 -375q59 10 108.5 42t49.5 97q0 39 -21.5 71t-54.5 54l84 25q29 -18 53.5 -57t24.5 -86q0 -49 -20.5 -85t-52.5 -59.5t-70 -37t-72 -17.5z" />
<glyph unicode="&#x21b;" horiz-adv-x="577" d="M33 905v78h153v176l95 39v-215h251v-78h-251v-647q0 -195 133 -195q61 0 96 13l10 -74q-23 -10 -51.5 -15t-69.5 -5q-49 0 -90 15t-67 50q-31 37 -43.5 94.5t-12.5 139.5v624h-153zM193 -385q59 10 108 42t49 97q0 39 -21.5 71t-54.5 54l84 25q29 -18 53.5 -57.5 t24.5 -86.5q0 -49 -20.5 -84.5t-52 -59.5t-70.5 -37t-74 -17z" />
<glyph unicode="&#x2c6;" d="M96 1124l176 279h68l180 -279h-92l-121 199h-4l-119 -199h-88z" />
<glyph unicode="&#x2c7;" d="M92 1403h92l123 -199h4l123 199h88l-176 -279h-74z" />
<glyph unicode="&#x2c9;" d="M100 1202v78h416v-78h-416z" />
<glyph unicode="&#x2d8;" d="M82 1376h70q8 -61 49 -104t106 -43q74 0 113 45t43 102h69q0 -104 -62 -165.5t-163 -61.5q-61 0 -103 19.5t-70 52t-40 73.5t-12 82z" />
<glyph unicode="&#x2d9;" d="M233 1255q0 29 23 52.5t53 23.5q31 0 52.5 -22.5t21.5 -53.5t-20.5 -54t-53.5 -23h-2q-33 0 -53.5 23.5t-20.5 53.5z" />
<glyph unicode="&#x2da;" horiz-adv-x="819" d="M225 1272q0 76 52.5 129t134.5 53h2q78 0 130 -52t52 -130q0 -37 -15.5 -70t-40 -57.5t-58 -37.5t-70.5 -13q-39 0 -73 14t-59.5 37.5t-40 56.5t-14.5 70zM305 1272q0 -45 30 -81t77 -36t77.5 35t30.5 84q0 51 -30.5 85t-77.5 34h-2q-47 0 -76 -36t-29 -85z" />
<glyph unicode="&#x2db;" d="M158 -252q0 39 13 77t34.5 71.5t46 62.5t47.5 51h82q-14 -16 -36.5 -42.5t-44 -59.5t-37 -68t-15.5 -67q0 -49 27.5 -74t68.5 -25q47 0 94 21l17 -57q-25 -20 -64 -29.5t-69 -9.5q-72 0 -118 38.5t-46 110.5z" />
<glyph unicode="&#x2dc;" d="M86 1167q-2 78 31 126t90 48q29 0 53.5 -13t58.5 -30q25 -12 45.5 -22t41.5 -10q23 0 38 17t19 65h65q0 -74 -27.5 -121t-92.5 -47q-29 0 -55.5 11t-55.5 28q-29 16 -49.5 26t-38.5 10q-27 0 -39 -23.5t-16 -64.5h-68z" />
<glyph unicode="&#x2dd;" d="M119 1137l178 264h125l-234 -264h-69zM371 1137l176 264h127l-234 -264h-69z" />
<glyph unicode="&#x37e;" horiz-adv-x="362" d="M68 -258q10 33 23 86t25.5 114.5t23 124t14.5 109.5l127 10q-10 -53 -30 -119.5t-39 -129t-38.5 -113.5t-30.5 -72zM123 805q0 41 23.5 68.5t60.5 27.5q39 0 61.5 -27.5t22.5 -68.5q0 -39 -22.5 -65.5t-61.5 -26.5h-2q-35 0 -58.5 26.5t-23.5 65.5z" />
<glyph unicode="&#x384;" d="M160 1126l104 279h115l-154 -279h-65z" />
<glyph unicode="&#x385;" horiz-adv-x="600" d="M25 1255q0 31 21.5 52.5t53.5 21.5q29 0 49.5 -20.5t20.5 -53.5q0 -31 -19.5 -52t-50.5 -21h-2q-33 0 -53 21.5t-20 51.5zM244 1124l37 295h102l-84 -295h-55zM428 1255q0 31 21.5 52.5t52.5 21.5t51 -20.5t20 -53.5q0 -31 -19 -52t-54 -21h-2q-29 0 -49.5 21.5 t-20.5 51.5z" />
<glyph unicode="&#x386;" horiz-adv-x="1097" d="M61 0l447 1380h92l447 -1380h-99l-153 481h-486l-151 -481h-97zM164 1092l18 288h103l-64 -288h-57zM336 561h432l-145 440q-23 74 -38.5 136.5t-29.5 128.5h-6q-14 -68 -30.5 -130.5t-37.5 -131.5z" />
<glyph unicode="&#x387;" horiz-adv-x="362" d="M96 657q0 41 23.5 69t60.5 28q39 0 61.5 -28t22.5 -69q0 -39 -22.5 -65.5t-61.5 -26.5h-2q-35 0 -58.5 26.5t-23.5 65.5z" />
<glyph unicode="&#x388;" horiz-adv-x="954" d="M0 1092l20 288h103l-64 -288h-59zM242 0v1380h620v-82h-526v-530h495v-82h-495v-604h557v-82h-651z" />
<glyph unicode="&#x389;" horiz-adv-x="1253" d="M0 1092l20 288h103l-64 -288h-59zM242 0v1380h94v-610h668v610h94v-1380h-94v688h-668v-688h-94z" />
<glyph unicode="&#x38a;" horiz-adv-x="489" d="M0 1092l20 288h103l-64 -288h-59zM242 0v1380h94v-1380h-94z" />
<glyph unicode="&#x38c;" horiz-adv-x="1259" d="M0 1092l18 288h103l-62 -288h-59zM113 680q0 176 43 310t116.5 225.5t173 138.5t213.5 47q111 0 207.5 -46t167 -135.5t110.5 -219.5t40 -300q0 -186 -45 -321t-121 -224t-173 -132t-204 -43h-2q-109 0 -205 45t-167.5 134t-112.5 219t-41 302zM211 682 q0 -111 26.5 -222.5t81 -199.5t136.5 -143.5t190 -55.5h2q111 0 193 54.5t137 143.5t81.5 202.5t26.5 234.5q0 106 -24.5 217t-77.5 201t-135 147.5t-199 57.5t-199.5 -56.5t-136 -147.5t-78 -204.5t-24.5 -228.5z" />
<glyph unicode="&#x38e;" horiz-adv-x="1239" d="M0 1092l20 288h103l-64 -288h-59zM205 1319l20 74q25 -4 56.5 -16.5t65.5 -33t66.5 -47t59.5 -57.5q80 -88 146.5 -232.5t89.5 -336.5h4q14 98 42.5 182t63.5 154.5t75 126t77 94.5q61 66 127.5 108.5t113.5 57.5l21 -72q-47 -25 -109.5 -73t-125 -127t-120 -192.5 t-94.5 -266.5q-12 -53 -22 -120t-10 -149v-393h-95v395q0 72 -8 143.5t-18 125.5q-35 160 -86 274.5t-109.5 193t-119 123.5t-111.5 64z" />
<glyph unicode="&#x38f;" horiz-adv-x="1277" d="M2 1092l18 288h103l-64 -288h-57zM98 0v84h281v6q-53 49 -100.5 116.5t-82 148.5t-55 175.5t-20.5 198.5q0 158 42 283t115.5 211t173 132t214.5 46q113 0 209 -47t166.5 -133t109.5 -208t39 -274q0 -111 -20.5 -207t-55.5 -179t-82 -148.5t-102 -114.5v-6h282v-84h-417 v70q63 47 118.5 117.5t95.5 156.5t61.5 182.5t21.5 198.5q0 96 -25 200.5t-78 192.5t-135 144.5t-197 56.5q-113 0 -195.5 -54.5t-136 -140.5t-80 -191.5t-26.5 -205.5q0 -98 23.5 -196.5t63.5 -185.5t93.5 -158.5t114.5 -116.5v-70h-416z" />
<glyph unicode="&#x390;" horiz-adv-x="399" d="M-55 1227q0 29 21.5 49t51.5 20q29 0 48.5 -20.5t19.5 -48.5q0 -29 -19.5 -50.5t-48.5 -21.5h-2q-33 0 -52 21.5t-19 50.5zM152 176v807h94v-799q0 -68 15 -97.5t75 -27.5l-8 -75q-10 -2 -21.5 -3t-23.5 -1q-25 0 -48.5 7t-42 28.5t-29.5 60.5t-11 100zM162 1096l37 295 h102l-84 -295h-55zM350 1227q0 29 21.5 49t50.5 20t49.5 -20.5t20.5 -48.5q0 -29 -19.5 -50.5t-52.5 -21.5h-2q-29 0 -48.5 21.5t-19.5 50.5z" />
<glyph unicode="&#x391;" horiz-adv-x="1097" d="M61 0l447 1380h92l447 -1380h-99l-153 481h-486l-151 -481h-97zM336 561h432l-145 440q-23 74 -38.5 136.5t-29.5 128.5h-6q-14 -68 -30.5 -130.5t-37.5 -131.5z" />
<glyph unicode="&#x392;" horiz-adv-x="952" d="M156 2v1360q53 12 115.5 20.5t134.5 8.5q119 0 200.5 -28t134.5 -81q41 -41 62.5 -97.5t21.5 -129.5q0 -109 -64.5 -191t-168.5 -119v-4q49 -12 99 -38.5t91 -69.5t66.5 -104.5t25.5 -143.5q0 -86 -26.5 -152.5t-73.5 -115.5q-66 -70 -167 -98.5t-230 -28.5 q-78 0 -132.5 4t-88.5 8zM250 80q27 -6 62.5 -8t82.5 -2q78 0 146.5 17t121 54t83 96.5t30.5 145.5q0 82 -30.5 141.5t-83 98.5t-122 57t-145.5 18h-145v-618zM250 776h166q70 0 127 20.5t98 57.5t63.5 86t22.5 109q0 135 -87 198.5t-241 63.5q-57 0 -92 -4t-57 -11v-520z " />
<glyph unicode="&#x393;" horiz-adv-x="813" d="M156 0v1380h620v-80h-526v-1300h-94z" />
<glyph unicode="&#x394;" horiz-adv-x="1120" d="M63 0v66l449 1314h92l449 -1314v-66h-990zM160 82h794l-297 868q-27 78 -53 161t-45 155h-6q-16 -63 -40 -140t-50 -153z" />
<glyph unicode="&#x395;" horiz-adv-x="870" d="M156 0v1380h620v-82h-526v-530h495v-82h-495v-604h557v-82h-651z" />
<glyph unicode="&#x396;" horiz-adv-x="980" d="M63 0v61l732 1235v4h-672v80h788v-61l-731 -1233v-6h738v-80h-855z" />
<glyph unicode="&#x397;" horiz-adv-x="1167" d="M156 0v1380h94v-610h668v610h94v-1380h-94v688h-668v-688h-94z" />
<glyph unicode="&#x398;" horiz-adv-x="1222" d="M76 680q0 176 43 310t116.5 225.5t173 138.5t214.5 47q111 0 207 -45t166.5 -134t110.5 -220.5t40 -301.5q0 -184 -45 -320t-121 -225t-173 -132t-204 -43h-2q-109 0 -205 45t-167.5 134t-112.5 220t-41 301zM174 684q0 -113 26.5 -223.5t81 -199.5t136.5 -144.5 t190 -55.5h2q111 0 193 54.5t137 143.5t82 202.5t27 234.5q0 106 -25 217t-78 201t-135 147.5t-199 57.5t-199.5 -56.5t-136 -146.5t-78 -203.5t-24.5 -228.5zM336 676v82h551v-82h-551z" />
<glyph unicode="&#x399;" horiz-adv-x="405" d="M156 0v1380h94v-1380h-94z" />
<glyph unicode="&#x39a;" horiz-adv-x="942" d="M156 0v1380h94v-692h6q29 41 57.5 77t53.5 71l434 544h114l-475 -585l512 -795h-110l-467 727l-125 -154v-573h-94z" />
<glyph unicode="&#x39b;" horiz-adv-x="1097" d="M61 0l447 1380h92l447 -1380h-99l-325 1001q-23 74 -38.5 136.5t-29.5 128.5h-6q-14 -68 -30.5 -130.5t-37.5 -134.5l-323 -1001h-97z" />
<glyph unicode="&#x39c;" horiz-adv-x="1468" d="M121 0l92 1380h109l266 -770q45 -135 78.5 -241.5t62.5 -212.5h6q25 104 58.5 207.5t83.5 244.5l270 772h115l88 -1380h-95l-38 657q-4 78 -9.5 161t-8.5 163t-5 152.5t0 130.5h-8q-35 -115 -74 -239t-92 -277l-264 -748h-60l-247 725q-55 162 -95.5 292t-68.5 247h-6 q-2 -123 -9.5 -287t-17.5 -338l-37 -639h-94z" />
<glyph unicode="&#x39d;" horiz-adv-x="1181" d="M154 0v1380h92l461 -784q74 -131 133 -242.5t106 -220.5l4 2q-6 78 -9 147.5t-4 138t-2 140.5t-1 156v663h92v-1380h-90l-459 786q-68 119 -128 230.5t-111 232.5l-7 -2q4 -68 7.5 -132t4.5 -133t2 -146.5t1 -171.5v-664h-92z" />
<glyph unicode="&#x39e;" horiz-adv-x="944" d="M78 0v82h803v-82h-803zM94 1298v82h770v-82h-770zM156 680v82h647v-82h-647z" />
<glyph unicode="&#x39f;" horiz-adv-x="1222" d="M76 680q0 176 43 310t116.5 225.5t173 138.5t214.5 47q111 0 207 -46t166.5 -135.5t110.5 -219.5t40 -300q0 -186 -45 -321t-121 -224t-173 -132t-204 -43h-2q-109 0 -205 45t-167.5 134t-112.5 219t-41 302zM174 682q0 -111 26.5 -222.5t81 -199.5t136.5 -143.5 t190 -55.5h2q111 0 193 54.5t137 143.5t82 202.5t27 234.5q0 106 -25 217t-78 201t-135 147.5t-199 57.5t-199.5 -56.5t-136 -147.5t-78 -204.5t-24.5 -228.5z" />
<glyph unicode="&#x3a0;" horiz-adv-x="1134" d="M156 0v1380h821v-1380h-94v1298h-633v-1298h-94z" />
<glyph unicode="&#x3a1;" horiz-adv-x="942" d="M156 0v1364q53 10 118.5 18.5t145.5 8.5q111 0 195.5 -29t138.5 -82q47 -47 74.5 -115.5t27.5 -156.5q0 -90 -22.5 -155t-63.5 -116q-61 -78 -161.5 -117.5t-217.5 -39.5q-41 0 -75.5 2t-65.5 10v-592h-94zM250 676q29 -10 65.5 -13.5t79.5 -3.5q166 0 265.5 85t99.5 255 q0 150 -91 231t-253 81q-57 0 -99.5 -5.5t-66.5 -9.5v-620z" />
<glyph unicode="&#x3a3;" horiz-adv-x="1013" d="M43 0v66l485 620l-456 627v67h819v-80h-694v-6l438 -604l-467 -600v-8h790v-82h-915z" />
<glyph unicode="&#x3a4;" horiz-adv-x="868" d="M-4 1300v80h881v-80h-394v-1300h-94v1300h-393z" />
<glyph unicode="&#x3a5;" horiz-adv-x="1056" d="M23 1319l20 74q25 -4 56.5 -16.5t65.5 -33t66.5 -47t59.5 -57.5q80 -88 146.5 -232.5t88.5 -336.5h4q14 98 43 182t64 154.5t75 126t76 94.5q61 66 128 108.5t114 57.5l21 -72q-47 -25 -109.5 -73t-125 -127t-120 -192.5t-94.5 -266.5q-12 -53 -22.5 -120t-10.5 -149 v-393h-94v395q0 72 -8 143.5t-18 125.5q-35 160 -86.5 274.5t-109.5 193t-118.5 123.5t-111.5 64z" />
<glyph unicode="&#x3a6;" horiz-adv-x="1249" d="M76 684q0 160 46 277.5t118.5 195.5t162 119t177.5 45v98h94v-98q94 -6 184 -48t161 -122t113 -195.5t42 -265.5q0 -160 -44.5 -275.5t-116 -192.5t-161.5 -115.5t-182 -43.5v-102h-95v102q-86 6 -175 44t-161.5 113t-117.5 189.5t-45 274.5zM174 688q0 -125 33 -222 t88 -168t129 -112t154 -51v1114q-72 -4 -144 -41t-129 -107.5t-94 -174t-37 -238.5zM672 135q82 6 154.5 47t128 112t88 171t32.5 227q0 131 -34.5 233.5t-92 172t-129 107.5t-147.5 44v-1114z" />
<glyph unicode="&#x3a7;" horiz-adv-x="1015" d="M59 0l396 700l-381 680h106l201 -366q37 -61 66.5 -115.5t60.5 -114.5h4q31 66 60.5 117t66.5 115l205 364h108l-391 -669l397 -711h-106l-193 350q-51 86 -85.5 147.5t-67.5 127.5h-6q-31 -66 -65 -128.5t-85 -148.5l-182 -348h-109z" />
<glyph unicode="&#x3a8;" horiz-adv-x="1226" d="M102 948v432h95v-413q0 -217 100 -320.5t268 -114.5v848h94v-848q76 4 143.5 33t119 84.5t80 137t28.5 196.5v397h94v-401q0 -242 -122.5 -375t-342.5 -149v-455h-94v455q-94 6 -178 35.5t-147.5 89t-100.5 150.5t-37 218z" />
<glyph unicode="&#x3a9;" horiz-adv-x="1243" d="M63 0v84h283v6q-53 49 -100 116.5t-82 149.5t-56.5 176.5t-21.5 198.5q0 158 43 282t116.5 210t173 132t212.5 46q115 0 211 -46t166.5 -132t109.5 -208t39 -274q0 -109 -20.5 -206t-56.5 -180t-84 -149.5t-101 -115.5v-6h285v-84h-420v70q63 49 118.5 119.5t95.5 156.5 t62.5 182.5t22.5 198.5q0 96 -25.5 200.5t-78 191.5t-135.5 143.5t-195 56.5q-113 0 -196 -54.5t-137 -140.5t-81 -190.5t-27 -204.5q0 -98 23.5 -196.5t64.5 -185.5t94.5 -159.5t114.5 -117.5v-70h-418z" />
<glyph unicode="&#x3aa;" horiz-adv-x="405" d="M-39 1530q0 31 21.5 53.5t54.5 22.5q31 0 51.5 -22.5t20.5 -53.5q0 -29 -19.5 -52.5t-54.5 -23.5h-2q-33 0 -52.5 23.5t-19.5 52.5zM156 0v1380h94v-1380h-94zM295 1530q0 31 21.5 53.5t54.5 22.5q31 0 51 -22.5t20 -53.5q0 -29 -19.5 -52.5t-53.5 -23.5h-2 q-33 0 -52.5 23.5t-19.5 52.5z" />
<glyph unicode="&#x3ab;" horiz-adv-x="1056" d="M23 1319l20 74q25 -4 56.5 -16.5t65.5 -33t66.5 -47t59.5 -57.5q80 -88 146.5 -232.5t88.5 -336.5h4q14 98 43 182t64 154.5t75 126t76 94.5q61 66 128 108.5t114 57.5l21 -72q-47 -25 -109.5 -73t-125 -127t-120 -192.5t-94.5 -266.5q-12 -53 -22.5 -120t-10.5 -149 v-393h-94v395q0 72 -8 143.5t-18 125.5q-35 160 -86.5 274.5t-109.5 193t-118.5 123.5t-111.5 64zM297 1505q0 31 21.5 53.5t54.5 22.5q31 0 51 -22.5t20 -53.5q0 -29 -19 -52t-54 -23h-2q-33 0 -52.5 23.5t-19.5 51.5zM629 1505q0 31 21.5 53.5t54.5 22.5q31 0 51 -22.5 t20 -53.5q0 -29 -19.5 -52t-54.5 -23h-2q-33 0 -52 23.5t-19 51.5z" />
<glyph unicode="&#x3ac;" horiz-adv-x="987" d="M80 473q0 123 32.5 220.5t87 167t125 106.5t146.5 37q100 0 174 -51.5t111 -151.5h8q4 63 7 104t7 78h78q-4 -25 -8 -98.5t-7 -179t-5 -232.5t-2 -254q0 -78 18 -119t70 -43l-13 -75q-8 -2 -16 -2h-14q-23 0 -45.5 10t-41 34.5t-29.5 64.5t-11 99h-7q-18 -39 -46.5 -76.5 t-67.5 -66.5t-87 -47t-106 -18q-78 0 -144.5 33.5t-113.5 97t-73.5 154.5t-26.5 208zM176 467q0 -76 17.5 -149.5t53.5 -131t88 -92.5t122 -35q49 0 93 23.5t81 62.5t63.5 90.5t38.5 106.5q10 41 11 81t1 85q0 37 -1 67.5t-5 65.5q-8 53 -31.5 103.5t-57.5 90t-79 64.5 t-96 25q-66 0 -121 -35t-95 -95.5t-61.5 -143.5t-21.5 -181v-2zM426 1102l104 278h117l-155 -278h-66z" />
<glyph unicode="&#x3ad;" horiz-adv-x="786" d="M82 274q0 98 67.5 168t178.5 86v9q-98 23 -146.5 79t-48.5 134q0 47 22.5 93t65.5 82t106.5 57.5t143.5 21.5q162 0 244 -66l-27 -70q-25 18 -87 38t-134 20q-111 0 -174.5 -50.5t-63.5 -125.5q0 -47 23.5 -81t62.5 -55.5t90.5 -32t106.5 -10.5h102v-77h-110 q-70 0 -129.5 -12.5t-103.5 -39t-68.5 -67.5t-24.5 -96q0 -53 22.5 -93.5t60.5 -69t89 -43t111 -14.5q39 0 80 6.5t76.5 16.5t64.5 22.5t45 22.5l23 -72q-39 -29 -122 -52t-177 -23q-68 0 -133.5 15t-118 51t-85 92.5t-32.5 135.5zM385 1102l104 278h115l-153 -278h-66z" />
<glyph unicode="&#x3ae;" horiz-adv-x="997" d="M127 983h84q12 -29 18.5 -72t8.5 -90h4q35 78 113.5 130.5t187.5 52.5q37 0 89 -14.5t101 -55.5t83 -117t34 -201v-665q0 -41 1 -90t3 -97.5t6 -91.5t10 -73h-90q-6 23 -11 59.5t-8 81.5t-4 93t-1 93v674q0 61 -11.5 119.5t-39 103.5t-73.5 72t-116 27 q-92 0 -163.5 -60.5t-96.5 -159.5q-10 -41 -10 -86v-616h-94v750q0 66 -5.5 127t-19.5 106zM461 1102l104 278h115l-154 -278h-65z" />
<glyph unicode="&#x3af;" horiz-adv-x="399" d="M147 1102l103 278h115l-154 -278h-64zM152 176v807h94v-799q0 -68 15 -97.5t75 -27.5l-8 -75q-10 -2 -21.5 -3t-23.5 -1q-25 0 -48.5 7t-42 28.5t-29.5 60.5t-11 100z" />
<glyph unicode="&#x3b0;" horiz-adv-x="931" d="M123 983h86q27 -33 27 -184v-447q0 -80 20 -136t53 -90t74 -49.5t82 -15.5q137 0 206.5 130.5t69.5 377.5q0 72 -7 137.5t-17 120t-22.5 94.5t-22.5 62h92q12 -25 24.5 -67t23.5 -94t17.5 -113.5t6.5 -122.5q0 -109 -16.5 -216.5t-58.5 -194.5t-115 -141t-187 -54 q-68 0 -126.5 21.5t-101.5 64.5t-66.5 108.5t-23.5 151.5v317q0 133 -4 217t-14 123zM190 1227q0 29 21.5 49t52.5 20q29 0 48.5 -20.5t19.5 -48.5q0 -29 -19.5 -50.5t-48.5 -21.5h-2q-33 0 -52.5 21.5t-19.5 50.5zM408 1096l38 295h103l-86 -295h-55zM596 1227 q0 29 21.5 49t50.5 20t49 -20.5t20 -48.5q0 -29 -19.5 -50.5t-51.5 -21.5h-2q-29 0 -48.5 21.5t-19.5 50.5z" />
<glyph unicode="&#x3b1;" horiz-adv-x="987" d="M80 473q0 123 32.5 220.5t87 167t125 106.5t146.5 37q100 0 174 -51.5t111 -151.5h8q4 63 7 104t7 78h78q-4 -25 -8 -98.5t-7 -179t-5 -232.5t-2 -254q0 -78 18 -119t70 -43l-13 -75q-8 -2 -16 -2h-14q-23 0 -45.5 10t-41 34.5t-29.5 64.5t-11 99h-7q-18 -39 -46.5 -76.5 t-67.5 -66.5t-87 -47t-106 -18q-78 0 -144.5 33.5t-113.5 97t-73.5 154.5t-26.5 208zM176 467q0 -76 17.5 -149.5t53.5 -131t88 -92.5t122 -35q49 0 93 23.5t81 62.5t63.5 90.5t38.5 106.5q10 41 11 81t1 85q0 37 -1 67.5t-5 65.5q-8 53 -31.5 103.5t-57.5 90t-79 64.5 t-96 25q-66 0 -121 -35t-95 -95.5t-61.5 -143.5t-21.5 -181v-2z" />
<glyph unicode="&#x3b2;" horiz-adv-x="1007" d="M150 -86v1026q0 88 11 156.5t29.5 121t42 89t50.5 63.5q47 47 103 70.5t132 23.5q61 0 116.5 -25.5t96.5 -70.5t64.5 -107.5t23.5 -136.5q0 -70 -17.5 -124t-45 -95t-61 -67.5t-64.5 -40.5v-9q53 -10 106.5 -37.5t95 -74.5t68.5 -118t27 -167q0 -104 -34 -181t-89 -128 t-124 -76.5t-138 -25.5q-102 0 -174 34.5t-121 91.5h-4v-155q0 -41 1 -90t3 -97.5t6 -91.5t10 -73h-88q-16 47 -21 130t-5 185zM244 236q37 -68 113.5 -122.5t181.5 -54.5q63 0 117.5 25t93 69t60 103t21.5 127q0 86 -25.5 150.5t-70.5 108.5t-107.5 67.5t-138.5 25.5h-51 v80h18.5t18.5 2q121 10 184.5 93t63.5 204q0 55 -15.5 104.5t-44 86t-68.5 58t-89 21.5q-135 0 -198.5 -118.5t-63.5 -323.5v-706z" />
<glyph unicode="&#x3b3;" horiz-adv-x="804" d="M-4 983h108q33 -57 76 -147.5t85 -200t80 -229t61 -236.5h6q37 68 80 160t81.5 193.5t64.5 206t26 196.5v57h90q2 -10 3 -25.5t1 -35.5q0 -92 -25.5 -196.5t-68.5 -215.5t-99.5 -222.5t-118.5 -217.5q-8 -12 -9 -23.5t-1 -26.5q4 -100 5 -206.5t1 -214.5h-96q8 162 4 312 t-43 304q-29 117 -68.5 231.5t-82.5 216t-85 184.5t-75 136z" />
<glyph unicode="&#x3b4;" horiz-adv-x="976" d="M80 469q0 96 28.5 177t79 147.5t116 120t138.5 92.5v8l-43 35q-18 16 -40.5 39.5t-43 52t-34 59.5t-13.5 64q0 35 16.5 70.5t50.5 64t88 47t128 18.5q86 0 160.5 -29.5t115.5 -66.5l-39 -70q-33 25 -101.5 55.5t-149.5 30.5q-88 0 -132.5 -33.5t-44.5 -76.5q0 -49 38 -90 t108 -105l151 -141q109 -92 173.5 -202.5t64.5 -260.5q0 -113 -30.5 -204t-85 -155.5t-128 -100t-162.5 -35.5q-78 0 -151.5 30.5t-130.5 92t-92 153.5t-35 213zM176 467q0 -102 28.5 -179t75 -128t102.5 -76t114 -25q63 0 118.5 28t96.5 80t64.5 128t23.5 172 q0 129 -49.5 224t-147.5 179l-98 84q-68 -37 -127.5 -84t-103.5 -107.5t-70.5 -134t-26.5 -161.5z" />
<glyph unicode="&#x3b5;" horiz-adv-x="786" d="M82 274q0 98 67.5 169t178.5 87v9q-98 20 -146.5 76.5t-48.5 134.5q0 47 22.5 93t65.5 82t106.5 57.5t143.5 21.5q162 0 244 -64l-27 -72q-25 18 -87 38t-134 20q-111 0 -174.5 -50.5t-63.5 -125.5q0 -47 23.5 -81t62.5 -55.5t90.5 -32t106.5 -10.5h102v-77h-110 q-70 0 -129.5 -12.5t-103.5 -39t-68.5 -67.5t-24.5 -96q0 -53 22.5 -93.5t60.5 -69t89 -43t111 -14.5q39 0 80 6.5t76.5 16.5t64.5 22.5t45 24.5l23 -74q-39 -29 -122 -52t-177 -23q-68 0 -133.5 15t-118 51t-85 92.5t-32.5 135.5z" />
<glyph unicode="&#x3b6;" horiz-adv-x="737" d="M82 477q0 113 35 233.5t101.5 236.5t160.5 220.5t213 184.5v6h-158q-66 0 -123 2t-102 16l14 72q45 -6 101.5 -7t109.5 -3h285l18 -74q-121 -68 -223 -168t-177 -217t-118 -242t-43 -243q0 -94 20.5 -160t57.5 -111t87 -72.5t110 -46.5q66 -23 130 -34t124 -19 q16 -4 16 -22q0 -37 -10.5 -80t-25.5 -85t-34.5 -79t-38.5 -59l-71 20q14 23 27.5 54.5t24.5 65.5t18 64.5t7 49.5q-51 8 -108 20t-117 33q-66 20 -123 56t-99 90t-65.5 127t-23.5 171z" />
<glyph unicode="&#x3b7;" horiz-adv-x="997" d="M127 983h84q12 -29 18.5 -72t8.5 -90h4q35 78 113.5 130.5t187.5 52.5q37 0 89 -14.5t101 -55.5t83 -117t34 -201v-665q0 -41 1 -90t3 -97.5t6 -91.5t10 -73h-90q-6 23 -11 59.5t-8 81.5t-4 93t-1 93v674q0 61 -11.5 119.5t-39 103.5t-73.5 72t-116 27 q-92 0 -163.5 -60.5t-96.5 -159.5q-10 -41 -10 -86v-616h-94v750q0 66 -5.5 127t-19.5 106z" />
<glyph unicode="&#x3b8;" horiz-adv-x="950" d="M80 733q0 170 28.5 305.5t82 230.5t127 145t165.5 50q188 0 287.5 -186t99.5 -545q0 -383 -102 -568t-291 -185h-2q-86 0 -158.5 43t-125 134t-82 233t-29.5 343zM174 709q0 -156 22.5 -277t63.5 -204t97.5 -126t123.5 -43q76 0 131.5 48.5t92 134.5t54 205.5t17.5 261.5 h-602zM174 786h602q0 123 -18.5 231.5t-56 189.5t-95 129t-135.5 48q-68 0 -123 -49t-94 -132t-59.5 -190.5t-20.5 -226.5z" />
<glyph unicode="&#x3b9;" horiz-adv-x="399" d="M152 176v807h94v-799q0 -68 15 -97.5t75 -27.5l-8 -75q-10 -2 -21.5 -3t-23.5 -1q-25 0 -48.5 7t-42 28.5t-29.5 60.5t-11 100z" />
<glyph unicode="&#x3ba;" horiz-adv-x="864" d="M133 983h88q12 -16 19.5 -59t7.5 -103v-293h10q145 141 257 256t202 199h114v-6q-98 -92 -211.5 -200.5t-252.5 -246.5v-4q37 -10 75.5 -38.5t78.5 -69.5t78 -88t75 -94l174 -236h-111l-166 223q-39 47 -77.5 91t-76.5 78t-76 53.5t-75 19.5h-18v-465h-94v782 q0 63 -5.5 118.5t-15.5 82.5z" />
<glyph unicode="&#x3bb;" horiz-adv-x="823" d="M18 0l326 920q6 16 8 26t2 21q0 8 -1 20t-9 33q-27 82 -54.5 150.5t-58 115.5t-67.5 73.5t-84 26.5h-11.5t-15.5 -2l13 76q10 2 21 3t22 1q61 0 107 -30.5t84 -88t72 -141.5t70 -188l342 -1016h-100l-207 625q-18 55 -34.5 108t-32.5 121h-7q-12 -53 -30.5 -109.5 t-36.5 -113.5l-221 -631h-97z" />
<glyph unicode="&#x3bc;" horiz-adv-x="989" d="M152 -72v1055h94v-621q0 -57 11 -110t39 -95t73 -68t110 -26q51 0 93 17.5t73 45.5t52.5 61.5t33.5 64.5q6 23 10 49.5t4 54.5v627h95v-766q0 -80 17 -119t71 -41l-13 -75q-14 -2 -17 -2h-15q-23 0 -44.5 8t-40 27.5t-30.5 51t-14 78.5h-6q-14 -25 -39 -53.5t-60 -53 t-78 -40.5t-94 -16q-74 0 -136 28.5t-97 95.5v-155q0 -41 1 -90t3 -97.5t6 -91.5t12 -73h-86q-16 47 -22 132t-6 197z" />
<glyph unicode="&#x3bd;" horiz-adv-x="817" d="M16 983h99l196 -614q23 -59 42.5 -125t41.5 -131h4q29 61 75 158.5t90 207t76 220t32 196.5q0 23 1 45.5t-1 42.5h88q2 -12 4 -30.5t2 -34.5q0 -98 -30.5 -212t-80 -233t-110 -239.5t-117.5 -233.5h-86z" />
<glyph unicode="&#x3be;" horiz-adv-x="772" d="M82 442q0 72 23.5 135.5t65.5 113.5t97.5 87t118.5 58v10q-111 35 -165 111.5t-54 177.5q0 63 23.5 122.5t69.5 105.5t115.5 73.5t160.5 27.5q66 0 120 -13t84 -36l-28 -74q-23 14 -72 29.5t-117 15.5t-117 -22.5t-80.5 -57t-47 -79.5t-15.5 -90q0 -59 22.5 -107.5 t61.5 -82.5t91.5 -52t111.5 -21h92v-77h-49q-102 -2 -180 -30t-130.5 -75t-79 -110.5t-26.5 -132.5q0 -147 86 -227.5t228 -121.5q66 -18 131 -29.5t118 -19.5q16 -4 17 -22q0 -35 -9.5 -77t-24.5 -85t-33.5 -81t-37.5 -60l-71 20q14 23 27.5 54.5t24.5 65.5t18 64.5t7 49.5 q-104 18 -206.5 46.5t-185.5 80t-134 132t-51 203.5z" />
<glyph unicode="&#x3bf;" horiz-adv-x="978" d="M80 485q0 129 35 226.5t92 162t132 97.5t157 33q86 0 160.5 -34t128 -99.5t84 -160t30.5 -212.5q0 -137 -37 -235.5t-97 -161t-134 -92t-148 -29.5h-2q-84 0 -156.5 33.5t-127 98t-86 159t-31.5 214.5zM176 489q0 -82 21.5 -159.5t61.5 -137t97.5 -96.5t128.5 -37h2 q72 0 130.5 37t99.5 97.5t63.5 139.5t22.5 163q0 63 -16.5 139t-53.5 139.5t-96 106.5t-148 43q-84 0 -143 -40t-97 -103.5t-55.5 -140.5t-17.5 -151z" />
<glyph unicode="&#x3c0;" horiz-adv-x="974" d="M41 944q29 16 77 27.5t146 11.5h660l-15 -80h-131v-633q0 -61 2 -105t6.5 -75t8.5 -52.5t10 -37.5h-92q-10 18 -19.5 76.5t-9.5 181.5v645h-346q-4 -109 -16.5 -240t-31 -256.5t-42 -234.5t-49.5 -172h-88q27 72 51 180.5t41.5 231.5t29 251t15.5 240q-127 0 -189 -18z " />
<glyph unicode="&#x3c1;" horiz-adv-x="1007" d="M141 -74v525q0 86 8.5 148.5t21.5 110.5t31.5 82.5t41.5 63.5q47 61 123.5 104.5t173.5 43.5q178 0 282.5 -132.5t104.5 -363.5q0 -133 -33 -232.5t-88 -165t-128 -98t-153 -32.5q-94 0 -169.5 40.5t-116.5 110.5h-4v-180v-90t2 -97.5t5 -91.5t7 -73h-88 q-12 47 -16.5 132t-4.5 195zM236 369q0 -18 2 -38t6 -40q14 -57 42.5 -100.5t65.5 -73t80 -44t88 -14.5q76 0 134.5 35t98.5 96.5t59 142.5t19 173q0 80 -18 154.5t-55 133t-93.5 93.5t-132.5 35q-53 0 -105 -24t-95 -75t-69.5 -132t-26.5 -195v-127z" />
<glyph unicode="&#x3c2;" horiz-adv-x="731" d="M80 487q0 98 31.5 191.5t91 166.5t145.5 116t195 43q49 0 96 -9.5t78 -27.5l-27 -74q-33 14 -68.5 22.5t-86.5 8.5q-86 0 -153 -37t-113 -96.5t-69.5 -135t-23.5 -155.5q0 -158 70.5 -253t212.5 -145q63 -20 113.5 -31.5t113.5 -21.5q10 -4 14.5 -8t4.5 -18 q0 -33 -9.5 -75t-25 -83t-34 -78t-36.5 -59l-72 20q14 23 28.5 55.5t25 66.5t17.5 63.5t9 46.5q-57 10 -110.5 23t-94.5 26q-141 45 -232 159.5t-91 298.5z" />
<glyph unicode="&#x3c3;" horiz-adv-x="972" d="M80 487q0 129 33.5 225.5t91 161t135.5 97.5t168 33h154h67h55.5h61.5h57.5h42.5l-4 -78h-89t-159 4l-2 -6q94 -68 142.5 -180.5t48.5 -241.5q0 -137 -37 -236.5t-95.5 -163t-131 -93t-142.5 -29.5q-82 0 -153.5 33.5t-126 98t-86 159t-31.5 216.5zM176 489 q0 -82 21.5 -159.5t61.5 -137t96.5 -96.5t125.5 -37h2q68 0 124.5 37t96 98.5t61 140.5t21.5 163q0 66 -16 140.5t-53 139t-95.5 106.5t-140.5 42t-139 -41t-94 -103.5t-54.5 -140.5t-17.5 -152z" />
<glyph unicode="&#x3c4;" horiz-adv-x="722" d="M-2 940q16 16 65.5 29.5t126.5 13.5h523l-19 -80h-293v-665q0 -55 10.5 -89t26 -53.5t35 -27t37.5 -7.5h20.5t20.5 2l-4 -71q-10 -6 -29.5 -9t-36.5 -3q-92 0 -133 70.5t-41 199.5v653h-117q-72 0 -111.5 -6t-66.5 -14z" />
<glyph unicode="&#x3c5;" horiz-adv-x="931" d="M123 983h86q27 -33 27 -184v-447q0 -80 20 -136t53 -90t74 -49.5t82 -15.5q137 0 206.5 130.5t69.5 377.5q0 72 -7 137.5t-17 120t-22.5 94.5t-22.5 62h92q12 -25 24.5 -67t23.5 -94t17.5 -113.5t6.5 -122.5q0 -109 -16.5 -216.5t-58.5 -194.5t-115 -141t-187 -54 q-68 0 -126.5 21.5t-101.5 64.5t-66.5 108.5t-23.5 151.5v317q0 133 -4 217t-14 123z" />
<glyph unicode="&#x3c6;" horiz-adv-x="1128" d="M80 498q0 100 27.5 183t70.5 146.5t94.5 107.5t98.5 71l43 -56q-41 -29 -84 -71.5t-77 -99t-55.5 -126t-21.5 -155.5q0 -80 20.5 -153t62.5 -131t106.5 -97t152.5 -51v682q0 133 55.5 190t133.5 57q57 0 117.5 -31.5t109.5 -93t81 -150.5t32 -202q0 -127 -36 -223 t-96.5 -161.5t-138.5 -101.5t-164 -44v-389h-94v389q-78 6 -155.5 36.5t-141 91t-102.5 155t-39 227.5zM612 66q82 8 144.5 46t105.5 97t65.5 137t22.5 168q0 86 -21.5 160t-56 127t-78.5 83.5t-87 30.5q-41 0 -68 -36.5t-27 -128.5v-684z" />
<glyph unicode="&#x3c7;" horiz-adv-x="802" d="M29 -385l321 707l-305 661h102l256 -580h9q23 55 48 112.5t58 123.5l156 344h98l-319 -659l331 -709l-88 -31l-297 656h-6q-20 -57 -43.5 -118t-50.5 -120l-186 -418z" />
<glyph unicode="&#x3c8;" horiz-adv-x="1140" d="M121 983h88q10 -16 16 -62.5t6 -121.5v-318q0 -117 25 -195.5t67 -129t98 -74t120 -27.5v1172h94v-1172q70 6 128 45t99 107.5t64.5 164t23.5 212.5q0 78 -7 144.5t-17.5 118.5t-22.5 87t-20 49h92q27 -43 48 -147.5t21 -237.5q0 -117 -22.5 -226.5t-71.5 -194.5 t-127 -138t-188 -59v-381h-94v381q-80 6 -153 29.5t-129 77.5t-89 144.5t-33 229.5v307q0 63 -3 122.5t-13 92.5z" />
<glyph unicode="&#x3c9;" horiz-adv-x="1251" d="M80 492q0 86 15.5 163.5t39 144t54 117t61.5 78.5h92v-4q-66 -68 -115 -195.5t-49 -306.5q0 -117 20.5 -198.5t53.5 -131.5t73 -74t78 -24q39 0 72 20.5t57.5 54.5t38 77t13.5 90l-2 404h90l-2 -402q0 -47 14 -91t39 -78t58.5 -54.5t74.5 -20.5t80 27t69.5 82t50 138 t19.5 194q0 166 -50 295t-116 194v4h95q33 -29 63.5 -76t54 -109t36.5 -140t13 -164q0 -135 -27.5 -234.5t-72.5 -164t-102.5 -96t-114.5 -31.5q-86 0 -142.5 48t-84.5 126h-6q-29 -80 -88.5 -127t-145.5 -47q-53 0 -107.5 26.5t-99.5 88t-72.5 158.5t-27.5 239z" />
<glyph unicode="&#x3ca;" horiz-adv-x="399" d="M-39 1227q0 31 21.5 53.5t54.5 22.5q31 0 51.5 -23t20.5 -53q0 -29 -19.5 -52.5t-54.5 -23.5h-2q-33 0 -52.5 23.5t-19.5 52.5zM152 176v807h94v-799q0 -68 15 -97.5t75 -27.5l-8 -75q-10 -2 -21.5 -3t-23.5 -1q-25 0 -48.5 7t-42 28.5t-29.5 60.5t-11 100zM295 1227 q0 31 21.5 53.5t54.5 22.5q31 0 51 -23t20 -53q0 -29 -19.5 -52.5t-53.5 -23.5h-2q-33 0 -52.5 23.5t-19.5 52.5z" />
<glyph unicode="&#x3cb;" horiz-adv-x="931" d="M123 983h86q27 -33 27 -184v-447q0 -80 20 -136t53 -90t74 -49.5t82 -15.5q135 0 205.5 130.5t70.5 377.5q0 72 -7 137.5t-17 120t-22.5 94.5t-22.5 62h92q12 -25 24.5 -67t23.5 -94t17.5 -113.5t6.5 -122.5q0 -109 -16.5 -216.5t-58.5 -194.5t-115 -141t-187 -54 q-68 0 -126.5 21.5t-101.5 64.5t-66.5 108.5t-23.5 151.5v317q0 133 -4 217t-14 123zM213 1227q0 31 21.5 53.5t54.5 22.5q31 0 51 -23t20 -53q0 -29 -19 -52.5t-54 -23.5h-2q-33 0 -52.5 23.5t-19.5 52.5zM547 1227q0 31 21.5 53.5t54.5 22.5q31 0 51 -23t20 -53 q0 -29 -19.5 -52.5t-53.5 -23.5h-3q-33 0 -52 23.5t-19 52.5z" />
<glyph unicode="&#x3cc;" horiz-adv-x="978" d="M80 485q0 129 35 226.5t92 162t132 97.5t157 33q86 0 160.5 -34t128 -99.5t84 -160t30.5 -212.5q0 -137 -37 -235.5t-97 -161t-134 -92t-148 -29.5h-2q-84 0 -156.5 33.5t-127 98t-86 159t-31.5 214.5zM176 489q0 -82 21.5 -159.5t61.5 -137t97.5 -96.5t128.5 -37h2 q72 0 130.5 37t99.5 97.5t63.5 139.5t22.5 163q0 63 -16.5 139t-53.5 139.5t-96 106.5t-148 43q-84 0 -143 -40t-97 -103.5t-55.5 -140.5t-17.5 -151zM430 1102l102 278h115l-153 -278h-64z" />
<glyph unicode="&#x3cd;" horiz-adv-x="931" d="M123 983h86q27 -33 27 -184v-447q0 -80 20 -136t53 -90t74 -49.5t82 -15.5q137 0 206.5 130.5t69.5 377.5q0 72 -7 137.5t-17 120t-22.5 94.5t-22.5 62h92q12 -25 24.5 -67t23.5 -94t17.5 -113.5t6.5 -122.5q0 -109 -16.5 -216.5t-58.5 -194.5t-115 -141t-187 -54 q-68 0 -126.5 21.5t-101.5 64.5t-66.5 108.5t-23.5 151.5v317q0 133 -4 217t-14 123zM401 1102l103 278h114l-153 -278h-64z" />
<glyph unicode="&#x3ce;" horiz-adv-x="1251" d="M80 492q0 86 15.5 163.5t39 144t54 117t61.5 78.5h92v-4q-66 -68 -115 -195.5t-49 -306.5q0 -117 20.5 -198.5t53.5 -131.5t73 -74t78 -24q39 0 72 20.5t57.5 54.5t38 77t13.5 90l-2 404h90l-2 -402q0 -47 14 -91t39 -78t58.5 -54.5t74.5 -20.5t80 27t69.5 82t50 138 t19.5 194q0 166 -50 295t-116 194v4h95q33 -29 63.5 -76t54 -109t36.5 -140t13 -164q0 -135 -27.5 -234.5t-72.5 -164t-102.5 -96t-114.5 -31.5q-86 0 -142.5 48t-84.5 126h-6q-29 -80 -88.5 -127t-145.5 -47q-53 0 -107.5 26.5t-99.5 88t-72.5 158.5t-27.5 239zM571 1102 l105 278h115l-154 -278h-66z" />
<glyph unicode="&#x401;" horiz-adv-x="870" d="M156 0v1380h620v-82h-526v-530h495v-82h-495v-604h557v-82h-651zM221 1569q0 33 20.5 56.5t53.5 23.5q35 0 54.5 -22.5t19.5 -57.5t-19.5 -56.5t-54.5 -21.5h-2q-33 0 -52.5 21.5t-19.5 56.5zM557 1569q0 33 20.5 56.5t53.5 23.5q35 0 54.5 -22.5t19.5 -57.5t-19.5 -56.5 t-54.5 -21.5h-2q-33 0 -52.5 21.5t-19.5 56.5z" />
<glyph unicode="&#x402;" horiz-adv-x="1181" d="M-4 1298v82h901v-82h-453v-475h5q47 33 115.5 59.5t146.5 26.5q195 0 303 -174q53 -88 70.5 -184t17.5 -189q0 -133 -33 -251.5t-92 -196.5q-61 -84 -134 -123t-138 -55l-23 67q61 20 122.5 62.5t106.5 107.5q45 68 70 165.5t25 217.5q0 96 -15.5 177t-56.5 149 q-41 66 -100.5 104.5t-145.5 38.5q-70 0 -131 -23.5t-113 -62.5v-739h-94v1298h-354z" />
<glyph unicode="&#x403;" horiz-adv-x="763" d="M156 0v1380h614v-82h-520v-1298h-94zM350 1454l203 225h145l-266 -225h-82z" />
<glyph unicode="&#x404;" horiz-adv-x="1038" d="M76 694q0 137 42 265t124 225.5t198.5 156t268.5 58.5q106 0 164.5 -17.5t91.5 -33.5l-31 -78q-43 23 -102.5 35t-120.5 12q-127 0 -223.5 -48t-164 -128t-105.5 -182.5t-44 -208.5h664v-78h-664q0 -111 34 -220.5t99.5 -195.5t162.5 -139.5t224 -53.5q78 0 141.5 13.5 t118.5 38.5l23 -74q-47 -23 -122 -41t-179 -18q-133 0 -243.5 52t-189.5 145t-123 224.5t-44 290.5z" />
<glyph unicode="&#x405;" horiz-adv-x="874" d="M80 66l35 77q51 -35 120.5 -57.5t145.5 -22.5q143 0 226 78t83 207q0 115 -61.5 189.5t-190.5 134.5q-66 27 -124 62.5t-103 81.5t-71.5 104.5t-26.5 132.5q0 76 28.5 139t78.5 109.5t119 72t150 25.5q88 0 152 -19.5t94 -42.5l-37 -80q-27 18 -83 39t-134 21 q-76 0 -128 -23.5t-84.5 -59.5t-47 -79t-14.5 -84q0 -59 16.5 -104t49 -81t83 -67t115.5 -61q76 -37 135.5 -78t98 -88t59 -105.5t20.5 -130.5q0 -78 -27.5 -146.5t-79.5 -119.5t-128 -79.5t-174 -28.5q-82 0 -165 24.5t-130 59.5z" />
<glyph unicode="&#x406;" horiz-adv-x="405" d="M156 0v1380h94v-1380h-94z" />
<glyph unicode="&#x407;" horiz-adv-x="405" d="M-37 1569q0 31 20.5 54.5t53.5 23.5q35 0 54.5 -22.5t19.5 -55.5q0 -35 -19.5 -57.5t-54.5 -22.5h-2q-33 0 -52.5 22.5t-19.5 57.5zM156 0v1380h94v-1380h-94zM299 1569q0 31 20.5 54.5t53.5 23.5q35 0 54 -22.5t19 -55.5q0 -35 -19 -57.5t-54 -22.5h-2q-33 0 -52.5 22.5 t-19.5 57.5z" />
<glyph unicode="&#x408;" horiz-adv-x="645" d="M16 4l19 80q23 -8 53.5 -14.5t67.5 -6.5q61 0 108 15.5t80 56.5t49.5 109.5t16.5 177.5v958h94v-974q0 -121 -26.5 -203t-73 -131t-109 -70.5t-135.5 -21.5q-41 0 -80 7t-64 17z" />
<glyph unicode="&#x409;" horiz-adv-x="1566" d="M-14 63q31 6 64.5 23.5t53.5 38.5q43 39 68 108.5t37 158.5t15 192.5t3 208.5v587h623v-546q29 4 76 6t75 2q98 0 187.5 -24.5t156 -76t105.5 -129t39 -184.5q0 -94 -26.5 -164.5t-73.5 -124.5q-70 -78 -176.5 -112.5t-233.5 -34.5q-78 0 -133 3t-90 7v1296h-439v-491 q0 -113 -3 -229.5t-18 -220t-50 -186.5t-99 -130q-27 -18 -67.5 -35.5t-75.5 -17.5zM850 78q31 -4 65.5 -6t79.5 -2q84 0 156 22.5t125 67.5t84 110.5t31 151.5q0 88 -32 151.5t-87 105.5t-128 61.5t-155 19.5q-29 0 -66.5 -2t-72.5 -6v-674z" />
<glyph unicode="&#x40a;" horiz-adv-x="1626" d="M156 0v1380h94v-579h563v579h94v-567q29 4 76 6t96 2q94 0 179 -23.5t148.5 -72.5t100.5 -124t37 -177q0 -96 -26.5 -166t-73.5 -123q-70 -78 -173.5 -111.5t-232.5 -33.5q-80 0 -135 4t-90 8v717h-563v-719h-94zM907 78q31 -6 65 -8t81 -2q82 0 153.5 21.5t124.5 65.5 t84 109.5t31 155.5q0 84 -31 144.5t-84 99t-123.5 57t-150.5 18.5q-45 0 -82 -2t-68 -6v-653z" />
<glyph unicode="&#x40b;" horiz-adv-x="1204" d="M-4 1298v82h883v-82h-439v-479h4q53 35 130 64.5t159 29.5q78 0 131.5 -22.5t91.5 -59.5q53 -53 78 -127.5t25 -166.5v-537h-94v518q0 86 -16.5 142.5t-51.5 97.5q-33 37 -77 56.5t-105 19.5q-72 0 -147.5 -30t-127.5 -65v-739h-94v1298h-350z" />
<glyph unicode="&#x40c;" horiz-adv-x="937" d="M156 0v1380h94v-639h59l473 639h107l-488 -647q88 -10 150.5 -40.5t106.5 -79t74 -111t54 -133.5q35 -100 63 -191.5t69 -177.5h-101q-35 70 -63.5 164t-57.5 182q-25 70 -54.5 129.5t-74.5 101t-110.5 65.5t-159.5 24h-47v-666h-94zM410 1444l202 225h146l-264 -225h-84 z" />
<glyph unicode="&#x40e;" horiz-adv-x="903" d="M12 1380h107l280 -630q23 -59 46.5 -118t46.5 -120h4q20 57 39.5 116.5t42.5 125.5l223 626h98l-258 -673q-23 -59 -48.5 -131t-55 -146t-62.5 -144.5t-69 -129.5q-123 -176 -269 -176q-45 0 -63 6l10 77q10 -2 39 -2q61 0 109.5 32t85 79t63.5 101.5t45 99.5q10 25 9 43 t-13 47zM223 1634h88q4 -18 12.5 -39.5t23.5 -40t40 -31t66 -12.5q39 0 64.5 11.5t40.5 30t22.5 40t11.5 41.5h90q-10 -84 -61.5 -138t-169.5 -54q-115 0 -168.5 54t-59.5 138z" />
<glyph unicode="&#x40f;" horiz-adv-x="1138" d="M156 0v1380h94v-1298h643v1298h94v-1380h-364l-13 -324h-80l-12 324h-362z" />
<glyph unicode="&#x410;" horiz-adv-x="1097" d="M61 0l447 1380h92l447 -1380h-99l-153 481h-486l-151 -481h-97zM336 561h432l-145 440q-23 74 -38.5 136.5t-29.5 128.5h-6q-14 -68 -30.5 -130.5t-37.5 -131.5z" />
<glyph unicode="&#x411;" horiz-adv-x="966" d="M156 2v1378h632v-82h-538v-464q14 2 34.5 3l41 2t40 2t33.5 1q94 0 177 -21.5t147 -68.5q74 -49 119 -129t45 -197q0 -94 -26.5 -166t-74.5 -125q-70 -78 -176 -111.5t-231 -33.5q-78 0 -133.5 4t-89.5 8zM250 78q31 -6 64.5 -8t80.5 -2q94 0 178 31.5t138 90.5 q78 90 77 232q0 90 -32.5 153.5t-87.5 104.5q-109 80 -279 80q-29 0 -66.5 -2t-72.5 -6v-674z" />
<glyph unicode="&#x412;" horiz-adv-x="952" d="M156 2v1360q53 12 115.5 20.5t134.5 8.5q119 0 200.5 -28t134.5 -81q41 -41 62.5 -97.5t21.5 -129.5q0 -109 -64.5 -191t-168.5 -119v-4q49 -12 99 -38.5t91 -69.5t66.5 -104.5t25.5 -143.5q0 -86 -26.5 -152.5t-73.5 -115.5q-66 -70 -167 -98.5t-230 -28.5 q-78 0 -132.5 4t-88.5 8zM250 80q27 -6 62.5 -8t82.5 -2q78 0 146.5 17t121 54t83 96.5t30.5 145.5q0 82 -30.5 141.5t-83 98.5t-122 57t-145.5 18h-145v-618zM250 776h166q70 0 127 20.5t98 57.5t63.5 86t22.5 109q0 135 -87 198.5t-241 63.5q-57 0 -92 -4t-57 -11v-520z " />
<glyph unicode="&#x413;" horiz-adv-x="763" d="M156 0v1380h614v-82h-520v-1298h-94z" />
<glyph unicode="&#x414;" horiz-adv-x="1118" d="M20 82h95q39 80 74.5 162t58.5 170q35 135 49 289.5t14 353.5v323h623v-1298h102l-8 -391h-80l-8 309h-823l-8 -309h-80zM213 82h627v1216h-441v-284q0 -186 -14 -339t-49 -284q-23 -86 -55.5 -163.5t-67.5 -145.5z" />
<glyph unicode="&#x415;" horiz-adv-x="870" d="M156 0v1380h620v-82h-526v-530h495v-82h-495v-604h557v-82h-651z" />
<glyph unicode="&#x416;" horiz-adv-x="1402" d="M29 0q41 92 66.5 185.5t54.5 185.5q25 74 53 136t69 109.5t98.5 77t137.5 39.5l-453 647h105l434 -641h61v641h93v-641h63l430 641h107l-453 -647q80 -10 137.5 -39.5t98 -77t68.5 -110t52 -135.5q31 -92 55.5 -185.5t65.5 -185.5h-98q-16 33 -31.5 77t-29 91t-25.5 93 t-25 81q-25 74 -51.5 134.5t-66 103.5t-98 65.5t-146.5 22.5h-53v-668h-93v668h-55q-88 0 -147.5 -22.5t-99.5 -65.5t-67.5 -103.5t-52.5 -134.5q-12 -35 -24 -81t-25.5 -93t-28 -91t-28.5 -77h-98z" />
<glyph unicode="&#x417;" horiz-adv-x="886" d="M57 61l37 76q55 -35 127 -56.5t150 -21.5q82 0 144.5 23.5t104.5 64.5t63.5 98.5t21.5 123.5q0 86 -34 145t-90.5 97t-128 55.5t-147.5 17.5h-49v78h45q72 0 136.5 24.5t112.5 66.5t76.5 96.5t28.5 115.5q0 123 -73.5 188.5t-192.5 65.5q-72 0 -138.5 -27.5t-117.5 -62.5 l-33 71q63 47 139 74t169 27q74 0 137 -21.5t109 -63.5t72 -102.5t26 -140.5q0 -61 -21.5 -116.5t-58.5 -100.5t-88.5 -78t-110.5 -47v-4q152 -16 241 -111.5t89 -244.5q0 -98 -34 -172t-92.5 -122t-138 -72.5t-171.5 -24.5q-78 0 -159 19t-151 62z" />
<glyph unicode="&#x418;" horiz-adv-x="1181" d="M154 0v1380h92v-663q0 -84 -1 -156t-2 -140.5t-4 -138t-10 -147.5l4 -2q47 109 107.5 220.5t134.5 240.5l461 786h90v-1380h-92v664v171.5t2 146.5t5 133.5t7 131.5l-6 2q-51 -121 -113.5 -232.5t-130.5 -228.5l-454 -788h-90z" />
<glyph unicode="&#x419;" horiz-adv-x="1181" d="M154 0v1380h92v-663q0 -84 -1 -156t-2 -140.5t-4 -138t-10 -147.5l4 -2q47 109 107.5 220.5t134.5 240.5l461 786h90v-1380h-92v664v171.5t2 146.5t5 133.5t7 131.5l-6 2q-51 -121 -113.5 -232.5t-130.5 -228.5l-454 -788h-90zM360 1638h89q4 -18 12 -39.5t23.5 -40 t41 -30.5t66.5 -12q39 0 64.5 11t41 29.5t21.5 40t10 41.5h90q-8 -84 -60 -138t-171 -54q-115 0 -168 54t-60 138z" />
<glyph unicode="&#x41a;" horiz-adv-x="937" d="M156 0v1380h94v-639h59l473 639h107l-488 -647q88 -10 150.5 -40.5t106.5 -79t74 -111t54 -133.5q35 -100 63 -191.5t69 -177.5h-101q-35 70 -63.5 164t-57.5 182q-25 70 -54.5 129.5t-74.5 101t-110.5 65.5t-159.5 24h-47v-666h-94z" />
<glyph unicode="&#x41b;" horiz-adv-x="1050" d="M-16 63q31 6 62.5 23.5t51.5 36.5q43 39 67.5 109.5t38 160.5t16.5 193.5t3 206.5v587h670v-1380h-94v1298h-484v-491q0 -115 -2 -230.5t-18 -220t-51 -187.5t-99 -128q-27 -20 -67.5 -36.5t-81.5 -16.5z" />
<glyph unicode="&#x41c;" horiz-adv-x="1468" d="M121 0l92 1380h109l266 -770q45 -135 78.5 -241.5t62.5 -212.5h6q25 104 58.5 207.5t83.5 244.5l270 772h115l88 -1380h-95l-38 657q-4 78 -9.5 161t-8.5 163t-5 152.5t0 130.5h-8q-35 -115 -74 -239t-92 -277l-264 -748h-60l-247 725q-55 162 -95.5 292t-68.5 247h-6 q-2 -123 -9.5 -287t-17.5 -338l-37 -639h-94z" />
<glyph unicode="&#x41d;" horiz-adv-x="1167" d="M156 0v1380h94v-610h668v610h94v-1380h-94v688h-668v-688h-94z" />
<glyph unicode="&#x41e;" horiz-adv-x="1222" d="M76 680q0 176 43 310t116.5 225.5t173 138.5t214.5 47q111 0 207 -46t166.5 -135.5t110.5 -219.5t40 -300q0 -186 -45 -321t-121 -224t-173 -132t-204 -43h-2q-109 0 -205 45t-167.5 134t-112.5 219t-41 302zM174 682q0 -111 26.5 -222.5t81 -199.5t136.5 -143.5 t190 -55.5h2q111 0 193 54.5t137 143.5t82 202.5t27 234.5q0 106 -25 217t-78 201t-135 147.5t-199 57.5t-199.5 -56.5t-136 -147.5t-78 -204.5t-24.5 -228.5z" />
<glyph unicode="&#x41f;" horiz-adv-x="1142" d="M156 0v1380h833v-1380h-94v1298h-645v-1298h-94z" />
<glyph unicode="&#x420;" horiz-adv-x="942" d="M156 0v1364q53 10 118.5 18.5t145.5 8.5q111 0 195.5 -29t138.5 -82q47 -47 74.5 -115.5t27.5 -156.5q0 -90 -22.5 -155t-63.5 -116q-61 -78 -161.5 -117.5t-217.5 -39.5q-41 0 -75.5 2t-65.5 10v-592h-94zM250 676q29 -10 65.5 -13.5t79.5 -3.5q166 0 265.5 85t99.5 255 q0 150 -91 231t-253 81q-57 0 -99.5 -5.5t-66.5 -9.5v-620z" />
<glyph unicode="&#x421;" horiz-adv-x="1038" d="M76 680q0 170 46 304t129 226.5t197.5 140.5t249.5 48q111 0 177.5 -17.5t95.5 -33.5l-31 -82q-45 23 -105.5 37t-138.5 14q-115 0 -211 -40t-164.5 -120t-107.5 -198.5t-39 -274.5q0 -154 37 -269.5t103.5 -193.5t160.5 -116.5t211 -38.5q78 0 147.5 14t116.5 41l29 -78 q-47 -25 -129 -43t-191 -18q-111 0 -216 38.5t-187 123.5t-131 217.5t-49 318.5z" />
<glyph unicode="&#x422;" horiz-adv-x="868" d="M-4 1300v80h881v-80h-394v-1300h-94v1300h-393z" />
<glyph unicode="&#x423;" horiz-adv-x="903" d="M12 1380h107l280 -630q23 -59 46.5 -118t46.5 -120h4q20 57 39.5 116.5t42.5 125.5l223 626h98l-258 -673q-23 -59 -48.5 -131t-55 -146t-62.5 -144.5t-69 -129.5q-123 -176 -269 -176q-45 0 -63 6l10 77q10 -2 39 -2q61 0 109.5 32t85 79t63.5 101.5t45 99.5q10 25 9 43 t-13 47z" />
<glyph unicode="&#x424;" horiz-adv-x="1263" d="M76 684q0 172 46 290t119.5 189.5t164 105.5t180.5 38v123h94v-123q96 -4 187 -40t162 -110t114 -189.5t43 -277.5q0 -172 -45 -286.5t-117 -185.5t-164 -103.5t-184 -36.5v-127h-94v127q-92 6 -182.5 36.5t-162 99.5t-116.5 183.5t-45 286.5zM174 688q0 -135 33 -233.5 t89 -163t131 -99t157 -42.5v1085q-72 -4 -145.5 -32.5t-132 -93.5t-95.5 -168t-37 -253zM678 150q82 6 156.5 39.5t131 99t89 165t32.5 238.5q0 147 -34.5 249.5t-93 166t-132 93.5t-149.5 34v-1085z" />
<glyph unicode="&#x425;" horiz-adv-x="1015" d="M59 0l396 700l-381 680h106l201 -366q37 -61 66.5 -115.5t60.5 -114.5h4q31 66 60.5 117t66.5 115l205 364h108l-391 -669l397 -711h-106l-193 350q-51 86 -85.5 147.5t-67.5 127.5h-6q-31 -66 -65 -128.5t-85 -148.5l-182 -348h-109z" />
<glyph unicode="&#x426;" horiz-adv-x="1167" d="M156 0v1380h94v-1298h639v1298h94v-1298h102l-8 -391h-80l-8 309h-833z" />
<glyph unicode="&#x427;" horiz-adv-x="1060" d="M145 899v481h95v-465q0 -141 68.5 -227t223.5 -86q74 0 149 23.5t130 58.5v696h94v-1386h-94v608h-4q-66 -39 -144.5 -60.5t-160.5 -21.5q-53 0 -115.5 13.5t-116 54.5t-89.5 115.5t-36 195.5z" />
<glyph unicode="&#x428;" horiz-adv-x="1511" d="M154 0v1380h94v-1298h461v1298h94v-1298h461v1298h94v-1380h-1204z" />
<glyph unicode="&#x429;" horiz-adv-x="1540" d="M154 0v1380h94v-1298h461v1298h94v-1298h461v1298h94v-1298h100l-8 -391h-80l-8 309h-1208z" />
<glyph unicode="&#x42a;" horiz-adv-x="1132" d="M-6 1298v82h432v-546q29 4 71 6t74 2q96 0 183.5 -24.5t154 -76t105.5 -130.5t39 -185q0 -94 -27 -166t-74 -125q-70 -78 -175 -111.5t-228 -33.5q-74 0 -128 4t-89 8v1296h-338zM426 78q31 -4 64.5 -7t74.5 -3q84 0 156 22.5t124 67.5t80.5 111.5t28.5 152.5 q0 88 -31.5 151.5t-86 105.5t-125 61.5t-146.5 19.5q-33 0 -68.5 -2t-70.5 -6v-674z" />
<glyph unicode="&#x42b;" horiz-adv-x="1300" d="M156 2v1378h94v-549q29 6 75 8.5t74 2.5q102 0 191.5 -24.5t155 -76t103.5 -130.5t38 -185q0 -92 -25.5 -162.5t-73.5 -124.5q-72 -78 -178 -113.5t-233 -35.5q-78 0 -132.5 4t-88.5 8zM250 78q31 -6 64.5 -8t78.5 -2q84 0 157 22.5t126 67.5t82.5 111.5t29.5 152.5 q0 88 -31.5 151.5t-87 105.5t-128 61.5t-152.5 19.5q-49 0 -87 -2t-52 -6v-674zM1051 0v1380h94v-1380h-94z" />
<glyph unicode="&#x42c;" horiz-adv-x="964" d="M156 2v1378h94v-549q29 6 75 8.5t74 2.5q98 0 187.5 -24.5t156 -76t105.5 -130.5t39 -185q0 -92 -25.5 -162.5t-73.5 -124.5q-72 -78 -178 -113.5t-233 -35.5q-78 0 -132.5 4t-88.5 8zM250 78q31 -6 64.5 -8t78.5 -2q82 0 153.5 22.5t126 66.5t85 110.5t30.5 154.5 t-31.5 151.5t-87 105.5t-128 61.5t-152.5 19.5q-31 0 -69.5 -2t-69.5 -6v-674z" />
<glyph unicode="&#x42d;" horiz-adv-x="1028" d="M59 45l29 80q55 -27 125 -44.5t141 -17.5q125 0 218.5 52.5t156 137.5t94 193.5t31.5 223.5h-606v82h604q-6 109 -38 210t-90 180t-144 127t-201 48q-72 0 -134.5 -16.5t-123.5 -45.5l-31 76q66 31 136.5 49.5t148.5 18.5q147 0 256.5 -57.5t180.5 -153.5t105.5 -224 t34.5 -270q0 -152 -42 -281.5t-118.5 -226t-185 -150.5t-239.5 -54q-164 0 -308 63z" />
<glyph unicode="&#x42e;" horiz-adv-x="1538" d="M156 0v1380h94v-624h211q8 160 49 280.5t107.5 201.5t156.5 122t197 41q109 0 199 -46t155.5 -135.5t101 -220.5t35.5 -301q0 -186 -42 -322t-112.5 -224.5t-162.5 -130t-193 -41.5q-104 0 -194 44t-156.5 131t-104.5 217t-38 302h-209v-674h-94zM553 682 q0 -111 24.5 -222.5t74.5 -199.5t126 -143.5t178 -55.5h2q102 0 179 54.5t127.5 143.5t75 202.5t24.5 232.5q0 106 -22.5 217t-70.5 202t-125 148.5t-185 57.5q-109 0 -186 -56.5t-126 -147.5t-72.5 -204.5t-23.5 -228.5z" />
<glyph unicode="&#x42f;" horiz-adv-x="954" d="M35 0q31 59 47 117q20 57 36.5 122.5t37 130t48 123t68.5 103.5q51 53 115 70v4q-125 23 -207 112.5t-82 229.5q0 92 32 164.5t91 119.5q53 43 132 69t190 26q63 0 130.5 -6.5t125.5 -20.5v-1364h-94v633h-140q-70 0 -122 -15.5t-93 -60.5q-35 -39 -60.5 -95t-45 -118.5 t-34.5 -126t-34 -117.5q-10 -27 -18 -51t-23 -49h-100zM195 1016q0 -72 27.5 -129.5t76.5 -97t115.5 -60t146.5 -20.5h80t64 2v585q-25 6 -66 11.5t-100 5.5q-74 0 -136.5 -17.5t-108.5 -53.5t-72.5 -92t-26.5 -134z" />
<glyph unicode="&#x430;" horiz-adv-x="851" d="M76 250q0 174 138 266t400 90v29q0 45 -6 95t-29.5 93t-68.5 71t-123 28q-55 0 -111.5 -15.5t-103.5 -50.5l-27 70q53 39 122 58.5t134 19.5q88 0 147.5 -30t95.5 -81t50.5 -116.5t14.5 -139.5v-408q0 -57 2 -116.5t10 -112.5h-86l-12 131h-7q-35 -57 -103.5 -104 t-170.5 -47q-66 0 -115 22.5t-82.5 59t-51 86t-17.5 102.5zM174 262q0 -53 15.5 -92t40 -63.5t56 -36t66.5 -11.5q104 0 168 58.5t86 136.5q4 16 6 31.5t2 27.5v213q-66 2 -142.5 -5t-142 -33.5t-110.5 -80t-45 -145.5z" />
<glyph unicode="&#x431;" horiz-adv-x="925" d="M84 623q0 162 24.5 295t81.5 237q59 111 149.5 166t217.5 84q53 14 107.5 27.5t101.5 31.5l-2 -88q-35 -14 -89 -27.5t-102 -23.5q-106 -23 -183 -70t-128 -135q-45 -78 -66.5 -174t-29.5 -182h4q41 109 128 164t183 55q76 0 142.5 -27.5t115.5 -87t78 -150.5t29 -218 q0 -256 -95.5 -388t-281.5 -132q-119 0 -193.5 60t-117.5 154.5t-58.5 208t-15.5 220.5zM188 528q0 -61 14.5 -142t48.5 -154.5t88 -124t134 -50.5q78 0 131 40t85 101.5t46.5 137.5t14.5 149v2q0 63 -12.5 136t-45.5 135.5t-87 103.5t-136 41q-86 0 -145.5 -43t-92.5 -110 q-23 -51 -33 -108.5t-10 -113.5z" />
<glyph unicode="&#x432;" horiz-adv-x="892" d="M145 -2v977q49 10 113 15t125 5t128 -9t124 -35.5t94 -74t37 -122.5q0 -88 -56.5 -149.5t-148.5 -82.5v-4q106 -16 178 -76.5t72 -173.5q0 -88 -44 -142t-109.5 -85t-144.5 -42t-148 -11q-70 0 -128.5 3t-91.5 7zM236 76q37 -4 69.5 -5t73.5 -1q51 0 109.5 7t108.5 28.5 t83 61.5t33 103t-30 103.5t-79 63t-111.5 30.5t-125.5 8h-131v-399zM238 553h141q47 0 98 10t94 32.5t71 58.5t28 87q0 94 -77 133t-216 39q-47 0 -78 -2t-61 -6v-352z" />
<glyph unicode="&#x433;" horiz-adv-x="690" d="M147 0v983h508v-82h-413v-901h-95z" />
<glyph unicode="&#x434;" horiz-adv-x="940" d="M14 82h72q61 94 100 203q31 98 45.5 202.5t14.5 221.5v274h526v-901h92l-8 -375h-78l-8 293h-661l-9 -293h-77zM188 82h490v821h-346v-188q0 -123 -13.5 -231.5t-44.5 -207.5q-16 -55 -38.5 -102t-47.5 -92z" />
<glyph unicode="&#x435;" horiz-adv-x="897" d="M80 477q0 121 29.5 218.5t82 166t126 105.5t159.5 37q106 0 173 -46.5t105 -114t51 -142t13 -132.5v-31.5t-2 -27.5h-643q0 -127 27.5 -213t75 -138.5t107.5 -74t126 -21.5q92 0 146.5 15.5t91.5 36.5l22 -74q-31 -18 -99.5 -38.5t-172.5 -20.5q-98 0 -176 36.5 t-132.5 102t-82 157t-27.5 199.5zM178 586h543q2 63 -11.5 123.5t-44 107.5t-80.5 77t-120 30t-121 -31t-86 -80t-54.5 -109.5t-25.5 -117.5z" />
<glyph unicode="&#x436;" horiz-adv-x="1200" d="M20 0q29 53 51.5 119.5t45.5 130.5q47 127 118.5 195.5t196.5 80.5l-391 457h117l362 -448h35v448h90v-448h35l362 448h115l-387 -457q123 -12 195.5 -78.5t117.5 -191.5q23 -70 44.5 -138.5t50.5 -117.5h-97q-25 45 -45 103.5t-41 115.5q-25 76 -57.5 123t-72.5 73.5 t-88 37t-103 10.5h-29v-463h-90v463h-29q-66 0 -115 -11.5t-86.5 -40t-67.5 -76.5t-56 -122q-23 -57 -42.5 -111.5t-43.5 -101.5h-95z" />
<glyph unicode="&#x437;" horiz-adv-x="761" d="M55 45l35 76q49 -29 107.5 -46.5t117.5 -17.5q115 0 190 58.5t75 148.5q0 61 -28 102.5t-73 66t-100 33.5t-111 9h-49v78h43q55 0 105.5 14.5t87.5 41t59.5 63.5t22.5 82q0 84 -57.5 128t-139.5 44q-53 0 -108.5 -18.5t-102.5 -47.5l-33 66q121 78 258 78 q49 0 99.5 -14.5t90.5 -44.5t65.5 -77t25.5 -114q0 -45 -18.5 -84t-48 -69t-68.5 -50.5t-82 -28.5v-2q115 -10 189.5 -77.5t74.5 -178.5q0 -74 -30.5 -127t-81 -88t-117 -52t-140.5 -17q-70 0 -137 18t-121 47z" />
<glyph unicode="&#x438;" horiz-adv-x="989" d="M147 0v983h93v-463v-109.5t-1 -99.5t-3.5 -100t-6.5 -111h4q25 49 46.5 92.5t43 85t44 85t49.5 90.5l319 530h107v-983h-92v461v123t2 104t3 96t5 101h-4q-51 -104 -92 -184t-89 -162q-35 -53 -73.5 -117t-79.5 -134.5t-84 -144t-86 -143.5h-105z" />
<glyph unicode="&#x439;" horiz-adv-x="989" d="M147 0v983h93v-463v-109.5t-1 -99.5t-3.5 -100t-6.5 -111h4q25 49 46.5 92.5t43 85t44 85t49.5 90.5l319 530h107v-983h-92v461v123t2 104t3 96t5 101h-4q-51 -104 -92 -184t-89 -162q-35 -53 -73.5 -117t-79.5 -134.5t-84 -144t-86 -143.5h-105zM258 1372h86 q6 -66 42 -112t108 -46q76 0 110.5 45.5t44.5 112.5h84q-10 -117 -74.5 -171t-166.5 -54q-117 0 -170.5 62.5t-63.5 162.5z" />
<glyph unicode="&#x43a;" horiz-adv-x="849" d="M152 0v983h94v-448h39l405 448h125l-432 -457q135 -12 216 -90t136 -215q18 -47 41 -106.5t51 -114.5h-100q-20 37 -44 92t-44 109q-53 133 -135 196.5t-228 63.5h-30v-461h-94z" />
<glyph unicode="&#x43b;" horiz-adv-x="907" d="M4 70q23 4 46.5 12t39.5 18q76 51 94.5 170t18.5 303v410h557v-983h-94v903h-369v-317q0 -111 -6 -202t-22.5 -161.5t-48.5 -120t-83 -75.5q-27 -16 -54.5 -25.5t-68.5 -9.5z" />
<glyph unicode="&#x43c;" horiz-adv-x="1155" d="M84 0l74 983h108l205 -553q27 -72 55.5 -152.5t48.5 -144.5h3q23 70 58.5 171.5t70.5 193.5l180 485h110l74 -983h-94l-27 504q-6 96 -11 182t-9 191h-6q-16 -59 -45 -139.5t-70 -190.5l-207 -547h-65l-197 532q-29 82 -58.5 174.5t-52.5 170.5h-8q-2 -88 -6 -181.5 t-10 -197.5l-27 -498h-94z" />
<glyph unicode="&#x43d;" horiz-adv-x="983" d="M147 0v983h95v-428h499v428h95v-983h-95v473h-499v-473h-95z" />
<glyph unicode="&#x43e;" horiz-adv-x="978" d="M80 485q0 129 35 226.5t92 162t132 97.5t157 33q86 0 160.5 -34t128 -99.5t84 -160t30.5 -212.5q0 -137 -37 -235.5t-97 -161t-134 -92t-148 -29.5h-2q-84 0 -156.5 33.5t-127 98t-86 159t-31.5 214.5zM176 489q0 -82 21.5 -159.5t61.5 -137t97.5 -96.5t128.5 -37h2 q72 0 130.5 37t99.5 97.5t63.5 139.5t22.5 163q0 63 -16.5 139t-53.5 139.5t-96 106.5t-148 43q-84 0 -143 -40t-97 -103.5t-55.5 -140.5t-17.5 -151z" />
<glyph unicode="&#x43f;" horiz-adv-x="970" d="M147 0v983h676v-983h-94v901h-487v-901h-95z" />
<glyph unicode="&#x440;" horiz-adv-x="1017" d="M143 983h90l7 -170h4q100 190 317 191q82 0 151.5 -35t120 -99.5t78 -156.5t27.5 -209q0 -135 -33 -233.5t-88 -163t-128 -96t-152 -31.5q-98 0 -172 44t-115 119h-4v-544h-94v1073q0 104 -2.5 177t-6.5 134zM246 379q0 -45 8 -78q29 -123 108.5 -182.5t169.5 -59.5 q76 0 134.5 34t97.5 93.5t58.5 139.5t19.5 174q0 82 -19.5 158.5t-57.5 135t-94.5 94.5t-131.5 36q-49 0 -94.5 -19.5t-83 -53.5t-65.5 -80t-40 -101q-4 -20 -7 -41t-3 -41v-209z" />
<glyph unicode="&#x441;" horiz-adv-x="817" d="M80 483q0 113 32.5 208t93 165t145.5 109t188 39q76 0 135 -17.5t86 -36.5l-33 -80q-29 16 -78 33t-121 17q-90 0 -155.5 -36t-109.5 -96.5t-65.5 -139.5t-21.5 -163q0 -96 25.5 -174t71.5 -133t109.5 -85t141.5 -30q72 0 122 16.5t87 33.5l25 -74q-31 -16 -95.5 -36.5 t-154.5 -20.5q-96 0 -175 35.5t-135.5 101t-87 158t-30.5 206.5z" />
<glyph unicode="&#x442;" horiz-adv-x="718" d="M23 901v82h675v-82h-290v-901h-95v901h-290z" />
<glyph unicode="&#x443;" horiz-adv-x="825" d="M27 983h100l225 -629q20 -57 37 -113.5t29 -103.5h4q14 45 31.5 102.5t35.5 118.5l211 625h101l-248 -680q-78 -225 -146.5 -382t-162.5 -253q-53 -53 -99.5 -79.5t-64.5 -34.5l-37 79q37 16 80 46t84 75q35 41 75 100.5t68 131.5q6 18 8 27.5t2 19.5q0 16 -8 41z" />
<glyph unicode="&#x444;" horiz-adv-x="1114" d="M80 487q0 123 32.5 216.5t91 158t137.5 99t173 40.5v443h88v-440q96 -6 176 -42t136.5 -99.5t88 -156t31.5 -208.5q0 -125 -32.5 -218.5t-90 -158t-136.5 -99t-173 -40.5v-383h-88v383q-96 6 -176 41.5t-137.5 99t-89 156t-31.5 208.5zM176 489q0 -80 22.5 -154.5 t66.5 -133t106.5 -97t142.5 -47.5v871q-80 -8 -143.5 -47t-106.5 -98.5t-65.5 -135.5t-22.5 -158zM602 57q80 8 142.5 48t105.5 99.5t65.5 135.5t22.5 156q0 82 -22.5 156.5t-65.5 133t-105.5 95.5t-142.5 47v-871z" />
<glyph unicode="&#x445;" horiz-adv-x="802" d="M25 0l325 502l-307 481h104l152 -235q29 -43 52.5 -84t49.5 -89h5q25 47 51 89.5t51 83.5l149 235h107l-313 -479l319 -504h-106l-156 248q-29 45 -55.5 89t-55.5 95h-4q-25 -49 -51.5 -92t-56.5 -92l-154 -248h-106z" />
<glyph unicode="&#x446;" horiz-adv-x="985" d="M147 0v983h95v-901h481v901h94v-901h92l-8 -375h-78l-8 293h-668z" />
<glyph unicode="&#x447;" horiz-adv-x="919" d="M133 604v379h94v-358q0 -47 9.5 -88t34 -72t66.5 -48.5t107 -17.5q63 0 126 20.5t110 55.5v508h94v-991h-94v403h-2q-51 -33 -120 -53t-134 -20q-59 0 -111.5 15t-92.5 49t-63.5 87t-23.5 131z" />
<glyph unicode="&#x448;" horiz-adv-x="1327" d="M147 0v983h95v-901h374v901h95v-901h374v901h95v-983h-1033z" />
<glyph unicode="&#x449;" horiz-adv-x="1347" d="M147 0v983h95v-901h374v901h95v-901h374v901h95v-901h92l-8 -375h-78l-8 293h-1031z" />
<glyph unicode="&#x44a;" horiz-adv-x="1028" d="M25 903v80h376v-360q35 4 75 6t75 2q72 0 143.5 -16.5t130 -53.5t94 -98.5t35.5 -149.5q0 -72 -23.5 -124t-64.5 -91q-66 -63 -160 -85.5t-192 -22.5q-59 0 -112.5 4t-94.5 6v903h-282zM401 76q29 -4 60 -6t71 -2q63 0 122 12t104 41t71.5 75t26.5 113q0 70 -28.5 117 t-74.5 74.5t-105.5 40t-121.5 12.5q-35 0 -64.5 -3t-60.5 -7v-467z" />
<glyph unicode="&#x44b;" horiz-adv-x="1140" d="M147 0v983h95v-362q20 4 58 7t81 3q76 0 146.5 -18.5t126 -56.5t88 -98.5t32.5 -144.5q0 -70 -23.5 -122t-64.5 -91q-66 -63 -158 -86.5t-174 -23.5q-59 0 -112.5 4t-94.5 6zM242 76q29 -4 58.5 -6t66.5 -2q57 0 113.5 14t99.5 44t69.5 75t26.5 108q0 68 -26.5 114 t-69.5 74.5t-98.5 42t-112.5 13.5q-35 0 -67 -3t-60 -7v-467zM903 -2v985h90v-985h-90z" />
<glyph unicode="&#x44c;" horiz-adv-x="878" d="M147 0v983h95v-360q31 4 71.5 6t73.5 2q78 0 152.5 -15.5t134 -52.5t95.5 -98.5t36 -153.5q0 -70 -23.5 -121t-64.5 -90q-66 -63 -165 -86.5t-198 -23.5q-59 0 -112.5 4t-94.5 6zM242 76q29 -4 59.5 -6t71.5 -2q57 0 116.5 12t107.5 39.5t79 75t31 114.5q0 72 -32 119 t-81 74.5t-109.5 39t-117.5 11.5q-35 0 -65 -2t-60 -8v-467z" />
<glyph unicode="&#x44d;" horiz-adv-x="825" d="M55 41l29 74q33 -16 87 -34t132 -18q76 0 139.5 29t109.5 82t71.5 127t27.5 164h-477v78h475q-4 72 -24.5 139.5t-61.5 120.5t-105.5 86t-154.5 33q-66 0 -118 -17.5t-87 -34.5l-24 68q51 31 115.5 48.5t129.5 17.5q102 0 184.5 -39t139.5 -111q53 -70 77.5 -164 t24.5 -205q0 -94 -27.5 -185t-82.5 -161.5t-139 -113.5t-199 -43q-63 0 -125.5 15t-116.5 44z" />
<glyph unicode="&#x44e;" horiz-adv-x="1241" d="M145 0v983h93v-440h180q6 109 37.5 193.5t81 144t115 91.5t141.5 32q80 0 146.5 -34t115.5 -98.5t76.5 -159t27.5 -214.5q0 -121 -28.5 -217.5t-79 -163t-119 -102t-150.5 -35.5q-76 0 -141.5 31.5t-114.5 93t-78.5 151.5t-31.5 207h-178v-463h-93zM510 485 q0 -74 16.5 -149.5t50 -137t86 -101.5t123.5 -40h2q74 0 127.5 42t86 106.5t48 141.5t15.5 149t-15.5 147.5t-49 138t-86 102.5t-126.5 40q-72 0 -124 -39t-85.5 -101.5t-51 -140.5t-17.5 -158z" />
<glyph unicode="&#x44f;" horiz-adv-x="872" d="M25 0q16 25 29.5 50.5t25.5 58.5q16 39 28.5 83t28 85.5t37 79.5t55.5 67q20 18 48 32.5t63 20.5v4q-49 6 -94 24.5t-80 49.5t-55.5 73t-20.5 97q0 66 27.5 115t75.5 84q51 37 125.5 54t160.5 17q63 0 128 -5t118 -15v-975h-94v442h-142q-66 0 -108.5 -13t-71.5 -40 q-31 -25 -51 -60.5t-35.5 -76.5t-28 -85t-28.5 -87q-10 -23 -18.5 -43.5t-18.5 -36.5h-104zM188 723q0 -55 29 -94t73 -63.5t94 -35t93 -10.5h154v389q-35 6 -68 9.5t-80 3.5q-49 0 -101 -8.5t-95 -31t-71 -61.5t-28 -98z" />
<glyph unicode="&#x451;" horiz-adv-x="897" d="M80 477q0 121 29.5 218.5t82 166t126 105.5t159.5 37q106 0 173 -46.5t105 -114t51 -142t13 -132.5v-31.5t-2 -27.5h-643q0 -127 27.5 -213t74 -138.5t107.5 -74t127 -21.5q92 0 146.5 15.5t91.5 36.5l22 -74q-31 -18 -99.5 -38.5t-172.5 -20.5q-98 0 -176 36.5 t-131.5 102t-82 157t-28.5 199.5zM178 586h543q2 63 -11.5 123.5t-44 107.5t-80.5 77t-122 30q-70 0 -120 -31t-85 -80t-54.5 -109.5t-25.5 -117.5zM244 1255q0 31 21.5 53.5t53.5 22.5q31 0 51.5 -22.5t20.5 -53.5q0 -29 -19.5 -52t-54.5 -23h-2q-33 0 -52 23.5t-19 51.5z M575 1255q0 31 21.5 53.5t54.5 22.5q31 0 51.5 -22.5t20.5 -53.5q0 -29 -19.5 -52t-54.5 -23h-2q-33 0 -52.5 23.5t-19.5 51.5z" />
<glyph unicode="&#x452;" horiz-adv-x="1007" d="M27 1171v82h157v191h95v-191h448v-82h-448v-317h4q53 66 127.5 108t162.5 42q168 0 254 -154q53 -82 75 -193.5t22 -234.5q0 -188 -40 -329.5t-116 -231.5q-45 -53 -109.5 -89t-136.5 -46l-20 73q57 12 106 38t90 75q59 72 94 194.5t35 307.5q0 104 -14 200.5t-65 188.5 q-31 55 -81.5 89t-117.5 34q-61 0 -120.5 -36t-106.5 -95q-23 -31 -33 -71t-10 -81v-643h-95v1171h-157z" />
<glyph unicode="&#x453;" horiz-adv-x="690" d="M147 0v983h508v-82h-413v-901h-95zM317 1124l179 279h135l-242 -279h-72z" />
<glyph unicode="&#x454;" horiz-adv-x="835" d="M82 485q0 106 30.5 200.5t90 165.5t146.5 112t200 41q78 0 140.5 -21.5t90.5 -42.5l-35 -74q-33 16 -82 36t-120 20q-90 0 -157 -33t-112 -86t-68.5 -122t-27.5 -138h494v-78h-496q2 -90 28.5 -164t74 -127t111 -82t140.5 -29q76 0 131.5 17.5t88.5 34.5l28 -74 q-35 -18 -101.5 -38.5t-158.5 -20.5q-111 0 -193.5 43t-136 113.5t-80 160.5t-26.5 186z" />
<glyph unicode="&#x455;" horiz-adv-x="698" d="M76 47l37 80q35 -23 86 -43.5t112 -20.5q104 0 157.5 53.5t53.5 131.5t-43 127t-141 96q-111 51 -173.5 115.5t-62.5 156.5q0 53 20.5 100.5t57.5 83.5t89.5 56.5t117.5 20.5q66 0 116 -18.5t85 -41.5l-39 -78q-27 18 -69 37t-105 19q-88 0 -133 -49.5t-45 -114.5 q0 -72 44 -114t136 -87q51 -25 95 -52.5t77 -62t50 -79t17 -99.5q0 -133 -87 -207.5t-224 -74.5q-66 0 -125 18t-104 47z" />
<glyph unicode="&#x456;" horiz-adv-x="399" d="M125 1255q0 35 21.5 58.5t54.5 23.5q35 0 54 -23.5t19 -58.5t-20.5 -58t-54.5 -23h-2q-31 0 -51.5 23.5t-20.5 57.5zM152 0v983h94v-983h-94z" />
<glyph unicode="&#x457;" horiz-adv-x="399" d="M-39 1255q0 31 21.5 53.5t54.5 22.5q31 0 51.5 -22.5t20.5 -53.5q0 -29 -19.5 -52t-54.5 -23h-2q-33 0 -52.5 23.5t-19.5 51.5zM152 0v983h94v-983h-94zM291 1255q0 31 21.5 53.5t54.5 22.5q31 0 51 -22.5t20 -53.5q0 -29 -19.5 -52t-53.5 -23h-3q-33 0 -52 23.5 t-19 51.5z" />
<glyph unicode="&#x458;" horiz-adv-x="409" d="M-84 -344q55 6 103.5 24.5t80.5 59.5q16 23 28.5 51.5t21 71.5t12.5 105.5t4 154.5v860h94v-917q0 -139 -19.5 -228.5t-76.5 -154.5q-25 -27 -56.5 -46.5t-63.5 -32t-62.5 -19.5t-51.5 -7zM139 1255q0 35 21.5 58.5t56.5 23.5q33 0 52.5 -23.5t19.5 -58.5t-19.5 -58 t-56.5 -23h-2q-33 0 -52.5 23.5t-19.5 57.5z" />
<glyph unicode="&#x459;" horiz-adv-x="1398" d="M4 70q23 4 47.5 12t40.5 18q76 51 98.5 169t22.5 304v410h549v-360q33 4 72.5 6t72.5 2q78 0 154 -15.5t135 -52.5t95 -97t36 -153q0 -70 -23.5 -122t-64.5 -91q-33 -31 -76 -52t-90 -34.5t-98 -18.5t-101 -5q-59 0 -112 4t-94 6v903h-363v-319q0 -225 -33.5 -364.5 t-136.5 -196.5q-25 -12 -52.5 -21.5t-68.5 -9.5zM762 76q29 -4 59.5 -6t71.5 -2q57 0 116.5 12t108.5 39.5t80 75t31 114.5q0 72 -31 119t-79 74.5t-106.5 39t-115.5 11.5q-41 0 -72.5 -3t-62.5 -7v-467z" />
<glyph unicode="&#x45a;" horiz-adv-x="1411" d="M147 0v983h95v-391h448v391h94v-373q33 4 74 7.5t76 3.5q70 0 141.5 -15.5t130 -52.5t95 -96.5t36.5 -145.5q0 -72 -24.5 -125t-65.5 -92q-66 -61 -159 -82.5t-191 -21.5q-59 0 -112.5 4t-94.5 8v508h-448v-510h-95zM784 76q29 -4 59.5 -6t76.5 -2q55 0 111 11 t102.5 38.5t76 74t29.5 113.5q0 70 -28.5 115t-76 72.5t-105.5 39t-116 11.5q-37 0 -67.5 -3t-61.5 -8v-456z" />
<glyph unicode="&#x45b;" horiz-adv-x="1030" d="M27 1171v82h157v191h95v-191h403v-82h-403v-337h4q43 76 112 118q39 25 84 38.5t101 13.5q61 0 116.5 -23t96.5 -70t65.5 -118.5t24.5 -171.5v-621h-95v604q0 61 -12 118.5t-39.5 101.5t-73 71t-110.5 27q-51 0 -93 -18.5t-76 -48.5t-57.5 -68.5t-35.5 -79.5 q-6 -20 -9 -47t-3 -56v-604h-95v1171h-157z" />
<glyph unicode="&#x45c;" horiz-adv-x="849" d="M152 0v983h94v-448h39l405 448h125l-432 -457q135 -12 216 -90t136 -215q18 -47 41 -106.5t51 -114.5h-100q-20 37 -44 92t-44 109q-53 133 -135 196.5t-228 63.5h-30v-461h-94zM356 1124l179 279h135l-242 -279h-72z" />
<glyph unicode="&#x45e;" horiz-adv-x="825" d="M29 983h100l223 -629q20 -57 37 -113.5t29 -103.5h4q14 45 31.5 102.5t38.5 118.5l208 625h101l-248 -680q-39 -113 -74 -208t-71.5 -174t-76.5 -141.5t-87 -111.5q-53 -53 -98.5 -79.5t-65.5 -34.5l-35 79q35 16 79 46t85 75q35 41 74 100.5t67 131.5q6 18 9 27.5 t3 19.5q0 18 -10 41zM176 1372h86q6 -66 42 -112t108 -46q74 0 109.5 45.5t45.5 112.5h84q-10 -117 -74.5 -171t-166.5 -54q-117 0 -170.5 62.5t-63.5 162.5z" />
<glyph unicode="&#x45f;" horiz-adv-x="962" d="M147 0v983h95v-901h481v901h94v-983h-287l-10 -297h-74l-12 297h-287z" />
<glyph unicode="&#x490;" horiz-adv-x="790" d="M156 0v1380h536l31 234h74l-23 -316h-524v-1298h-94z" />
<glyph unicode="&#x491;" horiz-adv-x="690" d="M147 0v983h420l21 201h74l-13 -281h-407v-903h-95z" />
<glyph unicode="&#x4d9;" horiz-adv-x="897" d="M76 416q0 16 1 31.5t3 27.5h639q0 127 -27.5 213t-74 138.5t-107.5 74t-127 21.5q-90 0 -144.5 -15.5t-91.5 -36.5l-22 74q31 18 98.5 39t173.5 21q98 0 175 -37t131.5 -102.5t82 -157t27.5 -199.5q0 -121 -29.5 -218t-82 -166t-125 -105.5t-160.5 -36.5q-106 0 -173 46 t-104 113.5t-50 142t-13 132.5zM174 399q-2 -63 11.5 -123.5t44 -108.5t79.5 -77t121 -29q70 0 120 31t85 80t54.5 109.5t25.5 117.5h-541z" />
<glyph unicode="&#x1e80;" horiz-adv-x="1568" d="M37 1380h96l186 -766q33 -135 60 -255.5t45 -227.5h6q16 109 46 228.5t67 256.5l202 764h91l188 -753q31 -127 59.5 -252t44.5 -244h7q23 127 51 242.5t61 244.5l203 762h96l-375 -1380h-88l-196 799q-35 141 -58.5 251.5t-37.5 211.5h-5q-16 -102 -41.5 -211t-66.5 -254 l-213 -797h-88zM508 1679h143l203 -225h-82z" />
<glyph unicode="&#x1e81;" horiz-adv-x="1363" d="M43 983h96l154 -547q23 -84 42 -160.5t36 -150.5h6q16 72 38.5 150.5t49.5 160.5l176 547h86l168 -539q29 -88 50.5 -165.5t39.5 -153.5h6q14 74 35 149.5t47 163.5l158 545h96l-303 -983h-80l-172 551q-29 86 -49.5 161.5t-38.5 159.5h-4q-20 -88 -43 -165.5t-49 -159.5 l-178 -547h-82zM444 1403h136l178 -279h-72z" />
<glyph unicode="&#x1e82;" horiz-adv-x="1568" d="M37 1380h96l186 -766q33 -135 60 -255.5t45 -227.5h6q16 109 46 228.5t67 256.5l202 764h91l188 -753q31 -127 59.5 -252t44.5 -244h7q23 127 51 242.5t61 244.5l203 762h96l-375 -1380h-88l-196 799q-35 141 -58.5 251.5t-37.5 211.5h-5q-16 -102 -41.5 -211t-66.5 -254 l-213 -797h-88zM727 1454l201 225h145l-264 -225h-82z" />
<glyph unicode="&#x1e83;" horiz-adv-x="1363" d="M43 983h96l154 -547q23 -84 42 -160.5t36 -150.5h6q16 72 38.5 150.5t49.5 160.5l176 547h86l168 -539q29 -88 50.5 -165.5t39.5 -153.5h6q14 74 35 149.5t47 163.5l158 545h96l-303 -983h-80l-172 551q-29 86 -49.5 161.5t-38.5 159.5h-4q-20 -88 -43 -165.5t-49 -159.5 l-178 -547h-82zM623 1124l178 279h135l-240 -279h-73z" />
<glyph unicode="&#x1e84;" horiz-adv-x="1568" d="M37 1380h96l184 -766q33 -135 61 -255.5t44 -227.5h6q16 109 47 228.5t68 256.5l202 764h91l188 -753q31 -127 59.5 -252t44.5 -244h7q23 127 51 242.5t61 244.5l203 762h96l-375 -1380h-88l-196 799q-35 141 -58.5 251.5t-37.5 211.5h-5q-16 -102 -42.5 -211t-67.5 -254 l-213 -797h-86zM543 1569q0 31 20.5 54.5t52.5 23.5q35 0 54.5 -22.5t19.5 -55.5q0 -35 -19.5 -57.5t-54.5 -22.5h-2q-33 0 -52 22.5t-19 57.5zM881 1569q0 31 20.5 54.5t52.5 23.5q35 0 54.5 -22.5t19.5 -55.5q0 -35 -19.5 -57.5t-54.5 -22.5h-2q-33 0 -52 22.5t-19 57.5z " />
<glyph unicode="&#x1e85;" horiz-adv-x="1363" d="M43 983h96l154 -547q23 -84 42 -160.5t36 -150.5h6q16 72 38.5 150.5t49.5 160.5l176 547h88l168 -539q27 -88 48.5 -165.5t39.5 -153.5h6q14 74 35 149.5t47 163.5l158 545h96l-303 -983h-80l-170 551q-29 86 -50.5 161.5t-39.5 159.5h-4q-20 -88 -43 -165.5t-51 -159.5 l-176 -547h-82zM442 1255q0 31 21.5 53.5t54.5 22.5q31 0 51.5 -22.5t20.5 -53.5q0 -29 -19.5 -52t-54.5 -23h-2q-33 0 -52.5 23.5t-19.5 51.5zM774 1255q0 31 21.5 53.5t54.5 22.5q31 0 51.5 -22.5t20.5 -53.5q0 -29 -19.5 -52t-54.5 -23h-2q-33 0 -52.5 23.5t-19.5 51.5z " />
<glyph unicode="&#x1ef2;" horiz-adv-x="960" d="M37 1380h106l201 -395q39 -80 75 -153.5t68 -151.5h5q31 74 69.5 149.5t79.5 157.5l207 393h104l-422 -776v-604h-94v604zM225 1659h144l202 -225h-82z" />
<glyph unicode="&#x1ef3;" horiz-adv-x="825" d="M27 983h100l225 -629q20 -57 37 -113.5t29 -103.5h4q14 45 31.5 102.5t35.5 118.5l211 625h101l-248 -680q-78 -225 -146.5 -382t-162.5 -253q-53 -53 -99.5 -79.5t-64.5 -34.5l-37 79q37 16 80 46t84 75q35 41 75 100.5t68 131.5q6 18 8 27.5t2 19.5q0 16 -8 41z M182 1403h133l179 -279h-72z" />
<glyph unicode="&#x2000;" horiz-adv-x="895" />
<glyph unicode="&#x2001;" horiz-adv-x="1790" />
<glyph unicode="&#x2002;" horiz-adv-x="895" />
<glyph unicode="&#x2003;" horiz-adv-x="1790" />
<glyph unicode="&#x2004;" horiz-adv-x="596" />
<glyph unicode="&#x2005;" horiz-adv-x="447" />
<glyph unicode="&#x2006;" horiz-adv-x="298" />
<glyph unicode="&#x2007;" horiz-adv-x="298" />
<glyph unicode="&#x2008;" horiz-adv-x="223" />
<glyph unicode="&#x2009;" horiz-adv-x="358" />
<glyph unicode="&#x200a;" horiz-adv-x="99" />
<glyph unicode="&#x2010;" horiz-adv-x="606" d="M61 508v84h484v-84h-484z" />
<glyph unicode="&#x2011;" horiz-adv-x="606" d="M61 508v84h484v-84h-484z" />
<glyph unicode="&#x2012;" horiz-adv-x="606" d="M61 508v84h484v-84h-484z" />
<glyph unicode="&#x2013;" horiz-adv-x="1024" d="M61 485v76h902v-76h-902z" />
<glyph unicode="&#x2014;" horiz-adv-x="2048" d="M61 485v76h1926v-76h-1926z" />
<glyph unicode="&#x2018;" horiz-adv-x="352" d="M76 956q14 57 35.5 126t44 132.5t44 113.5t33.5 73l68 10q-12 -33 -27.5 -87t-31 -115.5t-28.5 -123t-19 -108.5z" />
<glyph unicode="&#x2019;" horiz-adv-x="352" d="M76 956q12 33 27.5 86.5t31 115t28.5 123.5t19 110l119 20q-14 -57 -35.5 -125.5t-45 -132t-44 -115t-33.5 -71.5z" />
<glyph unicode="&#x201a;" horiz-adv-x="352" d="M51 -258q12 33 27.5 86t31 114.5t29 124t19.5 109.5l118 21q-14 -57 -35.5 -126t-45 -132.5t-44 -114.5t-32.5 -72z" />
<glyph unicode="&#x201c;" horiz-adv-x="595" d="M76 956q14 57 35.5 126t44 132.5t44 113.5t33.5 73l68 10q-12 -33 -27.5 -87t-31 -115.5t-28.5 -123t-19 -108.5zM319 956q14 57 36 126t44.5 132.5t44 113.5t33.5 73l68 10q-12 -33 -27.5 -87t-31 -115.5t-29 -123t-19.5 -108.5z" />
<glyph unicode="&#x201d;" horiz-adv-x="595" d="M76 956q12 33 27.5 86.5t31 115t28.5 123.5t19 110l119 20q-14 -57 -35.5 -125.5t-45 -132t-44 -115t-33.5 -71.5zM319 956q12 33 27.5 86.5t31 115t29 123.5t19.5 110l119 20q-14 -57 -36 -125.5t-45.5 -132t-44 -115t-32.5 -71.5z" />
<glyph unicode="&#x201e;" horiz-adv-x="595" d="M51 -258q12 33 27.5 86t31 114.5t29 124t19.5 109.5l118 21q-14 -57 -35.5 -126t-45 -132.5t-44 -114.5t-32.5 -72zM295 -258q12 33 27.5 86t31 114.5t28.5 124t19 109.5l119 21q-14 -57 -35.5 -126t-45 -132.5t-44 -114.5t-33.5 -72z" />
<glyph unicode="&#x2020;" horiz-adv-x="913" d="M88 862v90l332 -10l-10 438h94l-10 -438l331 10v-90l-331 12l10 -976h-94l10 976z" />
<glyph unicode="&#x2021;" horiz-adv-x="913" d="M88 326v90l328 -13v482l-328 -13v91l328 -11l-8 428h96l-8 -428l327 11v-91l-327 13v-482l327 13v-90l-327 10l8 -438h-96l8 438z" />
<glyph unicode="&#x2022;" horiz-adv-x="501" d="M68 530q0 37 14 71t38.5 58.5t58.5 39t71 14.5q78 0 131 -53.5t53 -129.5t-53 -129t-131 -53h-2q-74 0 -127 52.5t-53 129.5z" />
<glyph unicode="&#x2026;" horiz-adv-x="2048" d="M262 68q0 39 22.5 64.5t57.5 25.5q37 0 58.5 -26t21.5 -64q0 -37 -21.5 -62.5t-58.5 -25.5h-2q-35 0 -56.5 25.5t-21.5 62.5zM944 68q0 39 22.5 64.5t57.5 25.5q37 0 58.5 -26t21.5 -64q0 -37 -21.5 -62.5t-58.5 -25.5h-2q-35 0 -56.5 25.5t-21.5 62.5zM1626 68 q0 39 22.5 64.5t57.5 25.5q37 0 58.5 -26t21.5 -64q0 -37 -21.5 -62.5t-58.5 -25.5h-2q-35 0 -56.5 25.5t-21.5 62.5z" />
<glyph unicode="&#x202f;" horiz-adv-x="358" />
<glyph unicode="&#x2030;" horiz-adv-x="2109" d="M70 942q0 106 23.5 183t62.5 127.5t88 75t100 24.5h2q55 0 103.5 -23.5t84 -73t56 -124t20.5 -177.5q0 -104 -22.5 -182t-59 -129t-87 -75.5t-105.5 -24.5q-51 0 -98.5 23.5t-84 71.5t-60 124t-23.5 180zM156 946q-2 -61 9 -121.5t33.5 -107.5t58.5 -76t83 -29 q51 0 86 29t56.5 77t31.5 108.5t10 123.5q0 59 -9 118.5t-30.5 107t-57.5 77t-87 29.5h-2q-47 0 -81 -28.5t-56.5 -77t-33.5 -108.5t-11 -122zM297 -29l766 1387h82l-768 -1387h-80zM838 387q0 106 23.5 183t62.5 127.5t88 75t100 24.5h2q55 0 103.5 -23.5t84 -73t56 -124 t20.5 -177.5q0 -104 -22.5 -182t-59 -129t-87 -75.5t-105.5 -24.5q-51 0 -98.5 23.5t-84 71.5t-60 124t-23.5 180zM924 391q-2 -61 9 -121.5t33.5 -107.5t58.5 -76t83 -29q51 0 86 29t56.5 77t31.5 108.5t10 123.5q0 59 -9 118.5t-30.5 107t-57.5 77t-87 29.5h-2 q-47 0 -81 -28.5t-56.5 -77t-33.5 -108.5t-11 -122zM1499 387q0 106 23.5 183t62.5 127.5t88 75t101 24.5h2q55 0 103 -23.5t84 -73t56.5 -124t20.5 -177.5q0 -104 -22.5 -182t-59.5 -129t-87 -75.5t-106 -24.5q-51 0 -98 23.5t-84 71.5t-60.5 124t-23.5 180zM1585 391 q-2 -61 9.5 -121.5t34 -107.5t58 -76t82.5 -29q51 0 86 29t56.5 77t32 108.5t10.5 123.5q0 59 -9.5 118.5t-31 107t-57 77t-87.5 29.5h-2q-47 0 -80.5 -28.5t-56 -77t-34 -108.5t-11.5 -122z" />
<glyph unicode="&#x2039;" horiz-adv-x="477" d="M61 518l267 361h96l-264 -361l266 -362h-98z" />
<glyph unicode="&#x203a;" horiz-adv-x="477" d="M51 879h96l269 -361l-266 -362h-97l264 362z" />
<glyph unicode="&#x2044;" horiz-adv-x="325" d="M-256 -20l760 1372h80l-760 -1372h-80z" />
<glyph unicode="&#x205f;" horiz-adv-x="447" />
<glyph unicode="&#x2070;" horiz-adv-x="598" d="M45 1286q0 104 20.5 181t55.5 129.5t82 78t102 25.5q115 0 180.5 -101.5t65.5 -300.5q0 -209 -69.5 -313t-188.5 -104h-2q-104 0 -175 100t-71 305zM133 1294q0 -158 43 -251t121 -93h2q84 0 124 95.5t40 248.5q0 150 -39 243t-125 93q-78 0 -122 -91t-44 -245z" />
<glyph unicode="&#x2074;" horiz-adv-x="610" d="M25 1120v51l354 519h88v-500h113v-70h-113v-229h-84v229h-358zM123 1190h260v274q0 39 2 71t4 58h-4q-20 -39 -35.5 -65.5t-36.5 -59.5l-190 -274v-4z" />
<glyph unicode="&#x2075;" horiz-adv-x="546" d="M31 926l24 67q23 -16 65 -29.5t95 -13.5q78 0 133 49.5t55 135.5t-54 137t-167 51q-35 0 -59.5 -2t-44.5 -6l51 371h352v-76h-288l-33 -221q12 2 25.5 3t35.5 1q43 0 84 -9.5t78 -31.5q43 -27 76 -77t33 -128q0 -59 -21.5 -108.5t-58.5 -85t-87.5 -55t-109.5 -19.5 t-107.5 15t-76.5 32z" />
<glyph unicode="&#x2076;" horiz-adv-x="600" d="M45 1214q0 119 36 209t91 150q45 49 105.5 78.5t130.5 40.5q23 4 42 6t33 2v-74q-16 0 -36.5 -1t-43.5 -5q-61 -12 -108 -41t-81 -71t-54.5 -92t-26.5 -101h4q29 41 76 69.5t113 28.5q104 0 166.5 -70.5t62.5 -185.5q0 -53 -16.5 -103t-48 -89t-77.5 -61.5t-106 -22.5 q-117 0 -189.5 90t-72.5 243zM131 1196q0 -111 46 -178.5t132 -67.5h2q68 0 112 54.5t44 146.5q0 94 -47 143t-119 49q-49 0 -92 -27.5t-66 -74.5q-12 -18 -12 -45z" />
<glyph unicode="&#x2077;" horiz-adv-x="516" d="M31 1612v74h469v-58l-336 -737h-88l332 719v2h-377z" />
<glyph unicode="&#x2078;" horiz-adv-x="591" d="M45 1092q0 78 43 131t115 88v4q-66 31 -96.5 79t-30.5 99q0 45 17.5 84t48 65.5t72.5 42t91 15.5h2q104 0 158.5 -59.5t54.5 -133.5q0 -51 -29.5 -102t-101.5 -86v-4q76 -33 118 -85t42 -122q0 -102 -74 -164.5t-180 -62.5q-57 0 -103.5 16t-79 46t-50 68t-17.5 81z M133 1104q0 -66 42 -112t120 -46h2q74 0 118 42t44 110q0 76 -47 116.5t-129 65.5q-72 -23 -111 -70t-39 -106zM160 1501q0 -66 42 -101.5t109 -56.5q53 23 88 61t35 95q0 51 -30.5 93t-102.5 42h-2q-66 0 -102.5 -40t-36.5 -93z" />
<glyph unicode="&#x2079;" horiz-adv-x="591" d="M45 1421q0 55 18.5 105.5t51 89.5t80 61.5t106.5 22.5q113 0 179.5 -89t66.5 -243q0 -129 -39 -221t-94 -152q-41 -45 -96.5 -71.5t-112.5 -34.5q-29 -4 -53.5 -6t-42.5 -2v73q27 -2 84 4q90 12 159 82q39 39 66.5 95.5t38.5 134.5h-2q-35 -43 -81 -66.5t-106 -23.5 q-104 0 -163.5 70.5t-59.5 170.5zM131 1425q0 -80 43 -128t115 -48q53 0 95 24.5t65 63.5q10 16 10 39q0 117 -42 186.5t-126 69.5h-2q-68 0 -113 -56t-45 -151z" />
<glyph unicode="&#x207d;" horiz-adv-x="333" d="M80 1262q0 90 14.5 165.5t37 137t51 110.5t57.5 88h71q-68 -92 -111.5 -212.5t-43.5 -288.5q0 -164 45 -284t110 -212h-71q-29 39 -57.5 87t-51 109.5t-37 135t-14.5 164.5z" />
<glyph unicode="&#x207e;" horiz-adv-x="333" d="M23 766q66 92 110.5 213t44.5 287t-45 285.5t-110 211.5h71q29 -37 57.5 -86t51 -110.5t37 -136t14.5 -164.5t-14.5 -165t-37 -136.5t-51 -110.5t-57.5 -88h-71z" />
<glyph unicode="&#x2080;" horiz-adv-x="598" d="M45 94q0 104 20.5 181t55.5 129.5t82 78t102 25.5q115 0 180.5 -101.5t65.5 -300.5q0 -209 -69.5 -313t-188.5 -104h-2q-104 0 -175 100t-71 305zM133 102q0 -158 43 -251t121 -93h2q84 0 124 95.5t40 248.5q0 150 -39 243t-125 93q-78 0 -122 -91t-44 -245z" />
<glyph unicode="&#x2081;" horiz-adv-x="419" d="M41 410l174 88h72v-799h-82v717h-4l-144 -76z" />
<glyph unicode="&#x2082;" horiz-adv-x="548" d="M14 -256l115 115q117 117 190.5 218t73.5 197q0 70 -40 116t-124 46q-53 0 -95 -22.5t-64 -42.5l-31 57q33 31 88 55.5t123 24.5q63 0 107 -19.5t72 -51t40 -70.5t12 -76q0 -59 -20.5 -114.5t-57 -109t-86 -106.5t-104.5 -108l-74 -76v-4h357v-74h-482v45z" />
<glyph unicode="&#x2083;" horiz-adv-x="534" d="M10 -258l29 68q20 -16 67.5 -34t106.5 -18q100 0 145 52.5t43 113.5q0 45 -18 78t-50 54.5t-73 30.5t-86 9h-41v66h43q27 0 60.5 9t63.5 27.5t50.5 48t20.5 70.5q0 47 -33 84t-102 37q-53 0 -93.5 -19.5t-62.5 -35.5l-29 63q29 20 79 41t116 21q111 0 161 -56.5 t50 -129.5q0 -57 -37 -106.5t-107 -78.5v-4q74 -12 125 -67.5t51 -137.5q0 -47 -18 -90t-53 -75.5t-88.5 -53t-122.5 -20.5q-61 0 -113.5 15t-83.5 38z" />
<glyph unicode="&#x2084;" horiz-adv-x="610" d="M25 -20l354 518h88v-500h113v-70h-113v-229h-84v229h-358v52zM123 2v-4h260v274q0 39 2 71t4 58h-4q-20 -39 -35.5 -65.5t-36.5 -59.5z" />
<glyph unicode="&#x2085;" horiz-adv-x="546" d="M31 -266l24 67q23 -16 65 -29.5t95 -13.5q78 0 133 50.5t55 136.5t-54 137t-167 51q-35 0 -59.5 -2t-44.5 -6l51 369h352v-76h-288l-33 -219q12 2 25.5 3t35.5 1q43 0 84 -9.5t78 -31.5q43 -27 76 -78t33 -127q0 -59 -21.5 -109.5t-58.5 -86t-87.5 -55t-109.5 -19.5 t-107.5 15t-76.5 32z" />
<glyph unicode="&#x2086;" horiz-adv-x="600" d="M45 23q0 119 36 209t91 149q45 49 105.5 78.5t130.5 40.5q23 4 42 6t33 2v-74q-16 0 -36.5 -1t-43.5 -5q-61 -12 -108 -41t-81 -71t-54.5 -92t-26.5 -101h4q29 41 76 69.5t113 28.5q104 0 166.5 -70.5t62.5 -185.5q0 -53 -16.5 -103t-48 -89t-77.5 -61.5t-106 -22.5 q-117 0 -189.5 90t-72.5 244zM131 4q0 -111 46 -178.5t132 -67.5h2q68 0 112 54.5t44 146.5q0 94 -47 143.5t-119 49.5q-49 0 -92 -28t-66 -75q-12 -18 -12 -45z" />
<glyph unicode="&#x2087;" horiz-adv-x="516" d="M31 420v74h469v-58l-336 -737h-88l332 719v2h-377z" />
<glyph unicode="&#x2088;" horiz-adv-x="591" d="M45 -100q0 78 43 131t115 88v4q-66 31 -96.5 79t-30.5 99q0 45 17.5 84t48 65.5t72.5 42t91 15.5h2q104 0 158.5 -59.5t54.5 -133.5q0 -51 -29.5 -102t-101.5 -86v-4q76 -33 118 -85t42 -124q0 -49 -19.5 -91t-54.5 -72t-81 -46t-99 -16q-57 0 -103.5 16t-79 46t-50 68 t-17.5 81zM133 -88q0 -66 42 -112t120 -46h2q74 0 118 42t44 110q0 76 -47 116.5t-129 67.5q-72 -23 -111 -71t-39 -107zM160 309q0 -66 42 -100.5t109 -54.5q53 20 88 58t35 95q0 51 -30.5 93t-102.5 42h-2q-66 0 -102.5 -38.5t-36.5 -94.5z" />
<glyph unicode="&#x2089;" horiz-adv-x="591" d="M45 229q0 55 18.5 105.5t51 89.5t80 61.5t106.5 22.5q113 0 179.5 -89t66.5 -243q0 -129 -39 -221t-94 -152q-41 -45 -96.5 -71.5t-112.5 -34.5q-29 -4 -53.5 -6t-42.5 -2v73q27 -2 84 5q90 12 159 81q39 39 66.5 95.5t38.5 134.5h-2q-35 -43 -81 -66.5t-106 -23.5 q-104 0 -163.5 70.5t-59.5 170.5zM131 233q0 -80 43 -128t115 -48q53 0 95 24.5t65 63.5q10 16 10 39q0 117 -42 186.5t-126 69.5h-2q-68 0 -113 -56t-45 -151z" />
<glyph unicode="&#x208d;" horiz-adv-x="333" d="M80 70q0 90 14.5 164.5t37 136t51 111.5t57.5 89h71q-68 -92 -111.5 -212.5t-43.5 -288.5q0 -166 45 -286t110 -212h-71q-29 39 -57.5 87t-51 109.5t-37 136.5t-14.5 165z" />
<glyph unicode="&#x208e;" horiz-adv-x="333" d="M23 -428q66 92 110.5 213t44.5 287t-45 286.5t-110 212.5h71q29 -39 57.5 -88t51 -110.5t37 -136t14.5 -164.5t-14.5 -165t-37 -136.5t-51 -110.5t-57.5 -88h-71z" />
<glyph unicode="&#x20ac;" horiz-adv-x="919" d="M27 743v74h125q16 135 63 235.5t115 166.5t146.5 99.5t176.5 33.5q80 0 136.5 -20.5t91.5 -43.5l-31 -76q-35 23 -89 40.5t-116 17.5q-78 0 -139.5 -25.5t-110.5 -73.5q-57 -57 -95 -145t-54 -209h536v-74h-546q-4 -23 -4.5 -46t-0.5 -48v-41h551v-73h-544 q12 -121 44.5 -206t82.5 -143q55 -66 126.5 -94.5t151.5 -28.5q76 0 136.5 24t92.5 44l29 -70q-41 -31 -109.5 -56t-158.5 -25q-201 0 -334 143q-63 70 -103 172t-53 240h-114v73h108v29q0 29 1 55.5t3 50.5h-114z" />
<glyph unicode="&#x2113;" horiz-adv-x="899" d="M66 354q39 29 75.5 58.5t71.5 62.5v567q0 119 20.5 199t56.5 129t84 70.5t103 21.5q94 0 153.5 -74.5t59.5 -205.5q0 -190 -101.5 -371.5t-283.5 -355.5v-41q2 -102 18.5 -170t46 -108t69.5 -55t87 -15q49 0 90 16t73 40.5t56.5 54.5t42.5 54l54 -47q-51 -92 -132 -147 t-202 -55q-78 0 -133.5 27.5t-90 77.5t-52 118.5t-19.5 150.5v23q-29 -23 -55.5 -42.5t-55.5 -39.5zM305 561q135 141 214 297t79 322q0 115 -41 158.5t-98 43.5q-59 0 -106.5 -73.5t-47.5 -235.5v-512z" />
<glyph unicode="&#x2116;" horiz-adv-x="1681" d="M152 0v1354h102l385 -754q66 -129 120 -243.5t97 -225.5l4 2q-6 82 -9 151.5t-4 138.5t-2 138.5t-1 151.5v641h90v-1354h-96l-389 762q-59 117 -112.5 228.5t-100.5 236.5h-7q4 -72 6.5 -136.5t4.5 -134t2 -147.5v-176v-633h-90zM1055 975q0 86 23.5 152.5t63.5 110.5 t91 66.5t106 22.5h2q127 0 200 -89t73 -257q0 -94 -24.5 -160.5t-63.5 -109.5t-89.5 -62.5t-101.5 -19.5q-57 0 -108 22.5t-89 65.5t-60.5 107.5t-22.5 150.5zM1102 461v76h467v-76h-467zM1145 975q0 -55 14.5 -105.5t40 -89.5t60 -61.5t75.5 -22.5q47 0 83 22.5t59.5 61.5 t36 90.5t12.5 106.5q0 47 -9.5 97t-32 91t-58 68t-91.5 27h-2q-49 0 -85 -26t-58.5 -66t-33.5 -91t-11 -102z" />
<glyph unicode="&#x2122;" horiz-adv-x="1161" d="M61 1317v63h422v-63h-176v-494h-69v494h-177zM512 823l41 557h106l121 -352q10 -31 18.5 -59.5t16.5 -57.5h4q10 29 18.5 59.5t14.5 53.5l121 356h106l45 -557h-73l-25 379q-2 25 -3 54.5t-3 64.5h-4q-10 -25 -21.5 -62.5t-21.5 -70.5l-117 -357h-82l-121 367 q-8 27 -19 61.5t-20 61.5h-4q0 -29 -1 -57.5t-3 -61.5l-24 -379h-70z" />
<glyph unicode="&#x2126;" horiz-adv-x="1243" d="M63 0v84h283v6q-53 49 -100 116.5t-82 149.5t-56.5 176.5t-21.5 198.5q0 158 43 282t116.5 210t173 132t212.5 46q115 0 211 -46t166.5 -132t109.5 -208t39 -274q0 -109 -20.5 -206t-56.5 -180t-84 -149.5t-101 -115.5v-6h285v-84h-420v70q63 49 118.5 119.5t95.5 156.5 t62.5 182.5t22.5 198.5q0 96 -25.5 200.5t-78 191.5t-135.5 143.5t-195 56.5q-113 0 -196 -54.5t-137 -140.5t-81 -190.5t-27 -204.5q0 -98 23.5 -196.5t64.5 -185.5t94.5 -159.5t114.5 -117.5v-70h-418z" />
<glyph unicode="&#x212e;" horiz-adv-x="1673" d="M72 666q0 143 60.5 268t164.5 218t243.5 147.5t297.5 54.5t297 -54.5t242.5 -147.5t164 -218t60.5 -268v-19h-1240q-10 0 -10 -8v-375q0 -20 19 -43q88 -94 208.5 -148.5t260.5 -54.5q147 0 274 61.5t217 166.5h113q-104 -123 -262 -196t-344 -73q-158 0 -297.5 54.5 t-243.5 147.5t-164.5 218t-60.5 269zM352 696q0 -10 10 -10h951q10 0 10 10v377q0 25 -20 45q-90 90 -209 142.5t-254 52.5q-139 0 -258 -54.5t-209 -146.5q-20 -20 -21 -47v-369z" />
<glyph unicode="&#x2202;" horiz-adv-x="952" d="M63 393q0 104 34 194.5t91.5 158t132 105.5t156.5 38q57 0 106.5 -14.5t89.5 -39t68.5 -55t44.5 -63.5h2q2 16 2.5 36.5t0.5 39.5q0 160 -35 274.5t-88.5 188t-120 108.5t-129.5 35q-92 0 -155.5 -23.5t-104.5 -56.5l-35 63q53 39 122.5 70t174.5 31q84 0 167 -42 t147.5 -130t104.5 -222.5t40 -318.5q0 -205 -41 -353.5t-107.5 -245.5t-151.5 -144t-173 -47q-166 0 -254.5 114.5t-88.5 298.5zM160 401q0 -172 70.5 -256t181.5 -84h2q72 0 134 43t109.5 117t78 171t40.5 206q-35 92 -113.5 150.5t-181.5 58.5q-66 0 -123 -31t-102 -85 t-70.5 -128t-25.5 -162z" />
<glyph unicode="&#x2206;" horiz-adv-x="999" d="M35 0v66l420 1282h88l422 -1282v-66h-930zM129 82h737l-270 836q-27 78 -52.5 162.5t-43.5 156.5h-6q-16 -63 -39 -141t-47 -156z" />
<glyph unicode="&#x220f;" horiz-adv-x="1097" d="M18 1249v82h1061v-82h-168v-1433h-94v1433h-536v-1433h-95v1433h-168z" />
<glyph unicode="&#x2211;" horiz-adv-x="917" d="M12 -119l514 688l-485 695v67h831v-80h-708v-6l469 -672l-498 -667v-8h805v-82h-928v65z" />
<glyph unicode="&#x2212;" horiz-adv-x="1220" d="M82 508v80h1057v-80h-1057z" />
<glyph unicode="&#x2215;" horiz-adv-x="821" d="M-8 -20l760 1372h79l-759 -1372h-80z" />
<glyph unicode="&#x2219;" horiz-adv-x="354" d="M96 535q0 39 22.5 63.5t57.5 24.5q37 0 58.5 -25t21.5 -63q0 -35 -21.5 -60.5t-58.5 -25.5h-2q-35 0 -56.5 25.5t-21.5 60.5z" />
<glyph unicode="&#x221a;" horiz-adv-x="1103" d="M92 692l232 94l256 -757q10 -31 19 -64t13 -55h2q4 23 10.5 54.5t12.5 60.5l389 1652h88l-457 -1890h-77l-312 895l-145 -59z" />
<glyph unicode="&#x221e;" horiz-adv-x="1460" d="M84 541q0 57 22.5 107t60.5 88t90 60.5t114 22.5q57 0 107 -21.5t94 -54t84 -71.5t77 -76q37 39 78 79t87 71.5t98.5 52t113.5 20.5q57 0 107.5 -20.5t86 -57t56 -88t20.5 -112.5q0 -55 -22.5 -105.5t-60 -88.5t-90 -60.5t-113.5 -22.5h-2q-57 0 -106.5 21.5t-93.5 54.5 t-83 72t-76 75q-39 -39 -80 -78.5t-87 -71.5t-98 -52.5t-114 -20.5q-59 0 -108 20.5t-85 56.5t-56.5 87t-20.5 113zM168 541q0 -86 53 -141.5t139 -55.5h2q49 0 93.5 18.5t83.5 48t73.5 64.5t65.5 66q-35 31 -69 65.5t-70.5 64t-79.5 49t-92 19.5q-43 0 -80 -16t-62.5 -43 t-41 -63.5t-15.5 -75.5zM786 541q33 -31 68 -66t72 -63.5t80 -48t92 -19.5h2q43 0 78.5 16.5t61.5 43t41 62.5t15 75q0 86 -53 142t-139 56q-49 0 -93 -19.5t-84 -48t-75 -64.5t-66 -66z" />
<glyph unicode="&#x222b;" horiz-adv-x="593" d="M27 -272l18 71q12 -4 28.5 -7t35.5 -3q23 0 47 9t43 32q14 18 26.5 43t21.5 63.5t15 96t6 137.5q0 106 -3 236.5t-6 263.5t-6 262t-3 235q0 147 21.5 236.5t72.5 142.5q59 66 150 66q43 0 71 -15l-20 -71q-12 4 -25.5 6t-27.5 2q-25 0 -48.5 -8t-42.5 -31 q-35 -41 -51 -115.5t-16 -218.5q0 -109 3 -237.5t6 -262t6 -261.5t3 -234q0 -166 -27.5 -256t-68.5 -135q-27 -29 -63.5 -46.5t-83.5 -17.5q-25 0 -48.5 5t-33.5 12z" />
<glyph unicode="&#x2248;" horiz-adv-x="1220" d="M55 725q23 25 55.5 48.5t72.5 42t83 30.5t88 12q94 0 155.5 -26.5t111.5 -47.5q47 -18 103 -43.5t136 -25.5q68 0 136.5 35.5t111.5 78.5l51 -59q-47 -49 -128 -92t-171 -43q-94 0 -155.5 26.5t-110.5 47.5q-47 18 -103.5 43.5t-136.5 25.5q-68 0 -136 -35.5t-112 -78.5z M68 336q23 25 55.5 48.5t72.5 41.5t83 30.5t88 12.5q94 0 155.5 -26.5t110.5 -47.5q47 -18 103.5 -43.5t135.5 -25.5q68 0 136.5 35.5t111.5 78.5l51 -59q-47 -49 -127.5 -92t-171.5 -43q-94 0 -155.5 26.5t-110.5 46.5q-47 18 -103.5 44t-135.5 26q-68 0 -136.5 -36 t-111.5 -79z" />
<glyph unicode="&#x2260;" horiz-adv-x="1220" d="M82 319v80h385l199 310h-584v79h635l174 275h90l-176 -275h334v-79h-385l-199 -310h584v-80h-635l-174 -274h-90l176 274h-334z" />
<glyph unicode="&#x2264;" horiz-adv-x="1220" d="M145 596v78l930 416v-93l-823 -360v-4l823 -363v-90zM150 0v80h925v-80h-925z" />
<glyph unicode="&#x2265;" horiz-adv-x="1220" d="M145 0v80h926v-80h-926zM145 180v90l824 363v4l-824 360v93l930 -416v-78z" />
<glyph unicode="&#x25ca;" horiz-adv-x="983" d="M104 666l347 708h84l346 -708l-346 -709h-84zM199 668l278 -582q10 -18 17 -41h4q8 27 16 41l272 578l-276 581q-10 18 -16 41h-5q-6 -23 -16 -41z" />
<glyph unicode="&#xefed;" d="M236 1569q0 29 21.5 52.5t53.5 23.5q31 0 51.5 -24t20.5 -52q0 -29 -20.5 -52.5t-53.5 -23.5h-2q-29 0 -50 23.5t-21 52.5z" />
<glyph unicode="&#xefee;" d="M84 1667h68q10 -39 45.5 -68.5t109.5 -29.5q72 0 109 27.5t47 70.5h67q-2 -78 -57 -132t-168 -54q-111 0 -165 53t-56 133z" />
<glyph unicode="&#xeff1;" d="M158 -252q0 39 13 77t34.5 71.5t46 62.5t47.5 51h82q-14 -16 -36.5 -42.5t-44 -59.5t-37 -68t-15.5 -67q0 -49 27.5 -74t68.5 -25q47 0 94 21l17 -57q-25 -20 -64 -29.5t-69 -9.5q-72 0 -118 38.5t-46 110.5z" />
<glyph unicode="&#xeff2;" d="M135 -371l27 70q23 -14 47 -21.5t59 -7.5q37 0 63.5 16.5t26.5 53.5q0 47 -47 67.5t-106 26.5l96 170h76l-70 -115q55 -8 96 -47t41 -96q0 -78 -56 -115t-126 -37q-35 0 -68.5 10.5t-58.5 24.5z" />
<glyph unicode="&#xeff3;" horiz-adv-x="819" d="M231 1597q0 72 51.5 124.5t131.5 52.5h2q78 0 129 -51.5t51 -125.5q0 -37 -14.5 -67.5t-39 -53t-58 -36t-70.5 -13.5q-78 0 -130.5 49.5t-52.5 120.5zM311 1597q0 -41 29 -75.5t74 -34.5t73.5 33.5t28.5 81.5q0 47 -28.5 80.5t-73.5 33.5h-2q-47 0 -74 -35.5t-27 -83.5z " />
<glyph unicode="&#xeff5;" d="M82 1468q0 72 31.5 122t91.5 50q29 0 53.5 -11t54.5 -30q25 -12 48.5 -23t50.5 -11q23 0 37 14t18 61h65q0 -70 -28.5 -115.5t-93.5 -45.5q-27 0 -53.5 11t-59.5 28q-29 16 -50.5 27t-43.5 11q-29 0 -40 -23.5t-16 -64.5h-65z" />
<glyph unicode="&#xeff7;" d="M61 1454l205 211h80l209 -211h-106l-142 139h-4l-139 -139h-103z" />
<glyph unicode="&#xf629;" horiz-adv-x="577" d="M66 399q0 119 63.5 200t169.5 97v123h66v-121q41 0 74.5 -10t54.5 -20l-23 -68q-18 10 -49 20.5t-78 10.5q-45 0 -81 -18.5t-60.5 -50.5t-37.5 -74t-13 -87q0 -106 54 -165.5t136 -59.5q49 0 81 9.5t54 19.5l19 -62q-16 -10 -51 -21t-80 -16v-122h-66v125q-55 6 -94 24.5 t-72 52.5q-29 35 -48 88.5t-19 124.5z" />
<glyph unicode="&#xf62a;" horiz-adv-x="567" d="M70 72l28 67q29 -23 72 -37t90 -14q66 0 107 37t41 94q0 53 -35 90t-101 66q-88 37 -140 84t-52 125q0 76 48 127t126 63v125h65v-121q51 -2 87 -14t59 -29l-25 -65q-16 12 -53 26.5t-90 14.5q-72 0 -101.5 -37t-29.5 -78q0 -53 35 -83t112 -64q88 -41 133.5 -91.5 t45.5 -130.5q0 -74 -47.5 -131t-133.5 -71v-127h-65v122q-51 0 -98.5 14.5t-77.5 37.5z" />
<glyph unicode="&#xf62b;" horiz-adv-x="366" d="M37 342v68h293v-68h-293z" />
<glyph unicode="&#xf62c;" horiz-adv-x="333" d="M80 371q0 90 14.5 165.5t37 137t51 111t57.5 87.5h71q-68 -92 -111.5 -212.5t-43.5 -288.5q0 -164 45 -284t110 -212h-71q-29 39 -57.5 87t-51 109.5t-37 135.5t-14.5 164z" />
<glyph unicode="&#xf62d;" horiz-adv-x="333" d="M23 -125q66 92 110.5 213t44.5 287t-45 285.5t-110 211.5h71q29 -37 57.5 -86t51 -110.5t37 -136t14.5 -164.5t-14.5 -165t-37 -136.5t-51 -110.5t-57.5 -88h-71z" />
<glyph unicode="&#xf62e;" horiz-adv-x="577" d="M66 942q0 119 63.5 200t169.5 97v123h66v-121q41 0 74.5 -10t54.5 -21l-23 -67q-18 10 -49 20.5t-78 10.5q-45 0 -81 -18.5t-60.5 -50.5t-37.5 -74t-13 -87q0 -106 54 -165.5t136 -59.5q49 0 81 9t54 20l19 -62q-16 -10 -51 -21.5t-80 -15.5v-123h-66v125q-55 6 -94 24.5 t-72 53.5q-29 35 -48 88t-19 125z" />
<glyph unicode="&#xf62f;" horiz-adv-x="567" d="M70 614l28 68q29 -23 72 -37t90 -14q66 0 107 37t41 94q0 53 -35 90t-101 66q-88 37 -140 84t-52 124q0 76 48 127.5t126 63.5v125h65v-121q51 -2 87 -14.5t59 -28.5l-25 -66q-16 12 -53 26.5t-90 14.5q-72 0 -101.5 -36.5t-29.5 -77.5q0 -53 35 -83t112 -65 q88 -41 133.5 -91t45.5 -130q0 -74 -47.5 -131t-133.5 -72v-127h-65v123q-51 0 -98.5 14.5t-77.5 36.5z" />
<glyph unicode="&#xf630;" horiz-adv-x="366" d="M37 885v67h293v-67h-293z" />
<glyph unicode="&#xf631;" horiz-adv-x="333" d="M80 913q0 90 14.5 166t37 137.5t51 110.5t57.5 88h71q-68 -92 -111.5 -213t-43.5 -289q0 -164 45 -283.5t110 -211.5h-71q-29 39 -57.5 87t-51 109.5t-37 135t-14.5 163.5z" />
<glyph unicode="&#xf632;" horiz-adv-x="333" d="M23 418q66 92 110.5 213t44.5 287t-45 285.5t-110 211.5h71q29 -37 57.5 -86t51 -110.5t37 -136t14.5 -164.5t-14.5 -165t-37 -136.5t-51 -110.5t-57.5 -88h-71z" />
</font>
</defs>
</svg>
