<?xml version="1.0" standalone="no"?>
<!DOCTYPE svg PUBLIC "-//W3C//DTD SVG 1.1//EN" "http://www.w3.org/Graphics/SVG/1.1/DTD/svg11.dtd" >
<svg>
<metadata>
Created by FontForge 20090914 at Mon Aug  3 05:27:25 2015
 By www-data
 All rights reserved, Phanlop Thongsuk, 1995
</metadata>
<defs>
<font id="PSL-AsadongBold" horiz-adv-x="0" >
  <font-face 
    font-family="PSL-Asadong"
    font-weight="700"
    font-stretch="normal"
    units-per-em="2048"
    panose-1="0 0 0 0 0 0 0 0 0 0"
    ascent="1638"
    descent="-410"
    x-height="688"
    cap-height="977"
    bbox="-981 -655 1556 1600"
    underline-thickness="50"
    underline-position="-85"
    unicode-range="U+0015-U+2122"
  />
<missing-glyph horiz-adv-x="1600" 
d="M100 0v1600h1400v-1600h-1400zM1400 100v1400h-1200v-1400h1200z" />
    <glyph glyph-name=".notdef" horiz-adv-x="1600" 
d="M100 0v1600h1400v-1600h-1400zM1400 100v1400h-1200v-1400h1200z" />
    <glyph glyph-name="NAK" horiz-adv-x="694" 
d="M590 612c-11.333 -12.667 -26.668 -32.667 -46.001 -60l-38 -54l-82 -115l164 -225l-39 -25c-5.33301 -3.33301 -11.166 -7.5 -17.499 -12.5s-13.5 -11.167 -21.5 -18.5l-86 140l-90 139l88 141l88 142c6.66699 -6.66699 12.667 -11.667 18 -15
c9.33301 -6 16.333 -10.667 21 -14zM370.998 158l-39.001 -24.999c-12.667 -8 -25 -18.333 -37 -31l-178 279l178 283l27 -23l24 -13.5c6.66699 -3.66699 15 -8.83398 25 -15.501c-57.333 -76 -110.666 -152.333 -159.999 -229z" />
    <glyph glyph-name="SYN" horiz-adv-x="694" 
d="M578 385l-89 -141l-88 -142c-12.667 12 -24 20.333 -34 25l-45 25l61 84l59.5 83.5c17 25 31.167 46.833 42.5 65.5l-163 223l45 27c10.667 6 22 15.667 34 29l108 -173zM360 385l-90.0029 -137.001l-88 -146c-5.33301 5.33301 -11.166 10.166 -17.499 14.499
s-12.166 7.83301 -17.499 10.5l-45 25l168 233l-168 223c4.66699 2.66699 11.334 6.83398 20.001 12.501s15.667 9.83398 21 12.501c11.333 6.66699 24.333 17 39 31l88 -144l45 -70c15.333 -23.333 30.333 -45 45 -65z" />
    <glyph glyph-name="space" unicode=" " horiz-adv-x="552" 
 />
    <glyph glyph-name="exclam" unicode="!" horiz-adv-x="463" 
d="M346 889c0 -25.333 -4.66602 -61.667 -13.999 -109c-3.33301 -21.333 -12.333 -59.333 -27 -114l-31 -168l-32 -174h-25l-41 206c-14.667 92 -27 157.667 -37 197l-14 72c-1.33301 12 -3 28.5 -5 49.5s-3 37.167 -3 48.5c0 30.667 10.667 55.667 32 75
s48.666 29 81.999 29c34 0 62 -10 84 -30c20.667 -20.667 31 -48 31 -82zM344.001 97.999c0 -29.333 -10.332 -55.335 -30.999 -78.002c-20 -20 -46.667 -30 -80 -30c-27.333 0 -53 10 -77 30c-10.667 10.667 -18.834 22.334 -24.501 35.001s-8.5 27 -8.5 43
c0 30.667 10.333 56.834 31 78.501s47 32.5 79 32.5c30.667 0 56.667 -11 78 -33c22 -20.667 33 -46.667 33 -78z" />
    <glyph glyph-name="quotedbl" unicode="&#x22;" horiz-adv-x="678" 
d="M571 893l-63 -320h-66l-61 320l-4 39c0 24 7.33301 42 22 54s40 18 76 18c66.667 0 100 -24 100 -72c0 -4.66699 -0.166992 -9.5 -0.5 -14.5s-1.5 -13.167 -3.5 -24.5zM297 893l-63.999 -319.999h-65l-62 320l-4 39c0 23.333 7.16699 41.166 21.5 53.499
s40.166 18.5 77.499 18.5c66.667 0 100 -24.667 100 -74c0 -4 -0.166992 -8.33301 -0.5 -13s-1.5 -12.667 -3.5 -24z" />
    <glyph glyph-name="numbersign" unicode="#" horiz-adv-x="772" 
d="M729 573h-147l-27 -174h137v-88h-149l-45 -311h-88l47 311h-176l-45 -311h-86l43 311h-150v88h164l29 174h-150v89h160l45 290h84l-43 -290h176l39 290h88l-41 -290h135v-89zM496 573h-174l-29 -174h174z" />
    <glyph glyph-name="dollar" unicode="$" horiz-adv-x="772" 
d="M721 283c0 -82 -30.667 -151.669 -92 -209.002c-58.667 -54.667 -132.334 -86 -221.001 -94v-154h-64v154c-24 0 -47.667 1.5 -71 4.5s-53 10.167 -89 21.5c-45.333 12 -86.333 33.333 -123 64l35 159h8c14.667 -50.667 43.334 -94.334 86.001 -131.001
c44 -32.667 95.333 -55 154 -67v366c-98.667 21.333 -169 48 -211 80c-54.667 44.667 -82 112.334 -82 203.001c0 66.667 16.333 122 49 166c16.667 20.667 37.167 39.167 61.5 55.5s53.833 30.5 88.5 42.5c6 2 12.833 3.66699 20.5 5s16 3 25 5s17.667 3.66699 26 5
s15.833 2 22.5 2v114h64v-114c24.667 0 48.167 -1.33301 70.5 -4s44.5 -7 66.5 -13c39.333 -9.33301 76.666 -27.666 111.999 -54.999l-24 -64c-5.33301 -17.333 -9.33301 -29.666 -12 -36.999c-5.33301 -14.667 -9.66602 -25.334 -12.999 -32.001
c-35.333 86 -102 137 -200 153v-336c96 -19.333 169 -48 219 -86c31.333 -24 54.833 -52.667 70.5 -86s23.5 -72.666 23.5 -117.999zM344 591.998l-0.000976562 317.001c-45.333 -4 -80.666 -21 -105.999 -51c-26 -28 -39 -63.333 -39 -106c0 -42 11.333 -75.667 34 -101
c24 -22.667 61 -42.334 111 -59.001zM572.999 206.999c0 48.667 -20.333 90.333 -61 125c-32 25.333 -66.667 41 -104 47v-346c35.333 0 70 15 104 45c40.667 34.667 61 77.667 61 129z" />
    <glyph glyph-name="percent" unicode="%" horiz-adv-x="1391" 
d="M1251 225c0 -73.333 -22.501 -133.002 -67.501 -179.002s-102.167 -69 -171.5 -69c-65.333 0 -118.166 20.667 -158.499 62s-60.5 97.333 -60.5 168c0 64.667 22.333 119.334 67 164.001s100.667 67 168 67c60 0 112.167 -18.667 156.5 -56s66.5 -89.666 66.5 -156.999z
M947.999 992.998l-479 -1036h-49l479 1038zM597.999 744.998c0 -72.667 -22.1699 -131.668 -66.5029 -177.001s-102.166 -68 -173.499 -68c-65.333 0 -118.166 20.667 -158.499 62s-60.5 96.333 -60.5 165c0 66.667 22.833 122.334 68.5 167.001s100.834 67 165.501 67
c60.667 0 113 -20 157 -60c45.333 -37.333 68 -89.333 68 -156zM1130 224.997c0 35.333 -2.16797 64.168 -6.50098 86.501s-11.5 41.333 -21.5 57s-21 27.167 -33 34.5s-26.333 11 -43 11c-44.667 0 -76 -25.333 -94 -76c-12.667 -36.667 -19 -81 -19 -133
c0 -56.667 5 -99 15 -127c16.667 -48 47.334 -72 92.001 -72s76 26.667 94 80c10.667 35.333 16 81.666 16 138.999zM476.995 744.999c0 46 -6 85.668 -18 119.001c-17.333 46.667 -46.666 70 -87.999 70c-43.333 0 -74 -25.333 -92 -76c-12.667 -34 -19 -79 -19 -135
c0 -28.667 1 -53 3 -73s5.66699 -38 11 -54c17.333 -48 47.666 -72 90.999 -72c44 0 75.333 27.333 94 82c12 37.333 18 83.666 18 138.999z" />
    <glyph glyph-name="ampersand" unicode="&#x26;" horiz-adv-x="1004" 
d="M840 0l-127.001 -5.99805l-78 108c-21.333 -18.667 -43.5 -35.5 -66.5 -50.5s-48.5 -28.5 -76.5 -40.5s-55.667 -21.333 -83 -28s-53 -10 -77 -10c-76 0 -142.333 23.333 -199 70c-24 20 -42.667 44.167 -56 72.5s-20 60.166 -20 95.499c0 66 26.667 126.667 80 182
c40.667 40.667 100 79.667 178 117c-38 56 -62.667 95.667 -74 119s-19.833 46.333 -25.5 69s-8.5 44.667 -8.5 66c0 62.667 25.333 114 76 154c26 20 52.833 34.833 80.5 44.5s58.834 14.5 93.501 14.5c56.667 0 106.334 -12.333 149.001 -37
c50.667 -30 76 -73.667 76 -131c0 -50 -19 -97 -57 -141c-14.667 -16.667 -32.334 -33 -53.001 -49s-46.667 -34 -78 -54l24 -30l213 -267c32.667 38 64.667 81.667 96 131c14.667 22.667 28.167 45.5 40.5 68.5s24.833 48.833 37.5 77.5l62 -68l-93 -127
c-16 -21.333 -32.333 -41.833 -49 -61.5s-35 -40.167 -55 -61.5l60 -75c14.667 -18 26.667 -31.667 36 -41c37.333 -44.667 71 -82.334 101 -113.001zM587.999 803.002c0 34 -9.66699 62.667 -29 86c-16.667 24.667 -42 37 -76 37c-76 0 -114 -39 -114 -117
c0 -13.333 1.33301 -25.666 4 -36.999s8 -27 16 -47c12 -28.667 38.667 -71 80 -127c15.333 13.333 30.333 28.666 45 45.999c12 14 25 31.333 39 52c12 20 20.833 38.5 26.5 55.5s8.5 34.167 8.5 51.5zM607.999 139.002c-92.667 109.333 -179.333 220 -260 332
c-38.667 -27.333 -68.667 -54.666 -90 -81.999c-24.667 -32.667 -37 -68.667 -37 -108c0 -49.333 17 -93 51 -131c4 -5.33301 10.167 -12.5 18.5 -21.5s14.5 -15.5 18.5 -19.5c14 -10 33.333 -20.333 58 -31c0.666992 -0.666992 4.5 -1.83398 11.5 -3.50098
s15.167 -3.16699 24.5 -4.5h21c6.66699 0 15 -0.666992 25 -2c23.333 0 50.833 6 82.5 18s57.167 29.667 76.5 53z" />
    <glyph glyph-name="quotesingle" unicode="'" horiz-adv-x="360" 
d="M276 893l-63 -319.999h-66l-61 320l-4 39c0 24 7.33301 42 22 54s40 18 76 18c67.333 0 101 -24 101 -72c0 -4.66699 -0.166992 -9.33398 -0.5 -14.001s-1.83301 -13 -4.5 -25z" />
    <glyph glyph-name="parenleft" unicode="(" horiz-adv-x="502" 
d="M473 -145l-8.00098 -48.002c-66.667 0 -123.167 17.333 -169.5 52s-84.166 88.334 -113.499 161.001c-40.667 100 -61 227.667 -61 383c0 210.667 34 366.334 102 467.001c58.667 87.333 139.334 131 242.001 131l8 -49c-74 -20 -129.333 -95 -166 -225
c-13.333 -47.333 -23.5 -98.5 -30.5 -153.5s-10.5 -111.833 -10.5 -170.5c0 -118 13.667 -225 41 -321c37.333 -127.333 92.666 -203 165.999 -227z" />
    <glyph glyph-name="parenright" unicode=")" horiz-adv-x="502" 
d="M381 403c0 -104.667 -8.33496 -195.668 -25.002 -273.001s-42.334 -141.666 -77.001 -192.999c-58 -86.667 -138.667 -130 -242 -130l-6 48c72.667 20 127.334 95 164.001 225c13.333 49.333 23.5 101.333 30.5 156s10.5 110.334 10.5 167.001c0 120.667 -13 228 -39 322
c-37.333 131.333 -92.666 207 -165.999 227l6 49c66 0 122.333 -17.333 169 -52s84.334 -88.334 113.001 -161.001c41.333 -100.667 62 -229 62 -385z" />
    <glyph glyph-name="asterisk" unicode="*" horiz-adv-x="637" 
d="M567 631l-57 -103l-158 115l23 -194h-35h-12c-3.33301 0 -10.333 0.666992 -21 2h-22c-6.66699 0 -13.667 -0.666992 -21 -2l21 194l-154 -121l-41 72l-20 27l188 86l-188 75c20 29.333 39 62.333 57 99l158 -119l-21 199c12.667 0 23 -1.66699 31 -5h24l29 2
c12.667 0 21.667 1 27 3l-23 -199l156 123c19.333 -39.333 39 -72.333 59 -99l-182 -79z" />
    <glyph glyph-name="plus" unicode="+" horiz-adv-x="778" 
d="M737 287h-286v-287h-123v287h-287v123h287v286h123v-286h286v-123z" />
    <glyph glyph-name="comma" unicode="," horiz-adv-x="365" 
d="M293 102l2.00098 -25.998c0 -39.333 -12.333 -80.333 -37 -123c-13.333 -23.333 -27 -43.833 -41 -61.5s-29.667 -34.167 -47 -49.5l-90 33c21.333 12.667 45.333 31.667 72 57c10 9.33301 19.333 20.166 28 32.499s17 26.166 25 41.499c-8 -4 -15 -6 -21 -6
c-29.333 0 -54.333 6.66699 -75 20c-20.667 14.667 -33 36 -37 64c-0.666992 4 -1 9.66699 -1 17c0 22 6.33301 41.667 19 59c15.333 21.333 38.666 35 69.999 41c4 0.666992 10 1 18 1c24 0 47.167 -7.5 69.5 -22.5s37.5 -40.833 45.5 -77.5z" />
    <glyph glyph-name="hyphen" unicode="-" horiz-adv-x="451" 
d="M389 281h-328v143h328v-143z" />
    <glyph glyph-name="period" unicode="." horiz-adv-x="365" 
d="M285 90c0 -24 -10.3311 -47.999 -30.998 -71.999c-18.667 -18.667 -43.334 -28 -74.001 -28c-30 0 -54.833 9.5 -74.5 28.5s-29.5 42.833 -29.5 71.5c0 27.333 9.33301 50.666 28 69.999c21.333 20 46.666 30 75.999 30c30 0 55 -9.5 75 -28.5s30 -42.833 30 -71.5z" />
    <glyph glyph-name="slash" unicode="/" horiz-adv-x="702" 
d="M662 977l-457 -977h-164l457 977h164z" />
    <glyph glyph-name="zero" unicode="0" horiz-adv-x="778" 
d="M743 479c0 -147.333 -24.3311 -262.669 -72.998 -346.002c-58.667 -99.333 -151.667 -149 -279 -149c-124.667 0 -217.334 49.667 -278.001 149c-25.333 42.667 -44.333 92.334 -57 149.001s-19 122.334 -19 197.001c0 146.667 25.333 262 76 346
c59.333 100 152 150 278 150c123.333 0 215.666 -50 276.999 -150c50 -84 75 -199.333 75 -346zM524.002 478.997c0 122.667 -6.66602 216.335 -19.999 281.002c-21.333 105.333 -59 158 -113 158c-52.667 0 -90 -52 -112 -156c-16.667 -74.667 -25 -169 -25 -283
c0 -60.667 1.66699 -113.834 5 -159.501s9 -85.834 17 -120.501c23.333 -105.333 61.666 -158 114.999 -158c51.333 0 88.333 52 111 156c6.66699 34.667 12 76.167 16 124.5s6 100.833 6 157.5z" />
    <glyph glyph-name="one" unicode="1" horiz-adv-x="778" 
d="M514 0h-209v793c0 16 -4 24 -12 24l-14 -6l-152 -109v156l377 117l10 -10v-965z" />
    <glyph glyph-name="two" unicode="2" horiz-adv-x="778" 
d="M748 168l-58.0029 -168h-637l-18 25c0 25.333 5 51.333 15 78s26 55.667 48 87c42 60.667 111.667 131 209 211c34.667 28.667 64.834 58.667 90.501 90s46.167 63 61.5 95c10.667 24.667 18.834 49.667 24.501 75s8.5 52 8.5 80c0 26.667 -2.33301 50.5 -7 71.5
s-12 39.5 -22 55.5c-19.333 33.333 -46.666 50 -81.999 50c-34.667 0 -63.667 -16.5 -87 -49.5s-42 -82.167 -56 -147.5c-8.66699 -32.667 -28.667 -49 -60 -49c-14.667 0 -28.667 1.66699 -42 5s-26 9 -38 17c-24.667 15.333 -37 37.333 -37 66
c0 61.333 31.167 112.5 93.5 153.5s141.166 61.5 236.499 61.5c99.333 0 175 -20 227 -60c62 -45.333 93 -115.333 93 -210c0 -70 -22.667 -129.667 -68 -179c-35.333 -39.333 -99.333 -83.666 -192 -132.999c-71.333 -40 -126.666 -82.333 -165.999 -127
c-10 -11.333 -20.333 -25.333 -31 -42c-8 -12.667 -19 -31.334 -33 -56.001h527z" />
    <glyph glyph-name="three" unicode="3" horiz-adv-x="778" 
d="M727 262c0 -90 -32.168 -158.831 -96.501 -206.498s-154.5 -71.5 -270.5 -71.5c-86 0 -157.667 14.333 -215 43c-76 39.333 -114 86.333 -114 141c0 27.333 12.333 51.333 37 72c24.667 18.667 51 28 79 28c28.667 0 48 -15 58 -45
c20 -64.667 42.833 -111.167 68.5 -139.5s56.834 -42.5 93.501 -42.5c91.333 0 137 74.333 137 223c0 80 -15 138.667 -45 176c-12 13.333 -26.333 23.166 -43 29.499s-36.667 9.5 -60 9.5c-11.333 0 -23.333 -0.666992 -36 -2s-26.334 -4 -41.001 -8l-60 -10
c-26 0 -39 18.333 -39 55c0 35.333 13 53 39 53c4.66699 0 12.667 -0.833008 24 -2.5s25.333 -4.16699 42 -7.5l71 -10c23.333 0 43 6.16699 59 18.5s29.667 33.333 41 63s17 67.834 17 114.501c0 41.333 -6 77.666 -18 108.999c-19.333 44 -48.666 66 -87.999 66
c-32.667 0 -60 -14.667 -82 -44c-18 -22.667 -38 -64.667 -60 -126c-10 -32 -28.333 -48 -55 -48c-10.667 0 -21.167 1.5 -31.5 4.5s-21.833 7.83301 -34.5 14.5c-28.667 16.667 -43 39 -43 67c0 51.333 30.167 95.666 90.5 132.999s132.166 56 215.499 56
c91.333 0 163 -15 215 -45c70.667 -42 106 -107.667 106 -197c0 -31.333 -5.66699 -59 -17 -83s-29.666 -46 -54.999 -66c-30.667 -26 -73.667 -46.667 -129 -62c20 -3.33301 37.5 -7.5 52.5 -12.5s30.5 -11.833 46.5 -20.5c94 -47.333 141 -123 141 -227z" />
    <glyph glyph-name="four" unicode="4" horiz-adv-x="778" 
d="M748 250h-144v-250h-196v250h-363l-25 39c122.667 211.333 262 434.333 418 669h166v-616h144v-92zM408 342v434l-7 2c-81.333 -134 -161 -279.333 -239 -436h246z" />
    <glyph glyph-name="five" unicode="5" horiz-adv-x="778" 
d="M727 305c0 -94 -26 -168.999 -78 -224.999c-61.333 -64 -154 -96 -278 -96c-109.333 0 -193.333 24.333 -252 73c-44 38 -66 75 -66 111c0 28 11 52 33 72c12.667 10 24.334 17.167 35.001 21.5s23 6.5 37 6.5c33.333 0 55.666 -17.333 66.999 -52s22 -62.834 32 -84.501
s21.333 -39.5 34 -53.5c22 -24.667 50.667 -37 86 -37c44 0 76.667 21.667 98 65c10 21.333 18 47.333 24 78s9 64.334 9 101.001c0 41.333 -3.66699 77.166 -11 107.499s-19.333 55.833 -36 76.5c-29.333 39.333 -71.666 59 -126.999 59c-18 0 -34.833 -1.66699 -50.5 -5
s-30.834 -9 -45.501 -17c-30.667 -12.667 -59.334 -36.667 -86.001 -72l-54 39l29 475l8 10h545l12 -16l-55 -151h-377c-18.667 0 -31.667 -3.66699 -39 -11c-4.66699 -4.66699 -10 -21 -16 -49l-25 -196c32.667 22 66.334 40.333 101.001 55
c24 8.66699 46.667 15.167 68 19.5s43 6.5 65 6.5c112 0 195.333 -35.333 250 -106c42 -56.667 63 -125 63 -205z" />
    <glyph glyph-name="six" unicode="6" horiz-adv-x="778" 
d="M754 313c0 -94 -27.335 -170.335 -82.002 -229.002c-62.667 -66.667 -155 -100 -277 -100c-126.667 0 -220 44.333 -280 133c-53.333 77.333 -80 194 -80 350c0 30.667 1 59.167 3 85.5s5.66699 54.5 11 84.5c10 52 27 101.667 51 149
c30.667 58.667 73.334 104.834 128.001 138.501s122 50.5 202 50.5c43.333 0 81.5 -4.66699 114.5 -14s63.167 -24.666 90.5 -45.999c44.667 -32 67 -70 67 -114c0 -25.333 -11.333 -46 -34 -62c-21.333 -11.333 -44 -18 -68 -20c-27.333 0 -47 14.333 -59 43
c-13.333 54.667 -30.666 93.667 -51.999 117c-19.333 22.667 -45 35.667 -77 39c-60.667 0 -105 -53.333 -133 -160c-19.333 -75.333 -29 -162 -29 -260c31.333 34 64 61.333 98 82c42 22.667 84.333 34 127 34c76.667 0 141.667 -24.333 195 -73
c56 -54.667 84 -130.667 84 -228zM540.998 275.998c0 79.333 -13.667 137.167 -41 173.5s-63.666 54.5 -108.999 54.5c-42.667 0 -77.167 -16.667 -103.5 -50s-39.5 -73.333 -39.5 -120c0 -84.667 12.667 -154.667 38 -210s63.666 -83 114.999 -83c48 0 83 21.667 105 65
c12 24 20.833 49.333 26.5 76s8.5 58 8.5 94z" />
    <glyph glyph-name="seven" unicode="7" horiz-adv-x="778" 
d="M743 942c-16 -100.667 -87.6631 -245.332 -214.996 -433.999c-32.667 -50 -57 -111.333 -73 -184c-7.33301 -36 -13 -75.167 -17 -117.5s-6 -87.833 -6 -136.5c0 -33.333 -11.667 -57.333 -35 -72c-8.66699 -4.66699 -18.667 -8.16699 -30 -10.5s-24.333 -3.5 -39 -3.5
c-38.667 0 -65.334 4.66699 -80.001 14c-24.667 12 -37 37.333 -37 76c0 58 18.333 123.333 55 196c17.333 35.333 37.666 70.166 60.999 104.499s51.666 71.166 84.999 110.499c50 60.667 90 123 120 187c11.333 24.667 25.666 63.334 42.999 116.001h-544l59 168l637 2z
" />
    <glyph glyph-name="eight" unicode="8" horiz-adv-x="778" 
d="M748 268c0 -98.667 -36.334 -173.001 -109.001 -223.001c-60.667 -40.667 -144 -61 -250 -61c-103.333 0 -186.666 20.333 -249.999 61c-72 47.333 -108 121.666 -108 222.999c0 64 16.167 116.667 48.5 158s78.166 72 137.499 92c-44.667 14 -81 38.333 -109 73
s-42 78 -42 130c0 40.667 6.83301 76.167 20.5 106.5s34.834 56.833 63.501 79.5c57.333 45.333 137 68 239 68s181.5 -21.333 238.5 -64s85.5 -106 85.5 -190c0 -52 -13.667 -95 -41 -129c-13.333 -16 -29 -29.667 -47 -41s-40 -21.666 -66 -30.999
c58 -18 104 -48.167 138 -90.5s51 -96.166 51 -161.499zM507.999 726.999c0 56.667 -10.332 102.665 -30.999 137.998s-50 53 -88 53c-34 0 -62.667 -18.667 -86 -56c-10.667 -19.333 -18.834 -40.166 -24.501 -62.499s-8.5 -46.5 -8.5 -72.5
c0 -51.333 10.833 -95.166 32.5 -131.499s50.5 -54.5 86.5 -54.5c38 0 66.667 17 86 51c22 36.667 33 81.667 33 135zM528 263.997c0 62.667 -11.8311 114.167 -35.498 154.5s-58.167 60.5 -103.5 60.5c-21.333 0 -40.833 -4.66699 -58.5 -14s-32.834 -24.333 -45.501 -45
c-24.667 -38.667 -37 -90.667 -37 -156c0 -66.667 12.167 -120.5 36.5 -161.5s59.166 -61.5 104.499 -61.5c44 0 78.167 20.5 102.5 61.5s36.5 94.833 36.5 161.5z" />
    <glyph glyph-name="nine" unicode="9" horiz-adv-x="778" 
d="M733 504c0 -106 -8.99609 -192.165 -26.9961 -258.498s-45.667 -120.833 -83 -163.5c-15.333 -15.333 -33 -29.5 -53 -42.5s-41.333 -24.167 -64 -33.5c-47.333 -14.667 -100 -22 -158 -22c-95.333 0 -169 21 -221 63c-20 16 -35.667 33 -47 51s-17 36 -17 54
c0 23.333 11 45 33 65c23.333 19.333 46.666 29 69.999 29c28.667 0 49 -14.333 61 -43c21.333 -60 42 -101.667 62 -125s44.333 -35 73 -35c44 0 79.667 24.667 107 74c32.667 64.667 49 178 49 340c-24 -20.667 -54 -41.334 -90 -62.001
c-18 -8.66699 -35 -15.167 -51 -19.5s-33 -6.5 -51 -6.5c-82 0 -148.333 22.333 -199 67c-57.333 51.333 -86 123.666 -86 216.999c0 92 29.5 168.667 88.5 230s141.5 92 247.5 92c67.333 0 123.666 -10.667 168.999 -32s81.666 -53 108.999 -95
c12 -17.333 23.167 -38.5 33.5 -63.5s19.166 -52.5 26.499 -82.5c12 -55.333 18 -121.333 18 -198zM522.004 623.002c0 84.667 -11.834 155 -35.501 211s-56.834 84 -99.501 84c-41.333 0 -73.833 -21 -97.5 -63s-35.5 -97.667 -35.5 -167c0 -32.667 3 -61.667 9 -87
s16 -49 30 -71c26.667 -39.333 63.334 -59 110.001 -59c22 0 42 4.66699 60 14c11.333 8 19 13.667 23 17c6.66699 6 13.334 14 20.001 24c4.66699 10 8.66699 23 12 39z" />
    <glyph glyph-name="colon" unicode=":" horiz-adv-x="365" 
d="M285 616c0 -24.667 -10.333 -48.333 -31 -71c-18 -19.333 -42.667 -29 -74 -29c-30 0 -54.667 9.66699 -74 29c-20 18 -30 41.667 -30 71c0 28 9.83301 51.833 29.5 71.5s44.5 29.5 74.5 29.5s54.667 -9.66699 74 -29c10 -9.33301 17.667 -19.833 23 -31.5
s8 -25.167 8 -40.5zM285 90.001c0 -24 -10.3311 -47.999 -30.998 -71.999c-18.667 -18.667 -43.334 -28 -74.001 -28c-30 0 -54.833 9.5 -74.5 28.5s-29.5 42.833 -29.5 71.5c0 27.333 9.33301 50.666 28 69.999c21.333 20 46.666 30 75.999 30c30 0 55 -9.5 75 -28.5
s30 -42.833 30 -71.5z" />
    <glyph glyph-name="semicolon" unicode=";" horiz-adv-x="365" 
d="M285 616c0 -24.667 -10.333 -48.333 -31 -71c-18 -19.333 -42.667 -29 -74 -29c-30 0 -54.667 9.66699 -74 29c-20 18 -30 41.667 -30 71c0 28 9.83301 51.833 29.5 71.5s44.5 29.5 74.5 29.5s54.667 -9.66699 74 -29c10 -9.33301 17.667 -19.833 23 -31.5
s8 -25.167 8 -40.5zM293 102.001l2.00098 -25.998c0 -39.333 -12.333 -80.333 -37 -123c-13.333 -23.333 -27 -43.833 -41 -61.5s-29.667 -34.167 -47 -49.5l-90 33c21.333 12.667 45.333 31.667 72 57c10 9.33301 19.333 20.166 28 32.499s17 26.166 25 41.499
c-8 -4 -15 -6 -21 -6c-29.333 0 -54.333 6.66699 -75 20c-20.667 14.667 -33 36 -37 64c-0.666992 4 -1 9.66699 -1 17c0 22 6.33301 41.667 19 59c15.333 21.333 38.666 35 69.999 41c4 0.666992 10 1 18 1c24 0 47.167 -7.5 69.5 -22.5s37.5 -40.833 45.5 -77.5z" />
    <glyph glyph-name="less" unicode="&#x3c;" horiz-adv-x="778" 
d="M719 0l-664 281v131l664 276v-147l-475 -197l475 -194v-150z" />
    <glyph glyph-name="equal" unicode="=" horiz-adv-x="778" 
d="M737 410h-696v122h696v-122zM737 164h-696v123h696v-123z" />
    <glyph glyph-name="greater" unicode="&#x3e;" horiz-adv-x="778" 
d="M719 281l-664 -281v150l477 194l-477 197v147l664 -276v-131z" />
    <glyph glyph-name="question" unicode="?" horiz-adv-x="788" 
d="M727 750c0 -64 -24.665 -120.668 -73.998 -170.001c-20 -18 -43.333 -34 -70 -48s-56.334 -26 -89.001 -36v-158h-185v207c64 8 118.333 30.833 163 68.5s67 85.167 67 142.5c0 44.667 -15 84 -45 118c-14.667 18 -31.334 31.5 -50.001 40.5s-39.667 13.5 -63 13.5
c-46 0 -85 -12.333 -117 -37c-28 -25.333 -45 -54.666 -51 -87.999c-0.666992 -8 -1 -13.667 -1 -17c0 -18 3.5 -37.833 10.5 -59.5s18.833 -37.834 35.5 -48.501h-197c-10.667 30.667 -16 57.334 -16 80.001c0 68 31.333 125.5 94 172.5s144 70.5 244 70.5
c49.333 0 94.5 -5.66699 135.5 -17s77.833 -29.333 110.5 -54c65.333 -45.333 98 -105.333 98 -180zM518.002 108.999c0 -33.333 -11.667 -61.333 -35 -84c-22 -23.333 -50 -35 -84 -35c-32.667 0 -60.5 11.5 -83.5 34.5s-34.5 51.167 -34.5 84.5
c0 32.667 11.333 60.667 34 84c24 22.667 52 34 84 34c33.333 0 61.5 -11.5 84.5 -34.5s34.5 -50.833 34.5 -83.5z" />
    <glyph glyph-name="at" unicode="@" horiz-adv-x="1075" 
d="M1018 590c0 -54 -8.33594 -103.997 -25.0029 -149.997c-14 -45.333 -37.667 -84.666 -71 -117.999c-14.667 -16 -31.167 -31.333 -49.5 -46s-38.833 -29.667 -61.5 -45c-41.333 -24 -79.666 -36 -114.999 -36c-31.333 0 -56.333 11.333 -75 34c-18 26.667 -27 56 -27 88
c-27.333 -38.667 -53 -67.334 -77 -86.001s-54.333 -28 -91 -28c-57.333 0 -102.333 18.833 -135 56.5s-49 88.5 -49 152.5c0 82.667 30 157 90 223c29.333 32.667 61.5 57.5 96.5 74.5s72.5 25.5 112.5 25.5c14.667 0 28.667 -1.66699 42 -5s26 -9 38 -17
c15.333 -10.667 31 -26.334 47 -47.001l14 57h137l-94 -352c-4 -17.333 -6 -33 -6 -47c0 -28 9.66699 -43 29 -45c19.333 0 38.5 6.5 57.5 19.5s38.5 33.5 58.5 61.5c45.333 64.667 68 140.667 68 228c0 86.667 -30 161 -90 223c-65.333 69.333 -155.666 104 -270.999 104
c-121.333 0 -220.166 -39.5 -296.499 -118.5s-114.5 -182.167 -114.5 -309.5c0 -131.333 39.833 -235.5 119.5 -312.5s183.167 -115.5 310.5 -115.5c65.333 0 126.833 16.5 184.5 49.5s105.5 79.5 143.5 139.5h92c-40.667 -80.667 -101 -147.667 -181 -201
c-77.333 -49.333 -162.666 -74 -255.999 -74c-142.667 0 -264.334 47.667 -365.001 143s-151 215.666 -151 360.999c0 148 48.167 272.333 144.5 373s216.833 151 361.5 151c132 0 240.833 -40.833 326.5 -122.5s128.5 -177.834 128.5 -288.501zM626.997 575.003
c0 56 -21.3311 84 -63.998 84c-48.667 0 -91 -38 -127 -114c-14.667 -33.333 -25.834 -64.833 -33.501 -94.5s-11.5 -59.167 -11.5 -88.5c0 -26 4 -47 12 -63c10 -13.333 26.667 -20 50 -20c18.667 0 37 6.16699 55 18.5s36.667 32.666 56 60.999s34.666 60.833 45.999 97.5
s17 76.334 17 119.001z" />
    <glyph glyph-name="A" unicode="A" horiz-adv-x="928" 
d="M909 -6l-106 6l-117 -6c0 4.66699 -16.333 55.667 -49 153l-27 84c-9.33301 27.333 -18 50 -26 68h-353l-55 -158l-30 -95l-15 -50l-59 4l-54 -2l404 989l47 -2l45 4zM561 367l-145 387l-156 -387h301z" />
    <glyph glyph-name="B" unicode="B" horiz-adv-x="850" 
d="M766 276c0 -89.333 -35.667 -159.333 -107 -210c-62.667 -44 -139 -66 -229 -66h-321v977h360c80 0 143.333 -14.333 190 -43c57.333 -34.667 86 -90.667 86 -168c0 -64 -23 -118 -69 -162c-21.333 -19.333 -46 -35.5 -74 -48.5s-59.333 -22.833 -94 -29.5
c69.333 -10 126 -31 170 -63c58.667 -46 88 -108.333 88 -187zM553 745c0 115.333 -55.334 173.001 -166.001 173.001l-84 -9v-362h53c29.333 0 54.166 2 74.499 6s39.833 15.667 58.5 35c8.66699 7.33301 16.834 16.666 24.501 27.999s14.834 24.333 21.501 39
c12 29.333 18 59.333 18 90zM566.999 266.001c0 80 -21.168 135.833 -63.501 167.5s-109.166 47.5 -200.499 47.5v-415h82c46 0 87.833 18.333 125.5 55s56.5 85 56.5 145z" />
    <glyph glyph-name="C" unicode="C" horiz-adv-x="928" 
d="M874 936l-30 -135c-15.333 20 -32 37.667 -50 53s-39 29.666 -63 42.999c-40.667 24.667 -86.334 37 -137.001 37c-112.667 0 -200 -48.667 -262 -146c-53.333 -81.333 -80 -185 -80 -311c0 -130.667 30.5 -236 91.5 -316s147.167 -120 258.5 -120c44 0 89 10.333 135 31
c24 10.667 46.167 22.167 66.5 34.5s39.166 26.833 56.499 43.5l-26 -117c-38 -18.667 -81 -33 -129 -43c-24 -5.33301 -48 -9.5 -72 -12.5s-47.333 -4.5 -70 -4.5c-76.667 0 -146 10.833 -208 32.5s-119 55.167 -171 100.5c-99.333 90 -149 207 -149 351
c0 90 13.5 169 40.5 237s68.167 126 123.5 174c100.667 88.667 232.334 133 395.001 133c27.333 0 51.333 -1.16699 72 -3.5s44.334 -6.5 71.001 -12.5c46 -9.33301 91.667 -25.666 137 -48.999z" />
    <glyph glyph-name="D" unicode="D" horiz-adv-x="1083" 
d="M1014 516c0 -158 -47.668 -283.5 -143.001 -376.5s-217.666 -139.5 -366.999 -139.5h-387v977h477c138.667 0 245.667 -47 321 -141c66 -82 99 -188.667 99 -320zM798.999 518c0 136.667 -29.333 236.334 -88 299.001s-142 94 -250 94h-152v-845h133
c111.333 0 196 31.333 254 94c34 36.667 59.667 84.667 77 144s26 130.666 26 213.999z" />
    <glyph glyph-name="E" unicode="E" horiz-adv-x="694" 
d="M637 0h-527.999v977h528l-4 -53l4 -52c-80 12.667 -190.667 19 -332 19v-334h160h21c25.333 0 51.666 1.33301 78.999 4l66 6l-2 -51l2 -49h-17h-32c-17.333 2 -31 3.33301 -41 4l-76 6h-160v-393c28.667 0 58.334 0.5 89.001 1.5l75 2.5c20 0 43.167 1.16699 69.5 3.5
s59.166 5.83301 98.499 10.5l-4 -49z" />
    <glyph glyph-name="F" unicode="F" horiz-adv-x="694" 
d="M637 872c-38.667 5.33301 -69.832 9.16699 -93.499 11.5s-45.834 3.5 -66.501 3.5l-172 4v-334h166h17h32c17.333 2 31 3.33301 41 4l70 6l-2 -51l2 -49h-19h-33c-18 2 -32 3.33301 -42 4l-70 6h-162v-483l-98 6l-98 -6v983h528l-4 -53z" />
    <glyph glyph-name="G" unicode="G" horiz-adv-x="1083" 
d="M985 39c-29.333 -10 -60.999 -18.998 -94.999 -26.998c-24.667 -6 -54.5 -12.333 -89.5 -19s-67.333 -11.667 -97 -15s-58.834 -5 -87.501 -5c-156 0 -285.667 39 -389 117c-113.333 87.333 -170 211.666 -170 372.999c0 170.667 56 305 168 403
c103.333 90 239.333 135 408 135c64.667 0 123.334 -6.66699 176.001 -20c26.667 -6 52.167 -13.833 76.5 -23.5s50.833 -22.167 79.5 -37.5l-25 -70l-12 -64c-70 98.667 -167 148 -291 148c-114.667 0 -205.334 -47.667 -272.001 -143
c-60.667 -86.667 -91 -197.334 -91 -332.001c0 -131.333 30.833 -233.833 92.5 -307.5s148.5 -110.5 260.5 -110.5c18.667 0 35.167 0.666992 49.5 2s27.833 4 40.5 8s25 8.83301 37 14.5s25 12.5 39 20.5v336l96 -6l96 6v-383z" />
    <glyph glyph-name="H" unicode="H" horiz-adv-x="1083" 
d="M961 -6l-95 6l-96 -6v489c-6 0 -24 0.666992 -54 2s-57 2 -81 2c-60.667 0 -92 1.66699 -94 5c-3.33301 0 -21.5 -0.833008 -54.5 -2.5s-56.5 -2.5 -70.5 -2.5c-28.667 0 -51 -0.333008 -67 -1s-28.667 -1.66699 -38 -3v-489l-94 6l-98 -6v983l98 -6l94 6v-395
c38.667 0 83.667 -2.33301 135 -7c26 0 46.333 -0.333008 61 -1s26 -1.66699 34 -3c6.66699 0 24 0.666992 52 2s53 2 75 2c49.333 4.66699 83.333 7 102 7v395l96 -6l95 6v-983z" />
    <glyph glyph-name="I" unicode="I" horiz-adv-x="463" 
d="M336 -6l-105 6l-104 -6v983l104 -6l105 6v-983z" />
    <glyph glyph-name="J" unicode="J" horiz-adv-x="463" 
d="M350 236v-38.999c0 -66 -2.66699 -118 -8 -156c-4 -42 -17 -77.667 -39 -107c-30 -48 -66.833 -84.833 -110.5 -110.5s-95.5 -42.5 -155.5 -50.5l-17 49c60.667 19.333 99 65 115 137c8 37.333 12 120.666 12 249.999v768l101 -6l102 6v-741z" />
    <glyph glyph-name="K" unicode="K" horiz-adv-x="850" 
d="M737 0l-135.001 -5.99902l-307 485v-485l-96 6l-99 -6v979l99 -6l96 6v-473l154 184l94 114l78 96l61 79l74 -6l65 6l-233 -244c-4.66699 -4.66699 -18 -19.334 -40 -44.001l-43.5 -50l-32 -37c-10.333 -12 -18.166 -21.667 -23.499 -29l385 -571z" />
    <glyph glyph-name="L" unicode="L" horiz-adv-x="694" 
d="M637 0h-525.999v977l98 -6l98 6v-893h39h14h13c31.333 0 58.666 1.33301 81.999 4c20 0 43.833 1.16699 71.5 3.5s64.5 5.83301 110.5 10.5l-4 -49z" />
    <glyph glyph-name="M" unicode="M" horiz-adv-x="1235" 
d="M1188 -6l-104.999 5.99902l-104 -6c0 49.333 -1.66699 101.333 -5 156s-9.33301 114 -18 178c-12 125.333 -19.667 203.333 -23 234s-9.33301 78.334 -18 143.001l-113 -239l-110 -234l-106 -230h-41l-57 126l-52 110c-124.667 266 -196.334 416.667 -215.001 452
l-28 -221l-19 -162c-12 -119.333 -18 -223 -18 -311l-56 4l-53 -4c9.33301 47.333 23 133 41 257l31 206l67 518l52 -6l53 6l66 -148c19.333 -42.667 36.333 -78.667 51 -108l217 -442l83 168l87 171l91.5 192.5l76.5 166.5l53 -6l53 6c22 -221.333 35 -342.333 39 -363
c12 -117.333 25 -229 39 -335c10 -85.333 17.667 -146.333 23 -183c3.33301 -24.667 9.33301 -58.667 18 -102z" />
    <glyph glyph-name="N" unicode="N" horiz-adv-x="1083" 
d="M965 0h-105l-239 272l-123 137l-115 123l-172 189v-723l-47 2l-47 -2v979h125l82 -93l120 -132l211 -232c88 -96 160.333 -178.667 217 -248v709l46 -2l47 2v-981z" />
    <glyph glyph-name="O" unicode="O" horiz-adv-x="1159" 
d="M1110 492c0 -145.333 -48.334 -266.334 -145.001 -363.001c-52 -51.333 -111.5 -90.166 -178.5 -116.499s-141.5 -39.5 -223.5 -39.5c-155.333 0 -280.166 45.167 -374.499 135.5s-141.5 215.833 -141.5 376.5c0 148 47.667 269.667 143 365
c104 100.667 239.333 151 406 151c181.333 0 316.333 -56.667 405 -170c72.667 -90.667 109 -203.667 109 -339zM896.999 517.999c0 57.333 -5.66602 108.498 -16.999 153.498s-29.666 87.5 -54.999 127.5c-55.333 90 -134.333 135 -237 135s-182.334 -40.5 -239.001 -121.5
s-85 -203.833 -85 -368.5c0 -109.333 23.333 -200.666 70 -273.999c55.333 -86 133.666 -129 234.999 -129c107.333 0 190 48.333 248 145c53.333 86.667 80 197.334 80 332.001z" />
    <glyph glyph-name="P" unicode="P" horiz-adv-x="772" 
d="M739 739c0 -117.333 -40.999 -199.667 -122.999 -247c-70.667 -40 -178.334 -60 -323.001 -60v-438l-94 6l-101 -6v983h344c198 0 297 -79.333 297 -238zM539.001 712.999c0 62 -13.833 111.667 -41.5 149s-61.834 56 -102.501 56h-102v-424c24 0 45 0.666992 63 2
s33.667 4 47 8c42.667 11.333 77 36 103 74c10.667 18.667 18.834 39.167 24.501 61.5s8.5 46.833 8.5 73.5z" />
    <glyph glyph-name="Q" unicode="Q" horiz-adv-x="1159" 
d="M1110 492c0 -116.667 -33.167 -220.333 -99.5 -311s-158.833 -152.334 -277.5 -185.001c40 -40 92 -71.833 156 -95.5s120.667 -35.5 170 -35.5l-125 -162c-54 10 -117.833 43.333 -191.5 100s-127.834 113.334 -162.501 170.001h-17
c-155.333 0 -280.166 45.167 -374.499 135.5s-141.5 215.833 -141.5 376.5c0 148 47.667 269.667 143 365c104 100.667 239.333 151 406 151c181.333 0 316.333 -56.667 405 -170c72.667 -90.667 109 -203.667 109 -339zM897 518.001
c0 57.333 -5.66602 108.498 -16.999 153.498s-29.666 87.5 -54.999 127.5c-55.333 90 -134.333 135 -237 135s-182.334 -40.5 -239.001 -121.5s-85 -203.833 -85 -368.5c0 -109.333 23.333 -200.666 70 -273.999c55.333 -86 133.666 -129 234.999 -129
c107.333 0 190 48.333 248 145c53.333 86.667 80 197.334 80 332.001z" />
    <glyph glyph-name="R" unicode="R" horiz-adv-x="850" 
d="M829 -4l-112 3.99902l-127 -6l-166 301l-98 168h-27v-469l-96 6l-101 -6v983h301c25.333 0 49.833 -0.166992 73.5 -0.5s45.167 -1.5 64.5 -3.5c32 0 62.667 -7.66699 92 -23c20 -10.667 37.167 -22.5 51.5 -35.5s26.833 -27.833 37.5 -44.5s18.667 -34.5 24 -53.5
s8 -41.167 8 -66.5c0 -68 -20.333 -123.833 -61 -167.5s-97.667 -73.167 -171 -88.5c39.333 -75.333 71.333 -130.666 96 -165.999l166 -260zM549 722.999l0.000976562 43l-8 33c-8.66699 48.667 -33.334 82 -74.001 100c-28.667 12.667 -71.667 19 -129 19h-39v-414l41 -2
c139.333 0 209 73.667 209 221z" />
    <glyph glyph-name="S" unicode="S" horiz-adv-x="694" 
d="M651 285c0 -89.333 -34.666 -163.999 -103.999 -223.999c-34.667 -28 -74.5 -49.667 -119.5 -65s-94.5 -23 -148.5 -23c-23.333 0 -43.5 1 -60.5 3s-35.167 6 -54.5 12c-34.667 8 -70.334 22.333 -107.001 43l23 88c2.66699 10 5.33398 22.5 8.00098 37.5l8 44.5h10
c12.667 -50.667 37.5 -90 74.5 -118s81.833 -42 134.5 -42c50.667 0 93 13.667 127 41c16.667 14.667 29.5 32 38.5 52s13.5 43 13.5 69c0 60.667 -36.333 111 -109 151l-209 117c-75.333 58 -113 136 -113 234c0 85.333 26.667 154.666 80 207.999
c29.333 29.333 64 51.333 104 66s86.667 22 140 22c44 0 85.667 -6 125 -18c34 -9.33301 64 -23.666 90 -42.999l-20 -59l-21 -74c-39.333 84.667 -99.333 127 -180 127c-58.667 0 -101.334 -13.333 -128.001 -40s-40 -64 -40 -112c0 -53.333 73 -118.333 219 -195
s219 -177.334 219 -302.001z" />
    <glyph glyph-name="T" unicode="T" horiz-adv-x="772" 
d="M743 874l-110 13c-39.333 4 -87.333 6 -144 6v-899l-96 6l-98 -6v899c-94 0 -182 -6.33301 -264 -19l2 50l-4 53h714l-4 -53z" />
    <glyph glyph-name="U" unicode="U" horiz-adv-x="1083" 
d="M958 465c0 -103.333 -5.99902 -179.67 -17.999 -229.003c-20 -77.333 -63 -139.666 -129 -186.999c-34.667 -25.333 -75.667 -43.666 -123 -54.999c-26 -6.66699 -50 -11.834 -72 -15.501s-44.333 -5.5 -67 -5.5c-97.333 0 -179.333 16.667 -246 50
c-40 20 -72.833 45.5 -98.5 76.5s-45.5 68.833 -59.5 113.5c-14.667 60 -22 119.333 -22 178v586l98 -6l94 6v-404v-149c0 -52 4.33301 -97.667 13 -137c6 -36.667 14 -68 24 -94c4 -12 9.83301 -23.667 17.5 -35s18.167 -23.666 31.5 -36.999
c11.333 -10 23.5 -19.167 36.5 -27.5s27.5 -16.166 43.5 -23.499c30 -11.333 60.667 -17 92 -17c70.667 0 126 13.833 166 41.5s74.333 75.5 103 143.5c5.33301 15.333 9.66602 34.333 12.999 57s5 50 5 82l4 168v432l45 -2l49 2v-512z" />
    <glyph glyph-name="V" unicode="V" horiz-adv-x="928" 
d="M903 975l-137 -324l-91 -221l-42 -104l-123 -332l-53 6l-54 -6l-60 171l-60 159l-42 112c-7.33301 20 -21.333 56.333 -42 109l-41 104l-131 326l108 -6h23h30l23 4l43 4c20.667 -70.667 38.667 -128.667 54 -174c18.667 -56.667 41 -119.667 67 -189l143 -385l89 226
l61 157l129 363l57 -2z" />
    <glyph glyph-name="W" unicode="W" horiz-adv-x="1391" 
d="M1368 977l-113.001 -328l-108 -325l-103 -330l-61 6l-63 -6c-6.66699 24.667 -18.334 65 -35.001 121l-45 149l-154 469l-133 -375l-123 -364l-63 6l-66 -6l-45 178c-15.333 59.333 -28.333 106.333 -39 141c-3.33301 14 -10.333 38.833 -21 74.5l-31 106.5l-40 137
l-60 196l-36 121l-9 29l105 -6l106 6l22 -94c12.667 -54 25.334 -104 38.001 -150l63 -248l74 -266l254 758l63 -2l64 2c14.667 -56.667 33.334 -123 56.001 -199c26 -86.667 53.667 -174 83 -262l94 -295c4.66699 13.333 18 55.666 40 126.999c2.66699 8 16 51.333 40 130
l41 134c42 146.667 75 268.334 99 365.001l57 -2z" />
    <glyph glyph-name="X" unicode="X" horiz-adv-x="850" 
d="M817 975l-129.001 -181.999l-174 -244l23 -41l57 -104c36.667 -67.333 55.667 -102 57 -104l60 -105l59.5 -112c17 -32.667 31.833 -62.334 44.5 -89.001l-110 6l-121 -6l-42 83c-22.667 44 -41 77.667 -55 101l-100 199l-147 -225l-86 -156l-70 4l-51 -2l157 223l87 132
c31.333 47.333 53 79.333 65 96l-299 526l115 -6h23c24 0 43 1.33301 57 4l43 4l41.5 -85.5c13.667 -27 29.834 -57.167 48.501 -90.5l100 -189l227 363l68 -2z" />
    <glyph glyph-name="Y" unicode="Y" horiz-adv-x="850" 
d="M825 975l-147 -267l-150 -270v-444l-96 6l-102 -6v414l-189 352l-114 215l112 -6h24c24 0 42.667 1.33301 56 4l43 4l121 -256l55 -111c19.333 -36 35 -62 47 -78c20 23.333 47.333 70 82 140l144 303l63 -2z" />
    <glyph glyph-name="Z" unicode="Z" horiz-adv-x="850" 
d="M817 965c-50 -77.333 -107.333 -172.333 -172 -285l-86 -156l-78 -139l-159 -291v-10c31.333 0 65.833 0.5 103.5 1.5l92.5 2.5l295 12l-4 -49l4 -51h-780v12c5.33301 12 21 40 47 84l123 205l172 293l164 289v8c-22 0 -62.667 -1.33301 -122 -4s-108.333 -4 -147 -4
l-176 -6l6 49l-6 51h723v-12z" />
    <glyph glyph-name="bracketleft" unicode="[" horiz-adv-x="463" 
d="M408 -186h-293v1267h293v-57l-166 6v-1165l166 8v-59z" />
    <glyph glyph-name="backslash" unicode="\" horiz-adv-x="702" 
d="M662 0h-164l-457 977h164z" />
    <glyph glyph-name="bracketright" unicode="]" horiz-adv-x="463" 
d="M348 -186h-293v59l166 -8v1165l-166 -6v57h293v-1267z" />
    <glyph glyph-name="asciicircum" unicode="^" horiz-adv-x="778" 
d="M735 518h-168l-178 334l-182 -334h-164l233 434h224z" />
    <glyph glyph-name="underscore" unicode="_" horiz-adv-x="778" 
d="M778 -205h-778v103h778v-103z" />
    <glyph glyph-name="grave" unicode="`" horiz-adv-x="616" 
d="M446 766l-27.999 -43l-262 147l-70 43c-17.333 16.667 -27 34 -29 52c0 14.667 8.33301 32.667 25 54s33.667 32 51 32c7.33301 0 14.166 -1.16699 20.499 -3.5s13.833 -6.83301 22.5 -13.5c14 -8 35.333 -26.333 64 -55z" />
    <glyph glyph-name="a" unicode="a" horiz-adv-x="694" 
d="M674 18c-8.66699 -4 -22.665 -10.002 -41.998 -18.002c-8 -3.33301 -15.667 -6.33301 -23 -9s-16.5 -5 -27.5 -7s-19.833 -3.33301 -26.5 -4c-64.667 0 -111 40.667 -139 122c-22.667 -38.667 -51 -68.667 -85 -90s-68.667 -32 -104 -32
c-29.333 0 -55.5 3.66699 -78.5 11s-43.833 19.333 -62.5 36c-35.333 32 -53 78.333 -53 139c0 61.333 20.333 108.333 61 141c32.667 24.667 97.667 49.334 195 74.001c17.333 2.66699 29.833 5 37.5 7s15.5 5 23.5 9c16 4 31.667 11.667 47 23c16.667 16 25 37.667 25 65
c0 39.333 -15 73 -45 101c-14.667 13.333 -30.334 23.5 -47.001 30.5s-34.667 10.5 -54 10.5c-42.667 0 -84.667 -12.333 -126 -37c-32.667 -20.667 -52 -39 -58 -55l-6 73c28.667 28.667 66 51.167 112 67.5s92.667 24.5 140 24.5c36 0 67.667 -3 95 -9
s53.666 -16.667 78.999 -32c58.667 -32.667 88 -81.667 88 -147v-399c0 -29.333 4.66699 -50.666 14 -63.999c12 -10.667 32 -16 60 -16v-15zM422.002 224.998v163.999c-7.33301 -4 -33.333 -15 -78 -33c-36 -12.667 -64 -27 -84 -43c-6 -5.33301 -11.833 -12.5 -17.5 -21.5
s-11.5 -20.167 -17.5 -33.5c-6.66699 -22 -10 -46.667 -10 -74c0 -35.333 6 -66.666 18 -93.999c14 -23.333 36.667 -35 68 -35c42 0 74 18.667 96 56c16.667 27.333 25 65.333 25 114z" />
    <glyph glyph-name="b" unicode="b" horiz-adv-x="772" 
d="M727 360c0 -50.667 -5.99707 -99.668 -17.9971 -147.001c-6 -22 -14.333 -43.5 -25 -64.5s-23 -40.5 -37 -58.5c-58.667 -73.333 -136.334 -110 -233.001 -110c-40 0 -76.667 8.5 -110 25.5s-60.333 43.833 -81 80.5c-12 -6 -23.667 -12.667 -35 -20l-36 -25l-64 -41h-12
v1081l86 -6l90 6v-495l8 -2c9.33301 15.333 20.666 29.833 33.999 43.5s28.666 25.834 45.999 36.501c36 18.667 74.333 28 115 28c86 0 154 -34 204 -102c45.333 -61.333 68 -138 68 -230zM535.003 335.999c0 35.333 -1.50195 67.498 -4.50195 96.498
s-7.83301 55.5 -14.5 79.5c-20 72.667 -59.667 109 -119 109c-54 0 -94.333 -36.333 -121 -109c-16 -49.333 -24 -109.333 -24 -180c0 -76 6 -139 18 -189c21.333 -78.667 61 -118 119 -118c22.667 0 42.834 6.83301 60.501 20.5s32.834 34.334 45.501 62.001
s22.5 61.334 29.5 101.001s10.5 82.167 10.5 127.5z" />
    <glyph glyph-name="c" unicode="c" horiz-adv-x="694" 
d="M668 641l-51.999 -139.002h-16c-6 41.333 -23 77.333 -51 108c-13.333 14.667 -29 25.834 -47 33.501s-38 11.5 -60 11.5c-63.333 0 -112.333 -35.333 -147 -106c-12.667 -27.333 -22.334 -56.666 -29.001 -87.999s-10 -66.333 -10 -105c0 -94 18.333 -168.333 55 -223
c38 -52 96 -78 174 -78c16 0 30 1.16699 42 3.5s25.333 6.83301 40 13.5c26.667 12 49.334 28.333 68.001 49l12 -8l-33 -82c-20 -16.667 -48 -29 -84 -37c-19.333 -4.66699 -36.833 -8.16699 -52.5 -10.5s-30.834 -3.5 -45.501 -3.5
c-58.667 0 -109.834 7.16699 -153.501 21.5s-82.5 37.166 -116.5 68.499c-67.333 60 -101 146 -101 258c0 114.667 34.167 205.334 102.5 272.001s158.5 100 270.5 100c22 0 41.833 -1.16699 59.5 -3.5s38.167 -6.5 61.5 -12.5c42.667 -8 80.334 -22.333 113.001 -43z" />
    <glyph glyph-name="d" unicode="d" horiz-adv-x="772" 
d="M694 -6l-86.002 6.00098l-88 -6v119l-8 2c-12 -42 -35.5 -75 -70.5 -99s-77.167 -36 -126.5 -36c-92.667 0 -163.667 36.667 -213 110c-39.333 62.667 -59 144.667 -59 246c0 99.333 21 181.333 63 246c48 73.333 115.667 110 203 110c23.333 0 44.833 -1.66699 64.5 -5
s37.834 -9 54.501 -17c32.667 -14.667 59.334 -39.334 80.001 -74.001l6 485l90 -6l90 6v-1087zM519.998 346.001c0 36 -1.66602 67.832 -4.99902 95.499s-9 52.5 -17 74.5c-23.333 70 -62.333 105 -117 105c-54 0 -94.333 -36.333 -121 -109
c-8 -24.667 -14.5 -53 -19.5 -85s-7.5 -63.667 -7.5 -95c0 -69.333 7.66699 -126.666 23 -171.999c23.333 -70 61.666 -105 114.999 -105c57.333 0 98.333 36.333 123 109c8.66699 26 15.167 53.833 19.5 83.5s6.5 62.5 6.5 98.5z" />
    <glyph glyph-name="e" unicode="e" horiz-adv-x="694" 
d="M651 350h-411.002c0 -45.333 3.66699 -86 11 -122s19.333 -67.667 36 -95c32.667 -52 87.334 -78 164.001 -78c60.667 0 116.334 21.333 167.001 64l7 -4l-31 -72c-26 -19.333 -56.667 -35 -92 -47c-18 -5.33301 -34.833 -9.33301 -50.5 -12s-33.167 -4 -52.5 -4
c-113.333 0 -200.333 32.833 -261 98.5s-91 158.167 -91 277.5c0 103.333 28.333 186.5 85 249.5s135 94.5 235 94.5c102 0 176.333 -32.667 223 -98c40.667 -56.667 61 -140.667 61 -252zM474.998 399c0 64.667 -6 118.667 -18 162c-19.333 62.667 -49.333 94 -90 94
c-47.333 0 -82.333 -30.667 -105 -92c-14.667 -45.333 -22 -100 -22 -164h235z" />
    <glyph glyph-name="f" unicode="f" horiz-adv-x="436" 
d="M475 1077c-4 -30 -6 -61.334 -6 -94.001v-49l4 -27l-10 -4c-41.333 27.333 -84.333 41 -129 41c-9.33301 0 -18.333 -0.166992 -27 -0.5s-17.334 -1.5 -26.001 -3.5c-8 0 -14.5 -1 -19.5 -3s-10.833 -6.33301 -17.5 -13c-4 -8.66699 -8.33301 -15 -13 -19l-8 -22
c0 -9.33301 2 -21.166 6 -35.499s11 -34.833 21 -61.5l18.5 -51.5c6.33301 -17 13.833 -35.167 22.5 -54.5h143v-72h-135v-614l-90 6l-90 -6v614h-107v72h105c5.33301 35.333 9.83301 61.833 13.5 79.5s8.16699 35.667 13.5 54s11.833 37.333 19.5 57s17.5 39.5 29.5 59.5
c28 52.667 60 90.667 96 114c32.667 24.667 75.667 37 129 37c10.667 0 20.834 -0.166992 30.501 -0.5s18.5 -1.5 26.5 -3.5z" />
    <glyph glyph-name="g" unicode="g" horiz-adv-x="694" 
d="M680 -78c0 -98.667 -38.3359 -174.999 -115.003 -228.999c-33.333 -24 -70.666 -42 -111.999 -54s-88.666 -18 -141.999 -18c-71.333 0 -131.333 12.333 -180 37c-62.667 32 -94 81 -94 147c0 34 10.333 66 31 96s48 50.667 82 62l32 14l-2 9
c-21.333 8 -41 22.333 -59 43c-15.333 20.667 -23 44.334 -23 71.001c0 28.667 10.667 56.167 32 82.5s45 44.833 71 55.5l22 8c-54.667 15.333 -99 44 -133 86c-28.667 40.667 -43 92.334 -43 155.001c0 73.333 27.333 127.166 82 161.499s131.667 51.5 231 51.5h68
c11.333 0 22.5 -0.166992 33.5 -0.5s25.167 -1.5 42.5 -3.5h166l-2 -45l-146 6c61.333 -56.667 92 -115.334 92 -176.001c0 -76.667 -27.333 -134 -82 -172s-125.667 -57 -213 -57c-16 0 -28.667 -0.666992 -38 -2c-14 0 -24.333 -3.33301 -31 -10
c-12 -17.333 -19 -33 -21 -47c0 -30 11.667 -52.667 35 -68c14 -6.66699 28.333 -11.834 43 -15.501s31.667 -5.5 51 -5.5l123 -4c35.333 0 65.333 -3.66699 90 -11s45.334 -19.333 62.001 -36c31.333 -30 47 -73.667 47 -131zM433.997 492.001
c0 40 -6.00098 76.668 -18.001 110.001c-17.333 44 -44 66 -80 66c-40 0 -70 -25.333 -90 -76c-12.667 -32 -19 -75 -19 -129c0 -57.333 11 -103 33 -137c16 -27.333 40 -41 72 -41c40.667 0 69.334 25 86.001 75c5.33301 18 9.33301 37.167 12 57.5s4 45.166 4 74.499z
M536.996 -165.998c0 48.667 -12.998 85.667 -38.998 111c-30.667 27.333 -92.334 41 -185.001 41c-46 0 -78.667 -5 -98 -15c-30.667 -14 -51 -41.333 -61 -82c0 -10.667 -1.33301 -20 -4 -28v-27c0 -56 19 -99 57 -129s85.667 -45 143 -45
c27.333 0 51.666 4.16699 72.999 12.5s41.333 21.833 60 40.5c36 34 54 74.333 54 121z" />
    <glyph glyph-name="h" unicode="h" horiz-adv-x="772" 
d="M694 -6l-86.001 5.99902l-92 -6v352c0 42 -1.66699 77.333 -5 106s-9 52 -17 70c-19.333 45.333 -54.333 68 -105 68c-58 0 -97.667 -32.667 -119 -98c-5.33301 -19.333 -9.33301 -42.833 -12 -70.5s-4 -62.5 -4 -104.5v-323l-90 6l-88 -6v1087l88 -6l90 6v-518
c32.667 38.667 69 69.834 109 93.501s78.667 35.5 116 35.5c57.333 0 110 -21 158 -63c22.667 -24 37.834 -50.333 45.501 -79s11.5 -61.667 11.5 -99v-457z" />
    <glyph glyph-name="i" unicode="i" horiz-adv-x="387" 
d="M303 958c0 -29.333 -11 -53.666 -33 -72.999c-20 -20.667 -45.667 -31 -77 -31c-30.667 0 -56.5 10.167 -77.5 30.5s-31.5 44.833 -31.5 73.5c0 29.333 10.333 54 31 74c20 20.667 46 31 78 31c28 0 53.333 -10.333 76 -31s34 -45.334 34 -74.001zM289 -6l-96 6l-93 -6
v686l47 -6l46 -2l51 2l45 6v-686z" />
    <glyph glyph-name="j" unicode="j" horiz-adv-x="387" 
d="M303 956c0 -29.333 -10.666 -53.666 -31.999 -72.999s-47.333 -29 -78 -29c-26.667 0 -50.5 10.167 -71.5 30.5s-31.5 44.166 -31.5 71.499c0 32 9 57.333 27 76c18 20.667 43.333 31 76 31c17.333 0 32.166 -2.16699 44.499 -6.5s23.833 -11.833 34.5 -22.5
c20.667 -18 31 -44 31 -78zM289.001 -18c0 -44 -8.33301 -82.332 -25 -114.999c-8 -16 -19 -31.667 -33 -47s-31 -31 -51 -47c-48 -36 -108.667 -58 -182 -66l-10 31c46 15.333 78 42.666 96 81.999c12 28 18 75.667 18 143v719l95 -8l49 2l43 6v-700z" />
    <glyph glyph-name="k" unicode="k" horiz-adv-x="694" 
d="M688 4l-2 -6l-100 6l-107 -6l-77.5 144c-25.667 45.333 -54.5 92.333 -86.5 141c-2.66699 4 -5.66699 8 -9 12s-9 10 -17 18c-4.66699 7.33301 -8 12 -10 14c-4.66699 5.33301 -11 10.333 -19 15v-344l-90 6l-88 -6v1083l88 -6l90 6v-706c4 -4 10.333 -6 19 -6
c40 44.667 75.333 82 106 112l111 121c14 15.333 36.333 42 67 80l58 -8l49 6c-12 -16.667 -24.833 -32.667 -38.5 -48s-30.167 -32 -49.5 -50c-96 -92.667 -148 -144 -156 -154l121 -195l71 -116z" />
    <glyph glyph-name="l" unicode="l" horiz-adv-x="387" 
d="M291 -6l-98 6l-95 -6v1087l95 -6l98 6v-1087z" />
    <glyph glyph-name="m" unicode="m" horiz-adv-x="1159" 
d="M1083 -6l-87.9961 5.99902l-86 -6v387c0 83.333 -9.83301 140.333 -29.5 171s-47.834 46 -84.501 46c-48 0 -82.333 -14.333 -103 -43c-8.66699 -15.333 -15.167 -33.166 -19.5 -53.499s-6.5 -44.166 -6.5 -71.499v-436l-88 6l-86 -6v387c0 86 -9.5 143.667 -28.5 173
s-47.833 44 -86.5 44c-47.333 0 -81 -17.667 -101 -53c-8.66699 -17.333 -15.167 -36.833 -19.5 -58.5s-6.5 -45.834 -6.5 -72.501v-420l-90 6l-86 -6v694l41 -6l45 -2h16c16.667 0 30.334 1.33301 41.001 4l33 4v-106h8c17.333 31.333 47.166 58.833 89.499 82.5
s82.833 35.5 121.5 35.5c23.333 0 44.166 -2.66699 62.499 -8s35.166 -14 50.499 -26c29.333 -24 53.666 -61.667 72.999 -113c58 98 130.333 147 217 147c74 0 128 -21 162 -63c16.667 -20.667 29 -45.667 37 -75s12 -65 12 -107v-461z" />
    <glyph glyph-name="n" unicode="n" horiz-adv-x="772" 
d="M694 -6l-86 6l-92 -6v356c0 42 -1.66699 77.833 -5 107.5s-9 53.167 -17 70.5c-20 46.667 -55 70 -105 70c-57.333 0 -96.333 -33.333 -117 -100c-12 -39.333 -18 -98 -18 -176v-328l-90 6l-88 -6v694l41 -6l43 -2h17c18 0 31.333 1.33301 40 4l31 4v-129
c36 46 73.333 81.667 112 107c38 22.667 77.667 34 119 34c82.667 0 140 -25.667 172 -77c28.667 -44.667 43 -113.667 43 -207v-422z" />
    <glyph glyph-name="o" unicode="o" horiz-adv-x="772" 
d="M727 356c0 -108.667 -30.166 -198.5 -90.499 -269.5s-144.833 -106.5 -253.5 -106.5c-102 0 -183.833 30.833 -245.5 92.5s-92.5 146.167 -92.5 253.5c0 114.667 30.5 205.667 91.5 273s143.833 101 248.5 101c103.333 0 186.166 -30.667 248.499 -92
s93.5 -145.333 93.5 -252zM535.001 381c0 40 -2.66895 75.998 -8.00195 107.998s-13 60 -23 84c-25.333 54.667 -62.333 82 -111 82c-54 0 -94.333 -29.333 -121 -88c-22.667 -58.667 -34 -137.667 -34 -237c0 -40 1.66699 -75.667 5 -107s9 -58.666 17 -81.999
c25.333 -76 66.333 -114 123 -114c52.667 0 92.334 37.333 119.001 112c10.667 32.667 18.834 68.834 24.501 108.501s8.5 84.167 8.5 133.5z" />
    <glyph glyph-name="p" unicode="p" horiz-adv-x="772" 
d="M727 356c0 -118.667 -27.998 -212 -83.998 -280c-49.333 -60 -113.333 -90 -192 -90c-24.667 0 -46.167 2.16699 -64.5 6.5s-35.833 11.5 -52.5 21.5c-29.333 20 -55.333 50 -78 90v-475l-92 6l-86 -6v1059l41 -6l43 -2l45 2l41 6v-123h8
c33.333 90 99.666 135 198.999 135c93.333 0 163.666 -34.667 210.999 -104c40.667 -60.667 61 -140.667 61 -240zM535.002 340c0 44.667 -2.66602 84.834 -7.99902 120.501s-13 66.5 -23 92.5c-21.333 49.333 -55.666 74 -102.999 74c-55.333 0 -96 -37 -122 -111
c-8.66699 -26.667 -15.334 -54.667 -20.001 -84s-7 -62 -7 -98s1.66699 -67.833 5 -95.5s9 -52.5 17 -74.5c23.333 -68.667 62.333 -103 117 -103c45.333 5.33301 80.666 33.166 105.999 83.499s38 115.5 38 195.5z" />
    <glyph glyph-name="q" unicode="q" horiz-adv-x="772" 
d="M698 -371l-85.999 5.99902l-92 -6v457h-8c-12.667 -22.667 -37.334 -46 -74.001 -70c-32 -20 -69.333 -30 -112 -30c-82.667 0 -149.667 32 -201 96c-24.667 31.333 -43.5 68.333 -56.5 111s-19.5 90.334 -19.5 143.001c0 114 21.5 203.167 64.5 267.5
s108.833 96.5 197.5 96.5c104 0 173.667 -45 209 -135h8v123l39 -6l49 -2l82 8v-1059zM526.001 331.999c0 70 -7.99902 130.668 -23.999 182.001c-25.333 75.333 -67 113 -125 113c-52.667 0 -90.334 -34.333 -113.001 -103c-6.66699 -22 -12 -47.667 -16 -77s-6 -61 -6 -95
l6 -102c0 -42 12.167 -84 36.5 -126s57.833 -63 100.5 -63c52.667 0 91.667 33 117 99c16 45.333 24 102.666 24 171.999z" />
    <glyph glyph-name="r" unicode="r" horiz-adv-x="541" 
d="M512 700c0 -16.667 -1.00195 -40.668 -3.00195 -72.001s-3 -54.333 -3 -69v-45c-7.33301 4 -19.666 8 -36.999 12l-39 4c-78.667 0 -127 -35.333 -145 -106c-2 -6 -3.5 -12.167 -4.5 -18.5s-2.5 -21.5 -4.5 -45.5v-26c0 -11.333 -0.666992 -18.333 -2 -21v-63v-256l-92 6
l-88 -6v694l88 -8h17h15c8 1.33301 13.667 2 17 2l43 6v-174c8.66699 28.667 19.834 54.334 33.501 77.001s30.5 42 50.5 58c40 34 91.333 51 154 51z" />
    <glyph glyph-name="s" unicode="s" horiz-adv-x="541" 
d="M502 205c0 -67.333 -23.6641 -121.665 -70.9971 -162.998s-114 -62 -200 -62c-35.333 0 -68 4 -98 12s-59.333 22.333 -88 43l16 123h21c11.333 -35.333 34 -65.333 68 -90c33.333 -22 68.666 -33 105.999 -33c28.667 0 56.667 9.33301 84 28
c13.333 10 23.166 20.667 29.499 32s9.5 24.666 9.5 39.999c0 34.667 -56 76 -168 124s-168 120.667 -168 218c0 68.667 23 123 69 163s103 60 171 60c77.333 0 144 -21 200 -63l-18 -57l-14 -56h-25c-8 34 -25.667 62.667 -53 86c-24.667 24.667 -55.334 37 -92.001 37
c-32 0 -59.833 -7.83301 -83.5 -23.5s-35.5 -39.834 -35.5 -72.501c0 -36 56.667 -76.833 170 -122.5s170 -120.167 170 -223.5z" />
    <glyph glyph-name="t" unicode="t" horiz-adv-x="463" 
d="M436 10c-51.333 -20 -97.667 -30 -139 -30c-68 0 -115.667 21 -143 63c-22 34.667 -33 90 -33 166v405h-98v74h98v168l178 82v-250h127v-74h-127v-430c0 -52 4.66699 -89.167 14 -111.5s32 -33.5 68 -33.5c7.33301 0 16.5 1 27.5 3l27.5 5v-37z" />
    <glyph glyph-name="u" unicode="u" horiz-adv-x="772" 
d="M690 -6l-84.001 6.00391l-88 -6v112c-53.333 -84 -128.333 -126 -225 -126c-41.333 0 -76.833 6.16699 -106.5 18.5s-56.5 35.5 -80.5 69.5c-10 15.333 -19.333 39 -28 71c-4 29.333 -6 60.666 -6 93.999v56v399l41 -6l45 -2h17c18 0 31.333 1.33301 40 4l33 4v-397
v-51.5c0 -15.667 0.666992 -27.334 2 -35.001s2.83301 -13.834 4.5 -18.501s4.83398 -11.334 9.50098 -20.001c23.333 -57.333 61 -86 113 -86c57.333 0 96.333 26.667 117 80c12 33.333 18 84.333 18 153v375l43 -6l47 -2h16c17.333 0 30.333 1.33301 39 4l33 4v-694z" />
    <glyph glyph-name="v" unicode="v" horiz-adv-x="694" 
d="M672 686l-10.001 -17.999l-29 -64l-47 -110l-94 -244l-40 -108l-51 -148l-67 6l-66 -6l-51 151c-17.333 52 -29.666 87.667 -36.999 107l-59 171.5l-51 140.5l-47 122l94 -6c6.66699 0 13.667 0.166992 21 0.5s18 1.5 32 3.5l49 4l170 -536l98 270
c16 43.333 35.333 98.666 58 165.999c15.333 44 26.333 76.667 33 98l49 -2z" />
    <glyph glyph-name="w" unicode="w" horiz-adv-x="1083" 
d="M1059 686l-43.5 -117.999l-77.5 -216c-41.333 -120.667 -79 -240 -113 -358l-67 6l-70 -6l-151 514l-63 -201l-44 -131l-53 -182l-68 6l-71 -6l-53 184l-50 166.5l-54 170.5l-56 171l86 -6c6.66699 0 13.667 0.166992 21 0.5s18.666 1.5 33.999 3.5
c24.667 0 39.667 1.33301 45 4l149 -532c14.667 43.333 29.667 90.166 45 140.499s28.333 94.833 39 133.5l27.5 95l44.5 163l33 -6l39 -2h14h11c6.66699 1.33301 11.334 2 14.001 2l35 6l153 -532l86 276l70 254l47 -2z" />
    <glyph glyph-name="x" unicode="x" horiz-adv-x="694" 
d="M659 -4l-102 4l-117 -6l-143 266l-37 -58l-53 -77l-82 -129l-53 4l-39 -2l229 315l-225 373l102 -6h11h29c11.333 2 20 3.33301 26 4c30 0 46.333 1.33301 49 4l133 -237c14 18 27 35.667 39 53l46 67.5c11.333 16.333 26.333 39.5 45 69.5l30 47l61 -4l41 2
c-41.333 -48 -81 -96.333 -119 -145l-108 -144l84 -145z" />
    <glyph glyph-name="y" unicode="y" horiz-adv-x="694" 
d="M678 686l-141 -317l-159 -369l-145 -371l-53 4l-41 -2l178 361l-290 694l92 -6c6 0 12.5 0.166992 19.5 0.5s17.5 1.5 31.5 3.5l53 4c18.667 -53.333 32.667 -92.333 42 -117c12.667 -34.667 26.667 -70.667 42 -108l103 -250l63 176l44 117l67 182l51 -4z" />
    <glyph glyph-name="z" unicode="z" horiz-adv-x="694" 
d="M653 645l-124.998 -180l-129 -191l-70 -107l-65 -101c33.333 0 58.666 0.333008 75.999 1c88 3.33301 135.667 5 143 5l156 6l-4 -37l4 -41h-598v47l385 576c-20 0 -51.833 -1.16699 -95.5 -3.5s-76.834 -3.5 -99.501 -3.5l-139 -6l4 37l-6 41h563v-43z" />
    <glyph glyph-name="braceleft" unicode="{" horiz-adv-x="463" 
d="M430 1081c-41.333 -14 -69.666 -34.1689 -84.999 -60.502s-23 -63.5 -23 -111.5v-268c0 -53.333 -10.333 -95 -31 -125c-24 -33.333 -71 -56.666 -141 -69.999c69.333 -12 117 -37 143 -75c9.33301 -14 16.5 -32 21.5 -54s7.5 -47.667 7.5 -77v-254
c0 -22.667 1.66699 -43 5 -61s9 -34 17 -48c15.333 -26 43.333 -47 84 -63c-47.333 0 -87.5 3.66699 -120.5 11s-59.833 19.333 -80.5 36c-39.333 30 -59 86 -59 168v243c0 26 -2 47.833 -6 65.5s-11 33.5 -21 47.5c-14.667 23.333 -50.667 43 -108 59
c28 8.66699 58 25.334 90 50.001c21.333 16.667 33.666 33.667 36.999 51c1.33301 4.66699 3 13 5 25s3 26.667 3 44v273c0 22 0.666992 40.5 2 55.5s4 28.5 8 40.5c8 22.667 28 41.667 60 57c13.333 7.33301 28.333 14 45 20s31.667 10.167 45 12.5s30 4.33301 50 6
s37.333 2.5 52 2.5z" />
    <glyph glyph-name="bar" unicode="|" horiz-adv-x="842" 
d="M481 0h-119v1081h119v-1081z" />
    <glyph glyph-name="braceright" unicode="}" horiz-adv-x="463" 
d="M430 451c-16 -4.66699 -30.999 -10.666 -44.999 -17.999s-28.333 -17.333 -43 -30c-8.66699 -8.66699 -16.167 -17.5 -22.5 -26.5s-11.166 -18.5 -14.499 -28.5c-1.33301 -6.66699 -3 -16.5 -5 -29.5s-3 -24.833 -3 -35.5v-275c0 -42 -2.66699 -70.667 -8 -86
c-8 -28.667 -29.333 -51 -64 -67c-13.333 -7.33301 -28.333 -14 -45 -20s-31.5 -10 -44.5 -12s-29.833 -4 -50.5 -6s-38 -3 -52 -3c39.333 15.333 67.166 36 83.499 62s24.5 62.667 24.5 110v270c0 52 10.333 93 31 123c24 33.333 71.667 56.666 143 69.999
c-69.333 12 -117 37 -143 75c-20.667 30 -31 73.667 -31 131v256c0 42 -7.83301 77 -23.5 105s-43.834 49.667 -84.501 65c98.667 0 167.334 -14.667 206.001 -44s58 -87 58 -173v-243c0 -26 2 -47.833 6 -65.5s11 -33.5 21 -47.5c15.333 -24 50.666 -43 105.999 -57z" />
    <glyph glyph-name="asciitilde" unicode="~" horiz-adv-x="842" 
d="M770 428c-12.667 -27.333 -25.1689 -50.668 -37.502 -70.001s-25.166 -35.666 -38.499 -48.999c-32 -35.333 -70.667 -53 -116 -53c-31.333 0 -73 12.333 -125 37l-64 31l-30 11.5c-9.33301 3.66699 -21 9.16699 -35 16.5c-20 9.33301 -40 15 -60 17
c-26.667 0 -54.667 -15 -84 -45c-19.333 -22.667 -37.666 -53.667 -54.999 -93l-53 74c32 74 63 123.167 93 147.5s63.667 36.5 101 36.5c38 0 93.833 -18.667 167.5 -56s122.5 -56 146.5 -56c28.667 0 56 13 82 39c20 20 38.333 48 55 84z" />
    <glyph glyph-name="c128" horiz-adv-x="774" 
d="M733 311c0 -90 -33.001 -165.999 -99.001 -227.999s-147.667 -93 -245 -93c-64 0 -124 12.333 -180 37c-20.667 9.33301 -41.334 20.333 -62.001 33c-16 10 -37.667 25.333 -65 46v130c0 27.333 -3.33301 47 -10 59c-10.667 19.333 -34 33 -70 41l162 131
c68 -21.333 102 -67 102 -137v-178c0 -20 12.333 -38.667 37 -56c25.333 -16 52.666 -24 81.999 -24c48.667 0 88.334 20.333 119.001 61c14.667 21.333 25.5 44 32.5 68s10.5 51.333 10.5 82c0 44.667 -13.667 81.167 -41 109.5s-82.166 47.166 -164.499 56.499
s-149.166 25 -200.499 47c-70.667 28.667 -106 68.667 -106 120c0 63.333 34.667 115 104 155s148 60 236 60c80.667 0 155 -16.167 223 -48.5s102 -73.5 102 -123.5c0 -32.667 -8.66699 -53.667 -26 -63h-191c19.333 14 29 34.333 29 61c0 24 -15 46 -45 66
c-14.667 9.33301 -31 16.5 -49 21.5s-36.667 7.5 -56 7.5c-37.333 0 -69.5 -9.16699 -96.5 -27.5s-40.5 -40.833 -40.5 -67.5c0 -30.667 32.333 -53 97 -67l108 -17c46 -6 86.167 -14.667 120.5 -26s63.833 -26.333 88.5 -45c62.667 -46 94 -109.667 94 -191z" />
    <glyph glyph-name="c129" 
d="M-266 901l-193 -0.00195312c-12 40 -33.667 75 -65 105c-38 36.667 -77 55 -117 55c-30.667 0 -57.5 -6.33301 -80.5 -19s-34.5 -31 -34.5 -55c0 -11.333 0.666992 -20.833 2 -28.5s4.33301 -15.167 9 -22.5c2.66699 -5.33301 6.5 -11.166 11.5 -17.499
s10.5 -12.166 16.5 -17.499h-203c-8.66699 14 -15.167 27 -19.5 39s-6.5 25 -6.5 39c0 44 29.167 82 87.5 114s128.166 48 209.499 48c71.333 0 144.333 -22.667 219 -68c34.667 -21.333 65.334 -46 92.001 -74s50.667 -60.667 72 -98z" />
    <glyph glyph-name="c141" 
d="M-37 1188c4 -17.333 5.99805 -33.665 5.99805 -48.998c0 -17.333 -1.16699 -32.5 -3.5 -45.5s-6.5 -27.167 -12.5 -42.5c-9.33301 -25.333 -23.666 -48.666 -42.999 -69.999c-27.333 -29.333 -63.666 -49.666 -108.999 -60.999c-44 -12.667 -90.333 -19 -139 -19
c10.667 8.66699 21.667 22.334 33 41.001l18 49c0.666992 4 1 9.66699 1 17c0 6 -1 12.667 -3 20c-7.33301 21.333 -21.666 33 -42.999 35c-16.667 0 -31 -4.66699 -43 -14c-4.66699 -4.66699 -9 -9.83398 -13 -15.501s-9 -14.834 -15 -27.501
c-6.66699 16 -16.334 29.667 -29.001 41c-6 4.66699 -12.5 8.16699 -19.5 10.5s-15.5 4.16602 -25.5 5.49902c-12.667 0 -23.667 -7.66699 -33 -23c-6.66699 -12 -10 -28.333 -10 -49c1.33301 -10 3.5 -18.667 6.5 -26s8.16699 -16.333 15.5 -27
c4 -6 8.83301 -12.667 14.5 -20s10.5 -12.333 14.5 -15h-154c-30 24.667 -45 63.667 -45 117c0 39.333 14.5 73 43.5 101s65.833 42 110.5 42c16.667 0 30.334 -1.16699 41.001 -3.5s22.5 -6.83301 35.5 -13.5s25.167 -19.334 36.5 -38.001c4 6 8.83301 11.167 14.5 15.5
s15.167 10.833 28.5 19.5c21.333 10.667 43.666 16 66.999 16c33.333 0 59.833 -10.5 79.5 -31.5s29.5 -47.167 29.5 -78.5c0 -11.333 -0.666992 -21.333 -2 -30s-4.33301 -17.334 -9 -26.001c32 26 48 62.333 48 109c0 30 -9 58.667 -27 86h135z" />
    <glyph glyph-name="c142" 
d="M47 1004h-108v-103h-185v103h-108v102h108v102h185v-102h108v-102z" />
    <glyph glyph-name="c143" 
d="M35 1210c0 -59.333 -17.668 -109.004 -53.001 -149.004c-26.667 -30.667 -63 -55.334 -109 -74.001c-2 10 -8 19 -18 27c-14.667 10 -29 14 -43 12c-16.667 -3.33301 -25 -19.666 -25 -48.999c0 -7.33301 1 -14.666 3 -21.999s5.66699 -15 11 -23
c10 -15.333 20.333 -25.666 31 -30.999h-184c-26 18 -39 50 -39 96c0 40 17 73 51 99c16.667 13.333 34.334 23.5 53.001 30.5s38.667 10.5 60 10.5c10.667 0 20.5 -0.666992 29.5 -2s17.5 -4.33301 25.5 -9c6.66699 -2 13.667 -4.83301 21 -8.5s14 -8.16699 20 -13.5
c7.33301 14.667 12 32.334 14 53.001c0 16.667 -4.66699 34.334 -14 53.001h166z" />
    <glyph glyph-name="c144" horiz-adv-x="1251" 
d="M1190 242c0 -77.333 -26.502 -139.001 -79.502 -185.001s-132.5 -69 -238.5 -69c-103.333 0 -182 22.5 -236 67.5s-81 107.167 -81 186.5v342c0 45.333 -16.833 84.666 -50.5 117.999s-78.167 50 -133.5 50c-44.667 0 -84.167 -11.5 -118.5 -34.5
s-51.5 -49.833 -51.5 -80.5c0 -30 21.667 -45 65 -45v-395c0 -53.333 34.333 -80 103 -80l-162 -129c-38 0 -68.667 10.667 -92 32c-22 24 -33 55 -33 93v411c-21.333 7.33301 -38.333 18.333 -51 33c-7.33301 8 -13 17.333 -17 28s-6 23.334 -6 38.001
c0 52.667 36.833 100.5 110.5 143.5s157.834 64.5 252.501 64.5c111.333 0 200.5 -23.167 267.5 -69.5s100.5 -109.833 100.5 -190.5v-362c0 -44 10.333 -79 31 -105c21.333 -24 55.333 -36 102 -36c45.333 0 79 11.333 101 34c10.667 12.667 18.834 27.834 24.501 45.501
s8.5 38.167 8.5 61.5v610h184v-577z" />
    <glyph glyph-name="c157" 
d="M-141 1475l4.00195 -40.9961c0 -26 -4.16699 -50.833 -12.5 -74.5s-20.5 -44.167 -36.5 -61.5c-42 -46 -100.667 -69 -176 -69h-15h-10c-4.66699 1.33301 -8 2 -10 2c3.33301 2 7 5.16699 11 9.5s8.5 11.166 13.5 20.499s8.83301 17.333 11.5 24s4.66699 12.667 6 18
s2 10.666 2 15.999c0 11.333 -2.33301 21.666 -7 30.999c-7.33301 12 -17.666 18 -30.999 18c-15.333 0 -27.333 -4.33301 -36 -13s-17.334 -20.667 -26.001 -36c-2 5.33301 -4.83301 10.666 -8.5 15.999s-8.83398 11.666 -15.501 18.999
c-9.33301 7.33301 -22.333 12 -39 14c-11.333 0 -21 -6 -29 -18c-4.66699 -12 -7 -22.333 -7 -31c0.666992 -5.33301 1 -9.33301 1 -12c0 -8.66699 1.16699 -16.167 3.5 -22.5s6.5 -13.833 12.5 -22.5c3.33301 -5.33301 7.33301 -10.5 12 -15.5s9.66699 -9.5 15 -13.5h-131
c-26 20.667 -39 53.334 -39 98.001c0 34 13 62.667 39 86c24.667 24.667 55.334 37 92.001 37c25.333 0 46 -4.66699 62 -14c14 -7.33301 25.333 -18.333 34 -33c5.33301 7.33301 10.5 13.166 15.5 17.499s12.167 8.83301 21.5 13.5c15.333 8 34.666 12 57.999 12
c29.333 0 51.666 -9 66.999 -27c16.667 -16 25 -39 25 -69c0 -5.33301 -0.166992 -11.166 -0.5 -17.499s-2.83301 -15.5 -7.5 -27.5c26 22 39 52.667 39 92c0 29.333 -7.66699 54 -23 74h115z" />
    <glyph glyph-name="c158" 
d="M-219 1321h-98v-88h-164v88h-99v92h99v88h164v-88h98v-92z" />
    <glyph glyph-name="nonbreakingspace" unicode="&#xa0;" horiz-adv-x="778" 
 />
    <glyph glyph-name="exclamdown" unicode="&#xa1;" horiz-adv-x="801" 
d="M739 0h-184.001v584c0 45.333 -16.833 84.666 -50.5 117.999s-78.167 50 -133.5 50c-44.667 0 -84.167 -11.5 -118.5 -34.5s-51.5 -49.833 -51.5 -80.5c0 -30 21.667 -45 65 -45v-592h-184v524c-21.333 7.33301 -38.333 18.333 -51 33c-7.33301 8 -13 17.333 -17 28
s-6 23.334 -6 38.001c0 52.667 36.833 100.5 110.5 143.5s157.834 64.5 252.501 64.5c111.333 0 200.5 -23.167 267.5 -69.5s100.5 -109.833 100.5 -190.5v-571z" />
    <glyph glyph-name="cent" unicode="&#xa2;" horiz-adv-x="748" 
d="M686 246c0 -80 -28.667 -143.667 -86 -191c-54.667 -44.667 -129 -67 -223 -67c-108 0 -194.5 31.5 -259.5 94.5s-97.5 141.167 -97.5 234.5c0 82 28 151 84 207c48.667 45.333 102 72 160 80v27c0 24 -10.667 43.667 -32 59s-55 23 -101 23l143 116
c52.667 0 95 -12 127 -36s48 -57 48 -99v-116c-78 0 -137.833 -27 -179.5 -81s-62.5 -120 -62.5 -198c0 -35.333 3.66699 -66.833 11 -94.5s19.333 -52.167 36 -73.5c32 -42 73 -63 123 -63c34 0 63.333 12.667 88 38c23.333 26.667 35 59.667 35 99v614h186v-573z" />
    <glyph glyph-name="sterling" unicode="&#xa3;" horiz-adv-x="758" 
d="M696 248c0 -41.333 -6.83301 -77.999 -20.5 -109.999s-34.834 -59.667 -63.501 -83c-52.667 -44.667 -127.667 -67 -225 -67c-106.667 0 -192.667 31.5 -258 94.5s-98 141.833 -98 236.5c0 80 26 145.667 78 197c44.667 44.667 99.667 74 165 88v53
c-7.33301 -5.33301 -16.166 -10.833 -26.499 -16.5s-17.833 -9.5 -22.5 -11.5c-17.333 -8.66699 -37.666 -13 -60.999 -13c-35.333 0 -67.333 10.333 -96 31c-12.667 10.667 -22.334 22.834 -29.001 36.501s-10 29.5 -10 47.5c0 27.333 11.333 56.666 34 87.999h173
c-23.333 -16 -35 -35.667 -35 -59c0 -21.333 10 -33 30 -35c20.667 0 40 9 58 27c17.333 19.333 26 41.666 26 66.999h144v-239c-76.667 0 -136.167 -27 -178.5 -81s-63.5 -120 -63.5 -198c0 -33.333 3.66699 -63.833 11 -91.5s19.333 -53.167 36 -76.5
c33.333 -43.333 74.333 -65 123 -65c82 0 123 52.333 123 157v594h186v-571z" />
    <glyph glyph-name="currency" unicode="&#xa4;" horiz-adv-x="803" 
d="M741 0l-184.002 -0.00292969v604c0 44 -12.333 80.333 -37 109c-12 12 -28.167 21.5 -48.5 28.5s-43.833 10.5 -70.5 10.5c-52.667 0 -91.667 -12.667 -117 -38s-38 -62 -38 -110v-110c12 19.333 32.833 37.333 62.5 54s59.834 25 90.501 25c40 0 74.333 -14.333 103 -43
c12 -13.333 21.5 -29.166 28.5 -47.499s10.5 -37.166 10.5 -56.499l-142 -78c0 33.333 -4.33301 60.666 -13 81.999s-22.667 33 -42 35c-26.667 0 -50.667 -20.667 -72 -62c-8.66699 -21.333 -15.167 -42.666 -19.5 -63.999s-6.5 -43 -6.5 -65v-274h-185v571
c0 82 28.667 145.667 86 191c28.667 22.667 64.334 39.834 107.001 51.501s91.667 17.5 147 17.5c112 0 196.667 -22.833 254 -68.5s86 -109.5 86 -191.5v-571z" />
    <glyph glyph-name="yen" unicode="&#xa5;" horiz-adv-x="803" 
d="M741 0l-184.001 -0.000976562v625c0 14 -1 25.667 -3 35s-6.33301 19.333 -13 30c-8.66699 16 -23.667 25 -45 27c-19.333 0 -38 -7 -56 -21c-15.333 -11.333 -28.333 -26.333 -39 -45c-9.33301 18 -23 33.667 -41 47c-13.333 12.667 -31 19 -53 19
c-18.667 0 -33.5 -8.83301 -44.5 -26.5s-16.5 -39.5 -16.5 -65.5v-131c12 19.333 32.833 37.333 62.5 54s59.834 25 90.501 25c40 0 74.333 -14.333 103 -43c12 -13.333 21.5 -29.166 28.5 -47.499s10.5 -37.166 10.5 -56.499l-142 -78c0 33.333 -4.33301 60.666 -13 81.999
s-22.667 33 -42 35c-26.667 0 -50.667 -20.667 -72 -62c-8.66699 -21.333 -15.167 -42.666 -19.5 -63.999s-6.5 -43 -6.5 -65v-274h-185v604c0 65.333 19.167 119.166 57.5 161.499s90.166 63.5 155.499 63.5c56.667 0 99 -18.333 127 -55c28.667 36.667 71 55 127 55
c66 0 118 -21 156 -63c18.667 -20.667 32.834 -44.5 42.501 -71.5s14.5 -57.167 14.5 -90.5v-604z" />
    <glyph glyph-name="brokenbar" unicode="&#xa6;" horiz-adv-x="799" 
d="M737 203c0 -65.333 -23.0039 -117.498 -69.0039 -156.498s-102.667 -58.5 -170 -58.5c-47.333 0 -91.666 8 -132.999 24c-20 9.33301 -37.833 19.333 -53.5 30s-30.834 24 -45.501 40v-82h-184v113c0 41.333 -6.33301 78 -19 110
c-5.33301 17.333 -13.166 34.5 -23.499 51.5s-24.166 34.833 -41.499 53.5h84v116c0 43.333 16.833 78.5 50.5 105.5s74.167 40.5 121.5 40.5v67c-5.33301 -4 -12.666 -8.5 -21.999 -13.5l-27 -14.5c-18.667 -8.66699 -39.334 -13 -62.001 -13
c-17.333 0 -33.833 2.5 -49.5 7.5s-31.167 12.833 -46.5 23.5c-12 10.667 -21.5 23 -28.5 37s-10.5 29.667 -10.5 47c0 13.333 2.83301 27.333 8.5 42s14.5 30 26.5 46h172c-23.333 -16.667 -35 -36.334 -35 -59.001c0 -21.333 10.333 -33 31 -35
c20.667 0 39.834 9.33301 57.501 28s26.5 40.667 26.5 66h143v-264c-114.667 0 -172 -33.333 -172 -100v-228c0 -32 18.667 -60.667 56 -86c38 -23.333 81 -35 129 -35c24.667 0 47.834 8.16699 69.501 24.5s32.5 41.166 32.5 74.499v614h184v-616z" />
    <glyph glyph-name="section" unicode="&#xa7;" horiz-adv-x="737" 
d="M696 408c0 -126 -27.335 -225.667 -82.002 -299c-59.333 -80.667 -144.666 -121 -255.999 -121c-93.333 0 -171.166 36.667 -233.499 110s-93.5 159.333 -93.5 258c0 39.333 4 76.666 12 111.999s23.667 70.333 47 105h193c-14.667 -24.667 -26.5 -48 -35.5 -70
s-16.5 -45 -22.5 -69c-4.66699 -23.333 -8.16699 -45.5 -10.5 -66.5s-3.5 -43.167 -3.5 -66.5c0 -29.333 3 -56.5 9 -81.5s16.667 -51.167 32 -78.5c28.667 -48.667 65.334 -73 110.001 -73c50 0 87.667 34 113 102c20.667 56 31 130.333 31 223
c0 57.333 -2.16699 105.833 -6.5 145.5s-11.5 76.667 -21.5 111s-22.167 60 -36.5 77s-31.833 25.5 -52.5 25.5c-8.66699 0 -17.667 -6.33301 -27 -19c-2 -4.66699 -4 -10.667 -6 -18s-3.33301 -15 -4 -23c0 -29.333 9 -51.666 27 -66.999h-168l-4 37
c0 46.667 16.333 86.5 49 119.5s77.667 49.5 135 49.5c89.333 0 163.666 -45 222.999 -135c54.667 -85.333 82 -181.333 82 -288z" />
    <glyph glyph-name="dieresis" unicode="&#xa8;" horiz-adv-x="780" 
d="M739 426c0 -123.333 -34.668 -225.668 -104.001 -307.001c-71.333 -79.333 -167 -119 -287 -119h-201v324c0 14.667 -1.16699 26.834 -3.5 36.501s-6.5 18.5 -12.5 26.5c-16 24.667 -46.667 37 -92 37l162 131c88.667 -14 133 -59.667 133 -137v-338
c63.333 6 115.333 41 156 105s61 143 61 237c0 49.333 -3.16699 91.833 -9.5 127.5s-16.833 68.167 -31.5 97.5c-33.333 70 -86.666 105 -159.999 105c-44 0 -79.167 -14.667 -105.5 -44s-39.5 -66 -39.5 -110h-205c16 66 52.333 120 109 162c65.333 47.333 147 71 245 71
c128.667 0 227 -41.333 295 -124c60 -72 90 -165.667 90 -281z" />
    <glyph glyph-name="copyright" unicode="&#xa9;" horiz-adv-x="821" 
d="M823 328c-17.333 -20 -31.332 -38.499 -41.999 -55.499s-19 -34.833 -25 -53.5c-11.333 -34 -17 -75.667 -17 -125v-94h-184v82c-24.667 -24.667 -58 -47.334 -100 -68.001c-20.667 -8.66699 -42.334 -15.167 -65.001 -19.5s-47.667 -6.5 -75 -6.5
c-67.333 0 -123 18.833 -167 56.5s-66 91.167 -66 160.5v151c0 12.667 -1.33301 23.167 -4 31.5s-8.33398 17.833 -17.001 28.5c-12 16 -35.667 24 -71 24l143 115c46 -6 79.333 -21.667 100 -47c22 -24 33 -54 33 -90v-213c0 -30.667 8.33301 -55.334 25 -74.001
c16.667 -16.667 39.667 -25 69 -25c44.667 0 88.667 11 132 33c20.667 12 36.334 25.167 47.001 39.5s16 30.5 16 48.5v348c0 54 -12.333 95.667 -37 125c-30.667 34.667 -75.667 52 -135 52c-43.333 0 -81 -14.333 -113 -43c-14.667 -15.333 -25.834 -32 -33.501 -50
s-11.5 -38.333 -11.5 -61h-205c18.667 62.667 54.334 115.334 107.001 158.001c64 50 148.667 75 254 75c118 0 207.167 -24.5 267.5 -73.5s90.5 -115.833 90.5 -200.5v-229h84z" />
    <glyph glyph-name="ordfeminine" unicode="&#xaa;" horiz-adv-x="768" 
d="M727 319c0 -92.667 -32.5 -170.998 -97.5 -234.998s-151.833 -96 -260.5 -96c-92 0 -166.333 22.667 -223 68s-85 109.333 -85 192v223c0 27.333 6.33301 50 19 68c6 7.33301 14 14.166 24 20.499s22.333 12.5 37 18.5v55c0 53.333 -38.667 80 -116 80l139 116
c108 0 162 -41.333 162 -124v-76c70.667 12 106 55 106 129c0 10.667 -0.833008 21.167 -2.5 31.5s-4.16699 20.166 -7.5 29.499h221l2 -31c0 -40 -10.333 -75.333 -31 -106c-8.66699 -14 -19.667 -27 -33 -39c-10.667 -10 -26 -21 -46 -33c52 -19.333 97.667 -56 137 -110
c36.667 -48.667 55 -109 55 -181zM539 311.002c0 76 -18.833 139.834 -56.5 191.501s-89.834 77.5 -156.501 77.5v-33c-29.333 0 -50.666 -6.33301 -63.999 -19c-10.667 -12.667 -16 -30.334 -16 -53.001v-270c0 -38.667 10 -71.667 30 -99c22 -25.333 53 -38 93 -38
c50 0 91 23 123 69c31.333 49.333 47 107.333 47 174z" />
    <glyph glyph-name="guillemotleft" unicode="&#xab;" horiz-adv-x="788" 
d="M748 330c0 -98 -33.001 -179.998 -99.001 -245.998c-63.333 -64 -150 -96 -260 -96c-92 0 -166.167 22.667 -222.5 68s-84.5 109.333 -84.5 192v209c0 39.333 12.167 72.833 36.5 100.5s62.5 44.5 114.5 50.5v49c-7.33301 -5.33301 -16.166 -10.833 -26.499 -16.5
s-17.833 -9.5 -22.5 -11.5c-17.333 -8.66699 -37.666 -13 -60.999 -13c-35.333 0 -67.333 10.333 -96 31c-12.667 10.667 -22.334 22.834 -29.001 36.501s-10 29.5 -10 47.5c0 13.333 2.83301 27.333 8.5 42s14.5 30 26.5 46h172c-23.333 -16 -35 -35.667 -35 -59
c0 -21.333 10 -33 30 -35c20.667 0 40 9 58 27c17.333 19.333 26 41.666 26 66.999h144v-174c52 21.333 78 60.333 78 117c0 10.667 -0.666992 20.667 -2 30s-4.33301 18.333 -9 27h222l2 -26c0 -38.667 -11.667 -73 -35 -103c-8.66699 -10 -19.834 -20.333 -33.501 -31
s-29.167 -20.667 -46.5 -30c48.667 -20.667 86.334 -58.334 113.001 -113.001c13.333 -26.667 23.5 -55.834 30.5 -87.501s10.5 -64.5 10.5 -98.5zM558.999 322.002c0 37.333 -2.16602 69.501 -6.49902 96.501s-11.833 52.833 -22.5 77.5c-22 52.667 -59.333 86 -112 100
v-33c-55.333 0 -95 -8.66699 -119 -26c-10.667 -8.66699 -18.834 -18.834 -24.501 -30.501s-8.5 -25.5 -8.5 -41.5v-260c0 -38.667 11.667 -67.334 35 -86.001c22.667 -20.667 52 -31 88 -31c50 0 90.833 21.833 122.5 65.5s47.5 99.834 47.5 168.501z" />
    <glyph glyph-name="logicalnot" unicode="&#xac;" horiz-adv-x="1231" 
d="M1169 203c0 -65.333 -21.0029 -117.498 -63.0029 -156.498s-97.333 -58.5 -166 -58.5c-40 0 -77.667 6 -113 18c-15.333 6 -30.166 13.5 -44.499 22.5s-28.833 19.833 -43.5 32.5v-61h-184v111c0 39.333 -6 76.666 -18 111.999c-6 17.333 -14.167 34.666 -24.5 51.999
s-24.166 35 -41.499 53h84v256c0 45.333 -16.833 84.666 -50.5 117.999s-78.167 50 -133.5 50c-44.667 0 -84.167 -11.5 -118.5 -34.5s-51.5 -49.833 -51.5 -80.5c0 -30 21.667 -45 65 -45v-395c0 -53.333 34.333 -80 103 -80l-162 -129c-38 0 -68.667 10.667 -92 32
c-22 24 -33 55 -33 93v411c-21.333 7.33301 -38.333 18.333 -51 33c-7.33301 8 -13 17.333 -17 28s-6 23.334 -6 38.001c0 52.667 36.833 100.5 110.5 143.5s157.834 64.5 252.501 64.5c111.333 0 200.5 -23.167 267.5 -69.5s100.5 -109.833 100.5 -190.5v-354
c0 -32 14.333 -60.667 43 -86c30.667 -23.333 67 -35 109 -35c62.667 0 94 33 94 99v624h184v-616z" />
    <glyph glyph-name="minus" unicode="&#xad;" horiz-adv-x="1251" 
d="M1190 135c0 -93.333 -23.333 -170.335 -70 -231.002c-57.333 -72.667 -147.333 -109 -270 -109c-90.667 0 -163 17.667 -217 53c-26.667 16.667 -46.667 36.334 -60 59.001s-20 49.667 -20 81h188c0 -30 12.667 -55.667 38 -77s57 -32 95 -32c44 0 77.667 15 101 45
c20.667 30 31 65 31 105c-17.333 -13.333 -38 -23.166 -62 -29.499s-53.333 -9.5 -88 -9.5c-200.667 0 -301 82 -301 246v348c0 45.333 -16.833 84.666 -50.5 117.999s-78.167 50 -133.5 50c-44.667 0 -84.167 -11.5 -118.5 -34.5s-51.5 -49.833 -51.5 -80.5
c0 -30 21.667 -45 65 -45v-395c0 -53.333 34.333 -80 103 -80l-162 -129c-38 0 -68.667 10.667 -92 32c-22 24 -33 55 -33 93v411c-21.333 7.33301 -38.333 18.333 -51 33c-7.33301 8 -13 17.333 -17 28s-6 23.334 -6 38.001c0 52.667 36.833 100.5 110.5 143.5
s157.834 64.5 252.501 64.5c111.333 0 200.5 -23.167 267.5 -69.5s100.5 -109.833 100.5 -190.5v-372c0 -36.667 11 -67.667 33 -93c21.333 -22.667 54.666 -34 99.999 -34c89.333 0 134 43.667 134 131v616h184v-684z" />
    <glyph glyph-name="registered" unicode="&#xae;" horiz-adv-x="801" 
d="M739 -307l-180.003 0.00195312c-8 38.667 -32 74.667 -72 108c-43.333 37.333 -91.666 56 -144.999 56c-83.333 0 -125 -27.333 -125 -82c0 -39.333 17.667 -66.666 53 -81.999h-194c-9.33301 7.33301 -19 19.666 -29 36.999c-6.66699 12 -10 28.333 -10 49
c0 45.333 25.333 82.666 76 111.999c26 14.667 54.167 26 84.5 34s63.5 12 99.5 12c58 0 106.333 -5.33301 145 -16s76.334 -27.334 113.001 -50.001v713c0 45.333 -16.833 84.666 -50.5 117.999s-78.167 50 -133.5 50c-44.667 0 -84.167 -11.5 -118.5 -34.5
s-51.5 -49.833 -51.5 -80.5c0 -30 21.667 -45 65 -45v-479c0 -37.333 -11.667 -67.333 -35 -90c-22 -23.333 -52 -35 -90 -35l-172 88c75.333 0 113 25.333 113 76v372c-21.333 7.33301 -38.333 18.333 -51 33c-7.33301 8 -13 17.333 -17 28s-6 23.334 -6 38.001
c0 52.667 36.833 100.5 110.5 143.5s157.834 64.5 252.501 64.5c111.333 0 200.5 -23.167 267.5 -69.5s100.5 -109.833 100.5 -190.5v-878z" />
    <glyph glyph-name="macron" unicode="&#xaf;" horiz-adv-x="801" 
d="M739 -307l-139.005 0.00195312c-26.667 0 -49.5 0.666992 -68.5 2s-35.167 4 -48.5 8c-13.333 2 -26.666 6.16699 -39.999 12.5s-26.666 15.166 -39.999 26.499c-25.333 -19.333 -52.333 -33.666 -81 -42.999c-16 -5.33301 -31.333 -9.33301 -46 -12s-31.667 -4 -51 -4
c-55.333 0 -100.333 11.333 -135 34c-43.333 27.333 -65 63.666 -65 108.999c0 18 4.66699 36.333 14 55c7.33301 17.333 18.333 31 33 41h186c-10 -6.66699 -21.667 -19.667 -35 -39c-7.33301 -14.667 -12 -30.334 -14 -47.001c0 -16 5.83301 -28.667 17.5 -38
s26.834 -15 45.501 -17c50.667 0 95.334 31.333 134.001 94c14 -28.667 33.167 -49.5 57.5 -62.5s51.5 -19.5 81.5 -19.5h10v791c0 45.333 -16.833 84.666 -50.5 117.999s-78.167 50 -133.5 50c-44.667 0 -84.167 -11.5 -118.5 -34.5s-51.5 -49.833 -51.5 -80.5
c0 -30 21.667 -45 65 -45v-479c0 -37.333 -11.667 -67.333 -35 -90c-22 -23.333 -52 -35 -90 -35l-172 88c75.333 0 113 25.333 113 76v372c-21.333 7.33301 -38.333 18.333 -51 33c-7.33301 8 -13 17.333 -17 28s-6 23.334 -6 38.001c0 52.667 36.833 100.5 110.5 143.5
s157.834 64.5 252.501 64.5c111.333 0 200.5 -23.167 267.5 -69.5s100.5 -109.833 100.5 -190.5v-878z" />
    <glyph glyph-name="degree" unicode="&#xb0;" horiz-adv-x="774" 
d="M733 311c0 -90 -33.001 -165.999 -99.001 -227.999s-147.667 -93 -245 -93c-64 0 -124 12.333 -180 37c-20.667 9.33301 -41.334 20.333 -62.001 33c-16 10 -37.667 25.333 -65 46v130c0 27.333 -3.33301 47 -10 59c-10.667 19.333 -34 33 -70 41l162 131
c68 -21.333 102 -67 102 -137v-178c0 -20 12.333 -38.667 37 -56c25.333 -16 52.666 -24 81.999 -24c48.667 0 88.334 20.333 119.001 61c14.667 21.333 25.5 44 32.5 68s10.5 51.333 10.5 82c0 44.667 -13.667 81.167 -41 109.5s-82.166 47.166 -164.499 56.499
s-149.166 25 -200.499 47c-70.667 28.667 -106 68.667 -106 120c0 63.333 34.667 115 104 155s148 60 236 60c80.667 0 155 -16.167 223 -48.5s102 -73.5 102 -123.5c0 -32.667 -8.66699 -53.667 -26 -63h-191c19.333 14 29 34.333 29 61c0 24 -15 46 -45 66
c-14.667 9.33301 -31 16.5 -49 21.5s-36.667 7.5 -56 7.5c-37.333 0 -69.5 -9.16699 -96.5 -27.5s-40.5 -40.833 -40.5 -67.5c0 -30.667 32.333 -53 97 -67l108 -17c46 -6 86.167 -14.667 120.5 -26s63.833 -26.333 88.5 -45c62.667 -46 94 -109.667 94 -191z
M726.999 -323.999l-139 0.00195312c-25.333 0 -46.5 0.666992 -63.5 2s-32.167 4.33301 -45.5 9c-12 2 -23.833 6 -35.5 12s-24.167 15 -37.5 27c-12 -9.33301 -21.667 -16.333 -29 -21c-12.667 -8 -27.667 -16 -45 -24c-11.333 -4.66699 -23.666 -8.33398 -36.999 -11.001
s-29 -4 -47 -4c-26.667 0 -51.334 2.66699 -74.001 8s-43 14.333 -61 27c-44 27.333 -66 63.666 -66 108.999c0 17.333 4.66699 35.333 14 54s20.333 32.667 33 42h187c-7.33301 -4.66699 -12.833 -9.16699 -16.5 -13.5s-9.83398 -12.833 -18.501 -25.5
c-8 -17.333 -13 -33 -15 -47c0 -15.333 6.33301 -28.333 19 -39c10 -8 25 -13.667 45 -17c25.333 0 47.666 7.66699 66.999 23c8.66699 6 16.834 14.333 24.501 25s14.834 22.667 21.501 36c5.33301 -13.333 11.5 -24.333 18.5 -33s16.5 -16 28.5 -22
c21.333 -10.667 47 -16 77 -16h11v12c0 14 -0.666992 25.5 -2 34.5s-4.33301 17.167 -9 24.5c-9.33301 19.333 -32.333 33 -69 41l162 111c68 -20 102 -65.667 102 -137v-187z" />
    <glyph glyph-name="plusminus" unicode="&#xb1;" horiz-adv-x="801" 
d="M739 0h-184v604c0 36.667 -4.66699 55 -14 55c-23.333 0 -68.333 -82.333 -135 -247c-32 -79.333 -59.5 -153 -82.5 -221s-42.167 -131.667 -57.5 -191h-184v457c0 40.667 13.5 74.5 40.5 101.5s63.833 43.5 110.5 49.5v49
c-7.33301 -5.33301 -16.166 -10.833 -26.499 -16.5s-17.833 -9.5 -22.5 -11.5c-17.333 -8.66699 -37.666 -13 -60.999 -13c-35.333 0 -67.333 10.333 -96 31c-12.667 10.667 -22.334 22.834 -29.001 36.501s-10 29.5 -10 47.5c0 13.333 2.83301 27.333 8.5 42
s14.5 30 26.5 46h172c-23.333 -16 -35 -35.667 -35 -59c0 -21.333 10 -33 30 -35c20.667 0 40 9 58 27c17.333 19.333 26 41.666 26 66.999h103v-237c-36.667 0 -64.667 -11.667 -84 -35c-18 -24.667 -27 -52.667 -27 -84v-197c17.333 74 39 144.833 65 212.5
s57 132.167 93 193.5c59.333 104.667 116.666 157 171.999 157c49.333 0 87 -17.667 113 -53c20 -28 30 -68.333 30 -121v-655z" />
    <glyph glyph-name="twosuperior" unicode="&#xb2;" horiz-adv-x="1260" 
d="M1198 203c0 -65.333 -20.9951 -117.503 -62.9951 -156.503s-97.333 -58.5 -166 -58.5c-40 0 -77.667 6 -113 18c-15.333 5.33301 -30.333 12.666 -45 21.999s-29 20.333 -43 33c0 -8.66699 -0.666992 -16.5 -2 -23.5s-4 -14.167 -8 -21.5c0 -4 -3.33301 -9.33301 -10 -16
h-218c12 5.33301 21.333 12.5 28 21.5s12.667 20.667 18 35s8 28.833 8 43.5v506c0 16.667 -1 30 -3 40s-6.66699 20.667 -14 32c-8 17.333 -23 27 -45 29c-10 0 -23 -6.33301 -39 -19c-5.33301 -5.33301 -10.333 -12.166 -15 -20.499s-9 -17.833 -13 -28.5
c-13.333 49.333 -38 74 -74 74c-53.333 0 -94.333 -38.333 -123 -115c-10.667 -32 -18.834 -66.667 -24.501 -104s-8.5 -78.333 -8.5 -123c0 -77.333 8.33301 -139 25 -185c20 -64 54.667 -96 104 -96c28.667 0 52 14.333 70 43c8 14.667 14.5 31.334 19.5 50.001
s7.5 38.334 7.5 59.001c0 12 -0.666992 20 -2 24c-2.66699 28.667 -7.83398 54.5 -15.501 77.5s-18.5 42.833 -32.5 59.5c-32.667 44 -84.334 66 -155.001 66l90 127c76.667 -14 133.334 -49.667 170.001 -107c28.667 -44.667 43 -104.667 43 -180
c0 -43.333 -3.66699 -82.666 -11 -117.999s-19.333 -67.666 -36 -96.999c-38 -70.667 -95.333 -106 -172 -106c-91.333 0 -165 40.333 -221 121c-52 73.333 -78 158.666 -78 255.999c0 116.667 26.667 220.334 80 311.001c59.333 102 137.666 153 234.999 153
c31.333 0 56.333 -6 75 -18s32 -27 40 -45c4 6.66699 10 14 18 22s17.333 15 28 21s22.5 10.833 35.5 14.5s26.167 5.5 39.5 5.5c57.333 0 102.666 -21 135.999 -63s50 -99.333 50 -172v-367c0 -32.667 14.333 -61.334 43 -86.001c15.333 -12 31.666 -20.833 48.999 -26.5
s37.333 -8.5 60 -8.5c62.667 0 94 33 94 99v614h184v-616z" />
    <glyph glyph-name="threesuperior" unicode="&#xb3;" horiz-adv-x="1272" 
d="M1274 328c-32 -36 -54.6641 -75 -67.9971 -117c-5.33301 -20 -9.33301 -40.5 -12 -61.5s-4 -46.167 -4 -75.5v-74h-184v82c-11.333 -11.333 -23.833 -22.166 -37.5 -32.499s-27.834 -20.166 -42.501 -29.499c-20 -10 -41.833 -17.833 -65.5 -23.5
s-46.834 -8.5 -69.501 -8.5c-68.667 0 -125.167 18.667 -169.5 56s-66.5 89.666 -66.5 156.999v383c0 45.333 -16.833 84.666 -50.5 117.999s-78.167 50 -133.5 50c-44.667 0 -84.167 -11.5 -118.5 -34.5s-51.5 -49.833 -51.5 -80.5c0 -30 21.667 -45 65 -45v-395
c0 -53.333 34.333 -80 103 -80l-162 -129c-38 0 -68.667 10.667 -92 32c-22 24 -33 55 -33 93v411c-21.333 7.33301 -38.333 18.333 -51 33c-7.33301 8 -13 17.333 -17 28s-6 23.334 -6 38.001c0 52.667 36.833 100.5 110.5 143.5s157.834 64.5 252.501 64.5
c111.333 0 200.5 -23.167 267.5 -69.5s100.5 -109.833 100.5 -190.5v-366c0 -32 8.33301 -57.333 25 -76c6.66699 -6 16.167 -11 28.5 -15s26.166 -6.66699 41.499 -8c41.333 0 80.666 11 117.999 33c36 23.333 54 52.666 54 87.999v592h184v-491h84z" />
    <glyph glyph-name="acute" unicode="&#xb4;" horiz-adv-x="831" 
d="M770 0h-185.998v616c0 37.333 -9.66699 69 -29 95c-18.667 27.333 -47.334 41 -86.001 41c-73.333 0 -132 -42.333 -176 -127c-18.667 -36.667 -32.834 -76.334 -42.501 -119.001s-14.5 -87.667 -14.5 -135c0 -77.333 6 -137.666 18 -180.999
c20.667 -66.667 57.667 -100 111 -100c28 0 51 14.333 69 43c9.33301 15.333 16.166 31.666 20.499 48.999s6.5 37.333 6.5 60c0 12 -0.666992 20 -2 24c0 27.333 -4.16699 52.5 -12.5 75.5s-19.833 43.5 -34.5 61.5c-34 44 -86 66 -156 66l90 127
c76.667 -14 133.334 -49.667 170.001 -107c28.667 -44.667 43 -104.667 43 -180c0 -43.333 -3.66699 -82.666 -11 -117.999s-19.333 -67.666 -36 -96.999c-38 -70.667 -95.333 -106 -172 -106c-91.333 0 -165 40.333 -221 121c-52 74.667 -78 160 -78 256
c0 66.667 10.333 127.167 31 181.5s52.667 104.166 96 149.499c84 90 187 135 309 135c98 0 173 -27 225 -81c45.333 -47.333 68 -107 68 -179v-571z" />
    <glyph glyph-name="mu" unicode="&#xb5;" horiz-adv-x="840" 
d="M778 0h-183.998v606c0 29.333 -5.33301 53.333 -16 72c-8.66699 17.333 -24 27 -46 29c-10.667 0 -23.334 -6.33301 -38.001 -19c-5.33301 -5.33301 -10.333 -11.833 -15 -19.5s-9.33398 -17.5 -14.001 -29.5c-12 49.333 -36.667 74 -74 74
c-53.333 0 -94.333 -38.333 -123 -115c-10 -30 -17.833 -64.833 -23.5 -104.5s-8.5 -80.5 -8.5 -122.5c0 -76 8 -137.667 24 -185c21.333 -64 56.333 -96 105 -96c28 0 51 14.333 69 43c9.33301 15.333 16.166 31.666 20.499 48.999s6.5 37.333 6.5 60
c0 12 -0.666992 20 -2 24c0 27.333 -4.16699 52.5 -12.5 75.5s-19.833 43.5 -34.5 61.5c-34 44 -86 66 -156 66l90 127c76.667 -14 133.334 -49.667 170.001 -107c28.667 -44.667 43 -104.667 43 -180c0 -43.333 -3.66699 -82.666 -11 -117.999s-19.333 -67.666 -36 -96.999
c-38 -70.667 -95.333 -106 -172 -106c-91.333 0 -165 40.333 -221 121c-52 74.667 -78 160 -78 256c0 114.667 26.667 218.334 80 311.001c59.333 102 137.666 153 234.999 153c32.667 0 57.834 -5.83301 75.501 -17.5s30.834 -26.834 39.501 -45.501
c4 7.33301 10 14.666 18 21.999s17.333 14 28 20s22.667 11 36 15s26.333 6 39 6c57.333 0 102.666 -21 135.999 -63s50 -99.333 50 -172v-594z" />
    <glyph glyph-name="paragraph" unicode="&#xb6;" horiz-adv-x="801" 
d="M739 0h-184.001v584c0 45.333 -16.833 84.666 -50.5 117.999s-78.167 50 -133.5 50c-44.667 0 -84.167 -11.5 -118.5 -34.5s-51.5 -49.833 -51.5 -80.5c0 -30 21.667 -45 65 -45v-395c0 -53.333 34.333 -80 103 -80l-162 -129c-38 0 -68.667 10.667 -92 32
c-22 24 -33 55 -33 93v411c-21.333 7.33301 -38.333 18.333 -51 33c-7.33301 8 -13 17.333 -17 28s-6 23.334 -6 38.001c0 52.667 36.833 100.5 110.5 143.5s157.834 64.5 252.501 64.5c111.333 0 200.5 -23.167 267.5 -69.5s100.5 -109.833 100.5 -190.5v-571z" />
    <glyph glyph-name="periodcentered" unicode="&#xb7;" horiz-adv-x="801" 
d="M739 0l-184.001 0.00195312v588c0 15.333 -1.66699 29.166 -5 41.499s-9.33301 23.166 -18 32.499c-12.667 18.667 -35.667 28 -69 28c-49.333 0 -94.5 -27.333 -135.5 -82s-61.5 -110.667 -61.5 -168v-440h-184v631c0 12.667 -1.33301 23.167 -4 31.5
s-8.33398 17.5 -17.001 27.5c-12 16.667 -35.667 25 -71 25l143 114c46 -6 79.333 -21.667 100 -47c10.667 -11.333 18.834 -24.5 24.501 -39.5s8.5 -31.833 8.5 -50.5v-30c31.333 44.667 68.5 83 111.5 115s90.5 48 142.5 48c69.333 0 123.333 -20.333 162 -61
c18.667 -20.667 32.834 -43.5 42.501 -68.5s14.5 -52.167 14.5 -81.5v-614z" />
    <glyph glyph-name="periodcentered" unicode="&#x2219;" horiz-adv-x="801" 
d="M739 0l-184.001 0.00195312v588c0 15.333 -1.66699 29.166 -5 41.499s-9.33301 23.166 -18 32.499c-12.667 18.667 -35.667 28 -69 28c-49.333 0 -94.5 -27.333 -135.5 -82s-61.5 -110.667 -61.5 -168v-440h-184v631c0 12.667 -1.33301 23.167 -4 31.5
s-8.33398 17.5 -17.001 27.5c-12 16.667 -35.667 25 -71 25l143 114c46 -6 79.333 -21.667 100 -47c10.667 -11.333 18.834 -24.5 24.501 -39.5s8.5 -31.833 8.5 -50.5v-30c31.333 44.667 68.5 83 111.5 115s90.5 48 142.5 48c69.333 0 123.333 -20.333 162 -61
c18.667 -20.667 32.834 -43.5 42.501 -68.5s14.5 -52.167 14.5 -81.5v-614z" />
    <glyph glyph-name="cedilla" unicode="&#xb8;" horiz-adv-x="774" 
d="M733 291c0 -86.667 -33.335 -158.835 -100.002 -216.502s-151.334 -86.5 -254.001 -86.5c-34 0 -66.5 2.66699 -97.5 8s-61.5 14.333 -91.5 27c-24.667 8.66699 -47 18.834 -67 30.501s-40.667 27.167 -62 46.5v293h185v-268c0 -19.333 13 -33.666 39 -42.999
c14.667 -4.66699 29.167 -8.16699 43.5 -10.5s29.833 -3.5 46.5 -3.5c46.667 0 87 19 121 57c16 19.333 28.5 40 37.5 62s13.5 44.333 13.5 67c0 93.333 -53.667 146.666 -161 159.999s-187 33 -239 59c-60 31.333 -90 73 -90 125c0 66.667 31.833 122.167 95.5 166.5
s141.167 66.5 232.5 66.5c90.667 0 166.167 -15.667 226.5 -47s90.5 -74.333 90.5 -129c0 -29.333 -8.66699 -49.666 -26 -60.999h-203c12 4 21.667 13 29 27c2 4 4 9.83301 6 17.5s3.33301 14.5 4 20.5c0 26.667 -13 48.667 -39 66c-11.333 8 -25.166 14.5 -41.499 19.5
s-33.166 7.5 -50.499 7.5c-37.333 0 -68.666 -9.66699 -93.999 -29c-26 -16.667 -39 -41.334 -39 -74.001c0 -39.333 42.333 -71.333 127 -96c27.333 -7.33301 75 -17.666 143 -30.999c32 -6 60.5 -14.5 85.5 -25.5s47.167 -24.833 66.5 -41.5c42 -38 63 -92.667 63 -164z
" />
    <glyph glyph-name="onesuperior" unicode="&#xb9;" horiz-adv-x="821" 
d="M823 328c-17.333 -20 -31.332 -38.501 -41.999 -55.501s-19 -34.833 -25 -53.5c-11.333 -34 -17 -75.667 -17 -125v-94h-184v82c-22.667 -24.667 -51.334 -45.334 -86.001 -62.001c-22 -10 -46.167 -17.833 -72.5 -23.5s-52.833 -8.5 -79.5 -8.5
c-68.667 0 -125 18.833 -169 56.5s-66 91.167 -66 160.5v426c0 12.667 -1.33301 23.167 -4 31.5s-8.33398 17.5 -17.001 27.5c-12 16.667 -35.667 25 -71 25l143 114c46 -6 79.333 -21.667 100 -47c10.667 -11.333 18.834 -24.5 24.501 -39.5s8.5 -31.833 8.5 -50.5v-489
c0 -33.333 8.33301 -58.666 25 -75.999c8.66699 -8 18.667 -13.833 30 -17.5s25 -5.5 41 -5.5c46.667 0 90.5 12.333 131.5 37s61.5 53.334 61.5 86.001v592h184v-491h84z" />
    <glyph glyph-name="ordmasculine" unicode="&#xba;" horiz-adv-x="801" 
d="M739 242c0 -39.333 -6.66895 -74.499 -20.002 -105.499s-34.666 -58.167 -63.999 -81.5c-54.667 -44.667 -135.667 -67 -243 -67s-189.166 22.667 -245.499 68s-84.5 107.333 -84.5 186v389c0 12.667 -1.33301 23.167 -4 31.5s-8.33398 17.5 -17.001 27.5
c-12 16.667 -35.667 25 -71 25l143 114c46 -6 79.333 -21.667 100 -47c10.667 -11.333 18.834 -24.5 24.501 -39.5s8.5 -31.833 8.5 -50.5v-483c0 -46.667 11.667 -81.834 35 -105.501s60.333 -35.5 111 -35.5c95.333 0 143 47 143 141v610h184v-577z" />
    <glyph glyph-name="guillemotright" unicode="&#xbb;" horiz-adv-x="801" 
d="M739 242c0 -39.333 -6.66895 -74.499 -20.002 -105.499s-34.666 -58.167 -63.999 -81.5c-54.667 -44.667 -135.667 -67 -243 -67s-189.166 22.667 -245.499 68s-84.5 107.333 -84.5 186v389c0 12.667 -1.33301 23.167 -4 31.5s-8.33398 17.5 -17.001 27.5
c-12 16.667 -35.667 25 -71 25l143 114c46 -6 79.333 -21.667 100 -47c10.667 -11.333 18.834 -24.5 24.501 -39.5s8.5 -31.833 8.5 -50.5v-483c0 -46.667 11.667 -81.834 35 -105.501s60.333 -35.5 111 -35.5c95.333 0 143 47 143 141v856h184v-823z" />
    <glyph glyph-name="onequarter" unicode="&#xbc;" horiz-adv-x="846" 
d="M784 0l-182.002 -0.00195312c-4 42.667 -10.833 82.667 -20.5 120s-23.167 76.666 -40.5 117.999c-37.333 84.667 -77 127 -119 127c-40 0 -78.333 -39.667 -115 -119c-16 -38 -29.167 -77.667 -39.5 -119s-18.166 -83.666 -23.499 -126.999h-183v692
c0 36.667 10.333 67.334 31 92.001c20 22 54.333 37 103 45l143 -114c-31.333 0 -55.333 -8.33301 -72 -25c-6 -8 -10.833 -17.167 -14.5 -27.5s-5.5 -20.833 -5.5 -31.5v-334c15.333 50 39 100.667 71 152c39.333 60 74.333 90 105 90s65.334 -29.333 104.001 -88
c16 -24.667 30.333 -49.667 43 -75s23 -51.666 31 -78.999v522h184v-819z" />
    <glyph glyph-name="onehalf" unicode="&#xbd;" horiz-adv-x="846" 
d="M784 0l-182.002 -0.00195312c-4 42.667 -10.833 82.667 -20.5 120s-23.167 76.666 -40.5 117.999c-37.333 84.667 -77 127 -119 127c-40 0 -78.333 -39.667 -115 -119c-16 -38 -29.167 -77.667 -39.5 -119s-18.166 -83.666 -23.499 -126.999h-183v692
c0 36.667 10.333 67.334 31 92.001c20 22 54.333 37 103 45l143 -114c-31.333 0 -55.333 -8.33301 -72 -25c-6 -8 -10.833 -17.167 -14.5 -27.5s-5.5 -20.833 -5.5 -31.5v-334c15.333 50 39 100.667 71 152c39.333 60 74.333 90 105 90s65.334 -29.333 104.001 -88
c16 -24.667 30.333 -49.667 43 -75s23 -51.666 31 -78.999v768h184v-1065z" />
    <glyph glyph-name="threequarters" unicode="&#xbe;" horiz-adv-x="866" 
d="M805 0h-184.001c0 137.333 -17.333 275.333 -52 414c-37.333 151.333 -79.666 227 -126.999 227c-45.333 0 -86.333 -72.333 -123 -217c-17.333 -72 -30.5 -143.833 -39.5 -215.5s-13.5 -141.167 -13.5 -208.5h-184v631c0 12.667 -1.33301 23.167 -4 31.5
s-8.33398 17.5 -17.001 27.5c-12 16.667 -35.667 25 -71 25l143 114c46 -6 79.333 -21.667 100 -47c10.667 -11.333 18.834 -24.5 24.501 -39.5s8.5 -31.833 8.5 -50.5v-170c8 32 17.667 62.5 29 91.5s25.666 60.167 42.999 93.5c42 78.667 76.667 118 104 118
c28.667 0 63.667 -38.667 105 -116c34.667 -64.667 59.334 -127 74.001 -187v297h184v-819z" />
    <glyph glyph-name="questiondown" unicode="&#xbf;" horiz-adv-x="866" 
d="M805 0h-184.001c0 137.333 -17.333 275.333 -52 414c-37.333 151.333 -79.666 227 -126.999 227c-45.333 0 -86.333 -72.333 -123 -217c-17.333 -72 -30.5 -143.833 -39.5 -215.5s-13.5 -141.167 -13.5 -208.5h-184v631c0 12.667 -1.33301 23.167 -4 31.5
s-8.33398 17.5 -17.001 27.5c-12 16.667 -35.667 25 -71 25l143 114c46 -6 79.333 -21.667 100 -47c10.667 -11.333 18.834 -24.5 24.501 -39.5s8.5 -31.833 8.5 -50.5v-170c8 32 17.667 62.5 29 91.5s25.666 60.167 42.999 93.5c42 78.667 76.667 118 104 118
c28.667 0 63.667 -38.667 105 -116c34.667 -64.667 59.334 -127 74.001 -187v543h184v-1065z" />
    <glyph glyph-name="Agrave" unicode="&#xc0;" horiz-adv-x="801" 
d="M739 0h-184.001v584c0 45.333 -16.833 84.666 -50.5 117.999s-78.167 50 -133.5 50c-44.667 0 -84.167 -11.5 -118.5 -34.5s-51.5 -49.833 -51.5 -80.5c0 -30 21.667 -45 65 -45v-479c0 -37.333 -11.667 -67.333 -35 -90c-22 -23.333 -52 -35 -90 -35l-172 88
c75.333 0 113 25.333 113 76v372c-21.333 7.33301 -38.333 18.333 -51 33c-7.33301 8 -13 17.333 -17 28s-6 23.334 -6 38.001c0 52.667 36.833 100.5 110.5 143.5s157.834 64.5 252.501 64.5c111.333 0 200.5 -23.167 267.5 -69.5s100.5 -109.833 100.5 -190.5v-571z" />
    <glyph glyph-name="Aacute" unicode="&#xc1;" horiz-adv-x="799" 
d="M737 203c0 -65.333 -23.0029 -117.499 -69.0029 -156.499s-102.667 -58.5 -170 -58.5c-47.333 0 -91.666 8 -132.999 24c-20 9.33301 -37.833 19.333 -53.5 30s-30.834 24 -45.501 40v-82h-184v113c0 41.333 -6.33301 78 -19 110
c-5.33301 17.333 -13.166 34.5 -23.499 51.5s-24.166 34.833 -41.499 53.5h84v303c0 12.667 -1.33301 23.167 -4 31.5s-8.33398 17.5 -17.001 27.5c-12 16.667 -35.667 25 -71 25l143 114c46 -6 79.333 -21.667 100 -47c10.667 -11.333 18.834 -24.5 24.501 -39.5
s8.5 -31.833 8.5 -50.5v-465c0 -32 18.667 -60.667 56 -86c38 -23.333 81 -35 129 -35c24.667 0 47.834 8.16699 69.501 24.5s32.5 41.166 32.5 74.499v614h184v-616z" />
    <glyph glyph-name="Acircumflex" unicode="&#xc2;" horiz-adv-x="776" 
d="M715 262c0 -81.333 -28.332 -147.33 -84.999 -197.997s-130.667 -76 -222 -76c-105.333 0 -192.333 25 -261 75c-32.667 26 -57.5 56.667 -74.5 92s-25.5 75 -25.5 119s18.333 85 55 123c19.333 19.333 38.5 34.5 57.5 45.5s40.167 18.5 63.5 22.5
c-45.333 0 -87.666 13 -126.999 39c-36 23.333 -57 48 -63 74l-4 53c0 57.333 24.167 104.666 72.5 141.999s103.833 56 166.5 56c50.667 0 89.5 -13.333 116.5 -40s45.5 -64.334 55.5 -113.001l-137 -78c0 41.333 -8 76 -24 104c-14.667 28 -30.667 43.333 -48 46
c-10.667 0 -20 -9 -28 -27c-1.33301 -4.66699 -3 -11.167 -5 -19.5s-3.66699 -20.166 -5 -35.499c0 -8 0.166992 -15.333 0.5 -22s1.5 -12.334 3.5 -17.001c10.667 -40.667 32.5 -73.334 65.5 -98.001s75.167 -37 126.5 -37
c-20.667 -8.66699 -39.834 -19.834 -57.501 -33.501s-33.834 -30.5 -48.501 -50.5c-30 -38 -45 -80.333 -45 -127c0 -65.333 15 -117.166 45 -155.499s71 -57.5 123 -57.5c35.333 0 64.833 14.333 88.5 43s35.5 64.667 35.5 108v600h185v-557z" />
    <glyph glyph-name="Atilde" unicode="&#xc3;" horiz-adv-x="770" 
d="M729 291c0 -90 -34.9961 -162.999 -104.996 -218.999s-155.667 -84 -257 -84c-46 0 -87.333 4 -124 12s-72 21.667 -106 41c-64 35.333 -96 84.333 -96 147c0 19.333 2.66699 36.666 8 51.999c6 14 15.667 27.667 29 41h194c-8.66699 -7.33301 -18 -20.333 -28 -39
c-2 -4.66699 -4 -13.167 -6 -25.5l-5 -30.5c0 -30.667 13 -58.667 39 -84c26 -22.667 59.667 -34 101 -34c48 0 88.333 16.333 121 49c31.333 34.667 47 74.334 47 119.001c0 45.333 -17.333 81.333 -52 108c-15.333 12 -37.333 22.833 -66 32.5
s-61.834 17.834 -99.501 24.501s-72.334 15 -104.001 25s-60.5 22.333 -86.5 37c-61.333 35.333 -92 80.333 -92 135c0 65.333 32.667 120.5 98 165.5s142.666 67.5 231.999 67.5s164.166 -16.333 224.499 -49s90.5 -75 90.5 -127c0 -24.667 -6 -45 -18 -61h-197
c8 8 14.5 17.667 19.5 29s7.5 23.333 7.5 36c0 24 -13 46 -39 66c-12 7.33301 -26.167 13.666 -42.5 18.999s-32.833 8 -49.5 8c-35.333 0 -67 -9.66699 -95 -29c-22.667 -15.333 -35.667 -40 -39 -74c0 -32 27.333 -59.333 82 -82
c13.333 -4.66699 33.833 -10.334 61.5 -17.001l102.5 -24c80.667 -16 140.667 -40.333 180 -73c46.667 -39.333 70 -93.333 70 -162z" />
    <glyph glyph-name="Adieresis" unicode="&#xc4;" horiz-adv-x="801" 
d="M739 -307h-184.001v891c0 45.333 -16.833 84.666 -50.5 117.999s-78.167 50 -133.5 50c-44.667 0 -84.167 -11.5 -118.5 -34.5s-51.5 -49.833 -51.5 -80.5c0 -30 21.667 -45 65 -45v-395c0 -53.333 34.333 -80 103 -80l-162 -129c-38 0 -68.667 10.667 -92 32
c-22 24 -33 55 -33 93v411c-21.333 7.33301 -38.333 18.333 -51 33c-7.33301 8 -13 17.333 -17 28s-6 23.334 -6 38.001c0 52.667 36.833 100.5 110.5 143.5s157.834 64.5 252.501 64.5c111.333 0 200.5 -23.167 267.5 -69.5s100.5 -109.833 100.5 -190.5v-878z" />
    <glyph glyph-name="Aring" unicode="&#xc5;" horiz-adv-x="821" 
d="M760 0l-187.001 -0.00292969v305c0 46.667 -12 85.667 -36 117c-30 34 -69.667 51 -119 51c-56 0 -103.5 -17.167 -142.5 -51.5s-58.5 -77.166 -58.5 -128.499c0 -24 4.16699 -45.667 12.5 -65s21.166 -36.666 38.499 -51.999c34 -30 75.667 -45 125 -45
c14 0 26.333 1 37 3s24.334 6.33301 41.001 13l-98 -157c-47.333 0 -89.5 5 -126.5 15s-72 27 -105 51s-58 52.833 -75 86.5s-25.5 72.834 -25.5 117.501c0 84 35.5 154.167 106.5 210.5s154.833 84.5 251.5 84.5c37.333 0 69.833 -4 97.5 -12s53.167 -21.667 76.5 -41v82
c0 49.333 -13.667 89.666 -41 120.999s-68 47 -122 47c-46.667 0 -83 -10.667 -109 -32s-39 -47 -39 -77c0 -34.667 7 -58 21 -70h-197l-6 13c-4 12 -6 26.333 -6 43c0 51.333 29.333 97 88 137c63.333 43.333 147.333 65 252 65c52.667 0 99.834 -5.66699 141.501 -17
s78.167 -29.166 109.5 -53.499s55 -52 71 -83s24 -66.5 24 -106.5v-571z" />
    <glyph glyph-name="AE" unicode="&#xc6;" horiz-adv-x="801" 
d="M739 -307h-184.001v891c0 45.333 -16.833 84.666 -50.5 117.999s-78.167 50 -133.5 50c-44.667 0 -84.167 -11.5 -118.5 -34.5s-51.5 -49.833 -51.5 -80.5c0 -30 21.667 -45 65 -45v-479c0 -37.333 -11.667 -67.333 -35 -90c-22 -23.333 -52 -35 -90 -35l-172 88
c75.333 0 113 25.333 113 76v372c-21.333 7.33301 -38.333 18.333 -51 33c-7.33301 8 -13 17.333 -17 28s-6 23.334 -6 38.001c0 52.667 36.833 100.5 110.5 143.5s157.834 64.5 252.501 64.5c111.333 0 200.5 -23.167 267.5 -69.5s100.5 -109.833 100.5 -190.5v-878z" />
    <glyph glyph-name="Ccedilla" unicode="&#xc7;" horiz-adv-x="760" 
d="M719 412c0 -130 -32.1641 -233.163 -96.4971 -309.496s-148.833 -114.5 -253.5 -114.5c-31.333 0 -58.833 3.66699 -82.5 11s-44.167 19.333 -61.5 36c-32.667 31.333 -49 69.666 -49 114.999c0 24.667 6.33301 49.667 19 75h178c-32.667 -28 -49 -60.667 -49 -98
c0 -39.333 17.667 -59 53 -59c48 0 86.333 32.667 115 98c12.667 33.333 22.167 71.5 28.5 114.5s9.5 91.5 9.5 145.5c0 44 -3.66699 84.167 -11 120.5s-19.333 69.833 -36 100.5c-37.333 70 -89 105 -155 105c-34 0 -60.667 -13.667 -80 -41c-18 -28.667 -27 -61 -27 -97
c0 -21.333 4 -41 12 -59c6 -10 11 -18 15 -24s10.667 -13.667 20 -23h-213l-12 18c-8 17.333 -12 36.666 -12 57.999c0 31.333 7.16699 60.666 21.5 87.999s37.166 54.666 68.499 81.999c61.333 51.333 131.666 77 210.999 77c127.333 0 223.666 -37 288.999 -111
s98 -176.667 98 -308z" />
    <glyph glyph-name="Egrave" unicode="&#xc8;" horiz-adv-x="803" 
d="M829 860c-4 -30 -16.665 -57.3369 -37.998 -82.0039c-10.667 -11.333 -23.5 -22.166 -38.5 -32.499s-32.5 -19.833 -52.5 -28.5c27.333 -41.333 41 -90 41 -146v-571h-184v604c0 12 -0.666992 23.333 -2 34s-4 21.334 -8 32.001l-35 -8
c-39.333 -9.33301 -60.333 -15 -63 -17l-64 23c25.333 6.66699 47.666 13.834 66.999 21.501s39.333 18.167 60 31.5c-26 20.667 -63 31 -111 31c-52.667 0 -91.667 -12.667 -117 -38s-38 -62 -38 -110v-131c12 20.667 32.667 39.167 62 55.5s59.666 24.5 90.999 24.5
c40 0 74.333 -14.333 103 -43c11.333 -14 20.666 -30.167 27.999 -48.5s11 -36.833 11 -55.5l-142 -78c0 32.667 -4.33301 59.667 -13 81s-22.667 33 -42 35c-27.333 0 -51.333 -20.333 -72 -61c-8.66699 -21.333 -15.167 -42.666 -19.5 -63.999s-6.5 -43 -6.5 -65v-254
h-185v571c0 82 28.667 145.667 86 191c28.667 22.667 64.334 39.834 107.001 51.501s91.667 17.5 147 17.5c82.667 0 151.667 -12.667 207 -38c8.66699 7.33301 14.667 16.666 18 27.999s5 24.333 5 39h198z" />
    <glyph glyph-name="Eacute" unicode="&#xc9;" horiz-adv-x="831" 
d="M870 451c-12.667 -18.667 -31.6689 -36.666 -57.002 -53.999c-20 -12 -44.667 -22 -74 -30v-125c0 -39.333 -6.66699 -74.5 -20 -105.5s-34.666 -58.167 -63.999 -81.5c-54.667 -44.667 -135.667 -67 -243 -67s-189.166 22.667 -245.499 68s-84.5 107.333 -84.5 186v389
c0 12.667 -1.33301 23.167 -4 31.5s-8.33398 17.5 -17.001 27.5c-12 16.667 -35.667 25 -71 25l143 114c46 -6 79.333 -21.667 100 -47c10.667 -11.333 18.834 -24.5 24.501 -39.5s8.5 -31.833 8.5 -50.5v-483c0 -46.667 11.667 -81.834 35 -105.501s60.333 -35.5 111 -35.5
c95.333 0 143 47 143 141v133c-68.667 0 -127 14.5 -175 43.5s-75 69.167 -81 120.5h180c0 -52.667 25.333 -82 76 -88v401h184v-370c8.66699 8 17.667 19.333 27 34c2.66699 5.33301 5.5 12.5 8.5 21.5s5.5 17.5 7.5 25.5z" />
    <glyph glyph-name="Ecircumflex" unicode="&#xca;" horiz-adv-x="821" 
d="M850 860c-4 -30.667 -17.667 -58.6719 -41 -84.0049c-12.667 -13.333 -26.167 -24.833 -40.5 -34.5s-32.833 -19.167 -55.5 -28.5c15.333 -21.333 27 -43.5 35 -66.5s12 -48.167 12 -75.5v-571h-187v305c0 46.667 -12 85.667 -36 117c-30 34 -69.667 51 -119 51
c-56 0 -103.5 -17.167 -142.5 -51.5s-58.5 -77.166 -58.5 -128.499c0 -24 4.16699 -45.667 12.5 -65s21.166 -36.666 38.499 -51.999c34 -30 75.667 -45 125 -45c14 0 26.333 1 37 3s24.334 6.33301 41.001 13l-98 -157c-47.333 0 -89.5 5 -126.5 15s-72 27 -105 51
s-58 52.833 -75 86.5s-25.5 72.834 -25.5 117.501c0 84 35.5 154.167 106.5 210.5s154.833 84.5 251.5 84.5c37.333 0 69.833 -4 97.5 -12s53.167 -21.667 76.5 -41v82c0 16.667 -1.16699 30.834 -3.5 42.501s-6.5 24.167 -12.5 37.5c-44 -12.667 -80 -19 -108 -19l-64 23
c20.667 4 44.167 10.5 70.5 19.5s47.166 18.167 62.499 27.5c-24.667 24.667 -60.667 37 -108 37c-43.333 0 -79.666 -11 -108.999 -33c-26 -22 -39 -47.333 -39 -76c0 -34.667 7 -58 21 -70h-197l-6 13c-4 12 -6 26.333 -6 43c0 51.333 29.333 97 88 137
c63.333 43.333 147.333 65 252 65c80 0 149 -15 207 -45c8 7.33301 14.667 17 20 29c1.33301 4 2.33301 10.833 3 20.5s1 17.834 1 24.501h205z" />
    <glyph glyph-name="Edieresis" unicode="&#xcb;" horiz-adv-x="801" 
d="M743 819c0 -45.333 -12.6689 -84.998 -38.002 -118.998c-12.667 -16.667 -27.5 -31.5 -44.5 -44.5s-36.5 -24.5 -58.5 -34.5c20.667 -6 38.834 -13.5 54.501 -22.5s30.167 -20.833 43.5 -35.5c26 -24.667 39 -59.334 39 -104.001v-459h-184v469
c0 15.333 -1 27.666 -3 36.999s-6.33301 19 -13 29c-11.333 16 -29.333 24 -54 24c-14.667 0 -32.5 -5.16699 -53.5 -15.5s-46.833 -26.833 -77.5 -49.5c-58.667 -42 -88 -77.667 -88 -107v-387h-184v631c0 12.667 -1.33301 23.167 -4 31.5s-8.33398 17.5 -17.001 27.5
c-12 16.667 -35.667 25 -71 25l143 114c46 -6 79.333 -21.667 100 -47c10.667 -11.333 18.834 -24.5 24.501 -39.5s8.5 -31.833 8.5 -50.5v-168l46 28l36 23l88 62c28.667 20 49.334 39.667 62.001 59c18.667 28 28 58 28 90c0 10 -1.33301 21 -4 33h221z" />
    <glyph glyph-name="Igrave" unicode="&#xcc;" horiz-adv-x="866" 
d="M811 997c-2 -21.333 -12.334 -39.668 -31.001 -55.001c-15.333 -13.333 -35.666 -23.666 -60.999 -30.999c57.333 -20 86 -61.667 86 -125v-786h-184c0 137.333 -17.333 275.333 -52 414c-37.333 151.333 -79.666 227 -126.999 227c-45.333 0 -86.333 -72.333 -123 -217
c-17.333 -72 -30.5 -143.833 -39.5 -215.5s-13.5 -141.167 -13.5 -208.5h-184v631c0 12.667 -1.33301 23.167 -4 31.5s-8.33398 17.5 -17.001 27.5c-12 16.667 -35.667 25 -71 25l143 114c46 -6 79.333 -21.667 100 -47c10.667 -11.333 18.834 -24.5 24.501 -39.5
s8.5 -31.833 8.5 -50.5v-160c6.66699 27.333 16 56.5 28 87.5s26.667 62.167 44 93.5c42 74.667 76.667 112 104 112c28.667 0 63.667 -36.667 105 -110c34.667 -65.333 59.334 -126.333 74.001 -183v244c0 37.333 -14.333 65.333 -43 84c-28.667 16.667 -86 25 -172 25
l61 71c10.667 0 19 -0.666992 25 -2h22c64.667 0 102.334 18 113.001 54c2 6 3 12.333 3 19s-1.83301 17.167 -5.5 31.5s-11.834 27.5 -24.501 39.5h184c3.33301 -3.33301 6.66602 -7.33301 9.99902 -12c1.33301 -2.66699 3.66602 -7 6.99902 -13c8 -16 12 -35 12 -57
c0 -10 -0.666992 -16.333 -2 -19z" />
    <glyph glyph-name="Iacute" unicode="&#xcd;" horiz-adv-x="809" 
d="M768 393c0 -114.667 -33.3359 -210.832 -100.003 -288.499s-157 -116.5 -271 -116.5c-107.333 0 -193.5 29 -258.5 87s-97.5 132.667 -97.5 224c0 69.333 25 129 75 179s111.667 75 185 75c46 0 83.167 -15 111.5 -45s42.5 -64 42.5 -102
c0 -8.66699 -0.666992 -17.167 -2 -25.5s-4.33301 -17.833 -9 -28.5h-145c12 16.667 19.667 38.667 23 66c0 14 -3 27.667 -9 41c-3.33301 8.66699 -10.666 14 -21.999 16c-17.333 0 -33.666 -17.333 -48.999 -52s-23 -72.667 -23 -114c0 -66.667 13 -120.667 39 -162
c32.667 -52.667 81 -79 145 -79c62.667 0 109.334 38.667 140.001 116c10 28.667 17.833 63 23.5 103s8.5 83 8.5 129c0 93.333 -12 167.666 -36 222.999c-33.333 75.333 -87.333 113 -162 113c-42 0 -75.667 -14.333 -101 -43c-21.333 -30.667 -32 -67.667 -32 -111h-207
c6 61.333 38.667 114.666 98 159.999c65.333 48.667 151.333 73 258 73c118 0 211.667 -43.667 281 -131c62.667 -81.333 94 -183.666 94 -306.999z" />
    <glyph glyph-name="Icircumflex" unicode="&#xce;" horiz-adv-x="809" 
d="M803 860c-3.33301 -28 -17.6699 -56.001 -43.0029 -84.001c-13.333 -12.667 -27.5 -24 -42.5 -34s-32.833 -19.667 -53.5 -29c32 -38.667 57.667 -87.334 77 -146.001c8.66699 -28.667 15.334 -57 20.001 -85s7 -57.667 7 -89c0 -114.667 -33.333 -210.834 -100 -288.501
s-157 -116.5 -271 -116.5c-107.333 0 -193.5 29 -258.5 87s-97.5 132.667 -97.5 224c0 69.333 25 129 75 179s111.667 75 185 75c46 0 83.167 -15 111.5 -45s42.5 -64 42.5 -102c0 -8.66699 -0.666992 -17.167 -2 -25.5s-4.33301 -17.833 -9 -28.5h-145
c12 16.667 19.667 38.667 23 66c0 14 -3 27.667 -9 41c-3.33301 8.66699 -10.666 14 -21.999 16c-17.333 0 -33.666 -17.333 -48.999 -52s-23 -72.667 -23 -114c0 -66.667 13 -120.667 39 -162c32.667 -52.667 81 -79 145 -79c62.667 0 109.334 38.667 140.001 116
c10 28.667 17.833 63 23.5 103s8.5 83 8.5 129c0 49.333 -3.5 94.833 -10.5 136.5s-21.833 80.834 -44.5 117.501c-23.333 -6 -45.333 -11 -66 -15s-36 -6 -46 -6l-64 23c20.667 4 44.167 10.5 70.5 19.5s47.166 18.167 62.499 27.5c-12.667 10.667 -27 18.834 -43 24.501
s-35 8.5 -57 8.5c-42 0 -75.667 -14.333 -101 -43c-21.333 -30.667 -32 -67.667 -32 -111h-207c6 61.333 38.667 114.666 98 159.999c65.333 48.667 151.333 73 258 73c68.667 0 128.667 -15 180 -45c8.66699 6.66699 15.667 16.334 21 29.001
c1.33301 4 2.33301 10.833 3 20.5s1 17.834 1 24.501h205z" />
    <glyph glyph-name="Idieresis" unicode="&#xcf;" horiz-adv-x="766" 
d="M705 0l-185.001 -0.000976562v614c-40 -28 -72 -47 -96 -57c-20 -8 -42.667 -14.5 -68 -19.5s-51 -7.5 -77 -7.5c-64.667 0 -120.5 15.833 -167.5 47.5s-70.5 73.167 -70.5 124.5c0 22.667 4.5 44.5 13.5 65.5s20.833 38.167 35.5 51.5h205
c-18.667 -12 -33.667 -27.667 -45 -47c-7.33301 -14.667 -12 -33.667 -14 -57c0 -25.333 10 -46.666 30 -63.999c10 -6 22.333 -10.833 37 -14.5s30.334 -5.5 47.001 -5.5c46 0 85.833 18.333 119.5 55s50.5 81 50.5 133h185v-819z" />
    <glyph glyph-name="Eth" unicode="&#xd0;" horiz-adv-x="655" 
d="M614 758c-27.333 -66.667 -73.668 -119.334 -139.001 -158.001c-60.667 -36.667 -137 -55 -229 -55c-57.333 0 -104.666 10 -141.999 30c-34 21.333 -55 50.333 -63 87c-0.666992 3.33301 -1 8.33301 -1 15c0 28.667 11.333 55.667 34 81h194
c-24.667 -17.333 -37 -42.666 -37 -75.999c0 -36.667 18.667 -55 56 -55s66 13 86 39c10 12.667 18 26.667 24 42s9 32 9 50h208zM613.998 274c-28 -66 -73.5 -118.001 -136.5 -156.001s-140.167 -57 -231.5 -57c-56.667 0 -104 10.333 -142 31c-34 21.333 -55 50 -63 86
c-0.666992 3.33301 -1 8.33301 -1 15c0 28.667 11.333 55.667 34 81h194c-24.667 -16.667 -37 -41.667 -37 -75c0 -37.333 18.667 -56 56 -56c36 0 64.667 13 86 39c10 12.667 18 26.834 24 42.501s9 32.167 9 49.5h208z" />
    <glyph glyph-name="Ntilde" unicode="&#xd1;" 
d="M117 1159c-34.667 -71.333 -86.4971 -128.669 -155.497 -172.002s-144.167 -65 -225.5 -65c-31.333 0 -59.333 2.66699 -84 8s-46 14 -64 26c-36 24.667 -57 55 -63 91c-1.33301 9.33301 -2 16.333 -2 21c0 24.667 9.33301 48.334 28 71.001h185
c-28.667 -14.667 -43 -42 -43 -82c0 -15.333 8 -29 24 -41c15.333 -8.66699 31.666 -13 48.999 -13c6 0 10.333 0.333008 13 1c37.333 0 70 15 98 45c13.333 14.667 24.166 30.834 32.499 48.501s15.166 38.167 20.499 61.5h187z" />
    <glyph glyph-name="Ograve" unicode="&#xd2;" horiz-adv-x="651" 
d="M590 0l-183.999 -0.000976562v592c0 48.667 -8.83301 87.5 -26.5 116.5s-43.167 43.5 -76.5 43.5c-28.667 0 -53.334 -11.667 -74.001 -35c-8.66699 -11.333 -15.167 -23.5 -19.5 -36.5s-6.5 -27.5 -6.5 -43.5c0 -11.333 0.833008 -22.666 2.5 -33.999s4.5 -23 8.5 -35
s8.83301 -22.167 14.5 -30.5s14.167 -16.833 25.5 -25.5h-195c-9.33301 8 -16.333 19.5 -21 34.5s-7 34.833 -7 59.5c0 30.667 6.66699 58.667 20 84s34.666 50 63.999 74c54.667 44.667 121.334 67 200.001 67c79.333 0 145 -21 197 -63s78 -98.667 78 -170v-598z" />
    <glyph glyph-name="Oacute" unicode="&#xd3;" horiz-adv-x="651" 
d="M0 1036c0 -40 -14.832 -73.833 -44.499 -101.5s-66.167 -41.5 -109.5 -41.5c-40.667 0 -76.334 13.833 -107.001 41.5s-46 61.5 -46 101.5c0 40.667 15 75 45 103c14.667 13.333 31 23.5 49 30.5s37.667 10.5 59 10.5c40.667 0 77 -13.667 109 -41
c30 -28 45 -62.333 45 -103zM590.001 0l-183.999 -0.000976562v592c0 48.667 -8.83301 87.5 -26.5 116.5s-43.167 43.5 -76.5 43.5c-28.667 0 -53.334 -11.667 -74.001 -35c-8.66699 -11.333 -15.167 -23.5 -19.5 -36.5s-6.5 -27.5 -6.5 -43.5
c0 -11.333 0.833008 -22.666 2.5 -33.999s4.5 -23 8.5 -35s8.83301 -22.167 14.5 -30.5s14.167 -16.833 25.5 -25.5h-195c-9.33301 8 -16.333 19.5 -21 34.5s-7 34.833 -7 59.5c0 30.667 6.66699 58.667 20 84s34.666 50 63.999 74c54.667 44.667 121.334 67 200.001 67
c79.333 0 145 -21 197 -63s78 -98.667 78 -170v-598zM-91.998 1036c0 16.667 -6.33203 30.999 -18.999 42.999c-12 12.667 -26.333 19 -43 19c-16 0 -30.167 -6.16699 -42.5 -18.5s-18.5 -26.833 -18.5 -43.5c0 -15.333 6 -29.666 18 -42.999
c13.333 -12 27.666 -18 42.999 -18c16.667 0 31.167 6.16699 43.5 18.5s18.5 26.5 18.5 42.5z" />
    <glyph glyph-name="Ocircumflex" unicode="&#xd4;" 
d="M-41 901h-202.999c-12 38 -34.333 73 -67 105c-38 36.667 -79 55 -123 55c-34 0 -62.667 -6.16699 -86 -18.5s-35 -30.833 -35 -55.5c0 -16 4 -33 12 -51c8 -14 17.667 -25.667 29 -35h-215c-8 12.667 -14.5 25.5 -19.5 38.5s-7.5 26.167 -7.5 39.5
c0 44 30.667 82 92 114s134.666 48 219.999 48c76 0 152.333 -22.667 229 -68c72.667 -42 130.667 -99.333 174 -172z" />
    <glyph glyph-name="Otilde" unicode="&#xd5;" 
d="M-61 901h-202.997c-8 19.333 -17.667 37 -29 53s-25.666 31 -42.999 45c-33.333 27.333 -73 41 -119 41c-36 0 -64.667 -4.66699 -86 -14c-22.667 -8 -34 -24.333 -34 -49c0 -28.667 13.333 -54 40 -76h-215c-8.66699 14 -15.167 27 -19.5 39s-6.5 25 -6.5 39
c0 22 7.16699 41.167 21.5 57.5s36.666 31 66.999 44s63.666 22.833 99.999 29.5s77.166 10 122.499 10c20.667 0 39.667 -1 57 -3s38.166 -6.16699 62.499 -12.5s57.5 -20.833 99.5 -43.5v110h185v-270z" />
    <glyph glyph-name="Odieresis" unicode="&#xd6;" 
d="M-10 1047c0 -40 -19.332 -76.333 -57.999 -109l27 -37h-203c-14.667 38 -38.5 70.667 -71.5 98s-72.5 41 -118.5 41c-36.667 0 -65.334 -4.66699 -86.001 -14c-23.333 -8 -35 -24.333 -35 -49c0 -28.667 13.667 -54 41 -76h-215c-8 12.667 -14.5 25.5 -19.5 38.5
s-7.5 26.167 -7.5 39.5c0 42.667 30 76.667 90 102c30 12.667 63 22.334 99 29.001s77 10 123 10c16.667 0 29.334 -0.333008 38.001 -1s21 -3 37 -7c14 -2 23.333 -3.66699 28 -5c15.333 -4 31.333 -9.66699 48 -17c19.333 61.333 65.666 92 138.999 92
c36 0 69.667 -13 101 -39c14 -12.667 24.667 -26.834 32 -42.501s11 -33.5 11 -53.5zM-99.999 1049c0 14.667 -5 26.667 -15 36c-8.66699 9.33301 -21.667 15 -39 17c-15.333 0 -27.333 -5.66699 -36 -17c-9.33301 -6.66699 -15 -18.667 -17 -36
c0 -15.333 5.66699 -28.333 17 -39c6.66699 -8 18.667 -13 36 -15c15.333 0 28.333 5 39 15c8 8.66699 13 21.667 15 39z" />
    <glyph glyph-name="multiply" unicode="&#xd7;" 
d="M-61 901h-202.998c-8 19.333 -17.667 37 -29 53s-25.666 31 -42.999 45c-33.333 27.333 -73 41 -119 41c-36 0 -64.667 -4.66699 -86 -14c-22.667 -8 -34 -24.333 -34 -49c0 -28.667 13.333 -54 40 -76h-215c-8.66699 14 -15.167 27 -19.5 39s-6.5 25 -6.5 39
c0 22 7.16699 41.167 21.5 57.5s36.666 31 66.999 44s63.666 22.833 99.999 29.5s77.166 10 122.499 10l35 -2v53h123v-81l61 -29v110h185v-270z" />
    <glyph glyph-name="Oslash" unicode="&#xd8;" 
d="M-61 -352l-185 -0.000976562v166c0 19.333 -4 39 -12 59c-8 15.333 -24.333 30.333 -49 45h203c7.33301 -5.33301 13.666 -11.5 18.999 -18.5s10.333 -15.167 15 -24.5c2.66699 -10.667 4.83398 -20.667 6.50098 -30s2.5 -19.666 2.5 -30.999v-166z" />
    <glyph glyph-name="Ugrave" unicode="&#xd9;" 
d="M-61 -227c0 -38.667 -21.334 -72.333 -64.001 -101c-22 -13.333 -46.5 -23.5 -73.5 -30.5s-56.5 -10.5 -88.5 -10.5c-68 0 -122.5 10.667 -163.5 32s-61.5 54.333 -61.5 99v52c0 19.333 -4 39 -12 59c-8 15.333 -24.333 30.333 -49 45h186
c16.667 -10 27.334 -22.5 32.001 -37.5s7 -35.167 7 -60.5v-66c0 -16 5.33301 -29.667 16 -41c7.33301 -7.33301 19 -12 35 -14c34 0 51 18.333 51 55v164h185v-145z" />
    <glyph glyph-name="Uacute" unicode="&#xda;" 
d="M-49 -182c0 -27.333 -10.002 -51 -30.002 -71s-45 -30 -75 -30c-29.333 0 -53.666 9.66699 -72.999 29c-20.667 18 -31 42 -31 72c0 26 9.66699 49.167 29 69.5s44.333 30.5 75 30.5s55.334 -9.66699 74.001 -29c20.667 -18 31 -41.667 31 -71z" />
    <glyph glyph-name="Ucircumflex" unicode="&#xdb;" horiz-adv-x="553" 
 />
    <glyph glyph-name="Udieresis" unicode="&#xdc;" horiz-adv-x="778" 
 />
    <glyph glyph-name="Yacute" unicode="&#xdd;" horiz-adv-x="778" 
d="M709 117l-88 -88l-232 233l-231 -233l-88 88l233 231l-233 232l88 88l231 -234l232 234l88 -88l-234 -232z" />
    <glyph glyph-name="Thorn" unicode="&#xde;" horiz-adv-x="778" 
d="M477 608c0 -24.667 -8.5 -45.501 -25.5 -62.501s-37.833 -25.5 -62.5 -25.5s-45.5 8.16699 -62.5 24.5s-25.5 37.5 -25.5 63.5c0 24.667 8.33301 45.334 25 62.001c8.66699 8.66699 18 15.167 28 19.5s21.667 6.5 35 6.5c24.667 0 45.5 -9 62.5 -27
s25.5 -38.333 25.5 -61zM737 286.999h-696v123h696v-123zM477 87.999c0 -24.667 -8.5 -45.501 -25.5 -62.501s-37.833 -25.5 -62.5 -25.5s-45.5 8.16699 -62.5 24.5s-25.5 37.5 -25.5 63.5c0 24.667 8.33301 45.334 25 62.001c8.66699 8.66699 18 15.167 28 19.5
s21.667 6.5 35 6.5c24.667 0 45.5 -9 62.5 -27s25.5 -38.333 25.5 -61z" />
    <glyph glyph-name="germandbls" unicode="&#xdf;" horiz-adv-x="829" 
d="M745 268c0 -83.333 -31.3369 -150.002 -94.0039 -200.002c-57.333 -45.333 -127.666 -68 -210.999 -68v-174h-63v174h-268v948h268v127h63v-127h17c40.667 0 75.834 -3.16699 105.501 -9.5s56.5 -16.833 80.5 -31.5c54.667 -34 82 -88.667 82 -164
c0 -31.333 -5.16699 -59.666 -15.5 -84.999s-27.166 -49.333 -50.499 -72c-43.333 -41.333 -97.666 -66 -162.999 -74c66.667 -10 122 -31 166 -63c55.333 -41.333 83 -101.666 83 -180.999zM538.996 722.998c0 83.333 -33 136.668 -99 160.001v-336
c4 0 15.667 6.66699 35 20c19.333 17.333 35 40.666 47 69.999c5.33301 14 9.5 28.333 12.5 43s4.5 29 4.5 43zM376.996 530v361l-80 -8v-353h80zM552.996 260c0 102 -37.668 166.333 -113.001 193v-375c30.667 12 57.334 34.333 80.001 67c10 16 18 33.833 24 53.5
s9 40.167 9 61.5zM376.995 63v404h-80v-404h80z" />
    <glyph glyph-name="agrave" unicode="&#xe0;" horiz-adv-x="430" 
d="M410 117l-162 -129c-38 0 -68.667 10.667 -92 32c-22 24 -33 55 -33 93v706h184v-622c0 -53.333 34.333 -80 103 -80z" />
    <glyph glyph-name="aacute" unicode="&#xe1;" horiz-adv-x="778" 
d="M758 117l-162 -129c-38 0 -68.667 10.667 -92 32c-22 24 -33 55 -33 93v706h184v-622c0 -53.333 34.333 -80 103 -80zM410 117l-162 -129c-38 0 -68.667 10.667 -92 32c-22 24 -33 55 -33 93v706h184v-622c0 -53.333 34.333 -80 103 -80z" />
    <glyph glyph-name="acircumflex" unicode="&#xe2;" horiz-adv-x="430" 
d="M575 1153l-200 -0.00292969c-8 30 -28 57.333 -60 82c-28 22 -60.667 35 -98 39c-28 0 -51.5 -3.66699 -70.5 -11s-29.5 -18.666 -31.5 -33.999c0 -12.667 7.66699 -25 23 -37s39.333 -24.333 72 -37s57 -27.667 73 -45s24 -38.333 24 -63v-850
c0 -53.333 34.333 -80 103 -80l-162 -129c-38 0 -68.667 10.667 -92 32c-22 24 -33 55 -33 93v899c0 48 -32.5 83.833 -97.5 107.5s-97.5 49.834 -97.5 78.501c0 46.667 28 84.334 84 113.001c29.333 13.333 60.5 23.5 93.5 30.5s67.5 10.5 103.5 10.5
c66.667 0 133.667 -16.333 201 -49c31.333 -15.333 60.833 -35.5 88.5 -60.5s53.167 -54.833 76.5 -89.5z" />
    <glyph glyph-name="atilde" unicode="&#xe3;" horiz-adv-x="430" 
d="M471 1167c0 -32.667 -27.333 -65.665 -82 -98.998s-82 -78 -82 -134v-737c0 -53.333 34.333 -80 103 -80l-162 -129c-38 0 -68.667 10.667 -92 32c-22 24 -33 55 -33 93v837c0 40 41.667 88.667 125 146c39.333 24 59 54.667 59 92c0 30.667 -10.667 55.667 -32 75
s-48.666 29 -81.999 29c-30.667 0 -57.834 -7.83301 -81.501 -23.5s-35.5 -37.167 -35.5 -64.5c0 -34.667 15 -61.334 45 -80.001h-180c-23.333 13.333 -35 36 -35 68c0 51.333 28.5 94.166 85.5 128.499s124.167 51.5 201.5 51.5c78 0 143.833 -18.667 197.5 -56
s80.5 -87 80.5 -149z" />
    <glyph glyph-name="adieresis" unicode="&#xe4;" horiz-adv-x="430" 
d="M410 117l-162.001 -129.001c-38 0 -68.667 10.667 -92 32c-22 24 -33 55 -33 93v1030c-5.33301 0 -9.5 -0.166992 -12.5 -0.5s-13.167 -2.83301 -30.5 -7.5c-23.333 -4.66699 -46.666 -7 -69.999 -7c-18 0 -36.333 2.33301 -55 7c-46 8 -81 24.5 -105 49.5
s-36 58.167 -36 99.5c0 10.667 1.33301 20.334 4 29.001c0 12 1.33301 20.667 4 26l168 37c-4.66699 -10 -8.66699 -21 -12 -33s-5 -23.333 -5 -34c0 -24 7.66699 -46 23 -66c12 -16 27.667 -26.333 47 -31l41 -4c34 0 64.667 7.83301 92 23.5s47.333 39.5 60 71.5h71v-1106
c0 -53.333 34.333 -80 103 -80z" />
    <glyph glyph-name="aring" unicode="&#xe5;" horiz-adv-x="672" 
d="M610 -307l-184 -0.00292969v899c0 44 -10.333 82.333 -31 115c-21.333 30 -48.666 45 -81.999 45c-30.667 0 -57.334 -11.667 -80.001 -35c-20 -21.333 -30 -48 -30 -80c0 -11.333 0.833008 -22.666 2.5 -33.999s4.5 -23 8.5 -35s8.83301 -22.167 14.5 -30.5
s14.167 -16.833 25.5 -25.5h-195c-9.33301 8 -16.333 19.5 -21 34.5s-7 34.833 -7 59.5c0 58.667 28.5 110.834 85.5 156.501s126.833 68.5 209.5 68.5c82 0 149.833 -20.667 203.5 -62s80.5 -99.666 80.5 -174.999v-901z" />
    <glyph glyph-name="ae" unicode="&#xe6;" horiz-adv-x="766" 
d="M705 0l-185.001 0.00390625v721h-24c-19.333 0 -38 -7 -56 -21c-14 -10.667 -27.667 -27.667 -41 -51c-15.333 24.667 -32.666 43.5 -51.999 56.5s-41.333 19.5 -66 19.5c-14 0 -27.667 -6.66699 -41 -20c-9.33301 -10.667 -15 -24.334 -17 -41.001
c0 -32.667 9 -54.667 27 -66h-180l-15 18c-7.33301 15.333 -12 34.666 -14 57.999c0 40.667 19 76.667 57 108c19.333 15.333 41 27 65 35s51 12 81 12c20.667 0 37.5 -1.16699 50.5 -3.5s26.167 -6.5 39.5 -12.5c24 -10.667 44.333 -26.334 61 -47.001
c8.66699 7.33301 18 14.166 28 20.499s21.333 12 34 17s26 8.83301 40 11.5s30.667 4 50 4h158v-819z" />
    <glyph glyph-name="ccedilla" unicode="&#xe7;" 
d="M-82 1260c0 -49.333 -19.0029 -86.335 -57.0029 -111.002c-18.667 -10.667 -41.167 -18.834 -67.5 -24.501s-56.5 -8.5 -90.5 -8.5h-12h-27c-10 2 -17.333 3.33301 -22 4l-58 4h-33l-22 -8c-38 -8 -57 -34 -57 -78v-57c28.667 4 51 10 67 18
c26.667 12.667 47.334 34 62.001 64c6 -14 13.833 -26.667 23.5 -38s22.167 -22.666 37.5 -33.999c14 -8 27 -13.333 39 -16s25 -4 39 -4c6.66699 0 12.5 0.666992 17.5 2s10.167 4 15.5 8c6.66699 6.66699 10 16.334 10 29.001c-4 27.333 -23 51 -57 71h157
c19.333 -20.667 29 -47.334 29 -80.001c0 -31.333 -16.333 -57.666 -49 -78.999c-30.667 -18 -68.334 -27 -113.001 -27c-33.333 0 -64.166 3.66699 -92.499 11s-54.833 19.333 -79.5 36c-16 -12 -35.667 -22.333 -59 -31c-25.333 -6.66699 -56.666 -10 -93.999 -10h-117
v133c0 44.667 14.5 78.834 43.5 102.501s70.5 39.5 124.5 47.5l39 2c6 0 16.5 -0.333008 31.5 -1s26.833 -1 35.5 -1c10.667 0 20.834 -0.166992 30.501 -0.5s21.5 -1.5 35.5 -3.5c23.333 0 41.333 1.16699 54 3.5s24 6.5 34 12.5c16 10 24 31.333 24 64h158z" />
    <glyph glyph-name="egrave" unicode="&#xe8;" 
d="M-61 1233h-185v184h185v-184z" />
    <glyph glyph-name="eacute" unicode="&#xe9;" 
d="M63 1432c-14 -59.333 -50.999 -108.334 -110.999 -147.001s-129.333 -58 -208 -58c-56.667 0 -111.334 11 -164.001 33c50.667 10.667 76 35.667 76 75c0 32.667 -25.333 49 -76 49c-9.33301 0 -15.333 -0.666992 -18 -2l137 88c60 -10 94 -42 102 -96
c0 -16 -2 -30.667 -6 -44s-11.333 -24 -22 -32c36 4.66699 65.333 19.334 88 44.001s37 54.667 43 90h159z" />
    <glyph glyph-name="ecircumflex" unicode="&#xea;" 
d="M84 1475l3.99805 -40.9961c0 -26.667 -4.66699 -51.334 -14 -74.001c-8 -25.333 -19.667 -46 -35 -62c-42 -46 -100.667 -69 -176 -69h-15h-10c-4.66699 1.33301 -8 2 -10 2c3.33301 2.66699 7.66602 7.16699 12.999 13.5s9.5 12 12.5 17s6.33301 12.333 10 22
s6 16.667 7 21s1.5 9.16602 1.5 14.499c0 11.333 -2.66699 22.333 -8 33s-15.333 16 -30 16c-15.333 0 -27.5 -4.5 -36.5 -13.5s-17.167 -20.833 -24.5 -35.5c-2 6 -5 11.667 -9 17c-1.33301 2 -6.66602 8 -15.999 18c-9.33301 7.33301 -22.333 12 -39 14
c-10.667 0 -20 -6 -28 -18c-3.33301 -6.66699 -5.5 -12 -6.5 -16s-1.5 -9 -1.5 -15c0.666992 -5.33301 1 -9.33301 1 -12c0 -8.66699 1 -16.167 3 -22.5s6.66699 -13.833 14 -22.5c6.66699 -10.667 15.334 -20.334 26.001 -29.001h-131c-12 10 -21.5 23.333 -28.5 40
s-10.5 36 -10.5 58c0 33.333 12.667 62.166 38 86.499s56.333 36.5 93 36.5c26.667 0 47.334 -4.66699 62.001 -14c15.333 -7.33301 27 -18.333 35 -33c8.66699 13.333 21 23.666 37 30.999c14 8 33 12 57 12c29.333 0 52 -9 68 -27c16 -16 24 -39 24 -69
c0 -5.33301 -0.166992 -11.166 -0.5 -17.499s-2.83301 -15.5 -7.5 -27.5c26 22 39 52.667 39 92c0 14.667 -1.66699 28 -5 40s-9.33301 23.333 -18 34h115z" />
    <glyph glyph-name="edieresis" unicode="&#xeb;" 
d="M27 1321h-99v-88h-164v88h-98v92h98v88h164v-88h99v-92z" />
    <glyph glyph-name="igrave" unicode="&#xec;" 
d="M27 1440c0 -47.333 -15.001 -89.667 -45.001 -127c-21.333 -25.333 -53 -46.666 -95 -63.999c-3.33301 11.333 -10 21 -20 29c-6.66699 2.66699 -17 4 -31 4c-5.33301 0 -10.666 -4.66699 -15.999 -14c-2.66699 -5.33301 -4 -14.333 -4 -27c0 -10.667 4 -23.667 12 -39
c8 -12 16.333 -20 25 -24h-156c-6 2.66699 -13.667 12.667 -23 30c-2 5.33301 -4 13.666 -6 24.999s-3.33301 19.333 -4 24c0 32 14 59.833 42 83.5s60.333 35.5 97 35.5c18 0 33 -2.16699 45 -6.5s24.333 -10.833 37 -19.5c5.33301 7.33301 9 22.333 11 45
c0 8.66699 -0.666992 16.5 -2 23.5s-4.33301 14.167 -9 21.5h142z" />
    <glyph glyph-name="iacute" unicode="&#xed;" 
d="M0 1036c0 -40 -14.832 -73.833 -44.499 -101.5s-66.167 -41.5 -109.5 -41.5c-40.667 0 -76.334 13.833 -107.001 41.5s-46 61.5 -46 101.5c0 40.667 15 75 45 103c14.667 13.333 31 23.5 49 30.5s37.667 10.5 59 10.5c40.667 0 77 -13.667 109 -41
c30 -28 45 -62.333 45 -103zM-91.999 1036c0 16.667 -6.33203 30.999 -18.999 42.999c-12 12.667 -26.333 19 -43 19c-16 0 -30.167 -6.16699 -42.5 -18.5s-18.5 -26.833 -18.5 -43.5c0 -15.333 6 -29.666 18 -42.999c13.333 -12 27.666 -18 42.999 -18
c16.667 0 31.167 6.16699 43.5 18.5s18.5 26.5 18.5 42.5z" />
    <glyph glyph-name="icircumflex" unicode="&#xee;" 
d="M27 1446c-8 0 -22.334 -0.333008 -43.001 -1s-37.334 -1 -50.001 -1c-35.333 0 -69.333 -4.66699 -102 -14c-18 -4.66699 -32.667 -9 -44 -13s-23.666 -9.66699 -36.999 -17s-21 -16.666 -23 -27.999c0 -14 9.33301 -24.333 28 -31c8 -2 19 -3.83301 33 -5.5
s26.333 -2.5 37 -2.5h18h4v-94h-12l-33 2c-12.667 0 -24.834 -0.166992 -36.501 -0.5s-21.834 -1.5 -30.501 -3.5c-17.333 0 -38.666 -4.66699 -63.999 -14c-24 -6 -43.333 -15.333 -58 -28s-20.334 -26 -17.001 -40c4 -10.667 17.667 -16 41 -16
c8.66699 0 18.334 0.833008 29.001 2.5s21.834 4 33.501 7s22.167 6.83301 31.5 11.5s18.666 10.667 27.999 18l54 -91l-56 -24c-22.667 -8 -45.167 -14.5 -67.5 -19.5s-41.5 -7.5 -57.5 -7.5h-12c-4 0 -8.66699 0.666992 -14 2c-41.333 4 -74.166 16.833 -98.499 38.5
s-36.5 46.5 -36.5 74.5c0 26.667 8.5 52 25.5 76s38.5 41.667 64.5 53c10.667 5.33301 22 10.166 34 14.499s23 7.83301 33 10.5c-18.667 16.667 -28 39 -28 67c0 24.667 13 52 39 82c11.333 14 24.833 26.333 40.5 37s32.834 19.667 51.501 27c30 11.333 72.333 20 127 26
l137 8h27h4v-106z" />
    <glyph glyph-name="idieresis" unicode="&#xef;" horiz-adv-x="963" 
d="M901 410c0 -114 -40.998 -212.5 -122.998 -295.5s-181 -124.5 -297 -124.5c-114 0 -212.5 41 -295.5 123s-124.5 181 -124.5 297c0 114 41.167 212.333 123.5 295s181.166 124 296.499 124c113.333 0 211.666 -40.833 294.999 -122.5s125 -180.5 125 -296.5zM840.002 410
c0 98.667 -35.5 182.999 -106.5 252.999s-155.167 105 -252.5 105c-98 0 -182.167 -35.333 -252.5 -106s-105.5 -154.667 -105.5 -252c0 -98 34.833 -182.333 104.5 -253s154.167 -106 253.5 -106c98.667 0 182.667 35 252 105c35.333 35.333 62 73.833 80 115.5
s27 87.834 27 138.501zM737.002 409.999c0 -69.333 -24.833 -129.333 -74.5 -180s-110.167 -76 -181.5 -76c-68.667 0 -128.5 24.5 -179.5 73.5s-76.5 109.833 -76.5 182.5c0 68.667 24.667 128.667 74 180c24 24 51.333 42.667 82 56s64 20 100 20
c69.333 0 129.333 -25.167 180 -75.5s76 -110.5 76 -180.5z" />
    <glyph glyph-name="eth" unicode="&#xf0;" horiz-adv-x="825" 
d="M784 307c0 -46 -8.16797 -87.666 -24.501 -124.999s-42.166 -71.333 -77.499 -102c-67.333 -61.333 -157.333 -92 -270 -92c-57.333 0 -107.833 7.16699 -151.5 21.5s-83.5 37.166 -119.5 68.499c-32.667 30.667 -57.5 65 -74.5 103s-25.5 80 -25.5 126
c0 90.667 34.167 166.667 102.5 228s157.833 92 268.5 92c108 0 197 -30.167 267 -90.5s105 -136.833 105 -229.5zM599.999 307.001c0 37.333 -3.99902 69.833 -11.999 97.5s-21.667 53.167 -41 76.5c-35.333 45.333 -80.333 68 -135 68c-52.667 0 -97 -22.333 -133 -67
s-54 -103 -54 -175c0 -70 17 -128.667 51 -176c35.333 -43.333 80.666 -65 135.999 -65c52 0 96.333 22.333 133 67s55 102.667 55 174z" />
    <glyph glyph-name="ntilde" unicode="&#xf1;" horiz-adv-x="850" 
d="M809 303c0 -71.333 -21.3359 -137.667 -64.0029 -199c-17.333 -25.333 -37.166 -48 -59.499 -68s-48.833 -38 -79.5 -54h-172c66 28 115.333 73.667 148 137c12 24 21.5 51.5 28.5 82.5s10.5 62.833 10.5 95.5c0 66.667 -18 125.334 -54 176.001s-83 76 -141 76
c-55.333 0 -103.666 -24.667 -144.999 -74c-18.667 -24.667 -32.667 -50.667 -42 -78s-14 -58 -14 -92c0 -62.667 12.5 -117.5 37.5 -164.5s55.5 -70.5 91.5 -70.5c10 0 19 4 27 12c6.66699 8.66699 10 25 10 49c0 14.667 -4.66699 30.334 -14 47.001
c-7.33301 16 -21 31 -41 45l164 41c21.333 -25.333 32 -58 32 -98c0 -42.667 -20.667 -82.667 -62 -120s-89.333 -56 -144 -56c-40.667 0 -77.834 6.66699 -111.501 20s-64.167 34.666 -91.5 63.999c-54.667 56.667 -82 125.667 -82 207c0 93.333 37.833 174.333 113.5 243
s166.834 103 273.501 103s196.834 -30.333 270.501 -91s110.5 -138.334 110.5 -233.001z" />
    <glyph glyph-name="ograve" unicode="&#xf2;" horiz-adv-x="1016" 
d="M975 350c0 -141.333 -37.001 -239 -111.001 -293c-62.667 -44.667 -182 -67 -358 -67c-187.333 0 -310 31.5 -368 94.5s-87 193.833 -87 392.5v49v23.5c0 7.66699 0.666992 16.167 2 25.5c0 30 -1.16699 54.167 -3.5 72.5s-6.5 36.5 -12.5 54.5c-14 46 -42 85 -84 117
h229c17.333 -18.667 30.166 -44.167 38.499 -76.5s12.5 -69.5 12.5 -111.5c0 -9.33301 -0.333008 -23.666 -1 -42.999s-1 -34.333 -1 -45v-22v-41c-2 -12 -3.33301 -21 -4 -27c0 -144.667 18.333 -243.334 55 -296.001s112.667 -79 228 -79c101.333 0 172.333 14.333 213 43
c43.333 33.333 65 96.666 65 189.999c0 59.333 -4 106.666 -12 141.999c-12 51.333 -33.667 77 -65 77c-30 0 -56.667 -25 -80 -75c-28 54.667 -65.667 82 -113 82c-26.667 0 -48.667 -16.5 -66 -49.5s-26 -68.5 -26 -106.5c0 -44 5.33301 -81.667 16 -113
c12.667 -32 30 -47 52 -45c10 0 18 6.33301 24 19c1.33301 4 2.33301 10.667 3 20s1 17.666 1 24.999c0 14.667 -5.33301 27.667 -16 39c-7.33301 9.33301 -19.666 19.333 -36.999 30l137 54c6 -6.66699 11.667 -14 17 -22s10.5 -18.5 15.5 -31.5s7.5 -27.5 7.5 -43.5
c0 -7.33301 -0.333008 -12.666 -1 -15.999c-4 -37.333 -27.167 -74.666 -69.5 -111.999s-85.5 -56 -129.5 -56c-54 0 -99.5 23 -136.5 69s-55.5 100 -55.5 162c0 36 5.16699 69.667 15.5 101s26.833 62 49.5 92c46 57.333 105 86 177 86c34 0 60.333 -4.66699 79 -14
c19.333 -8 36.666 -20.333 51.999 -37c8.66699 10.667 26.334 22.334 53.001 35.001c26.667 10.667 51.334 16 74.001 16c68 0 123.333 -31.333 166 -94c36.667 -54 55 -119 55 -195z" />
    <glyph glyph-name="oacute" unicode="&#xf3;" horiz-adv-x="838" 
d="M797 297c0 -60.667 -6.99902 -116.669 -20.999 -168.002c-12.667 -56 -27.667 -99 -45 -129h-188c48.667 97.333 73 194.333 73 291c0 55.333 -4 101.666 -12 138.999c-12 56 -35 84 -69 84c-17.333 0 -34.333 -7.33301 -51 -22s-30 -32.667 -40 -54
c-4.66699 10 -9.66699 18.833 -15 26.5s-12.333 16.834 -21 27.501c-17.333 16.667 -38 26 -62 28c-32 0 -59.333 -23 -82 -69c-10.667 -23.333 -18.834 -47.833 -24.501 -73.5s-8.5 -52.5 -8.5 -80.5c0 -57.333 7 -108.666 21 -153.999c12 -43.333 33 -65 63 -65
c15.333 0 23 14.333 23 43c0 44 -17 85 -51 123l159 43c14 -31.333 21 -62.666 21 -93.999c0 -29.333 -4 -55.333 -12 -78s-21.667 -45.334 -41 -68.001c-33.333 -39.333 -78.333 -59 -135 -59c-74 0 -132.167 30.833 -174.5 92.5s-63.5 136.5 -63.5 224.5
c0 82 26.833 156.167 80.5 222.5s121.167 99.5 202.5 99.5c18.667 0 33.5 -1 44.5 -3s21.833 -6.66699 32.5 -14c18.667 -10 33.667 -25 45 -45c12 18 28.5 32.833 49.5 44.5s46.833 17.5 77.5 17.5c68 0 122.333 -33.167 163 -99.5s61 -143.166 61 -230.499z" />
    <glyph glyph-name="ocircumflex" unicode="&#xf4;" horiz-adv-x="825" 
d="M825 55l-146.996 -75.001c-22 39.333 -54.667 59 -98 59c-27.333 0 -62.833 -8.16699 -106.5 -24.5s-82.834 -24.5 -117.501 -24.5c-48 0 -90.333 6.16699 -127 18.5s-70 32.166 -100 59.499c-58.667 54.667 -88 128.334 -88 221.001c0 68.667 18.333 130.667 55 186
s87.334 96.333 152.001 123c14 4.66699 34 9.66699 60 15l44 8c20.667 2 36 3.33301 46 4c30 2.66699 55.667 4 77 4c106.667 0 160 49.667 160 149c0 5.33301 -0.166992 10.666 -0.5 15.999s-1.5 13.666 -3.5 24.999h188c0 -96 -29.333 -167 -88 -213
c-46.667 -36.667 -113 -55 -199 -55c-54 0 -95.333 -2.66699 -124 -8c-29.333 -4 -58 -15 -86 -33c-13.333 -6.66699 -25.833 -17 -37.5 -31s-21.667 -31.333 -30 -52s-15 -41.834 -20 -63.501s-7.5 -42.5 -7.5 -62.5c0 -61.333 17.167 -112.833 51.5 -154.5
s76.833 -62.5 127.5 -62.5c12 0 20 0.666992 24 2c-16.667 12.667 -31.667 30.334 -45 53.001c-10.667 22.667 -16 46 -16 70c0 10.667 1.33301 22.334 4 35.001c8 36.667 28.167 67.334 60.5 92.001s70.166 37 113.499 37c40 0 75.833 -12.833 107.5 -38.5
s47.5 -60.834 47.5 -105.501l-116 -45c0 19.333 -0.833008 34.166 -2.5 44.499s-5.83398 20.833 -12.501 31.5c-12 19.333 -29.667 29 -53 29c-13.333 0 -20 -13.667 -20 -41c0 -31.333 9.33301 -56.666 28 -75.999c9.33301 -8.66699 20.666 -16.167 33.999 -22.5
s28.666 -11.166 45.999 -14.499c0.666992 0 14.834 -1.33301 42.501 -4s47.167 -4.66699 58.5 -6c23.333 0 45.666 -7 66.999 -21c20 -9.33301 37 -25.666 51 -48.999z" />
    <glyph glyph-name="otilde" unicode="&#xf5;" horiz-adv-x="825" 
d="M825 55l-146.995 -75c-22 39.333 -54.667 59 -98 59c-27.333 0 -62.833 -8.16699 -106.5 -24.5s-82.834 -24.5 -117.501 -24.5c-48 0 -90.333 6.16699 -127 18.5s-70 32.166 -100 59.499c-58.667 54.667 -88 128.334 -88 221.001c0 68.667 18.333 130.667 55 186
s87.334 96.333 152.001 123l49 14c-12.667 9.33301 -23.667 19.666 -33 30.999c-12 16 -18 34.333 -18 55c0 40 15 73 45 99c14 12 30.167 21.5 48.5 28.5s38.166 10.5 59.499 10.5c45.333 0 85 -10.667 119 -32s51 -51 51 -89c0 -32 -10.667 -58.667 -32 -80
c65.333 16 98 63.667 98 143c0 5.33301 -0.166992 10.666 -0.5 15.999s-1.5 13.666 -3.5 24.999h188c0 -96 -29.333 -167 -88 -213c-46.667 -36.667 -113 -55 -199 -55c-54 0 -95.333 -2.66699 -124 -8c-29.333 -4 -58 -15 -86 -33c-13.333 -6.66699 -25.833 -17 -37.5 -31
s-21.667 -31.333 -30 -52s-15 -41.834 -20 -63.501s-7.5 -42.5 -7.5 -62.5c0 -61.333 17.167 -112.833 51.5 -154.5s76.833 -62.5 127.5 -62.5c12 0 20 0.666992 24 2c-16.667 12.667 -31.667 30.334 -45 53.001c-10.667 22.667 -16 46 -16 70
c0 10.667 1.33301 22.334 4 35.001c8 36.667 28.167 67.334 60.5 92.001s70.166 37 113.499 37c40 0 75.833 -12.833 107.5 -38.5s47.5 -60.834 47.5 -105.501l-116 -45c0 19.333 -0.833008 34.166 -2.5 44.499s-5.83398 20.833 -12.501 31.5c-12 19.333 -29.667 29 -53 29
c-13.333 0 -20 -13.667 -20 -41c0 -31.333 9.33301 -56.666 28 -75.999c9.33301 -8.66699 20.666 -16.167 33.999 -22.5s28.666 -11.166 45.999 -14.499c0.666992 0 14.834 -1.33301 42.501 -4s47.167 -4.66699 58.5 -6c23.333 0 45.666 -7 66.999 -21
c20 -9.33301 37 -25.666 51 -48.999zM457.005 702c0 40 -17 59.999 -51 59.999c-12 0 -23.667 -7 -35 -21c-8.66699 -11.333 -13 -25.666 -13 -42.999c0 -18 4.5 -33.333 13.5 -46s22.5 -19 40.5 -19c12 0 22.5 6.5 31.5 19.5s13.5 29.5 13.5 49.5z" />
    <glyph glyph-name="odieresis" unicode="&#xf6;" horiz-adv-x="772" 
d="M731 336c0 -98 -37.1689 -180.169 -111.502 -246.502s-168.166 -99.5 -281.499 -99.5c-39.333 0 -74 3 -104 9s-59.667 16.667 -89 32c-53.333 26 -88 67 -104 123l-4 26c0 40.667 18.167 78.167 54.5 112.5s77.5 51.5 123.5 51.5s83 -12.5 111 -37.5
s45 -58.833 51 -101.5l-127 -39c0 27.333 -6.5 50.333 -19.5 69s-27.833 27 -44.5 25c-12 -2 -18 -17 -18 -45v-16l4 -15c8 -26 24.833 -50.833 50.5 -74.5s55.834 -35.5 90.501 -35.5c67.333 0 123.166 24.5 167.499 73.5s66.5 107.167 66.5 174.5
c0 54.667 -17 102.667 -51 144s-79.333 62 -136 62c-34.667 0 -63.5 -0.666992 -86.5 -2s-41.833 -4 -56.5 -8c-54 -12 -97 -38 -129 -78c8 33.333 12 69 12 107c0 26.667 -2.16699 51.167 -6.5 73.5s-11.5 45.5 -21.5 69.5c-18.667 45.333 -51.667 88.333 -99 129h215
c32 -40 48 -91.667 48 -155c0 -11.333 -0.833008 -22.666 -2.5 -33.999s-3.16699 -20.666 -4.5 -27.999c18 8 44.333 16.167 79 24.5s66.334 12.5 95.001 12.5c91.333 0 169.333 -28.667 234 -86c30.667 -28 54 -59.833 70 -95.5s24 -76.167 24 -121.5z" />
    <glyph glyph-name="divide" unicode="&#xf7;" horiz-adv-x="1063" 
d="M1094 819c-33.333 -28 -55.667 -62.6699 -67 -104.003s-17 -88 -17 -140v-47v-20.5c0 -6.33301 0.666992 -14.5 2 -24.5c0 -150.667 -21.667 -261.167 -65 -331.5s-118.666 -120.833 -225.999 -151.5h-178c12.667 26 23.5 50.833 32.5 74.5s16.5 47.167 22.5 70.5
c12 45.333 18 94 18 146c0 55.333 -4 101.666 -12 138.999c-12 56 -35 84 -69 84c-17.333 0 -34.333 -7.33301 -51 -22s-30 -32.667 -40 -54c-4.66699 10 -9.66699 18.833 -15 26.5s-12.333 16.834 -21 27.501c-17.333 16.667 -38 26 -62 28c-32 0 -59.333 -23 -82 -69
c-10.667 -23.333 -18.834 -47.833 -24.501 -73.5s-8.5 -52.5 -8.5 -80.5c0 -57.333 7 -108.666 21 -153.999c12 -43.333 33 -65 63 -65c15.333 0 23 14.333 23 43c0 44 -17 85 -51 123l159 43c14 -31.333 21 -62.666 21 -93.999c0 -29.333 -4 -55.333 -12 -78
s-21.667 -45.334 -41 -68.001c-33.333 -39.333 -78.333 -59 -135 -59c-37.333 0 -70.5 7.66699 -99.5 23s-54.167 39 -75.5 71c-42 62.667 -63 138.334 -63 227.001c0 84 26.667 158 80 222s121 96 203 96c18.667 0 33.5 -1 44.5 -3s21.833 -6.66699 32.5 -14
c18.667 -10 33.667 -25 45 -45c12 18 28.5 32.833 49.5 44.5s46.833 17.5 77.5 17.5c69.333 0 124 -29.833 164 -89.5s60 -133.167 60 -220.5c0 -22.667 -1.66699 -44.667 -5 -66s-9.33301 -43.666 -18 -66.999c-8 -27.333 -20.333 -55.333 -37 -84
c36 8.66699 63.833 37.167 83.5 85.5s29.5 109.5 29.5 183.5c0 31.333 -2 62.666 -6 93.999l-4 61l-6 94c0 48 4 88.833 12 122.5s23.667 59.834 47 78.501h201z" />
    <glyph glyph-name="oslash" unicode="&#xf8;" horiz-adv-x="827" 
d="M799 819l2.00098 -30.9961c0 -12 0.666992 -20.667 2 -26c0 -81.333 -28.667 -138.666 -86 -171.999c-48.667 -26 -128 -39 -238 -39c-155.333 0 -233 -48.333 -233 -145v-306c34.667 4 66.667 17 96 39c14 10.667 27.167 24 39.5 40s24.5 35.667 36.5 59
c16 -46.667 41.333 -85.667 76 -117c31.333 -28.667 65.333 -43 102 -43c17.333 0 29 6.66699 35 20c1.33301 5.33301 2.33301 12.833 3 22.5s1 17.834 1 24.501c-2 11.333 -4.66699 22.166 -8 32.499s-8.33301 20.166 -15 29.499c-14.667 23.333 -35 43.666 -61 60.999h197
c4.66699 -6.66699 9.5 -15.334 14.5 -26.001s9.5 -21.834 13.5 -33.501s6.66699 -22.667 8 -33s2 -21.833 2 -34.5c0 -49.333 -17.333 -87.166 -52 -113.499s-78.667 -39.5 -132 -39.5c-44.667 0 -84.5 6.16699 -119.5 18.5s-66.833 32.166 -95.5 59.499
c-9.33301 -8 -21.333 -16.333 -36 -25c-10.667 -6.66699 -25.334 -14.334 -44.001 -23.001c-28 -12 -63.333 -18 -106 -18h-140v379c0 82.667 32.833 144.667 98.5 186s159.167 62 280.5 62c66.667 0 112.667 9.33301 138 28c12.667 10.667 22.167 24.5 28.5 41.5
s9.5 37.5 9.5 61.5l-2 33v12c0 4 -0.666992 9.33301 -2 16h187z" />
    <glyph glyph-name="ugrave" unicode="&#xf9;" horiz-adv-x="827" 
d="M870 819l2.00293 -36.9961c0 -59.333 -12.667 -115.333 -38 -168c-28.667 -58.667 -70.334 -102.334 -125.001 -131.001c-5.33301 7.33301 -10.333 13.166 -15 17.499s-11.334 8.83301 -20.001 13.5c-12 8 -27.667 12 -47 12c-12.667 0 -23 -1.33301 -31 -4
c-7.33301 0 -17.666 -8 -30.999 -24c-6 -8.66699 -10.167 -16.334 -12.5 -23.001s-3.5 -15 -3.5 -25c0 -6.66699 1.33301 -13.334 4 -20.001l68 -184c20 -59.333 48 -112 84 -158c32 -45.333 66 -74.666 102 -87.999h-215c-29.333 23.333 -57.333 61 -84 113
c-17.333 35.333 -35.666 83 -54.999 143c-22.667 66.667 -40.667 110.334 -54 131.001c-24.667 46.667 -55.334 70 -92.001 70c-25.333 0 -45.666 -13.667 -60.999 -41c-19.333 -35.333 -29 -85.333 -29 -150c0 -40.667 8.16699 -79.834 24.5 -117.501
s37.5 -54.5 63.5 -50.5c7.33301 0 12 9 14 27c0 17.333 -5 34.833 -15 52.5s-24 29.5 -42 35.5l137 47c8 -9.33301 15 -23 21 -41c2 -8 3.33301 -14.667 4 -20s2 -17 4 -35c0 -22.667 -4 -43.334 -12 -62.001s-21.667 -37.667 -41 -57c-35.333 -35.333 -78.333 -53 -129 -53
c-61.333 0 -110.833 28.5 -148.5 85.5s-56.5 124.167 -56.5 201.5c0 37.333 5.66699 71.833 17 103.5s29.666 61.167 54.999 88.5c50 56 113.333 84 190 84l23 2c13.333 0 25.666 -0.666992 36.999 -2s22 -4 32 -8c11.333 -2 21.166 -4.66699 29.499 -8
s16.5 -8.33301 24.5 -15c0 21.333 7.33301 43.333 22 66c21.333 28.667 44 45 68 49l47 8c24 0 45 -4 63 -12c9.33301 -2.66699 18.333 -6.33398 27 -11.001s16.667 -10.667 24 -18c7.33301 24 11 51.333 11 82c0 20 -0.5 33.333 -1.5 40s-3.5 16 -7.5 28
c-2 10 -5.16699 20.333 -9.5 31s-9.83301 21.334 -16.5 32.001h194z" />
    <glyph glyph-name="uacute" unicode="&#xfa;" horiz-adv-x="971" 
d="M909 0l-102.001 -0.00195312v618c-7.33301 -4.66699 -17.5 -9.66699 -30.5 -15s-25.5 -9.66602 -37.5 -12.999c-6.66699 0 -18 -2 -34 -6v-584h-185v614c-40 -28 -72 -47 -96 -57c-20 -8 -42.667 -14.5 -68 -19.5s-51 -7.5 -77 -7.5c-64.667 0 -120.5 15.833 -167.5 47.5
s-70.5 73.167 -70.5 124.5c0 22.667 4.5 44.5 13.5 65.5s20.833 38.167 35.5 51.5h205c-18.667 -12 -33.667 -27.667 -45 -47c-7.33301 -14.667 -12 -33.667 -14 -57c0 -25.333 10 -46.666 30 -63.999c10 -6 22.333 -10.833 37 -14.5s30.334 -5.5 47.001 -5.5
c46 0 85.833 18.333 119.5 55s50.5 81 50.5 133h185v-168c22 11.333 39 22.333 51 33c16 16.667 28.5 36.5 37.5 59.5s13.5 48.167 13.5 75.5h102v-819z" />
    <glyph glyph-name="ucircumflex" unicode="&#xfb;" horiz-adv-x="1495" 
d="M1495 434c0 -24 -21.0049 -38.9961 -63.0049 -44.9961l-168 -16c-4 -14.667 -11.667 -27.667 -23 -39c-6.66699 -6.66699 -17.667 -11.667 -33 -15c-6 0 -15.333 10.333 -28 31l-27 53c-3.33301 -13.333 -7.16602 -26 -11.499 -38s-8.83301 -21.667 -13.5 -29
c-11.333 -24 -25 -37 -41 -39c-9.33301 0 -20.666 13.667 -33.999 41l-33 70c-4.66699 -21.333 -10.167 -40.333 -16.5 -57s-13.166 -31.334 -20.499 -44.001c-12 -20 -24.333 -31 -37 -33c-13.333 0 -25.666 15 -36.999 45l-11.5 41.5
c-3.66699 13 -9.16699 29.5 -16.5 49.5c-14.667 -52.667 -29 -91 -43 -115c-17.333 -30 -37.333 -45 -60 -45c-28.667 0 -47.667 19.667 -57 59l-16 86c-22 -67.333 -40.667 -114.333 -56 -141c-12 -26.667 -29 -52 -51 -76c-73.333 -79.333 -155.333 -119 -246 -119
c-83.333 0 -153 33 -209 99c-26.667 33.333 -47 71 -61 113s-21 89.667 -21 143c0 101.333 25.167 186.333 75.5 255s114.833 103 193.5 103c64.667 0 119 -24.667 163 -74s66 -112.666 66 -189.999c0 -56.667 -14.333 -105.334 -43 -146.001
c-14.667 -18.667 -30.834 -32.834 -48.501 -42.501s-37.5 -14.5 -59.5 -14.5c-37.333 0 -69.666 13.667 -96.999 41c-12 13.333 -21.5 28.666 -28.5 45.999s-10.5 36.333 -10.5 57c0 40 12.667 74.5 38 103.5s57.333 43.5 96 43.5h10c-15.333 44 -43.333 66 -84 66
s-75.667 -24.667 -105 -74c-13.333 -24 -23.5 -51.167 -30.5 -81.5s-10.5 -63.833 -10.5 -100.5c0 -71.333 16.333 -129.166 49 -173.499s76 -66.5 130 -66.5c60.667 0 114 31.833 160 95.5s77 149.167 93 256.5c5.33301 38.667 13 64 23 76c8 12 23.667 18 47 18
c18 0 36.333 -15.667 55 -47c6.66699 -10.667 14 -25.334 22 -44.001s16.667 -40 26 -64l2 71c0 8.66699 0.833008 16.667 2.5 24s4.16699 14.333 7.5 21c8 12.667 22.333 19 43 19c16.667 0 33 -12.333 49 -37c16.667 -23.333 32.334 -53.333 47.001 -90
c2 24.667 6.83301 45.334 14.5 62.001s17.834 26 30.501 28c13.333 0 29.666 -13 48.999 -39c5.33301 -6.66699 11.666 -16.334 18.999 -29.001c5.33301 -8.66699 14 -24.334 26 -47.001c4 16 11 34.667 21 56c8 20 18.333 30 31 30c6.66699 0 17.334 -9.33301 32.001 -28
l39 -58l21 33c8 15.333 17.333 23 28 23l179 -17c42 -4 63 -19 63 -45zM454.995 453.004c0 14.667 -5.00098 26.667 -15.001 36c-7.33301 8 -18.666 13 -33.999 15c-32 0 -48 -17 -48 -51c0 -34.667 16 -52 48 -52c32.667 0 49 17.333 49 52z" />
    <glyph glyph-name="udieresis" unicode="&#xfc;" 
d="M-61 -639l-185.002 -0.000976562v166c0 19.333 -4 39 -12 59c-7.33301 15.333 -23.666 30.333 -48.999 45h203c14 -10.667 25.333 -25 34 -43c2.66699 -10.667 4.83398 -20.667 6.50098 -30s2.5 -19.666 2.5 -30.999v-166z" />
    <glyph glyph-name="yacute" unicode="&#xfd;" 
d="M-61 -514c0 -38.667 -21.5029 -71.833 -64.5029 -99.5s-96.833 -41.5 -161.5 -41.5c-69.333 0 -124.166 10.5 -164.499 31.5s-60.5 54.167 -60.5 99.5v51c0 19.333 -4 39 -12 59c-7.33301 15.333 -23.666 30.333 -48.999 45h186c16.667 -10 27.334 -22.5 32.001 -37.5
s7 -35.167 7 -60.5v-65c0 -9.33301 1.16699 -17 3.5 -23s6.83301 -12.5 13.5 -19.5s18 -11.5 34 -13.5c34 0 51 18.667 51 56v163h185v-145z" />
    <glyph glyph-name="thorn" unicode="&#xfe;" 
d="M-49 -469c0 -27.333 -9.83301 -50.833 -29.5 -70.5s-44.834 -29.5 -75.501 -29.5c-15.333 0 -28.833 2.16699 -40.5 6.5s-22.5 11.5 -32.5 21.5c-20.667 18.667 -31 42.667 -31 72c0 25.333 10.333 49.333 31 72c18.667 18.667 43 28 73 28
c30.667 0 55.334 -9.33301 74.001 -28c20.667 -18.667 31 -42.667 31 -72z" />
    <glyph glyph-name="ydieresis" unicode="&#xff;" horiz-adv-x="1057" 
d="M1026 489c0 -142 -48.668 -263.499 -146.001 -364.499s-214.666 -151.5 -351.999 -151.5c-136.667 0 -253.667 49.667 -351 149s-146 221.666 -146 366.999c0 72.667 11.833 138.667 35.5 198s60 114 109 164s102.667 87.5 161 112.5s122.166 37.5 191.499 37.5
c136.667 0 253.834 -49.5 351.501 -148.5s146.5 -220.167 146.5 -363.5zM939.999 489.001c0 122 -39.498 225 -118.498 309s-176.833 126 -293.5 126c-114.667 0 -211.834 -42 -291.501 -126s-119.5 -187 -119.5 -309c0 -120.667 39.167 -223.5 117.5 -308.5
s176.166 -127.5 293.499 -127.5c114.667 0 212 42.5 292 127.5s120 187.833 120 308.5zM764.001 201.001l-64 4.00098l-65 -4l-150 270h-24v-270l-55 4l-58 -4v575h215c105.333 0 158 -45.667 158 -137c0 -20.667 -2.83301 -39.334 -8.5 -56.001
s-14.5 -31.334 -26.5 -44.001c-20.667 -23.333 -52 -40.666 -94 -51.999l40 -71c8.66699 -16 17.667 -31.667 27 -47l37 -56l37 -59zM596.001 618.002c0 44.667 -9.00098 75 -27.001 91c-5.33301 3.33301 -10.666 6 -15.999 8c-12 4 -27.667 6 -47 6h-45v-225
c4 -0.666992 8 -1 12 -1h12c74 0 111 40.333 111 121z" />
    <glyph glyph-name="OE" unicode="&#x152;" 
d="M84 1143c-20.667 -69.333 -66.332 -126.998 -136.999 -172.998s-151.334 -69 -242.001 -69c-61.333 0 -124 12.333 -188 37c25.333 4 46.333 15.667 63 35c16.667 16 25 34.333 25 55c0 13.333 -9 25.666 -27 36.999c-8 6 -17.5 10.833 -28.5 14.5s-22.5 5.5 -34.5 5.5
c-10 0 -16.333 -0.666992 -19 -2l162 105c36 -4 65.333 -18.333 88 -43c10.667 -10.667 18.834 -22.334 24.501 -35.001s8.5 -27 8.5 -43c0 -6.66699 -0.833008 -14 -2.5 -22s-4.16699 -16.333 -7.5 -25c-9.33301 -16 -18.333 -27.667 -27 -35
c41.333 4 76.666 21.667 105.999 53c24.667 28 40.667 63 48 105h188z" />
    <glyph glyph-name="oe" unicode="&#x153;" 
d="M-170 1432c-14 -59.333 -51.166 -108.334 -111.499 -147.001s-129.5 -58 -207.5 -58c-56.667 0 -111.334 11 -164.001 33c50 10 75 35 75 75c0 32.667 -25 49 -75 49c-10 0 -16.333 -0.666992 -19 -2l137 88c60.667 -10 95 -42 103 -96c0 -16 -2 -30.5 -6 -43.5
s-11.667 -23.833 -23 -32.5c36.667 4.66699 66.667 19.667 90 45c21.333 22.667 35 52.334 41 89.001h160z" />
    <glyph glyph-name="Scaron" unicode="&#x160;" 
d="M-225 1210c0 -59.333 -18.0029 -109.003 -54.0029 -149.003c-26 -30.667 -62 -55.334 -108 -74.001c-2 10 -8.33301 19 -19 27c-14 10 -28.333 14 -43 12c-16 -3.33301 -24 -19.666 -24 -48.999c0 -7.33301 1 -14.666 3 -21.999s5.66699 -15 11 -23
c8 -14.667 18.333 -25 31 -31h-184c-26 18 -39 50 -39 96c0 40 17 73 51 99c16.667 13.333 34.334 23.5 53.001 30.5s38.667 10.5 60 10.5c10.667 0 20.334 -0.666992 29.001 -2s17.334 -4.33301 26.001 -9c14 -4 27.667 -11.333 41 -22c7.33301 14.667 12 32.334 14 53.001
c0 16.667 -4.66699 34.334 -14 53.001h166z" />
    <glyph glyph-name="scaron" unicode="&#x161;" 
d="M-301 1260c0 -50 -17 -86.998 -51 -110.998c-16 -10.667 -36.333 -18.834 -61 -24.501s-52.334 -8.5 -83.001 -8.5l-45 2c-18.667 0 -39 2 -61 6c-15.333 0 -36.666 -4 -63.999 -12c-24 -6 -36 -30.667 -36 -74v-57c24.667 4 45 10 61 18
c25.333 13.333 43.666 34.666 54.999 63.999c10 -28.667 28.667 -52.667 56 -72c11.333 -7.33301 22.666 -12.5 33.999 -15.5s23.333 -4.5 36 -4.5c4 0 10.667 2 20 6c12 8 18 19 18 33c-4 28.667 -21.667 52.334 -53 71.001h143c8.66699 -8.66699 15 -20.5 19 -35.5
s6 -29.833 6 -44.5c0 -34 -14 -60.167 -42 -78.5s-62.667 -27.5 -104 -27.5c-30 0 -57.667 3.66699 -83 11s-48.666 19.333 -69.999 36c-31.333 -27.333 -77.666 -41 -138.999 -41h-105v133c0 45.333 13.667 79.666 41 102.999c24.667 23.333 61.667 39 111 47l34 2h26.5
c8.33301 0 19.5 -0.666992 33.5 -2c10 0 19.5 -0.166992 28.5 -0.5s19.167 -1.5 30.5 -3.5c22 0 39.167 1.16699 51.5 3.5s22 6.33301 29 12s12.5 13.667 16.5 24s6 23.833 6 40.5h141z" />
    <glyph glyph-name="Ydieresis" unicode="&#x178;" 
d="M-162 1440c0 -48.667 -14.999 -91.002 -44.999 -127.002c-20.667 -25.333 -52 -46.666 -94 -63.999c-3.33301 12 -10.333 21.667 -21 29c-6.66699 2.66699 -16.667 4 -30 4c-4.66699 0 -10.334 -4.66699 -17.001 -14c-2.66699 -5.33301 -4 -14.333 -4 -27
c0 -11.333 4.16699 -23.666 12.5 -36.999s16.5 -22 24.5 -26h-156c-6 3.33301 -13.333 13.333 -22 30c-2 5.33301 -4 13.666 -6 24.999s-3.33301 19.333 -4 24c0 32 13.833 59.833 41.5 83.5s60.167 35.5 97.5 35.5c18 0 31.5 -1.66699 40.5 -5
s16.833 -6.66602 23.5 -9.99902s12.667 -7 18 -11c4.66699 6 8 21 10 45c0 8.66699 -0.666992 16.5 -2 23.5s-4 14.167 -8 21.5h141z" />
    <glyph glyph-name="florin" unicode="&#x192;" 
d="M-256 1047c0 -42.667 -19.001 -79.001 -57.001 -109.001l26 -37h-202c-13.333 38 -34.666 69.333 -63.999 94c-34 30 -73 45 -117 45c-34 0 -60.667 -4.66699 -80 -14c-20 -8 -30 -24.333 -30 -49c0 -28.667 13.667 -54 41 -76h-195
c-15.333 23.333 -24.333 49.333 -27 78c0 42.667 26 76.667 78 102c26.667 12.667 56.667 22.334 90 29.001s71 10 113 10c19.333 0 33 -0.5 41 -1.5s18.667 -2.83301 32 -5.5s22.666 -4.66699 27.999 -6c14 -4 27.333 -9.66699 40 -17c9.33301 30.667 25.333 53.667 48 69
s53.334 23 92.001 23c36.667 0 70.667 -13 102 -39c27.333 -25.333 41 -57.333 41 -96zM-344.001 1049c0 14.667 -5 27.001 -15 37.001s-23.333 16 -40 18c-15.333 0 -28.333 -5.66699 -39 -17c-9.33301 -8.66699 -15 -21.334 -17 -38.001c0 -15.333 5.66699 -28.333 17 -39
c8.66699 -9.33301 21.667 -15 39 -17c14.667 0 27.667 5.66699 39 17c8.66699 8.66699 14 21.667 16 39z" />
    <glyph glyph-name="circumflex" unicode="&#x2c6;" 
d="M-143 1188c4 -17.333 5.99902 -33.667 5.99902 -49c0 -17.333 -1.16699 -32.333 -3.5 -45s-6.83301 -27 -13.5 -43c-10 -27.333 -24.333 -50.666 -43 -69.999c-26 -28.667 -61.5 -49.167 -106.5 -61.5s-91.833 -18.5 -140.5 -18.5c9.33301 7.33301 20 21 32 41l19 49
c0.666992 4 1 9.66699 1 17c0 6 -1 12.667 -3 20c-4 10.667 -9.66699 18.834 -17 24.501s-16 9.16699 -26 10.5c-17.333 0 -31.666 -4.66699 -42.999 -14c-6 -5.33301 -12 -12.666 -18 -21.999c-2 -3.33301 -5.66699 -10.333 -11 -21c-6 16 -15.667 29.667 -29 41
c-10 8.66699 -25 14 -45 16c-12 0 -22.667 -7.66699 -32 -23c-5.33301 -8 -8.5 -15.833 -9.5 -23.5s-1.5 -16.167 -1.5 -25.5c2 -16.667 9.66699 -34.334 23 -53.001c10.667 -16.667 20.334 -28.334 29.001 -35.001h-154c-30 24 -45 63 -45 117c0 40 14.5 73.833 43.5 101.5
s65.5 41.5 109.5 41.5c16.667 0 30.5 -1.16699 41.5 -3.5s21.833 -6.5 32.5 -12.5c15.333 -7.33301 28.333 -20.333 39 -39c3.33301 5.33301 8.33301 10.5 15 15.5s16 11.5 28 19.5c11.333 5.33301 22.166 9.33301 32.499 12s22.166 4 35.499 4
c32.667 0 59.334 -10.333 80.001 -31c18.667 -20.667 28 -47 28 -79c0 -11.333 -0.666992 -21.5 -2 -30.5s-4 -17.5 -8 -25.5c31.333 25.333 47 61.666 47 108.999c0 16 -2 30.833 -6 44.5s-11 27.5 -21 41.5h136z" />
    <glyph glyph-name="tilde" unicode="&#x2dc;" 
d="M-117 1159c-34.667 -71.333 -86.499 -128.667 -155.499 -172s-144.167 -65 -225.5 -65c-30.667 0 -58.334 2.83301 -83.001 8.5s-46 14.167 -64 25.5c-36 24 -57.333 54.333 -64 91c-1.33301 9.33301 -2 16.333 -2 21c0 25.333 9.66699 49 29 71h184
c-28.667 -15.333 -43 -42.666 -43 -81.999c0 -14.667 8.33301 -28.334 25 -41.001c14 -8.66699 30.333 -13 49 -13c5.33301 0 9.33301 0.333008 12 1c38 0 70.167 14.667 96.5 44s44.833 66.333 55.5 111h186z" />
    <glyph glyph-name="endash" unicode="&#x2013;" horiz-adv-x="778" 
d="M778 287h-778v123h778v-123z" />
    <glyph glyph-name="emdash" unicode="&#x2014;" horiz-adv-x="1556" 
d="M1556 287h-1556v123h1556v-123z" />
    <glyph glyph-name="quoteleft" unicode="&#x2018;" horiz-adv-x="354" 
d="M293 750c0.666992 -4 0.999023 -9.66602 0.999023 -16.999c0 -24 -6.66699 -45 -20 -63c-15.333 -22.667 -39.666 -37 -72.999 -43c-4.66699 -0.666992 -11.334 -1 -20.001 -1c-25.333 0 -48.666 7.66699 -69.999 23c-25.333 18 -41.333 38 -48 60l-4 49
c0 39.333 12.167 81.666 36.5 126.999s55.833 85 94.5 119l95 -35c-12 -6 -24.5 -14 -37.5 -24s-25.833 -22 -38.5 -36c-25.333 -24 -43.666 -50 -54.999 -78c7.33301 4.66699 14.666 7 21.999 7c30 0 56 -7.66699 78 -23c20 -12 33 -33.667 39 -65z" />
    <glyph glyph-name="quoteright" unicode="&#x2019;" horiz-adv-x="354" 
d="M293 899l1.99707 -26.998c0 -42 -12.667 -85.333 -38 -130s-56.333 -83 -93 -115l-94 35c14 7.33301 26 14.666 36 21.999c12.667 9.33301 25 21 37 35c12.667 12 23.334 24.167 32.001 36.5s17.334 26.833 26.001 43.5c-8 -4 -15.667 -6 -23 -6
c-31.333 0 -58 6.66699 -80 20c-19.333 14 -31.666 36.667 -36.999 68c-0.666992 4 -1 9.66699 -1 17c0 22.667 7.16699 44.167 21.5 64.5s38.5 34.166 72.5 41.499c4 0.666992 10 1 18 1c24 0 48 -8 72 -24c26.667 -18.667 43 -46 49 -82z" />
    <glyph glyph-name="quotesinglbase" unicode="&#x201a;" 
d="M-307 901l-185.001 -0.00195312c-14 36.667 -36.333 68 -67 94c-18.667 14.667 -38 25.834 -58 33.501s-41 11.5 -63 11.5c-18 0 -33.833 -1 -47.5 -3s-26.5 -5.66699 -38.5 -11c-23.333 -8.66699 -35 -25 -35 -49c0 -28 13.667 -53.333 41 -76h-194
c-9.33301 13.333 -16.166 26 -20.499 38s-6.5 25.333 -6.5 40c0 42.667 26 76.667 78 102c26 12.667 55.833 22.334 89.5 29.001s71.5 10 113.5 10c22.667 0 42.667 -1.16699 60 -3.5s36 -6.5 56 -12.5c36 -10 66.667 -24.333 92 -43v110h185v-270z" />
    <glyph glyph-name="quotedblleft" unicode="&#x201c;" horiz-adv-x="649" 
d="M588 750c0.666992 -4 0.999023 -9.66504 0.999023 -16.998c0 -24 -6.66699 -45 -20 -63c-15.333 -22.667 -39.666 -37 -72.999 -43c-4.66699 -0.666992 -11.334 -1 -20.001 -1c-25.333 0 -48.666 7.66699 -69.999 23c-25.333 18 -41.333 38 -48 60l-4 49
c0 39.333 12.333 82.166 37 128.499s56 85.5 94 117.5l95 -35c-12 -6 -24.833 -14.333 -38.5 -25s-26.167 -22.334 -37.5 -35.001c-25.333 -24 -43.666 -50 -54.999 -78c7.33301 4.66699 14.666 7 21.999 7c30 0 56 -7.66699 78 -23c20 -12 33 -33.667 39 -65z
M292.999 750.002c0.666992 -4 0.999023 -9.66602 0.999023 -16.999c0 -24 -6.66699 -45 -20 -63c-15.333 -22.667 -39.666 -37 -72.999 -43c-4.66699 -0.666992 -11.334 -1 -20.001 -1c-25.333 0 -48.666 7.66699 -69.999 23c-25.333 18 -41.333 38 -48 60l-4 49
c0 39.333 12.167 81.666 36.5 126.999s55.833 85 94.5 119l95 -35c-12 -6 -24.5 -14 -37.5 -24s-25.833 -22 -38.5 -36c-25.333 -24 -43.666 -50 -54.999 -78c7.33301 4.66699 14.666 7 21.999 7c30 0 56 -7.66699 78 -23c20 -12 33 -33.667 39 -65z" />
    <glyph glyph-name="quotedblright" unicode="&#x201d;" horiz-adv-x="649" 
d="M588 899l1.99805 -26.999c0 -42 -12.667 -85.333 -38 -130s-56.333 -83 -93 -115l-94 35c14 7.33301 26 14.666 36 21.999c12.667 9.33301 25 21 37 35c12.667 12 23.334 24.167 32.001 36.5s17.334 26.833 26.001 43.5c-9.33301 -4 -17 -6 -23 -6
c-31.333 0 -58 6.66699 -80 20c-20.667 14.667 -33 37.334 -37 68.001c-0.666992 4 -1 9.66699 -1 17c0 22.667 7.16699 44.167 21.5 64.5s38.5 34.166 72.5 41.499c4 0.666992 10 1 18 1c24 0 48 -8 72 -24c26.667 -18.667 43 -46 49 -82zM292.998 899.001l1.99707 -26.998
c0 -42 -12.667 -85.333 -38 -130s-56.333 -83 -93 -115l-94 35c14 7.33301 26 14.666 36 21.999c12.667 9.33301 25 21 37 35c12.667 12 23.334 24.167 32.001 36.5s17.334 26.833 26.001 43.5c-8 -4 -15.667 -6 -23 -6c-31.333 0 -58 6.66699 -80 20
c-19.333 14 -31.666 36.667 -36.999 68c-0.666992 4 -1 9.66699 -1 17c0 22.667 7.16699 44.167 21.5 64.5s38.5 34.166 72.5 41.499c4 0.666992 10 1 18 1c24 0 48 -8 72 -24c26.667 -18.667 43 -46 49 -82z" />
    <glyph glyph-name="quotedblbase" unicode="&#x201e;" 
d="M-307 901l-185 -0.00292969c-14 36.667 -36.333 68 -67 94c-18.667 14.667 -38 25.834 -58 33.501s-41 11.5 -63 11.5c-18 0 -33.833 -1 -47.5 -3s-26.5 -5.66699 -38.5 -11c-23.333 -8.66699 -35 -25 -35 -49c0 -28 13.667 -53.333 41 -76h-194
c-9.33301 13.333 -16.166 26 -20.499 38s-6.5 25.333 -6.5 40c0 42.667 26 76.667 78 102c26 12.667 55.833 22.334 89.5 29.001s71.5 10 113.5 10l36 -4v55h111v-79c25.333 -9.33301 45.666 -19.666 60.999 -30.999v110h185v-270z" />
    <glyph glyph-name="dagger" unicode="&#x2020;" 
d="M-307 901h-185v246h185v-246z" />
    <glyph glyph-name="daggerdbl" unicode="&#x2021;" 
d="M-92 1143c-20.667 -69.333 -66.332 -127.001 -136.999 -173.001s-151.334 -69 -242.001 -69c-61.333 0 -124 12.333 -188 37c25.333 4 46.333 15.667 63 35c16.667 16.667 25 35 25 55c0 12.667 -9 25 -27 37c-8 6 -17.5 10.833 -28.5 14.5s-22.833 5.5 -35.5 5.5
c-9.33301 0 -15.333 -0.666992 -18 -2l162 105c17.333 -2 33.333 -6.66699 48 -14s27.667 -16.833 39 -28.5s19.833 -23.667 25.5 -36s8.5 -26.5 8.5 -42.5c0 -6.66699 -0.666992 -13.667 -2 -21s-4.33301 -16 -9 -26c-8 -16 -16.667 -27.667 -26 -35
c41.333 4 76.666 21.667 105.999 53c12.667 14.667 22.834 30.834 30.501 48.501s13.167 36.5 16.5 56.5h189z" />
    <glyph glyph-name="bullet" unicode="&#x2022;" horiz-adv-x="635" 
d="M573 410c0 -69.333 -24.667 -129.333 -74 -180s-110 -76 -182 -76c-68.667 0 -128.5 24.5 -179.5 73.5s-76.5 109.833 -76.5 182.5c0 68.667 24.667 128.667 74 180c24 24 51.333 42.667 82 56s64 20 100 20c69.333 0 129.333 -25.167 180 -75.5s76 -110.5 76 -180.5z
" />
    <glyph glyph-name="ellipsis" unicode="&#x2026;" horiz-adv-x="1118" 
d="M1036 90c0 -24.667 -9.99902 -48.667 -29.999 -72c-20 -18.667 -44.667 -28 -74 -28c-30 0 -55 9.5 -75 28.5s-30 42.833 -30 71.5c0 26.667 9.66699 50 29 70c21.333 20 46.666 30 75.999 30c30 0 54.833 -9.5 74.5 -28.5s29.5 -42.833 29.5 -71.5zM664.001 90
c0 -24 -10.332 -47.999 -30.999 -71.999c-20 -18.667 -44.667 -28 -74 -28c-30 0 -54.833 9.5 -74.5 28.5s-29.5 42.833 -29.5 71.5c0 27.333 9.33301 50.666 28 69.999c21.333 20 46.666 30 75.999 30c30 0 55 -9.5 75 -28.5s30 -42.833 30 -71.5zM291.002 90.001
c0 -25.333 -10.333 -49.333 -31 -72c-18.667 -18.667 -43.334 -28 -74.001 -28c-15.333 0 -28.833 2.16699 -40.5 6.5s-22.5 11.5 -32.5 21.5c-20.667 18.667 -31 42.667 -31 72c0 27.333 9.83301 50.833 29.5 70.5s44.5 29.5 74.5 29.5
c30.667 0 55.334 -9.33301 74.001 -28c20.667 -18.667 31 -42.667 31 -72z" />
    <glyph glyph-name="perthousand" unicode="&#x2030;" 
d="M-287 1004h-108v-103h-185v103h-108v102h108v102h185v-102h108v-102z" />
    <glyph glyph-name="guilsinglleft" unicode="&#x2039;" 
d="M-61 901h-185v246h185v-246z" />
    <glyph glyph-name="guilsinglright" unicode="&#x203a;" 
d="M-307 1233h-185v184h185v-184z" />
    <glyph glyph-name="trademark" unicode="&#x2122;" 
d="M-246 1036c0 -40 -14.668 -73.833 -44.001 -101.5s-65.666 -41.5 -108.999 -41.5c-41.333 0 -77.333 13.833 -108 41.5s-46 61.5 -46 101.5c0 40.667 15 75 45 103c14.667 13.333 31 23.5 49 30.5s38 10.5 60 10.5c40 0 76 -13.667 108 -41c30 -28 45 -62.333 45 -103z
M-338.001 1036c0 16.667 -6.16602 31.168 -18.499 43.501s-26.5 18.5 -42.5 18.5c-16.667 0 -31 -6.33301 -43 -19c-12.667 -12 -19 -26.333 -19 -43c0 -16 6.16699 -30.167 18.5 -42.5s26.833 -18.5 43.5 -18.5c15.333 0 29.666 6 42.999 18c12 13.333 18 27.666 18 42.999
z" />
    <glyph glyph-name=".null" 
 />
    <glyph glyph-name="nonmarkingreturn" horiz-adv-x="552" 
 />
    </font>
</defs>
</svg>
