<?xml version="1.0" standalone="no"?>
<!DOCTYPE svg PUBLIC "-//W3C//DTD SVG 1.1//EN" "http://www.w3.org/Graphics/SVG/1.1/DTD/svg11.dtd" >
<svg xmlns="http://www.w3.org/2000/svg" xmlns:xlink="http://www.w3.org/1999/xlink" version="1.1">
<metadata></metadata>
<defs>
<font id="db_sathorn_xregular" horiz-adv-x="0" >
<font-face units-per-em="2048" ascent="1638" descent="-410" />
<missing-glyph horiz-adv-x="512" />
<glyph unicode="&#x2b;&#x2d;" horiz-adv-x="1181" d="M164 0v110h856v-110h-856zM166 628v103h374v355h103v-355h375v-103h-375v-354h-103v354h-374z" />
<glyph unicode="&#x2e;&#x2e;&#x2e;" horiz-adv-x="1042" d="M104 0v140h146v-140h-146zM448 0v140h146v-140h-146zM792 0v140h146v-140h-146z" />
<glyph unicode="&#x3c;&#x3d;" horiz-adv-x="1061" d="M137 370v132l807 -316v-120zM137 616v140l807 305v-123l-670 -248l670 -258v-120z" />
<glyph unicode="&#x3e;&#x3d;" horiz-adv-x="1061" d="M131 66v120l807 314v-130zM131 312v120l670 258l-670 248v123l807 -305v-140z" />
<glyph unicode="&#xe4f;&#x22;" horiz-adv-x="1024" d="M102 426q0 56 15 108t42 97.5t64.5 83t83 64.5t97.5 42t108 15q57 0 109.5 -15t98.5 -42t83 -64.5t64 -83t42 -97.5t15 -108q0 -57 -15 -109.5t-42 -98.5t-64 -83t-83 -64t-98.5 -42t-109.5 -15q-56 0 -108 15t-97.5 42t-83 64t-64.5 83t-42 98.5t-15 109.5zM180 426 q0 -46 12 -89t33 -80t51 -67t67 -52t80 -34t89 -12t89 12t80 34t67 52t52 67t34 80t12 89t-12 89t-34 80t-52 67t-67 52t-80 34t-89 12t-89 -12t-80 -34t-67 -52t-51 -67t-33 -80t-12 -89zM278 426q0 48 18.5 91t50 74.5t74.5 50t91 18.5t91 -18.5t74.5 -50t50 -74.5 t18.5 -91t-18.5 -91t-50 -74.5t-74.5 -50t-91 -18.5t-91 18.5t-74.5 50t-50 74.5t-18.5 91zM342 426q0 -36 13 -67t36 -54t54 -36t67 -13t67 13t54 36t36 54t13 67t-13 67t-36 54t-54 36t-67 13t-67 -13t-54 -36t-36 -54t-13 -67zM348 1243h121l-29 -335h-70zM555 1243h121 l-29 -335h-69z" />
<glyph unicode="&#xe0e;&#xe3a;" horiz-adv-x="907" d="M35 0v82h90v414q0 33 2.5 58.5t9 47.5t19.5 43q12 21 34 43q-4 2 -10 4t-10 4q-11 4 -23 6t-26 2v56q22 18 62.5 37t91 35t106.5 26q57 10 109 10q60 0 115 -12t97 -39.5t66 -71t24 -104.5v-717q0 -36 -11 -71t-36 -63t-62.5 -45t-90.5 -17h-182l-86 86l-86 -86h-185v86 h156l115 114l114 -114h107q22 0 43.5 4t38.5 20t28 47t11 85v642q0 38 -12 70t-35 55t-59.5 36t-86.5 13q-47 0 -87 -14t-69 -38t-45 -56t-16 -68v-610h-221zM645 -456q0 36 21.5 56.5t56.5 20.5q36 0 57 -20.5t21 -56.5t-21.5 -57t-56.5 -21q-36 0 -57 21t-21 57z" />
<glyph unicode="&#xe0f;&#xe3a;" horiz-adv-x="907" d="M35 0v82h90v414q0 33 2.5 58.5t9 47.5t19.5 43q12 21 34 43q-4 2 -10 4t-10 4q-11 4 -23 6t-26 2v56q22 18 62.5 37t91 35t106.5 26q57 10 109 10q60 0 115 -12t97 -39.5t66 -71t24 -104.5v-717q0 -36 -12 -71t-37 -63t-63 -45t-90 -17h-54l-86 86l-86 -86h-57l-86 86 l-86 -86h-82v86h53l115 114l115 -114l114 114l115 -114q24 0 42.5 6t31.5 22t20 42t7 65v663q0 38 -12 70t-35 55t-59.5 36t-86.5 13q-47 0 -87 -14t-69 -38t-45 -56t-16 -68v-610h-221zM645 -456q0 36 21.5 56.5t56.5 20.5q36 0 57 -20.5t21 -56.5t-21.5 -57t-56.5 -21 q-36 0 -57 21t-21 57z" />
<glyph unicode="&#xe0e;&#xe38;" horiz-adv-x="907" d="M35 0v82h90v414q0 33 2.5 58.5t9 47.5t19.5 43q12 21 34 43q-4 2 -10 4t-10 4q-11 4 -23 6t-26 2v56q22 18 62.5 37t91 35t106.5 26q57 10 109 10q60 0 115 -12t97 -39.5t66 -71t24 -104.5v-717q0 -36 -11 -71t-36 -63t-62.5 -45t-90.5 -17h-182l-86 86l-86 -86h-185v86 h156l115 114l114 -114h107q22 0 43.5 4t38.5 20t28 47t11 85v642q0 38 -12 70t-35 55t-59.5 36t-86.5 13q-47 0 -87 -14t-69 -38t-45 -56t-16 -68v-610h-221zM584 -461l26 84h109q36 0 54.5 -23.5t18.5 -62.5v-163h-112v122q0 43 -41 43h-55z" />
<glyph unicode="&#xe0f;&#xe38;" horiz-adv-x="907" d="M35 0v82h90v414q0 33 2.5 58.5t9 47.5t19.5 43q12 21 34 43q-4 2 -10 4t-10 4q-11 4 -23 6t-26 2v56q22 18 62.5 37t91 35t106.5 26q57 10 109 10q60 0 115 -12t97 -39.5t66 -71t24 -104.5v-717q0 -36 -12 -71t-37 -63t-63 -45t-90 -17h-54l-86 86l-86 -86h-57l-86 86 l-86 -86h-82v86h53l115 114l115 -114l114 114l115 -114q24 0 42.5 6t31.5 22t20 42t7 65v663q0 38 -12 70t-35 55t-59.5 36t-86.5 13q-47 0 -87 -14t-69 -38t-45 -56t-16 -68v-610h-221zM584 -461l26 84h109q36 0 54.5 -23.5t18.5 -62.5v-163h-112v122q0 43 -41 43h-55z" />
<glyph unicode="&#xe0e;&#xe39;" horiz-adv-x="907" d="M35 0v82h90v414q0 33 2.5 58.5t9 47.5t19.5 43q12 21 34 43q-4 2 -10 4t-10 4q-11 4 -23 6t-26 2v56q22 18 62.5 37t91 35t106.5 26q57 10 109 10q60 0 115 -12t97 -39.5t66 -71t24 -104.5v-717q0 -36 -11 -71t-36 -63t-62.5 -45t-90.5 -17h-182l-86 86l-86 -86h-185v86 h156l115 114l114 -114h107q22 0 43.5 4t38.5 20t28 47t11 85v642q0 38 -12 70t-35 55t-59.5 36t-86.5 13q-47 0 -87 -14t-69 -38t-45 -56t-16 -68v-610h-221zM318 -454l34 79h98q18 0 30.5 -6.5t20 -17.5t11.5 -27t4 -35v-57q0 -24 19 -39t57 -15q76 0 76 66v131h122v-133 q0 -40 -12 -67t-36.5 -42t-62 -21.5t-89.5 -6.5q-48 0 -82 9t-55.5 23.5t-31 32.5t-9.5 35v43q0 48 -42 48h-52z" />
<glyph unicode="&#xe0f;&#xe39;" horiz-adv-x="907" d="M35 0v82h90v414q0 33 2.5 58.5t9 47.5t19.5 43q12 21 34 43q-4 2 -10 4t-10 4q-11 4 -23 6t-26 2v56q22 18 62.5 37t91 35t106.5 26q57 10 109 10q60 0 115 -12t97 -39.5t66 -71t24 -104.5v-717q0 -36 -12 -71t-37 -63t-63 -45t-90 -17h-54l-86 86l-86 -86h-57l-86 86 l-86 -86h-82v86h53l115 114l115 -114l114 114l115 -114q24 0 42.5 6t31.5 22t20 42t7 65v663q0 38 -12 70t-35 55t-59.5 36t-86.5 13q-47 0 -87 -14t-69 -38t-45 -56t-16 -68v-610h-221zM318 -454l34 79h98q18 0 30.5 -6.5t20 -17.5t11.5 -27t4 -35v-57q0 -24 19 -39t57 -15 q76 0 76 66v131h122v-133q0 -40 -12 -67t-36.5 -42t-62 -21.5t-89.5 -6.5q-48 0 -82 9t-55.5 23.5t-31 32.5t-9.5 35v43q0 48 -42 48h-52z" />
<glyph unicode="&#xd;" horiz-adv-x="579" />
<glyph unicode=" "  horiz-adv-x="512" />
<glyph unicode="&#x09;" horiz-adv-x="512" />
<glyph unicode="&#xa0;" horiz-adv-x="512" />
<glyph unicode="!" horiz-adv-x="491" d="M156 1082h186l-62 -810h-67zM166 0v168h164v-168h-164z" />
<glyph unicode="&#x22;" horiz-adv-x="667" d="M112 750l91 434h145l-152 -434h-84zM348 750l92 434h146l-152 -434h-86z" />
<glyph unicode="#" horiz-adv-x="1024" d="M90 326l18 100h164l48 250h-164l18 100h164l60 306h102l-60 -306h230l57 306h105l-58 -306h160l-20 -100h-160l-48 -250h160l-20 -100h-160l-62 -326h-100l60 326h-230l-61 -326h-103l64 326h-164zM375 426h229l48 250h-230z" />
<glyph unicode="$" horiz-adv-x="1108" d="M90 316l129 28q30 -112 103.5 -178.5t185.5 -83.5v467q-27 6 -64 15.5t-76.5 24t-78.5 37t-69.5 55.5t-49 80t-18.5 109q0 79 29 138.5t78 99.5t113 61t136 25v106h116v-108q62 -8 116.5 -29t99 -55t78.5 -84t53 -116l-131 -36q-8 40 -27 76t-46 65t-63 50t-80 31v-424 q47 -8 94 -21t89.5 -32t79 -44.5t63.5 -60t42.5 -78.5t15.5 -98q0 -67 -25 -128t-73 -109t-120 -79q-72 -30 -166 -36v-138h-116v138q-79 6 -145.5 27t-119 61t-91 100t-62.5 144zM289 891q0 -50 18.5 -82.5t49.5 -53.5t70 -33q39 -14 81 -24v404q-52 -4 -93 -20.5t-69 -44 t-42.5 -64.5t-14.5 -82zM624 80q62 7 106.5 28.5t73 52.5t42.5 71t14 84t-17.5 76.5t-49 57t-74.5 41.5t-95 29v-440z" />
<glyph unicode="%" horiz-adv-x="1401" d="M104 897q0 58 14 114t44 100t76 70.5t110 26.5q65 0 112.5 -26.5t78 -70.5t45 -100t14.5 -114q0 -56 -14.5 -110.5t-45 -99t-77.5 -72t-111 -27.5q-42 0 -77 13t-62 35t-47 51.5t-33 64t-20 71.5t-7 74zM219 897q0 -20 1.5 -45.5t6.5 -51.5t14 -51t24 -44.5t36 -31 t49 -11.5t49.5 11.5t36 31t24 44.5t15 51t7.5 51.5t2 45.5q0 24 -2.5 51t-8.5 53t-15.5 50t-24.5 42t-36 28.5t-49 10.5t-48 -10.5t-34.5 -28.5t-23.5 -42t-14 -50t-7 -53t-2 -51zM270 0l730 1182h132l-722 -1182h-140zM819 291q0 58 14 114t43.5 99.5t75.5 70.5t111 27 t112 -27t78 -70.5t45.5 -99.5t14.5 -114q0 -37 -6.5 -74t-19.5 -71.5t-33 -64.5t-48 -52t-63 -34.5t-78 -12.5q-42 0 -77 12.5t-62.5 34.5t-47.5 52t-33 64.5t-19.5 71.5t-6.5 74zM934 291q0 -20 2 -45.5t7 -51.5t14 -51t23 -44.5t35 -31t50 -11.5q28 0 49.5 11.5t36 31 t24 44.5t14.5 51t7 51.5t2 45.5q0 24 -2 50.5t-8 53t-16 50t-25 42t-36 29t-48 10.5q-28 0 -48 -10.5t-34.5 -29t-23.5 -42t-14 -50t-7 -53t-2 -50.5z" />
<glyph unicode="&#x26;" horiz-adv-x="1380" d="M208.5 349q11.5 57 43.5 111t85 104t124 90l-107 140q-30 39 -42 77.5t-11 80.5q0 46 18.5 89.5t53.5 76.5t83.5 52.5t108.5 19.5q59 0 110.5 -15t89 -46t59.5 -77.5t22 -109.5q0 -52 -15 -94.5t-44 -79t-71 -68.5t-98 -63l298 -381q22 24 39 53t31.5 59.5t26 63 t19.5 66.5l119 -29q-14 -42 -32.5 -83.5t-40.5 -80.5t-46 -72.5t-51 -60.5q12 -14 24 -27t24 -22.5t23 -15.5q10 -7 19 -7q14 -2 28.5 -4t31.5 -1t38 4t47 9l-4 -104q-11 -2 -22.5 -3t-21.5 -3q-20 -2 -42 -3t-44 -1q-20 0 -42 4.5t-45 16t-47.5 30.5t-48.5 49 q-64 -51 -140.5 -79.5t-168.5 -28.5q-88 0 -154 19t-112.5 53t-74.5 80t-40 100t-0.5 111zM335 334q-3 -46 9 -94q8 -33 32 -64t58 -54.5t74 -37.5t82 -14q39 0 73.5 7t65.5 21t59 32t52 40l-324 412q-60 -38 -99 -78t-59 -82t-23 -88zM424 977q-4 -32 2 -60.5t26 -54.5 l111 -150q43 27 75 52.5t54 52.5t32.5 57.5t10.5 67.5q0 17 -2.5 35.5t-9.5 36.5t-19 34t-30.5 29t-45 20t-60.5 7q-33 0 -58.5 -11t-43.5 -28t-28.5 -40t-13.5 -48z" />
<glyph unicode="'" horiz-adv-x="407" d="M100 748l90 436h136l-142 -436h-84z" />
<glyph unicode="(" horiz-adv-x="614" d="M121 551q0 72 11.5 141.5t32.5 136t50.5 128t64.5 117.5t74.5 104t81.5 88h82q-38 -46 -71.5 -100t-62 -113t-52.5 -122t-40 -126t-25 -126t-9 -122q0 -61 8.5 -126t24.5 -131t39 -130.5t52 -125t63.5 -114.5t74.5 -98h-82q-66 60 -124 135t-101 165t-67.5 195t-24.5 224 z" />
<glyph unicode=")" horiz-adv-x="614" d="M98 -168q38 46 73 100t64 114t52 124t39.5 129t25 130.5t8.5 127.5q0 59 -9 122t-25 126t-39.5 126t-52 122t-62.5 113t-72 100h82q42 -40 82 -88t75 -104t64 -117.5t50 -128t33 -136t12 -141.5q0 -119 -25 -224t-68 -195t-101 -165t-124 -135h-82z" />
<glyph unicode="*" horiz-adv-x="786" d="M104 928l40 116l222 -98l-26 238h123l-25 -238l218 98l38 -116l-233 -50l159 -176l-98 -71l-120 205l-122 -210l-98 72l162 180z" />
<glyph unicode="+" horiz-adv-x="1181" d="M166 424v102h374v354h103v-354h375v-102h-375v-354h-103v354h-374z" />
<glyph unicode="," horiz-adv-x="463" d="M116 -258l110 258h-80v178h180v-170l-146 -266h-64z" />
<glyph unicode="-" horiz-adv-x="790" d="M28 420v110h734v-110h-734z" />
<glyph unicode="." horiz-adv-x="463" d="M148 0v178h176v-178h-176z" />
<glyph unicode="/" horiz-adv-x="659" d="M131 -43l281 1225h116l-280 -1225h-117z" />
<glyph unicode="0" horiz-adv-x="962" d="M76 542q0 62 9 127t29 126t51 116t76 96t103.5 65t132.5 24q78 0 139.5 -24t107.5 -65t79 -96t53 -116t29.5 -126t9.5 -127q0 -66 -10 -132t-31 -128t-53.5 -116t-77.5 -94t-103 -63t-130 -23q-74 0 -134 24t-106 65t-79 96t-54 117t-31 127t-10 127zM221 542 q0 -44 4 -96t15 -104t30 -100t48.5 -85t71.5 -59t100 -22q53 0 92.5 21.5t68.5 58t48 83.5t30 99t16 104.5t5 99.5q0 40 -4 91t-14 102t-29 100.5t-49 87.5t-73 61.5t-102 23.5q-54 0 -94.5 -23t-69 -61t-47 -86t-29 -100t-14.5 -103t-4 -93z" />
<glyph unicode="1" horiz-adv-x="962" d="M209 742v120q45 20 84 40.5t74 46t67 57.5q32 34 66 76h98v-982h213v-100h-563v100h215v776q-32 -27 -60.5 -46.5t-58.5 -34.5t-63 -28t-72 -25z" />
<glyph unicode="2" horiz-adv-x="962" d="M119 780q19 74 52 133t80 100t108 63t135 22q56 0 104 -13t89 -36.5t73.5 -56t55 -71.5t34.5 -83t12 -90q0 -67 -16 -121.5t-44.5 -101.5t-67.5 -87t-85 -78l-311 -258h516v-102h-706v84l397 332q39 32 71 66t54 75t34.5 88t12.5 103q0 52 -15.5 99.5t-44.5 83.5 t-70 57.5t-93 21.5q-54 0 -96 -21.5t-72 -58t-49 -84.5t-27 -100z" />
<glyph unicode="3" horiz-adv-x="962" d="M98 246l125 40q10 -50 34.5 -89.5t58.5 -67t78 -42.5t92 -15q62 0 107.5 16.5t76 46t46 69t15.5 85.5q0 54 -20.5 94.5t-54 67.5t-76.5 42q-42 15 -88 17h-144v104h150q98 4 147 57.5t49 145.5q0 43 -14 78t-40.5 60t-63.5 39q-36 14 -82 14q-40 0 -78 -12.5t-69 -36.5 t-54 -59.5t-35 -82.5l-129 35q18 64 53.5 110t83.5 76t106 45t122 15q72 0 133 -20.5t107 -58t72 -90.5t26 -118q0 -49 -15 -91t-41 -74t-64 -53t-84 -28v-4q46 -4 90 -25t78 -57.5t55 -86.5t21 -110q0 -35 -9 -70t-29 -67.5t-51 -61.5t-74.5 -50t-100 -33t-126.5 -12 q-68 0 -129.5 15.5t-112 48t-86.5 80.5q-38 48 -56 114z" />
<glyph unicode="4" horiz-adv-x="962" d="M60 252v90l495 740h168v-726h182v-104h-182v-252h-131v252h-532zM200 356h392v612z" />
<glyph unicode="5" horiz-adv-x="962" d="M100 244l123 47q14 -52 39.5 -92.5t58.5 -68.5t73 -43t85 -15q70 0 120.5 21.5t83.5 60.5t49 92.5t16 117.5q0 68 -19 121t-52.5 89.5t-80 55.5t-102.5 19q-175 0 -246 -176l-121 27l41 582h639l-15 -97h-516l-24 -367q16 30 41 54t58 39t70 23t77 8q86 0 155.5 -29 t118.5 -80t75.5 -120t26.5 -149q0 -83 -29 -152t-82 -119t-125.5 -77.5t-158.5 -27.5q-62 0 -119 14t-106.5 45t-88.5 79q-39 50 -65 118z" />
<glyph unicode="6" horiz-adv-x="962" d="M82 516q0 72 10 143t32 135.5t56 119.5t82 95.5t110.5 63.5t141.5 23q136 0 224 -61t130 -179l-116 -32q-28 94 -87 140t-151 46q-63 0 -110.5 -23t-81.5 -61.5t-57 -89t-36 -105.5t-18.5 -110.5t-5.5 -104.5q14 49 41.5 90t67 70.5t92 46.5t116.5 17q83 0 150 -29 t114.5 -80t72.5 -121.5t25 -153.5q0 -54 -13 -101.5t-38 -88.5t-60 -74t-77 -56.5t-91.5 -35.5t-102.5 -12q-76 0 -136 21t-107 58t-80 87t-55 109t-32 123.5t-10 129.5zM242 342q0 -31 7 -62.5t22 -62t36.5 -57t50 -46.5t65 -31t79.5 -11q60 0 108 23t81 61.5t51 89 t18 104.5q0 76 -21 132t-54.5 93t-76 55.5t-86.5 18.5q-47 0 -86 -12t-70.5 -33.5t-54.5 -50.5t-38.5 -63t-23 -72t-7.5 -76z" />
<glyph unicode="7" horiz-adv-x="962" d="M125 985l15 97h716v-82q-57 -64 -108.5 -138.5t-95 -156.5t-78 -170t-58.5 -177.5t-36 -180t-9 -177.5h-141q0 143 31 278.5t86 260.5t129 237t162 209h-613z" />
<glyph unicode="8" horiz-adv-x="962" d="M64 284q0 56 22.5 101t60 79t86.5 58.5t101 40.5q-42 16 -81.5 40.5t-70 56.5t-48.5 72t-18 87q0 49 16 88.5t43.5 70t64 52.5t78.5 36t86 21t88 7q78 0 144 -18.5t114.5 -52.5t75.5 -83q28 -48 28 -110q0 -50 -13 -91t-39 -73.5t-67 -58t-96 -44.5q53 -16 100 -39 t83 -55.5t56.5 -75t20.5 -98.5t-17 -100.5t-46.5 -78.5t-69.5 -58.5t-87 -40t-98.5 -22.5t-103.5 -7q-50 0 -100.5 8t-96.5 25t-85 42t-68.5 58t-46 74t-16.5 89zM196 282q0 -38 13 -68t34 -54t50 -41t60 -28t64 -16t65 -5q28 0 60 5t64 16.5t61 28t51 39.5t35 51.5t13 63.5 q0 36 -13.5 66t-36 53.5t-52 42t-62 32.5t-65.5 25t-62 19q-29 -6 -61 -15.5t-63 -23.5t-59 -32.5t-49 -42.5t-34 -52q-13 -30 -13 -64zM254 832q0 -33 10 -59.5t27 -48.5t39 -39t47 -30.5t51 -24t51 -18.5q24 10 52.5 21t57 24t54.5 29t46 36.5t32 45.5t12 56q0 50 -19 86 t-51.5 59t-76.5 34t-92 11t-91.5 -11t-76.5 -34t-52.5 -57t-19.5 -80z" />
<glyph unicode="9" horiz-adv-x="962" d="M84 731q0 53 13.5 101t38.5 89t59.5 74t77.5 56.5t92 36t102 12.5q75 0 135.5 -21t107 -58t80.5 -87.5t55 -109t31.5 -123t10.5 -129.5q0 -73 -10.5 -144.5t-32 -135.5t-55.5 -119t-82 -95t-110.5 -63t-142.5 -23q-135 0 -224 62q-88 62 -130 178l117 32q14 -46 35.5 -81 t51.5 -58t69 -35t88 -12q46 0 84 13.5t68 37.5t53 57q22 33 40 72q16 37 27 77t18 80.5t10 80.5t3 76q-14 -49 -41.5 -90.5t-67 -71t-91.5 -46.5q-54 -16 -118 -16q-83 0 -149.5 29t-114 80t-73 121t-25.5 153zM209 738q0 -76 20.5 -132.5t54.5 -93.5t78 -56q44 -18 92 -18 q44 0 82 12t68.5 33t53 50t38.5 63t23.5 72t7.5 78q0 30 -7.5 62t-21.5 62t-36 57t-51 46.5t-65 31t-79 11.5q-60 0 -107.5 -23t-81.5 -62t-51.5 -89t-17.5 -104z" />
<glyph unicode=":" horiz-adv-x="463" d="M144 0v178h176v-178h-176zM144 672v178h176v-178h-176z" />
<glyph unicode=";" horiz-adv-x="463" d="M114 -258l109 258h-79v180h180v-172l-146 -266h-64zM144 674v176h176v-176h-176z" />
<glyph unicode="&#x3c;" horiz-adv-x="1061" d="M137 452v140l807 305v-123l-670 -248l670 -258v-120z" />
<glyph unicode="=" horiz-adv-x="1165" d="M156 250v110h878v-110h-878zM156 590v110h878v-110h-878z" />
<glyph unicode="&#x3e;" horiz-adv-x="1061" d="M131 148v120l670 258l-670 248v123l807 -305v-140z" />
<glyph unicode="?" horiz-adv-x="1108" d="M194 778q12 77 42 136.5t77 100.5t109.5 62t138.5 21q46 0 90.5 -9t84.5 -26.5t73 -43t57 -59.5t38 -76t14 -92q0 -52 -16 -95.5t-47 -81t-77 -69.5t-106 -62q-27 -13 -44 -28t-26.5 -32.5t-12.5 -37.5t-3 -46v-84h-113v80q0 34 6.5 67t22.5 63t44 56t70 43 q36 14 66 38.5t51 54.5t33 64t12 70q0 48 -14 89t-41 70.5t-68 46t-96 16.5q-57 0 -101 -21t-75.5 -56.5t-49.5 -82.5q-17 -48 -21 -100zM461 0v137h135v-137h-135z" />
<glyph unicode="@" horiz-adv-x="1331" d="M70 534q0 84 18 166.5t54.5 156t90.5 136.5t125.5 108t159.5 71t194 26q84 0 159.5 -19t139 -54t113.5 -84t85 -109t54 -130t19 -148q0 -63 -14.5 -121.5t-40 -109.5t-60 -92.5t-74 -71.5t-82.5 -46.5t-85 -16.5q-38 0 -64 10t-43.5 26t-27 37t-13.5 43q-14 -26 -33 -47 t-43 -36t-54 -24t-68 -9q-62 0 -108 30t-72.5 83t-31 128t18.5 167q21 83 54.5 144.5t78 101.5t99 60t116.5 20q101 0 147 -82l21 72h135l-147 -516q-9 -33 -9 -56.5t7.5 -38.5t20 -22t26.5 -7q26 0 55 14t56.5 38t52 58t43.5 75t30 88t11 99q0 70 -16.5 130t-46.5 110 t-72.5 88.5t-95.5 65t-115 40.5t-130 14q-76 0 -144 -19t-125 -54.5t-103 -85.5t-78 -112t-49 -134.5t-17 -152.5q0 -102 29 -188t88 -148t149 -97t212 -35q92 0 164 13t127 34t94 45t65 47l62 -51q-200 -184 -514 -184q-82 0 -159 16t-143 47.5t-121 78.5t-94 109 t-60 138.5t-21 166.5zM501 443q1 -33 8 -63t19 -53t30 -36t42 -13q32 0 58 10t47 29t36 45.5t23 59.5q3 11 9 32.5t13.5 48.5t16.5 56.5t17 58t15 52.5t11 40q8 29 2 56.5t-21.5 48.5t-39 34t-49.5 13q-44 0 -80 -23t-63 -62t-47 -90t-32 -105q-8 -34 -12 -70t-3 -69z" />
<glyph unicode="A" horiz-adv-x="1063" d="M35 0l419 1180h168l410 -1180h-148l-122 344h-478l-118 -344h-131zM328 456h395l-197 566z" />
<glyph unicode="B" horiz-adv-x="1028" d="M112 0v1180h480q58 0 105.5 -12t85 -32t64.5 -47t44 -59t26 -67t9 -70q0 -52 -14.5 -95.5t-41 -77t-65.5 -57t-88 -35.5v-4q56 -12 100.5 -38t76.5 -65t49 -88t17 -107q0 -80 -26.5 -141.5t-76 -102.5t-120.5 -61.5t-159 -20.5h-466zM260 125h310q56 0 100 13.5t76 40.5 t49.5 65t17.5 88q0 26 -5.5 53t-17.5 52.5t-31 48t-47 39.5t-64 26.5t-83 9.5h-305v-436zM260 674h301q58 2 99 19t67.5 44.5t38.5 63t12 75.5q0 46 -16 80.5t-45 57t-69 34t-87 11.5h-301v-385z" />
<glyph unicode="C" horiz-adv-x="1046" d="M43 592q0 80 13.5 156t41 143t69 123.5t98.5 97t129 63.5t159 23q98 0 177.5 -32t139.5 -86q54 -52 87 -116t45 -143l-146 -27q-6 38 -19 75.5t-33 71t-46 61.5t-58.5 48t-71 32t-81.5 12q-68 0 -119.5 -23t-89.5 -62t-63.5 -90t-41 -107t-22 -113.5t-6.5 -108.5 q0 -59 8 -119.5t25 -116.5t43.5 -105t63.5 -85t86 -57t109 -21q68 0 123 25.5t96 69t67 99.5t34 118l142 -30q-12 -86 -49 -156.5t-96 -121t-140 -78.5t-181 -28q-86 0 -156 25t-125 68t-95 102t-66 127t-38.5 141t-12.5 145z" />
<glyph unicode="D" horiz-adv-x="1048" d="M92 0v1180h414q80 0 149 -21t125.5 -59.5t100 -92t74 -118.5t46 -140t15.5 -155q0 -78 -14 -152t-42 -140t-69 -121t-94.5 -95.5t-119 -63t-141.5 -22.5h-444zM240 121h282q56 2 103 21.5t84 52.5t65 77t47 95.5t28 109t9 117.5q0 62 -9.5 119.5t-29 108.5t-48 93.5 t-67 74t-86.5 50t-106 21.5h-272v-940z" />
<glyph unicode="E" horiz-adv-x="862" d="M94 0v1180h748v-128h-598v-374h468v-119h-468v-432h606v-127h-756z" />
<glyph unicode="F" horiz-adv-x="850" d="M100 0v1180h738v-128h-590v-374h473v-119h-473v-559h-148z" />
<glyph unicode="G" horiz-adv-x="1079" d="M39 578q0 80 13 157t40 146t68.5 127t98.5 100t130 66t162 24q88 0 160.5 -22t128.5 -64.5t93 -106t56 -147.5l-151 -34q-10 56 -35 104.5t-63 85t-87 58.5t-106 22q-66 0 -118 -23t-90.5 -61.5t-65.5 -89t-43.5 -107.5t-24 -115t-7.5 -112q0 -65 10.5 -127.5t30 -118.5 t48 -103.5t65 -82t80.5 -53.5t94 -19q75 0 133.5 25t97.5 68t60 101t21 124v71h-296v125h447v-596h-92l-39 137q-28 -40 -63 -69.5t-77 -48t-88 -27t-96 -8.5q-82 0 -151 22t-124 62t-96 95.5t-69 121.5t-41.5 140.5t-13.5 152.5z" />
<glyph unicode="H" horiz-adv-x="1007" d="M100 0v1180h148v-490h518v490h148v-1180h-148v561h-518v-561h-148z" />
<glyph unicode="I" horiz-adv-x="360" d="M104 0v1180h148v-1180h-148z" />
<glyph unicode="J" horiz-adv-x="608" d="M-22 6v121q38 -8 75 -14.5t76 -6.5q52 0 94.5 11.5t71.5 35t45 61t16 89.5v877h148v-842q0 -80 -21 -146t-65 -112t-114 -71t-169 -25q-42 0 -80.5 6t-76.5 16z" />
<glyph unicode="K" horiz-adv-x="1030" d="M100 0v1180h148v-678l532 678h160l-318 -412l372 -768h-164l-312 652l-270 -336v-316h-148z" />
<glyph unicode="L" horiz-adv-x="831" d="M100 0v1180h148v-1049h567v-131h-715z" />
<glyph unicode="M" horiz-adv-x="1335" d="M100 0v1180h246l334 -954l307 954h240v-1180h-147v1032h-7l-350 -1032h-97l-372 1036h-6v-1036h-148z" />
<glyph unicode="N" horiz-adv-x="1044" d="M100 0v1180h168l516 -910v910h148v-1180h-150l-534 948v-948h-148z" />
<glyph unicode="O" horiz-adv-x="1110" d="M47 582q0 79 13.5 155t41.5 144.5t70 126.5t98.5 100t127 66t155.5 24q86 0 157.5 -24t128 -66.5t99 -101t69.5 -126.5t41 -144q12 -66 11 -134v-20q-2 -76 -17 -150t-43.5 -141t-71 -123t-98 -97t-124 -64t-150.5 -23q-84 0 -154.5 22t-127.5 62t-99 95.5t-70 122 t-42.5 141.5t-14.5 155zM203 580q0 -50 8.5 -107t26.5 -112.5t46 -106t67.5 -88.5t90 -61t113.5 -23q61 0 110.5 23t88 61t66.5 89t47 106t27.5 112.5t8.5 108.5q0 62 -9.5 123.5t-28 118.5t-47 106.5t-67.5 86.5t-88 58t-110 21q-49 0 -90 -14t-75 -38t-61 -56.5t-47.5 -71 t-35 -81t-23.5 -86t-13 -87.5q-5 -42 -5 -82z" />
<glyph unicode="P" horiz-adv-x="997" d="M100 0v1180h480q78 -2 136 -20.5t101 -48t71 -67.5t44.5 -79.5t23 -82.5t6.5 -77q0 -48 -11 -94t-32.5 -86.5t-53 -73.5t-71.5 -58t-89 -39t-105 -16h-352v-438h-148zM248 559h336q51 2 92 22.5t70.5 53.5t45 77t15.5 93q0 48 -14.5 93t-43 80t-70.5 56q-41 22 -97 25 h-334v-500z" />
<glyph unicode="Q" horiz-adv-x="1110" d="M47 582q0 79 13.5 155t41.5 144.5t70 126.5t98.5 100t127 66t155.5 24q83 0 153 -23t126 -64t98.5 -96.5t71 -121.5t43 -139.5t14.5 -149.5q0 -68 -10.5 -135t-32 -129t-54 -117t-74.5 -99.5t-95 -77t-117 -48.5q-1 -12 -0.5 -26t3 -26.5t7 -24t10.5 -19.5 q12 -13 27 -21.5t32 -13.5t36 -7t41 -2q23 0 44.5 2t41.5 5q11 2 22.5 4.5t23.5 3.5v-111q-32 -8 -64 -12t-62 -4q-70 0 -122 13t-87 41t-53.5 73t-20.5 111q-84 0 -154.5 22t-127.5 62t-99 95.5t-70 122t-42.5 141.5t-14.5 155zM203 580q0 -50 8.5 -107t26.5 -112.5 t46 -106t67.5 -88.5t90 -61t113.5 -23t113 24t89 64t66.5 93t45 110t26 115t8.5 108q0 60 -9.5 121t-28.5 116t-48 103t-68 83.5t-88 56t-108 20.5q-49 0 -90 -14t-75 -38t-61 -56.5t-47.5 -71t-35 -81t-23.5 -86t-13 -87.5q-5 -42 -5 -82z" />
<glyph unicode="R" horiz-adv-x="995" d="M100 0v1180h494q66 -2 118.5 -17t93 -39t69 -56t47 -68t26.5 -74.5t8 -75.5q0 -52 -14 -100.5t-42 -89t-68 -71.5t-92 -49l228 -540h-153l-219 510h-348v-510h-148zM248 628h348q42 2 81 18t68 44t46.5 69t17.5 93q0 47 -16 83.5t-43.5 62.5t-63.5 40t-76 16h-362v-426z " />
<glyph unicode="S" horiz-adv-x="995" d="M30 316l134 30q18 -62 49 -110.5t75 -83t100 -52.5t124 -18q75 0 129 19t88.5 51.5t50.5 75t16 88.5q0 44 -17 76t-45 54t-64 37t-74 25l-268 68q-29 7 -58.5 20.5t-56.5 32.5t-50 45t-40 58q-17 30 -26 68q-7 31 -7 65v15q2 55 18 100t43 80t64.5 60.5t81.5 42.5 t93.5 25t101.5 8q74 0 140 -16t121 -51t95 -90q42 -55 64 -131l-136 -38q-10 49 -34.5 91.5t-61.5 73t-85.5 48t-106.5 17.5q-61 0 -108.5 -14t-79.5 -41t-49 -66t-17 -88q0 -44 15 -75t40 -51.5t59 -32.5q33 -14 70 -22q2 -1 14 -3.5t31 -7.5t41.5 -10.5t46.5 -10.5 q28 -8 59.5 -15.5t67.5 -15.5q60 -14 110.5 -42t86.5 -67.5t55.5 -90.5t19.5 -111q0 -72 -28 -136t-84 -113t-138 -77t-190 -28q-92 0 -168 18t-136 58.5t-104 104t-72 153.5z" />
<glyph unicode="T" horiz-adv-x="882" d="M28 1061v119h824v-119h-338v-1061h-148v1061h-338z" />
<glyph unicode="U" horiz-adv-x="995" d="M88 370v810h148v-803q0 -83 23 -140t62 -92t88 -50t101 -15q58 0 107 20.5t85 58t56 89.5t20 116v816h123v-824q-4 -84 -32.5 -152.5t-79.5 -117.5t-123 -75.5t-162 -26.5q-98 0 -174 23t-129 71t-81.5 121t-31.5 171z" />
<glyph unicode="V" horiz-adv-x="1014" d="M14 1180h150l348 -984l348 984h136l-420 -1180h-142z" />
<glyph unicode="W" horiz-adv-x="1548" d="M20 1180h150l274 -969l294 969h130l279 -952l258 952h133l-326 -1180h-137l-283 924l-284 -924h-148z" />
<glyph unicode="X" horiz-adv-x="1089" d="M10 0l453 612l-405 568h172l323 -451l325 451h156l-403 -558l442 -622h-174l-357 504l-374 -504h-158z" />
<glyph unicode="Y" horiz-adv-x="1044" d="M16 1180h168l354 -584l355 584h141l-434 -724v-460h-148v460z" />
<glyph unicode="Z" horiz-adv-x="993" d="M47 0v123l703 929h-670v128h852v-94l-723 -959h743v-127h-905z" />
<glyph unicode="[" horiz-adv-x="442" d="M86 -121v1423h295v-88h-181v-1242h181v-93h-295z" />
<glyph unicode="\" horiz-adv-x="659" d="M90 1182h125l346 -1225h-125z" />
<glyph unicode="]" horiz-adv-x="442" d="M64 -28h180v1242h-180v88h294v-1423h-294v93z" />
<glyph unicode="^" horiz-adv-x="622" d="M14 744l246 417h125l223 -417h-104l-178 317l-210 -317h-102z" />
<glyph unicode="_" horiz-adv-x="1016" d="M0 -194h1016v-72h-1016v72z" />
<glyph unicode="`" horiz-adv-x="407" d="M60 1178h118l125 -480h-63z" />
<glyph unicode="a" horiz-adv-x="850" d="M30 240q0 39 11 74.5t32 66.5t50 55.5t65 40.5q28 13 58 21t61 12.5t63.5 6t65.5 1.5h190v45q0 56 -12 97.5t-37 69.5t-64.5 43t-94.5 15q-42 0 -82 -9t-72 -29.5t-55.5 -53t-32.5 -78.5l-120 21q8 44 27 78.5t47 60.5t62.5 44t72.5 29t78 16t79 5q88 0 150.5 -17 t102 -54t59.5 -94t22 -137v-392q0 -48 2 -93t16 -87h-131q-8 23 -10.5 49.5t-4.5 50.5q-2 14 -2 29v31q-44 -92 -119 -135t-179 -43q-60 0 -114 16t-95 49t-65 81q-24 50 -24 114zM172 234q0 -40 15.5 -72t41 -54t59.5 -33q32 -11 68 -11q39 0 74 11.5t64.5 32t53.5 49 t41 61.5t27 70q8 36 10 72v80h-128q-34 -2 -72 -6t-74 -13t-69 -23.5t-57.5 -37t-39 -53.5t-14.5 -73z" />
<glyph unicode="b" horiz-adv-x="901" d="M104 0v1143h132v-410h6q16 24 39 49.5t53 45.5t67 33t81 13q86 0 152 -31t111 -88t68 -138t23 -179q0 -58 -9 -113.5t-28 -106t-47.5 -93.5t-68 -74.5t-90.5 -49t-114 -17.5q-43 0 -82 11.5t-72.5 33t-61 51.5t-46.5 66l-49 -146h-64zM236 358q0 -58 18 -109t49 -89 t74 -60t92 -22q46 0 80.5 14.5t59.5 40t41 60.5t26 75t14 83t4 87q0 74 -11 137t-37 108.5t-69 71t-108 25.5q-52 0 -94.5 -25t-73.5 -64t-48 -87.5t-17 -95.5v-150z" />
<glyph unicode="c" horiz-adv-x="839" d="M51 426q0 56 10.5 111t32 104.5t54 92t74.5 74t95 49t117 17.5q79 0 140.5 -21t105.5 -59t72 -93q26 -55 38 -121l-120 -17q-4 42 -22.5 81.5t-49.5 70.5t-74 49t-96 18q-45 0 -80 -16t-61.5 -43t-44.5 -63t-30 -75.5t-17 -80t-5 -76.5q0 -35 5.5 -75.5t17 -80.5 t30.5 -77t45 -66t60 -46t78 -17q58 0 100 20.5t71 54t47 76.5t26 86l124 -12q-12 -66 -43 -122t-78 -97.5t-110 -64.5t-139 -23q-64 0 -116 17t-93.5 47.5t-72 72.5t-51 91.5t-30.5 103.5t-10 110z" />
<glyph unicode="d" horiz-adv-x="901" d="M56 438q0 92 22 172t65.5 139t109 92t151.5 33q46 0 84.5 -10.5t69.5 -30t53.5 -45t37.5 -55.5h7v410h130v-1143h-112v146q-20 -36 -46 -66t-59 -51.5t-72 -33t-81 -11.5q-64 0 -115 17t-91 48t-69 74t-48 93t-28 107t-9 115zM196 438q-1 -14 -1 -28q0 -28 3 -57 q4 -43 14 -83t27 -75t42 -61t60 -41t81 -15q50 0 92 21t73 58t49 87q18 49 20 106v158q0 31 -8.5 63.5t-23.5 62.5t-36.5 57t-48 47t-57 31t-64.5 11q-66 0 -107.5 -25.5t-66 -71t-34.5 -108.5q-12 -63 -14 -137z" />
<glyph unicode="e" horiz-adv-x="870" d="M49 424q0 60 10.5 116t32 106t54 92t76.5 72t100 47q54 17 122 17q64 0 116 -14t93 -41t71 -64t51 -82t32 -97t14 -107v-47h-625v-25q0 -69 14 -125q17 -66 50.5 -113t81.5 -72t110 -25q46 0 85.5 16t69.5 43t49.5 62t25.5 71l137 -20q-10 -56 -43.5 -103t-83 -81 t-111 -53t-129.5 -19q-69 0 -125.5 16t-101.5 45t-78 70t-55 90t-32.5 106t-10.5 119zM203 500h473v14q0 48 -12 92q-14 52 -43 92t-73 65t-104 25q-36 0 -67.5 -11.5t-59 -32t-49.5 -48.5t-37 -60t-22 -67q-6 -31 -6 -60v-9z" />
<glyph unicode="f" horiz-adv-x="577" d="M37 746v104h151v20q0 55 9 105q11 59 40 103t78 70t123 26h6q6 -1 15 -1.5t21 -0.5h24q14 -2 29 -2h35v-107q-46 6 -105 6q-37 0 -62 -8.5t-40.5 -24.5t-23.5 -37t-11.5 -45t-3.5 -51v-53h198v-104h-198v-746h-134v746h-151z" />
<glyph unicode="g" horiz-adv-x="911" d="M47 -62q0 34 11.5 67.5t31 61t46.5 48.5q26 21 58 31q-26 7 -44.5 20.5t-31.5 31t-20 37.5q-6 19 -6 39q0 102 123 142q-24 12 -44.5 29t-35.5 40t-24 52t-9 63q0 70 27.5 121t73 85t105.5 50t124 16q94 0 174 -36q8 46 24 74t40 44.5t57.5 22.5t77.5 6h43l4 -109h-41 q-27 -1 -50 -4.5t-40 -13.5t-29.5 -29t-17.5 -49q19 -12 35.5 -31t28 -43t17 -52t3.5 -60q-2 -43 -16.5 -76.5t-37 -59.5t-51.5 -44.5t-60.5 -31t-65 -20.5t-64.5 -12q-21 -2 -42 -0.5t-40.5 4.5t-37 5.5t-29.5 2.5q-16 0 -32 -5t-30 -15t-22.5 -25t-8.5 -35 q0 -19 5.5 -32.5t15.5 -23.5t23 -17t28 -11q24 -6 49.5 -9t51.5 -4t54 -1h60h64.5t70.5 -3t67.5 -10t55.5 -21q18 -12 37 -29t34.5 -40t25 -54t9.5 -70q0 -54 -19 -94t-51 -68t-75 -45.5t-90 -27.5t-95 -14q-50 -3 -94 -3q-52 0 -101 5.5t-94 18t-82.5 31t-65 45t-43 60 t-15.5 75.5zM178 -49q0 -26 11 -49.5t30 -42.5t44.5 -34t56 -25t62.5 -16q32 -5 66 -5q38 0 74.5 5.5t69.5 16t61 25.5t48.5 34t32.5 42t12 49q0 32 -13 57.5t-34.5 43.5t-49 29t-57.5 13q-29 -2 -57.5 -2t-57.5 2q-24 1 -51 2t-53.5 2.5t-52.5 3.5t-48 6q-27 -14 -45 -32.5 t-28.5 -39t-15.5 -42.5t-5 -43zM240 602q0 -44 14 -76.5t39 -54t60.5 -32.5t78.5 -11q38 0 73 10t61 31t41 54t15 81q0 50 -15 85.5t-41 58t-60.5 32.5t-73.5 10q-42 0 -77.5 -10t-61 -32t-39.5 -58t-14 -88z" />
<glyph unicode="h" horiz-adv-x="860" d="M106 0v1143h132v-433h6q18 36 45 66t62 51t79 33q44 10 96 10q59 0 106 -23t79.5 -63t49.5 -94t17 -114v-576h-131v576q0 42 -10.5 76.5t-31.5 59t-52 38.5t-69 14q-40 0 -73 -11.5t-60 -32t-47.5 -48.5t-35 -61t-22.5 -70q-6 -37 -8 -74v-467h-132z" />
<glyph unicode="i" horiz-adv-x="348" d="M106 994v149h136v-149h-136zM108 0v850h132v-850h-132z" />
<glyph unicode="j" horiz-adv-x="348" d="M-114 -184q56 -13 98 -13t69.5 15.5t41 48.5t13.5 84v899h132v-897q0 -74 -20 -124.5t-53 -80.5t-77.5 -42.5t-93.5 -12.5q-16 0 -29.5 1.5t-27 3.5t-26.5 5.5t-27 7.5v105zM106 994v149h136v-149h-136z" />
<glyph unicode="k" horiz-adv-x="844" d="M102 0v1143h132v-737l434 444h147l-287 -303l316 -547h-136l-262 465l-212 -219v-246h-132z" />
<glyph unicode="l" horiz-adv-x="348" d="M108 0v1143h132v-1143h-132z" />
<glyph unicode="m" horiz-adv-x="1407" d="M104 0v850h119v-176h5q14 39 42 74t65 61.5t80 41.5t87 15q58 0 102 -13t74 -38t47 -59.5t23 -77.5q12 43 42.5 77.5t71 59.5t86.5 38t88 13q62 0 110 -14t81 -43t51 -75q18 -48 20 -112v-622h-130v610q0 178 -160 178q-26 0 -54.5 -9t-55 -26.5t-50.5 -43t-42 -58.5 t-29 -73q-11 -38 -13 -84v-494h-131v622q0 86 -37 126q-36 40 -110 40q-34 0 -65 -12t-58 -33t-50 -51t-40 -65t-27 -74q-8 -39 -10 -80v-473h-132z" />
<glyph unicode="n" horiz-adv-x="866" d="M98 0v850h123v-176h5q18 43 47 78.5t66.5 60.5t82 39t92.5 14q65 0 112.5 -16.5t79.5 -48t48 -76.5t18 -101v-624h-131v618q0 37 -8.5 68.5t-27 54t-47 35t-68.5 12.5q-36 0 -69.5 -13t-62 -36t-51.5 -55t-40 -69t-27 -77q-8 -40 -10 -82v-456h-132z" />
<glyph unicode="o" horiz-adv-x="864" d="M47 434q0 59 11 114.5t33 104.5t54.5 90t75.5 70t97 45t118 16q63 0 115.5 -17t94.5 -47.5t73 -72.5t52 -91t31.5 -103.5t10.5 -110.5q0 -60 -11.5 -116t-33.5 -106t-55 -91.5t-76 -71.5t-96 -46.5t-115 -16.5q-64 0 -116.5 16t-95 46t-73.5 71t-52 91t-31.5 107 t-10.5 119zM192 434q0 -86 15 -155t45 -116t74 -72t102 -25q64 0 109.5 27t74 76.5t41.5 117t13 147.5q0 82 -15 148t-45 112.5t-74 71t-102 24.5t-102.5 -25t-74.5 -72t-45.5 -113t-15.5 -146z" />
<glyph unicode="p" horiz-adv-x="901" d="M100 -282v1132h119v-160h4q32 87 99.5 133.5t167.5 46.5q60 0 109 -17t88 -47.5t69 -72t49 -90.5t29 -103t10 -110q0 -62 -11 -119t-33 -107t-53 -91t-70.5 -71t-87 -46t-101.5 -16q-46 0 -83 10t-68 29t-57 47t-48 65v-413h-132zM232 330q0 -28 8 -59t23 -60t36 -54.5 t46 -45t53 -30.5t58 -11q58 0 103 29.5t76 80t46 115.5t15 137q0 40 -5.5 80.5t-17.5 79t-30.5 72t-45.5 58.5t-61 39.5t-77 14.5t-81 -21t-67.5 -54t-50 -73.5t-28.5 -80.5v-217z" />
<glyph unicode="q" horiz-adv-x="901" d="M51 430q0 60 10.5 116t31.5 106t52 90.5t71.5 69.5t91.5 44q44 14 96 14h14q94 -2 157 -43t99 -123h4l62 146h56v-1132h-130v413q-22 -36 -47 -64.5t-55.5 -47.5t-66.5 -29t-79 -10q-84 0 -152 32t-116 91t-73.5 142t-25.5 185zM200 424q0 -80 17 -146t48 -113t75 -73 t100 -26q30 0 59 11t54 31t45.5 46t35.5 55t23.5 60t8.5 61v217q-8 40 -29 81.5t-50.5 76t-67 56t-81.5 21.5t-78.5 -14t-61 -39t-45.5 -59t-30.5 -74t-17 -84t-5.5 -88z" />
<glyph unicode="r" horiz-adv-x="573" d="M108 0v850h118v-186h4q12 38 33 74t52 65t72 47t92 18h21q11 0 21.5 -2t20.5 -4v-122h-15t-13 2q-11 0 -20.5 1t-14.5 1q-40 0 -72.5 -13t-59.5 -35t-47 -52.5t-33.5 -65.5t-20 -73.5t-6.5 -76.5v-428h-132z" />
<glyph unicode="s" horiz-adv-x="798" d="M49 184l137 29q8 -40 29 -69t51 -47.5t66 -27.5q38 -9 76 -9q32 0 66 8t62.5 25t47 44t18.5 63q0 18 -4 37t-15 36t-29 31q-18 16 -46 24l-207 55q-48 12 -91.5 32t-75.5 50.5t-51 72t-19 97.5q0 60 26.5 104.5t71 74t101 44t116.5 14.5q64 0 117.5 -12.5t94.5 -36 t69 -57.5t44 -76l-124 -22q-10 22 -24 43t-36 38.5t-54 28t-81 10.5q-43 0 -78 -10t-59.5 -28t-38 -42t-13.5 -52q0 -32 12.5 -55t33 -39t46 -27t52.5 -19q34 -8 66 -17t61 -17q26 -8 51.5 -17t48.5 -18t42 -17t30 -14q27 -18 46 -39t32 -46t19 -54.5t6 -67.5 q0 -62 -28.5 -106t-75.5 -72.5t-107.5 -41.5t-124.5 -13t-122 10t-105.5 34.5t-80.5 64.5q-34 39 -49 99z" />
<glyph unicode="t" horiz-adv-x="579" d="M6 746v104h156l20 221h104v-221h212v-104h-212v-516q0 -142 126 -142h18t39 2h25t30 2v-94l-126 -6q-11 -1 -21 -1q-43 1 -79 11q-44 12 -75 41t-48 75q-17 48 -19 112v516h-150z" />
<glyph unicode="u" horiz-adv-x="868" d="M100 260v590h132v-598q0 -39 11 -72.5t32 -57.5t52 -37t71 -13q56 0 99 24t74 65t48 95q17 52 20 110v484h131v-850h-118v156h-5q-16 -40 -42.5 -72t-60.5 -54t-74.5 -34t-84.5 -12q-70 0 -122.5 21t-87.5 59t-54 88t-21 108z" />
<glyph unicode="v" horiz-adv-x="788" d="M8 850h144l250 -694l258 694h120l-319 -850h-129z" />
<glyph unicode="w" horiz-adv-x="1183" d="M12 850h125l205 -645l221 645h97l204 -645l199 645h107l-250 -850h-109l-201 637l-221 -637h-109z" />
<glyph unicode="x" horiz-adv-x="788" d="M12 0l306 442l-279 408h153l204 -297l206 297h131l-272 -391l313 -459h-156l-235 346l-241 -346h-130z" />
<glyph unicode="y" horiz-adv-x="788" d="M16 850h138l260 -662l231 662h125l-336 -930q-20 -58 -46 -99.5t-59 -68t-73 -40t-90 -15.5q-30 0 -56 3.5t-50 10.5v107q42 -12 86 -12q32 0 58 8t46 23t35.5 35t28 43.5t21.5 49t17 49.5z" />
<glyph unicode="z" horiz-adv-x="774" d="M47 0v102l489 644h-468v104h642v-74l-514 -674h525v-102h-674z" />
<glyph unicode="{" horiz-adv-x="489" d="M76 582v20q22 4 42 20t36 44t25 67t9 88l-2 299q0 53 12 89.5t31 58.5t44 31t53 9h100v-86l-70 -2q-21 -1 -33.5 -7t-20.5 -18.5t-10.5 -30.5t-2.5 -42v-170q0 -33 0.5 -63.5t0.5 -55t0.5 -39.5t0.5 -16q0 -38 -5 -65.5t-12.5 -48t-17 -33.5t-18 -22t-16.5 -13t-11 -6 q4 -2 11.5 -7t16 -13t18 -21t17 -32t12.5 -46t5 -63q-2 -48 -2 -91v-79v-172q0 -24 3.5 -44t10.5 -33t20 -20t33 -8l70 -2v-86h-100q-26 0 -51 9.5t-45 31.5t-32 58t-12 90l2 298q0 49 -9 88t-25 66.5t-36 44.5t-42 23z" />
<glyph unicode="|" horiz-adv-x="358" d="M112 -244v1668h134v-1668h-134z" />
<glyph unicode="}" horiz-adv-x="489" d="M64 -41l69 2q21 0 34 7.5t20 20.5t10 33t3 44v15q0 15 -0.5 38.5t-1 54t-0.5 64.5v170q0 36 5 63t13 46t17 32t18 21t17 13q6 5 10 7q-4 2 -11 6t-16 13t-18 22t-17 33.5t-13 48t-5 65.5v174v80t2 90q0 24 -2.5 42t-10 30.5t-20.5 19t-34 6.5l-69 2v86h100q26 0 51 -9 t44.5 -31t31.5 -58t12 -90l-2 -299q0 -49 9.5 -88t25.5 -67t36 -44t42 -20v-20q-22 -6 -42 -23t-36 -44.5t-25.5 -66t-9.5 -88.5l2 -298q0 -54 -12 -90t-31.5 -58t-44.5 -31.5t-51 -9.5h-100v86z" />
<glyph unicode="~" horiz-adv-x="1155" d="M135 465v103l283 108l305 -162l297 110v-102l-297 -108l-305 164z" />
<glyph unicode="&#xa2;" horiz-adv-x="839" d="M119 588q0 64 16.5 125.5t50.5 111t83.5 83.5t115.5 44v140h82v-138q56 -6 100.5 -25t76.5 -50t52 -72.5t29 -91.5l-101 -15q-3 30 -14.5 60t-31 53.5t-47.5 40t-64 22.5v-579q36 7 62.5 26t46 45t31 57t17.5 63l103 -11q-8 -49 -30 -91.5t-55.5 -75t-77.5 -54.5t-97 -28 v-138h-82v138q-45 6 -82 22.5t-67 42t-52 58.5t-36 71.5t-21.5 80.5t-7.5 85zM232 590q0 -25 3 -54t11 -58.5t20 -58.5t29 -52.5t39.5 -41.5t50.5 -26v575q-28 -6 -50.5 -22t-39.5 -39t-29 -51t-20 -57t-11 -59t-3 -56z" />
<glyph unicode="&#xa3;" horiz-adv-x="1011" d="M98 0v127h68q46 39 74 81t43.5 80.5t20.5 71t5 52.5q0 16 -3.5 33.5t-8.5 34t-11 32.5q-6 14 -12 26h-176v95h119q-13 28 -26.5 55.5t-24 56.5t-17.5 60t-7 63q0 34 8 72t26.5 75.5t49 71.5t76.5 60t107 41.5t142 15.5q62 0 112.5 -14t89.5 -39t68 -58.5t47.5 -73 t27.5 -82t9 -85.5v-18h-135v8q0 54 -17 100t-48.5 80t-75 53t-97.5 19q-47 0 -83.5 -11.5t-64 -30t-46.5 -41.5t-31 -47t-17.5 -47t-5.5 -41q0 -26 6 -52t18 -55.5t29 -63t38 -72.5h279v-95h-234q4 -14 7 -27.5t5 -27t3 -28.5t1 -33q0 -33 -9.5 -70.5t-29 -76.5t-50.5 -77 t-75 -71h594v-127h-768z" />
<glyph unicode="&#xa5;" horiz-adv-x="1044" d="M16 1180h168l354 -584l355 584h141l-286 -478h252v-112h-320l-80 -134h400v-112h-400v-348h-148v348h-407v112h407l-80 134h-327v112h260z" />
<glyph unicode="&#xa9;" horiz-adv-x="1333" d="M53 592q0 84 22 162t61.5 146t95.5 124t124 96t146 62t162 22t162 -22t146 -62t124 -95t96 -123t62 -146t22 -162q0 -85 -22 -163.5t-62 -146.5t-96 -124.5t-124 -96t-146 -61.5t-162 -22t-162 22t-146 61.5t-124 95.5t-95.5 124t-61.5 146.5t-22 162.5zM154 594 q0 -72 18 -138t51 -123t79 -104t103 -80t122 -51t137 -18q71 0 136.5 18t122.5 51t103.5 80t79.5 104t51.5 123t18.5 138v-2q0 72 -18.5 138t-51.5 123t-79.5 103.5t-103.5 80t-123 51.5t-136 18q-71 0 -136.5 -18t-122.5 -51t-103 -80t-79 -104t-51 -122.5t-18 -136.5z M383 590q0 42 8.5 83t24.5 79t40 70t56 55.5t72 37t88 13.5q58 0 104 -16t79 -45.5t54 -70t29 -90.5l-90 -12q-4 32 -18 61t-37 52t-55 37t-72 14q-34 0 -60 -12t-46 -33t-33.5 -48t-22 -57t-12.5 -60t-4 -56t4 -56.5t13 -61t23 -58.5t33.5 -49t45 -34t59.5 -13 q43 0 74.5 15t53.5 40t35 57t19 66l94 -8q-9 -49 -32.5 -91.5t-59.5 -73.5t-83 -49t-103 -18q-70 0 -123 28.5t-88 75t-52.5 106.5t-17.5 122z" />
<glyph unicode="&#xab;" horiz-adv-x="913" d="M84 502v120l375 244v-80l-283 -223l283 -239v-86zM432 502v120l375 244v-80l-283 -223l283 -239v-86z" />
<glyph unicode="&#xad;" horiz-adv-x="790" d="M28 420v110h734v-110h-734z" />
<glyph unicode="&#xae;" horiz-adv-x="1018" d="M110 660q0 55 14.5 106t40.5 95.5t62.5 80.5t80.5 62t95.5 40.5t106.5 14.5q54 0 105 -14.5t95 -40.5t80.5 -62t62.5 -80.5t40.5 -95.5t14.5 -106t-14.5 -105.5t-40.5 -95t-62.5 -81t-80.5 -62.5t-95 -40t-105 -14q-56 0 -107 14t-95 40t-80.5 62.5t-62.5 81t-40.5 94.5 t-14.5 106zM170 658q0 -70 26.5 -132t72.5 -108t107.5 -72t131.5 -26q47 0 90.5 12t81.5 34t69 53t53 68t34 81t12 90t-12 89t-34 81t-53 69t-69 53t-81.5 34t-90.5 12q-70 0 -131.5 -27t-107.5 -73t-72.5 -107t-26.5 -131zM360 465v411h152q36 -2 67 -10t53 -24t34 -42 q11 -24 8 -62q-7 -69 -74 -97l74 -176h-84l-66 161h-86v-161h-78zM438 690h84q14 0 28 3t24 10t16 18t6 27q0 18 -6 29t-17 18.5t-25 10.5t-30 3h-80v-119z" />
<glyph unicode="&#xbb;" horiz-adv-x="913" d="M106 238v86l285 239l-285 223v80l376 -244v-120zM452 238v86l286 239l-286 223v80l376 -244v-120z" />
<glyph unicode="&#xbc;" horiz-adv-x="1259" d="M45 946v102q30 12 54.5 25t46 29t41 35t41.5 45h84v-572h126v-90h-370v90h128v404q-16 -12 -31 -21t-33 -16.5t-39 -15t-48 -15.5zM289 0l604 1180h133l-604 -1180h-133zM708 148v73l306 443h126v-422h110v-94h-110v-146h-112v146h-320zM840 242h188v282z" />
<glyph unicode="&#xbd;" horiz-adv-x="1259" d="M56 946v102q30 12 54 25t45.5 29t41.5 35q21 19 41 45h84v-572h126v-90h-370v90h129v404q-16 -12 -31.5 -21t-33 -16.5t-39 -15t-47.5 -15.5zM262 0l604 1180h134l-604 -1180h-134zM762 461q14 50 36 89t53 66t69 42q40 14 88 14q53 0 96.5 -18t74.5 -48t48.5 -70 t17.5 -84q0 -42 -10.5 -76t-28.5 -62t-43 -52t-53 -47l-152 -123h281v-92h-457v74l244 196q22 18 40 38t31 41.5t20 47t7 55.5q0 28 -8 53.5t-23 44t-37 29.5t-48 11q-28 0 -50.5 -11t-39 -32t-27.5 -50t-17 -65z" />
<glyph unicode="&#xbe;" horiz-adv-x="1259" d="M18 690l109 35q14 -66 52.5 -98.5t92.5 -32.5q33 0 57.5 9t41.5 24t25 35t8 42q0 27 -11 48t-29 35.5t-42 22.5q-24 7 -48 7h-102v95h106q54 0 78.5 27t24.5 75q0 22 -7.5 39t-21 29t-33 19t-43.5 7q-22 0 -42 -6.5t-37 -20t-30 -35.5t-19 -52l-111 28q14 47 38.5 79.5 t55.5 52.5t68 29t77 9q46 0 86 -12t70 -36t47 -58t17 -76q0 -50 -23 -87t-61 -57q22 -10 42 -25t34.5 -36t23 -47t8.5 -56q0 -34 -14 -68t-45 -60.5t-79 -43.5q-48 -16 -114 -16q-42 0 -81 10t-71.5 31t-57.5 55q-26 33 -40 80zM318 0l604 1180h132l-604 -1180h-132z M706 148v73l306 443h126v-422h109v-94h-109v-146h-112v146h-320zM838 242h188v282z" />
<glyph unicode="&#xd7;" horiz-adv-x="1059" d="M170 164l295 288l-289 290l92 92l289 -287l289 289q7 -8 17 -18t20.5 -20t20.5 -20t16 -18l-294 -289l277 -281l-88 -88l-275 277l-294 -293q-24 18 -41 38t-35 40z" />
<glyph unicode="&#xf7;" horiz-adv-x="1216" d="M154 414v124h909v-124h-909zM500 246q0 22 8.5 42t23 34.5t34.5 23t42 8.5t42 -8.5t35 -23t23.5 -34.5t8.5 -42t-8.5 -41t-23.5 -34t-35 -23t-42 -8t-42 8t-34.5 23t-23 34t-8.5 41zM500 706q0 22 8.5 41t23 34t34.5 23.5t42 8.5t42 -8.5t35 -23.5t23.5 -34t8.5 -41 t-8.5 -42t-23.5 -34.5t-35 -23t-42 -8.5t-42 8.5t-34.5 23t-23 34.5t-8.5 42z" />
<glyph unicode="&#xe01;" horiz-adv-x="889" d="M102 704v56q14 12 37.5 24.5t53 24.5t63.5 22.5t70 19t73 13t72 4.5q60 0 115.5 -12t97 -39.5t66 -71t24.5 -104.5v-641h-127v612q0 38 -11.5 70t-35 55t-60 36t-86.5 13q-47 0 -86.5 -14t-68.5 -38t-45 -56t-16 -68v-610h-132v496q0 33 2.5 58.5t9 47.5t19.5 43t35 43 q-4 2 -10 4t-10 4q-11 4 -23.5 6t-26.5 2z" />
<glyph unicode="&#xe02;" horiz-adv-x="778" d="M72 221q0 50 16 94.5t41 85.5t53.5 79.5t53 75t41 72.5t16.5 72q0 30 -12.5 51t-34.5 30t-54 4t-71 -27l-23 74q24 12 56 21t67 12t69 -2.5t61 -22t44 -46.5t17 -77q0 -37 -9 -69t-23 -61t-32 -56t-37 -54t-37 -54t-32 -56t-22.5 -62t-8.5 -69q0 -56 15.5 -91t39.5 -56 t52 -28.5t52 -7.5q28 0 58 8.5t54 29.5t39 57t15 90v612h128v-600q0 -62 -15 -112t-49 -86t-89 -55t-134 -19q-66 0 -122 13.5t-96.5 43t-63.5 75.5t-23 111z" />
<glyph unicode="&#xe03;" horiz-adv-x="778" d="M64 782l14 82q10 -4 22 -7.5t25 -9.5t27 -16t28 -26q19 24 44.5 39t53 19.5t54 -0.5t47.5 -20t34 -41q13 -24 13 -60q0 -50 -16 -93.5t-40 -83.5t-52 -78.5t-51.5 -77.5t-39.5 -82t-16 -91q0 -58 15.5 -94t39.5 -55.5t52 -26.5t52 -7q28 0 58 8.5t54 29.5t39 57t15 90 v612h128v-600q0 -62 -15 -112t-49 -86t-89 -55t-134 -19q-66 0 -122 13t-96.5 42.5t-63.5 75t-23 110.5q0 50 17.5 97.5t44 90.5t57.5 84t58 80t45 76t18 74q0 24 -12 36.5t-31 13.5t-43 -11t-48 -37q-8 8 -20.5 17.5t-27.5 17.5t-32 15q-16 7 -34 9z" />
<glyph unicode="&#xe04;" horiz-adv-x="874" d="M102 0v590q0 56 21 107t63.5 90t107 62t150.5 23t148.5 -23t103 -62t59.5 -90t19 -107v-590h-127v600q0 48 -15.5 84t-43.5 59.5t-65 35t-81 11.5t-82.5 -11.5t-67.5 -35t-45.5 -59.5t-16.5 -84v-200q14 30 32 52t39.5 38t44 26t45 16t43 7t37.5 -1v-114q-31 4 -61 -3 t-56.5 -22t-49 -36t-39.5 -44.5t-26 -47t-9 -43.5v-228h-128z" />
<glyph unicode="&#xe05;" horiz-adv-x="882" d="M96 0v584q0 50 14 96t42 83.5t69 64.5q41 26 97 38l114 -86l123 86q52 -12 92 -37.5t66.5 -63t40.5 -83.5t14 -98v-584h-127v598q0 33 -9 62t-23 52t-31 39t-33 23l-113 -74l-110 74q-18 -7 -36 -23t-32 -39t-22.5 -52t-8.5 -62v-198q21 45 52 73t65 43.5t67 19.5t58 2 v-114q-31 4 -61 -3t-57 -22t-49.5 -36t-39 -44.5t-26 -47t-9.5 -43.5v-228h-127z" />
<glyph unicode="&#xe06;" horiz-adv-x="874" d="M47 782l15 82q10 -4 21.5 -7.5t24.5 -9.5t27.5 -16t28.5 -26q18 22 38 35t41 19t41 6t36 -3q22 -6 38.5 -17t28 -27t17.5 -36q6 -18 6 -40q-2 -31 -10 -56.5t-21.5 -49.5t-34.5 -50q-20 -26 -47 -56q-14 -16 -24.5 -33t-17.5 -34.5t-10 -35t-3 -31.5v-62q0 -26 6.5 -56 t20 -58t32.5 -54.5t44 -47t55 -32.5t65 -14q30 -2 55 5t43.5 22t32.5 36t22.5 45.5t12.5 51t4 52.5v566h127v-608q0 -59 -18 -107.5t-51.5 -82.5t-82 -52t-108.5 -18q-32 0 -72 9t-78 29t-70 52t-50 78v-150h-120v336q0 53 5.5 86.5t15 56.5t22.5 38.5t29 31.5 q33 36 59.5 66.5t40.5 56.5t15 47t-17 37q-9 10 -26 11t-35.5 -4t-35.5 -15t-25 -23q-8 8 -20.5 17t-27 17t-31.5 14.5t-34 8.5z" />
<glyph unicode="&#xe07;" horiz-adv-x="870" d="M66 754h126l185 -670h27q38 0 77 22.5t72 65.5t55.5 105.5t26.5 142.5q2 44 -1 88t-11.5 83t-23.5 73t-38 58t-55 38t-74 14q-18 0 -36 -2t-36 -12l-14 80q25 11 58.5 16.5t66.5 5.5q62 0 108 -17t79.5 -48t54.5 -72.5t33.5 -90t17 -101.5t2.5 -107q-2 -56 -13 -109 t-30 -100.5t-45 -87t-58 -68.5t-69 -45t-78 -16h-199z" />
<glyph unicode="&#xe08;" horiz-adv-x="839" d="M14 692q24 48 63.5 82.5t88 56t103.5 31.5t110 10q108 0 182.5 -30t117.5 -82t54 -122t-10 -150l-125 -488h-198l-120 385q-6 14 -15 22.5t-19.5 12.5t-21 3.5t-19.5 -3.5l43 120q33 3 56.5 -4t40.5 -21.5t28 -35.5t18 -45l107 -346l98 420q16 68 6 120t-40 88.5 t-77.5 55t-107.5 18.5q-16 0 -35.5 -2t-41.5 -7t-44 -14t-42 -22t-38 -33q-16 -18 -28 -44z" />
<glyph unicode="&#xe09;" horiz-adv-x="880" d="M74 692q20 48 56 82.5t83 56t101 31.5t108 10q70 0 123 -12t91 -33.5t64 -50t41.5 -59.5t22 -64.5t6.5 -64.5v-588h-118v150q-18 -46 -51 -78t-71 -52t-77.5 -29t-71.5 -9q-61 0 -109.5 18t-82 52t-52 82t-18.5 108v242h129v-200q0 -26 4 -52.5t13 -51t22 -45.5t32 -36 t44 -23q25 -6 55 -4q35 2 65.5 14t54.5 32.5t43 47t32 54.5t19.5 58t6.5 56v246q0 19 -2.5 41.5t-10 46.5t-22 46t-38.5 39t-59 27t-83 10q-24 0 -54 -4t-60 -17.5t-57 -38t-46 -62.5z" />
<glyph unicode="&#xe0a;" horiz-adv-x="778" d="M74 221q0 50 16 94.5t41 85.5t53.5 79.5t53 75t41 72.5t16.5 72q0 30 -12.5 51t-34.5 30t-54 4t-71 -27l-23 74q24 12 56 21t67 12t69 -2.5t61 -22t44 -46.5t17 -77q0 -37 -9 -69t-23 -61t-32 -56t-37 -54t-37 -54t-32 -56t-22.5 -62t-8.5 -69q0 -56 15.5 -91t39.5 -56 t52 -28.5t52 -7.5q28 0 58 8.5t54 29.5t39 57t15 90v276q0 24 -6.5 44.5t-16.5 35.5t-21.5 24.5t-20.5 12.5v6q28 19 49.5 50t36.5 69t23 80t8 82h133q0 -42 -11 -83t-31.5 -77t-48.5 -65t-62 -48q12 -4 24 -10.5t22 -16.5q9 -8 18.5 -18.5t16 -24t11 -30.5t4.5 -39v-256 q0 -62 -15 -112t-49 -86t-89 -55t-134 -19q-66 0 -122 13.5t-96.5 43t-63.5 75.5t-23 111z" />
<glyph unicode="&#xe0b;" horiz-adv-x="778" d="M66 782l14 82q10 -4 22 -7.5t25 -9.5t27 -16t28 -26q19 24 44.5 39t53 19.5t54 -0.5t47.5 -20t34 -41q13 -24 13 -60q0 -50 -16 -93.5t-40 -83.5t-52 -78.5t-51.5 -77.5t-39.5 -82t-16 -91q0 -58 15.5 -94t39.5 -55.5t52 -26.5t52 -7q28 0 58 8.5t54 29.5t39 57t15 90 v276q0 24 -6.5 44.5t-16.5 35.5t-21.5 24.5t-20.5 12.5v6q28 19 49.5 50t36.5 69t23 80t8 82h133q0 -42 -11 -83t-31.5 -77t-48.5 -65t-62 -48q12 -4 24 -10.5t22 -16.5q9 -8 18.5 -18.5t16 -24t11 -30.5t4.5 -39v-256q0 -62 -15 -112t-49 -86t-89 -55t-134 -19 q-66 0 -122 13t-96.5 42.5t-63.5 75t-23 110.5q0 50 17.5 97.5t44 90.5t57.5 84t58 80t45 76t18 74q0 24 -12 36.5t-31 13.5t-43 -11t-48 -37q-8 8 -20.5 17.5t-27.5 17.5t-32 15q-16 7 -34 9z" />
<glyph unicode="&#xe0c;" horiz-adv-x="1306" d="M102 704v56q22 18 58 37t81 35t97 26t104 10q60 0 112 -12t90 -39.5t59.5 -71t21.5 -104.5v-359q0 -20 6.5 -43t19.5 -46t30.5 -44t39 -37t46.5 -26t53 -10q74 0 109.5 37t35.5 117v620h131v-650q0 -52 -16 -92.5t-46 -69t-74 -43.5t-100 -15q-40 0 -78 11.5t-70.5 31 t-56.5 45.5t-36 55v-123h-121v612q0 38 -8 70t-28 55t-53 36t-83 13q-48 0 -84 -14t-59 -38t-34 -56t-11 -68v-532h98v-78h-230v496q0 33 2.5 58.5t9 47.5t19.5 43t35 43q-4 2 -10 4t-10 4q-11 4 -23.5 6t-26.5 2z" />
<glyph unicode="&#xe0d;" horiz-adv-x="1306" d="M102 704v56q22 18 58 37t81 35t97 26t104 10q60 0 112 -12t90 -39.5t59.5 -71t21.5 -104.5v-411q0 -80 35.5 -117t109.5 -37q27 0 52.5 9t47 24.5t39 36t30.5 43.5t19.5 47t6.5 46v568h131v-794q0 -70 -23 -129t-69 -101t-113 -65t-155 -23q-33 0 -68 5t-67.5 13 t-60.5 20q-27 14 -46 28l37 77q18 -14 40 -27t48 -22.5t54.5 -14.5t60.5 -5q62 0 104 14t69 38.5t42 57t21.5 67.5t8 72t1.5 70q-12 -28 -38 -55t-60 -48.5t-74 -34.5t-78 -13q-56 0 -99.5 15t-73 43.5t-44.5 69.5q-15 40 -15 92v412q0 38 -8 70t-28 55t-53 36t-83 13 q-48 0 -84 -14t-59 -38t-34 -56t-11 -68v-532h98v-78h-230v496q0 33 2.5 58.5t9 47.5t19.5 43t35 43q-4 2 -10 4t-10 4q-11 4 -23.5 6t-26.5 2z" />
<glyph unicode="&#xe0e;" horiz-adv-x="907" d="M35 0v82h90v414q0 33 2.5 58.5t9 47.5t19.5 43q12 21 34 43q-4 2 -10 4t-10 4q-11 4 -23 6t-26 2v56q22 18 62.5 37t91 35t106.5 26q57 10 109 10q60 0 115 -12t97 -39.5t66 -71t24 -104.5v-717q0 -36 -11 -71t-36 -63t-62.5 -45t-90.5 -17h-182l-86 86l-86 -86h-185v86 h156l115 114l114 -114h107q22 0 43.5 4t38.5 20t28 47t11 85v642q0 38 -12 70t-35 55t-59.5 36t-86.5 13q-47 0 -87 -14t-69 -38t-45 -56t-16 -68v-610h-221z" />
<glyph unicode="&#xe0f;" horiz-adv-x="907" d="M35 0v82h90v414q0 33 2.5 58.5t9 47.5t19.5 43q12 21 34 43q-4 2 -10 4t-10 4q-11 4 -23 6t-26 2v56q22 18 62.5 37t91 35t106.5 26q57 10 109 10q60 0 115 -12t97 -39.5t66 -71t24 -104.5v-717q0 -36 -12 -71t-37 -63t-63 -45t-90 -17h-54l-86 86l-86 -86h-57l-86 86 l-86 -86h-82v86h53l115 114l115 -114l114 114l115 -114q24 0 42.5 6t31.5 22t20 42t7 65v663q0 38 -12 70t-35 55t-59.5 36t-86.5 13q-47 0 -87 -14t-69 -38t-45 -56t-16 -68v-610h-221z" />
<glyph unicode="&#xe10;" horiz-adv-x="870" d="M26 676q18 38 45 67t59 50t67.5 36t71 24t69.5 13t62 4q20 0 44 -2t50 -7t53.5 -14t54.5 -21q18 12 29 26.5t16 31t7 33.5q4 17 6 31h118q-3 -19 -10.5 -41.5t-21.5 -44.5t-34 -43t-48 -37q33 -26 58.5 -57t43 -74t26.5 -100t9 -131q0 -62 -14.5 -117t-38 -102t-54 -84 t-62.5 -63t-64 -40t-58 -14h-158l-98 358q-6 18 -13 29t-17 17t-22 8t-26 4l35 110q40 0 69 -11t47.5 -28t28.5 -38t14 -39l89 -324h8q10 0 28.5 8t40.5 25t45 43t42 62.5t31 84t12 107.5q0 75 -12 131.5t-32 98t-46.5 69t-56 44t-60.5 23t-59 6.5q-40 0 -75 -6.5t-66 -22.5 t-57 -43q-24 -26 -46 -64zM98 -194h125l115 114l114 -114h56q24 0 43 3t32 13t20 29t7 53v53h125v-63q0 -52 -15.5 -85.5t-40.5 -53t-57 -27.5t-67 -8h-131l-86 86l-86 -86h-154v86z" />
<glyph unicode="&#xe11;" horiz-adv-x="903" d="M0 748l39 104q16 -7 35.5 -21t37.5 -31.5t34 -36.5t24 -36h6l54 123h42v-138l4 -2q22 43 52 73.5t63 49.5t69 27t68 8q60 0 109 -15t84 -45t53 -75t18 -105v-628h-130v628q0 17 -3 35.5t-9 36t-17 33.5t-27 27.5t-37.5 18.5t-50.5 7q-32 0 -63 -11t-58 -30t-50 -45 t-39.5 -56t-26 -63.5t-9.5 -66.5v-514h-130v594q-8 34 -24.5 60.5t-36 45t-41 30.5t-40.5 18z" />
<glyph unicode="&#xe12;" horiz-adv-x="1372" d="M58 414q0 108 23 191.5t66.5 141t104 87.5t135.5 30q54 0 97.5 -25t76.5 -85l119 94h110v-566q0 -20 7 -43t20 -46t30 -44t39 -37t47 -26t52 -10q74 0 109.5 37t35.5 117v618h132v-648q0 -52 -16 -92.5t-46 -69t-74 -43.5t-100 -15q-40 0 -78.5 11.5t-71 31t-56.5 45.5 t-36 55v-123h-122v748l-126 -92q-14 33 -28 56.5t-31 38.5t-39 22t-53 7q-39 0 -73 -25t-58.5 -71t-38 -112.5t-10.5 -149.5q2 -77 14 -140t37 -108.5t64 -73.5q40 -26 98 -32q9 -1 19.5 -0.5t21.5 3.5t20 7t17 10l16 -74q-12 -7 -27 -12.5t-32 -9.5t-34.5 -6t-33.5 -2 q-53 0 -98 16t-81 45.5t-64 70t-47 88.5t-28 101t-9 109z" />
<glyph unicode="&#xe13;" horiz-adv-x="1306" d="M102 704v56q22 18 58 37t81 35t97 26t104 10q60 0 112 -12t90 -39.5t59.5 -71t21.5 -104.5v-411q0 -80 35.5 -117t109.5 -37q27 0 52.5 10t47 26t39 37t30.5 44t19.5 46t6.5 43v568h129v-850h-123v123q-12 -28 -36.5 -54.5t-56.5 -46t-70 -31t-78 -11.5q-56 0 -99.5 15 t-73 43.5t-44.5 69.5q-15 40 -15 92v412q0 38 -8 70t-28 55t-53 36t-83 13q-48 0 -84 -14t-59 -38t-34 -56t-11 -68v-532h98v-78h-230v496q0 33 2.5 58.5t9 47.5t19.5 43t35 43q-4 2 -10 4t-10 4q-11 4 -23.5 6t-26.5 2z" />
<glyph unicode="&#xe14;" horiz-adv-x="911" d="M66 432q0 105 27.5 187t78.5 138.5t123.5 85.5t160.5 29q72 0 135 -16t110 -52.5t73.5 -94t26.5 -139.5v-570h-129v547q0 62 -15 107.5t-43 75.5t-68 45q-42 15 -94 15q-30 0 -59.5 -7.5t-56.5 -25t-50.5 -44.5t-40.5 -66t-26.5 -90t-9.5 -117q0 -77 14.5 -144t43.5 -117 t72 -78.5t101 -28.5q18 0 37.5 4t30.5 10l16 -72q-24 -14 -51 -20t-61 -6q-58 0 -106 18t-86 50t-67 75t-48.5 92t-29 103t-9.5 106z" />
<glyph unicode="&#xe15;" horiz-adv-x="911" d="M45 418q0 84 16 150t42.5 115t61 83t71.5 55t74 30t69 9q33 0 61 -8t51.5 -22t41.5 -32t30 -40l115 92h120v-850h-128v752l-130 -90q-16 34 -34 55t-38.5 33.5t-42 17t-44.5 4.5q-32 0 -65.5 -20t-61 -62.5t-45 -108t-17.5 -157.5q0 -74 13 -137t40 -111t68 -76t99 -32 q9 -1 19.5 -0.5t21.5 3t20 6t17 9.5l16 -72q-24 -14 -55 -20t-72 -6q-55 0 -101 17t-83 47t-65 71t-47 89t-28.5 100.5t-9.5 105.5z" />
<glyph unicode="&#xe16;" horiz-adv-x="889" d="M102 704v56q14 12 37.5 24.5t53 24.5t63.5 22.5t70 19t73 13t72 4.5q60 0 115.5 -12t97 -39.5t66 -71t24.5 -104.5v-641h-127v612q0 38 -11.5 70t-35 55t-60 36t-86.5 13q-47 0 -86.5 -14t-68.5 -38t-45 -56t-16 -68v-532h98v-78h-230v496q0 33 2.5 58.5t9 47.5t19.5 43 t35 43q-4 2 -10 4t-10 4q-11 4 -23.5 6t-26.5 2z" />
<glyph unicode="&#xe17;" horiz-adv-x="874" d="M112 0v850h122v-148l4 -2q21 43 52 74.5t67 52.5t73 31q38 10 70 10q60 0 109 -15t83.5 -45t53 -75t18.5 -105v-628h-131v628q0 26 -6.5 54t-22.5 51t-44 38t-70 15q-32 0 -63 -11t-58.5 -30t-50.5 -45t-39.5 -56t-25.5 -63.5t-9 -66.5v-514h-132z" />
<glyph unicode="&#xe18;" horiz-adv-x="846" d="M94 686q0 37 15 68.5t41.5 54.5t63 35t79.5 12l451 -6l-19 -90l-418 4q-18 0 -34.5 -6t-28.5 -15.5t-19.5 -23t-7.5 -27.5q0 -18 5.5 -30.5t16 -22t25.5 -17.5q14 -8 33 -14l258 -98q50 -19 89.5 -43t67.5 -56.5t43 -75.5t15 -101q0 -61 -26 -109t-71 -81.5t-106 -50.5 t-133 -17q-89 0 -151 22t-100.5 59t-56.5 85t-18 98v225h126v-217q0 -34 12 -68t37 -61t63 -43t90 -16q39 0 74.5 12t63 34t43.5 52t16 68q0 27 -5.5 50.5t-19.5 44.5t-38.5 39t-63.5 33l-260 103q-37 14 -65.5 31t-47.5 39t-29 51t-10 69z" />
<glyph unicode="&#xe19;" horiz-adv-x="874" d="M112 242v608h130v-566q0 -26 4 -52.5t12.5 -51t22 -45.5t32.5 -36t43 -23q26 -6 56 -4q36 2 65.5 14t54 32.5t43.5 47t32 54.5t19.5 58t6.5 56v516h131v-850h-112l-7 150q-18 -46 -50.5 -78t-70.5 -52t-77.5 -29t-71.5 -9q-61 0 -109.5 18t-82.5 52t-52.5 82t-18.5 108z " />
<glyph unicode="&#xe1a;" horiz-adv-x="874" d="M112 270v580h130v-592q0 -47 13 -83.5t38 -62.5t62 -39t83 -13q40 0 76 13t62 39t41.5 62.5t15.5 83.5v592h131v-580q0 -62 -16 -115t-54 -92.5t-101 -62t-155 -22.5q-64 0 -113 10t-85.5 29t-61 45.5t-39 59t-21 70.5t-6.5 78z" />
<glyph unicode="&#xe1b;" horiz-adv-x="891" d="M112 270v580h130v-592q0 -47 14 -83.5t41 -62.5t65 -39t84 -13q40 0 77 13t65 39t44.5 62.5t16.5 83.5v960h131v-948q0 -62 -17.5 -115t-57 -92.5t-103.5 -62t-158 -22.5q-66 0 -116 10t-87 29t-62 45.5t-39.5 59t-21 70.5t-6.5 78z" />
<glyph unicode="&#xe1c;" horiz-adv-x="1003" d="M72 416q0 52 5 105t17 103t31.5 93t48 75.5t67.5 51t89 18.5q82 0 120 -24l-14 -78q-18 12 -36 17t-36 3q-33 -2 -57.5 -18t-42.5 -41.5t-29.5 -60t-19 -74.5t-9.5 -84q-3 -44 -3 -90q0 -85 7.5 -151t23.5 -110.5t41 -67.5t59 -23q33 0 53.5 15t32.5 38t16 49t4 49v352 h121v-352q0 -23 4.5 -50t17.5 -50t33 -38q22 -15 54 -15q22 0 38 6.5t26 17t16 23.5t9 25t4 23t1 17v680h131v-641q0 -26 -3.5 -53.5t-12 -53.5t-23 -49t-37.5 -39.5t-55 -26t-74 -9.5q-20 0 -48.5 6t-56 22t-50.5 42t-33 66q-10 -40 -32.5 -66t-49 -42t-53.5 -22t-47 -6 q-77 0 -125.5 30.5t-75.5 87.5t-37 138q-10 82 -10 182z" />
<glyph unicode="&#xe1d;" horiz-adv-x="1003" d="M72 416q0 52 5 105t17 103t31.5 93t48 75.5t67.5 51t89 18.5q82 0 120 -24l-14 -78q-18 12 -36 17t-36 3q-33 -2 -57.5 -18t-42.5 -41.5t-29.5 -60t-19 -74.5t-9.5 -84q-3 -44 -3 -90q0 -85 7.5 -151t23.5 -110.5t41 -67.5t59 -23q33 0 53.5 15t32.5 38t16 49t4 49v352 h121v-352q0 -23 4.5 -50t17.5 -50t33 -38q22 -15 54 -15q22 0 38 6.5t26 17t16 23.5t9 25t4 23t1 17v1048h131v-1009q0 -26 -3.5 -53.5t-12 -53.5t-23 -49t-37.5 -39.5t-55 -26t-74 -9.5q-20 0 -48.5 6t-56 22t-50.5 42t-33 66q-10 -40 -32.5 -66t-49 -42t-53.5 -22t-47 -6 q-77 0 -125.5 30.5t-75.5 87.5t-37 138q-10 82 -10 182z" />
<glyph unicode="&#xe1e;" horiz-adv-x="1067" d="M112 209v641h130v-678q0 -21 7.5 -41t22 -36t36.5 -25.5t49 -9.5q30 0 52.5 14t37 34t22 42t7.5 38v662h120v-664q0 -17 6 -38.5t19.5 -41.5t35 -33t51.5 -13q26 0 47 9t36 25t24 35.5t9 40.5v680h131v-641q0 -52 -14.5 -94.5t-42.5 -73.5t-68 -47t-90 -16q-31 0 -63 7.5 t-60.5 24t-49.5 42.5t-30 64q-11 -38 -34 -64t-51 -42.5t-59 -24t-57 -7.5q-56 0 -97 16t-69.5 47t-43 73t-14.5 95z" />
<glyph unicode="&#xe1f;" horiz-adv-x="1067" d="M112 209v641h130v-678q0 -21 7.5 -41t22 -36t36.5 -25.5t49 -9.5q30 0 52.5 14t37 34t22 42t7.5 38v662h120v-664q0 -17 6 -38.5t19.5 -41.5t35 -33t51.5 -13q26 0 47 9t36 25t24 35.5t9 40.5v1048h131v-1009q0 -52 -14.5 -94.5t-42.5 -73.5t-68 -47t-90 -16 q-31 0 -63 7.5t-60.5 24t-49.5 42.5t-30 64q-11 -38 -34 -64t-51 -42.5t-59 -24t-57 -7.5q-56 0 -97 16t-69.5 47t-43 73t-14.5 95z" />
<glyph unicode="&#xe20;" horiz-adv-x="907" d="M30 0v78h95v418q0 33 2.5 58.5t9 47.5t19.5 43q12 21 34 43q-4 2 -10 4t-10 4q-11 4 -23 6t-26 2v56q22 18 62.5 37t91 35t106.5 26q57 10 109 10q60 0 115 -12t97 -39.5t66 -71t24 -104.5v-641h-126v612q0 38 -12 70t-35 55t-59.5 36t-86.5 13q-47 0 -87 -14t-69 -38 t-45 -56t-16 -68v-610h-226z" />
<glyph unicode="&#xe21;" horiz-adv-x="874" d="M112 0v850h132v-516q0 -26 6 -56t19 -58t32 -54.5t44 -47t55 -32.5t65 -14q30 -2 55 5t43.5 22t32.5 36t22.5 45.5t12.5 51t4 52.5v566h129v-608q0 -59 -18 -107.5t-52 -82.5t-83 -52t-109 -18q-32 0 -72 9t-78 29t-70 52t-50 78l-6 -150h-114z" />
<glyph unicode="&#xe22;" horiz-adv-x="870" d="M92 242q0 40 12 76t35.5 65t58.5 49q36 18 82 24q-46 6 -81 24t-58 45t-34 61t-9 70q2 51 19 88.5t45 62.5t63 37.5t73 15t76 -5.5q36 -8 68 -26l-24 -78q-38 14 -70 14t-57 -12.5t-41 -37t-20 -58.5q-4 -36 8 -64t36.5 -48t58 -32t71.5 -14v-74q-32 0 -63.5 -14 t-56.5 -38t-40.5 -57t-15.5 -71q0 -28 10 -60.5t34 -60.5t63.5 -46.5t98.5 -18.5q44 0 80 14t61 41t39 65.5t14 87.5v584h132v-582q0 -68 -19 -121.5t-59 -91t-102 -57.5t-148 -20q-73 0 -135.5 16.5t-107.5 50t-71 82.5t-26 115z" />
<glyph unicode="&#xe23;" horiz-adv-x="860" d="M64 221l124 23q8 -44 31 -78t55 -58t73 -36t87 -12q40 0 79.5 10t70 29.5t49.5 49t19 68.5q0 50 -32 83t-88 44l-186 35q-52 8 -97 25.5t-78 46.5t-53 71q-20 40 -20 98q0 59 26 105t70.5 77.5t103.5 47.5t126 16q60 0 114 -13t97 -40t73 -67t42 -94l-115 -26 q-8 36 -25.5 65.5t-43.5 50t-62 31.5t-82 11q-39 0 -73.5 -10t-59.5 -28t-39 -44t-14 -57q0 -38 10 -61.5t28.5 -38.5t43 -22t52.5 -11l195 -33q58 -10 100.5 -33t69.5 -54.5t40 -69.5t13 -78q0 -48 -14 -87t-39 -69t-59 -51t-73 -34t-83 -19t-88 -6q-41 0 -81.5 6t-78 18 t-71 32t-61.5 47t-48 62q-18 35 -28 78z" />
<glyph unicode="&#xe24;" horiz-adv-x="889" d="M102 704v56q14 12 37.5 24.5t53 24.5t63.5 22.5t70 19t73 13t72 4.5q60 0 115.5 -12t97 -39.5t66 -71t24.5 -104.5v-907h-127v878q0 38 -11.5 70t-35 55t-60 36t-86.5 13q-47 0 -86.5 -14t-68.5 -38t-45 -56t-16 -68v-532h98v-78h-230v496q0 33 2.5 58.5t9 47.5t19.5 43 t35 43q-4 2 -10 4t-10 4q-11 4 -23.5 6t-26.5 2z" />
<glyph unicode="&#xe25;" horiz-adv-x="891" d="M76 223q0 52 16.5 93.5t45 74t67.5 56t84 39t93 24t95 10.5t91 -1t81 -11v129q0 46 -19.5 76.5t-50.5 48.5t-68.5 25t-74.5 7q-44 0 -80 -11t-64 -30.5t-47.5 -46t-29.5 -57.5l-127 19q20 58 58.5 97t88 63t107.5 34q56 10 114 10q83 0 144.5 -20t101.5 -54.5t59 -80 t19 -95.5v-624h-131v442q-56 6 -109.5 6.5t-101.5 -7t-89 -24t-71 -42t-46 -61.5q-17 -36 -17 -84q0 -36 11.5 -64t32 -48t47.5 -32.5t57.5 -17t62.5 -2t64 13.5l18 -62q-45 -20 -94.5 -27t-97.5 -1t-91.5 24t-76.5 47.5t-52.5 71t-19.5 92.5z" />
<glyph unicode="&#xe26;" horiz-adv-x="907" d="M30 0v78h95v418q0 33 2.5 58.5t9 47.5t19.5 43q12 21 34 43q-4 2 -10 4t-10 4q-11 4 -23 6t-26 2v56q22 18 62.5 37t91 35t106.5 26q57 10 109 10q60 0 115 -12t97 -39.5t66 -71t24 -104.5v-907h-126v878q0 38 -12 70t-35 55t-59.5 36t-86.5 13q-47 0 -87 -14t-69 -38 t-45 -56t-16 -68v-610h-226z" />
<glyph unicode="&#xe27;" horiz-adv-x="872" d="M41 282l125 13q8 -44 24.5 -86.5t45 -76t70.5 -54.5q44 -20 104 -20q46 0 81 17t61 46t44 67t29 78.5t15.5 81t4.5 74.5t-4.5 74t-15.5 80t-29 77.5t-44 66t-61 45.5t-81 17q-42 0 -75.5 -9t-59 -26t-43.5 -39.5t-31 -48.5t-21 -54.5t-14 -57.5l-125 12q12 65 40.5 121 t73.5 98t109 65t148 23q67 0 120.5 -17t95 -48t71 -73t48.5 -91.5t28 -104t9 -110.5t-9 -110.5t-29 -104t-50 -91.5t-71 -73t-95 -48q-52 -17 -118 -17q-79 0 -142.5 23t-110.5 64t-77 97q-30 54 -41 120z" />
<glyph unicode="&#xe28;" horiz-adv-x="874" d="M98 0v590q0 56 21 107t63.5 90t107 62t150.5 23q68 0 120 -14t94 -41q13 26 33.5 44t44 30.5t48.5 18.5q26 8 48 10l16 -105q-16 0 -34 -1t-36 -6.5t-34 -15.5t-28 -28q30 -37 44 -81.5t14 -92.5v-590h-127v600q0 48 -15.5 84t-43.5 59.5t-65 35t-81 11.5t-82.5 -11.5 t-67.5 -35t-45.5 -59.5t-16.5 -84v-200q14 30 32 52t39.5 38t44 26t45 16t43 7t37.5 -1v-114q-31 4 -61 -3t-56.5 -22t-49 -36t-39.5 -44.5t-26 -47t-9 -43.5v-228h-128z" />
<glyph unicode="&#xe29;" horiz-adv-x="878" d="M112 270v580h130v-592q0 -47 13 -83.5t38 -62.5t62 -39t83 -13q40 0 76 13t62 39t41.5 62.5t15.5 83.5v162l-95 -2q-28 -1 -54 3.5t-47.5 12.5t-39 19t-29.5 24l70 80q14 -20 32.5 -32.5t38.5 -18t41 -7t42 0.5l41 2v348h131v-342l92 2v-82l-92 -2v-156q0 -62 -16 -115 t-54 -92.5t-101 -62t-155 -22.5q-64 0 -113 10t-85.5 29t-61 45.5t-39 59t-21 70.5t-6.5 78z" />
<glyph unicode="&#xe2a;" horiz-adv-x="891" d="M76 223q0 52 16.5 93.5t45 74t67.5 56t84 39t93 24t95 10.5t91 -1t81 -11v129q0 46 -19.5 76.5t-50.5 48.5t-68.5 25t-74.5 7q-44 0 -80 -11t-64 -30.5t-47.5 -46t-29.5 -57.5l-127 19q20 58 58.5 97t88 63t107.5 34q56 10 114 10q67 0 118 -13q52 -13 90 -35 q13 24 33.5 43t44.5 32.5t50 21t50 7.5l16 -107q-16 1 -34 -0.5t-36 -7t-35 -14.5t-28 -25q55 -64 55 -152v-624h-131v442q-56 6 -109.5 6.5t-101.5 -7t-89 -24t-71 -42t-46 -61.5q-17 -36 -17 -84q0 -36 11.5 -64t32 -48t47.5 -32.5t57.5 -17t62.5 -2t64 13.5l16 -56 q-39 -28 -86 -38.5t-94.5 -5.5t-92.5 24.5t-80 51t-56 74.5t-21 95z" />
<glyph unicode="&#xe2b;" horiz-adv-x="874" d="M112 0v850h130v-362q26 44 56 74t61.5 50t63 34t59.5 26q30 13 58 29.5t51 38t37 49t17 61.5h156q-4 -21 -16.5 -48.5t-36.5 -57t-59 -58t-83 -49.5q38 -8 67 -25.5t49.5 -42.5t31 -55t10.5 -64v-450h-131v420q0 27 -10 53t-29.5 46.5t-49.5 33t-69 12.5q-32 0 -61 -13.5 t-55 -36.5t-47.5 -52t-37.5 -60t-24 -61q-8 -32 -8 -56v-286h-130z" />
<glyph unicode="&#xe2c;" horiz-adv-x="1003" d="M112 209v641h130v-678q0 -21 5 -40.5t17 -34.5t31 -24t47 -9t46.5 13t30 33t16.5 41t5 37v476h121v-478q0 -16 6 -37t19 -40t33 -32q21 -13 49 -13q26 0 44 7.5t29.5 21.5t17 33.5t5.5 43.5v438q0 35 -11 60.5t-26.5 42t-32.5 25.5q-16 10 -28 14v14q13 2 29.5 11t32 25 t26 38.5t10.5 52.5v43h131v-45q0 -27 -11.5 -49t-28.5 -39.5t-39 -30t-44 -18.5q22 -6 44 -19t39 -33t28.5 -46t11.5 -56v-389q0 -52 -11.5 -94.5t-35.5 -73t-61 -47t-87 -16.5q-24 0 -54.5 7.5t-60 24t-52.5 42.5t-31 64q-11 -38 -30.5 -64t-44.5 -42.5t-52 -24t-53 -7.5 q-56 0 -95.5 16t-65 47t-37.5 73t-12 95z" />
<glyph unicode="&#xe2d;" horiz-adv-x="921" d="M70 477h389v-90h-248q-4 -79 14.5 -141t52 -104t79.5 -64q45 -22 97 -22q56 0 104 20t83 63t55.5 110t20.5 161q0 95 -20 166t-55.5 118.5t-83.5 70.5t-104 23q-44 0 -83 -13t-71 -37.5t-55 -60t-34 -81.5l-131 14q14 58 51 106t88 82t112 52t123 18q48 0 96 -10.5 t92.5 -33.5t83 -59.5t67.5 -86.5t45 -116t16 -148q0 -104 -27.5 -186t-79 -139t-125.5 -86t-168 -29q-69 0 -125.5 18t-100.5 51.5t-76 80t-51.5 102.5t-27 119.5t-3.5 131.5z" />
<glyph unicode="&#xe2e;" horiz-adv-x="921" d="M70 477h389v-90h-248q-4 -79 14.5 -141t52 -104t79.5 -64q45 -22 97 -22q56 0 104 20t83 63t55.5 110t20.5 161q0 95 -20 166t-55.5 118.5t-83.5 70.5t-104 23q-44 0 -83 -13t-71 -37.5t-55 -60t-34 -81.5l-131 14q14 58 51 106t88 82t112 52t123 18q54 0 109 -14 t103 -43q16 24 40 43.5t51 33t54 21.5q27 9 49 11l12 -105q-14 0 -33 -1.5t-38.5 -7.5t-38 -17t-33.5 -27q28 -27 50.5 -61.5t39.5 -78t26 -95.5q9 -51 9 -113q0 -104 -27.5 -186t-79 -139t-125.5 -86t-168 -29q-69 0 -125.5 18t-100.5 51.5t-76 80t-51.5 102.5t-27 119.5 t-3.5 131.5z" />
<glyph unicode="&#xe2f;" horiz-adv-x="870" d="M78 614q-2 28 4 58.5t20 59t35 53.5t49 43.5t62 29t74 10.5q51 0 95.5 -13t74.5 -31l-29 -72q-29 12 -59 16t-58 -0.5t-53 -16.5t-44 -31.5t-29.5 -45.5t-10.5 -58q0 -34 17.5 -61t44.5 -47t59 -30.5t63 -10.5q52 0 95.5 17.5t74.5 46.5t48 67t17 80v172h132v-850h-132 v500q-24 -28 -50.5 -52t-58.5 -41t-70.5 -27t-84.5 -10q-50 0 -99 18t-88.5 49.5t-66.5 76.5q-26 44 -32 100z" />
<glyph unicode="&#xe30;" horiz-adv-x="459" d="M39 196l105 72q7 -12 16.5 -26t23.5 -25t33 -18t45 -7l136 6v-94l-198 -6q-26 -1 -50 8t-46 23.5t-39 32.5q-17 16 -26 34zM39 676l105 72q7 -12 16.5 -26t23.5 -25.5t33 -19t45 -5.5l136 6v-94l-198 -6q-26 -1 -50 7.5t-46 22.5t-39 32t-26 36z" />
<glyph unicode="&#xe31;" d="M-561 1136l105 72q9 -18 25.5 -31.5t40 -23t52 -14.5t62.5 -5l276 2v-86l-358 -6q-26 0 -56 5.5t-59 16.5t-52.5 28.5t-35.5 41.5z" />
<glyph unicode="&#xe32;" horiz-adv-x="583" d="M20 784q19 16 44.5 31.5t55.5 28t64 20.5t72 8q54 0 95 -14t68 -37.5t41 -53.5q13 -31 13 -61v-706h-131v676q0 32 -8 53.5t-24 35t-40 19.5t-55 6q-24 0 -46.5 -6t-41.5 -15t-34 -18.5t-23 -15.5z" />
<glyph unicode="&#xe33;" horiz-adv-x="583" d="M-350 1136q0 33 14.5 60t38.5 46.5t55 29.5t64 10t63.5 -10t54.5 -29.5t38 -46.5t14 -60t-14 -60.5t-37 -47t-54 -30.5t-65 -11q-36 0 -67.5 11t-55 30.5t-36.5 47.5t-13 60zM-262 1136q0 -16 6.5 -29t18 -22.5t26.5 -14.5t33 -5t33 5t25.5 14.5t17 22.5t6.5 29 q0 31 -22.5 50.5t-59.5 19.5q-18 0 -33 -5t-26.5 -14t-18 -22t-6.5 -29zM20 784q19 16 44.5 31.5t55.5 28t64 20.5t72 8q54 0 95 -14t68 -37.5t41 -53.5q13 -31 13 -61v-706h-131v676q0 32 -8 53.5t-24 35t-40 19.5t-55 6q-24 0 -46.5 -6t-41.5 -15t-34 -18.5t-23 -15.5z " />
<glyph unicode="&#xe34;" d="M-770 1046l39 90h619v-90h-658z" />
<glyph unicode="&#xe35;" d="M-768 1046l39 90h487v122h132v-212h-658z" />
<glyph unicode="&#xe36;" d="M-768 1046l39 90h357q-7 33 2.5 60.5t32 46.5t55.5 30t73 11q34 0 61.5 -10t46 -27.5t28 -41t9.5 -50.5q0 -109 -143 -109h-561zM-291 1157q0 -14 5.5 -24.5t15.5 -17.5t23 -10t28 -3q31 0 50 12.5t19 42.5q0 57 -69 57q-14 0 -27.5 -4t-23.5 -11t-15.5 -18t-5.5 -24z " />
<glyph unicode="&#xe37;" d="M-766 1046l39 90h383v132h45q17 0 23 -9t8 -22l6 -65q0 -8 2 -15.5t6.5 -13t12 -8.5t18.5 -3q10 0 16.5 3t10 8.5t4.5 12.5l4 16l6 65q2 12 8 21.5t22 9.5h42v-222h-656z" />
<glyph unicode="&#xe38;" d="M-320 -194l27 84h109q36 0 55 -24t19 -62v-164h-113v122q0 44 -41 44h-56z" />
<glyph unicode="&#xe39;" d="M-584 -188l35 80h99q18 0 30 -6.5t20 -18t11.5 -27.5t3.5 -34v-58q0 -23 19.5 -38t56.5 -15q75 -1 75 65v132h124v-134q0 -40 -12 -67t-37 -42t-63 -21.5t-90 -6.5q-48 0 -82 9t-55 23.5t-31 32.5t-10 36v42q0 48 -40 48h-54z" />
<glyph unicode="&#xe3a;" d="M-254 -190q0 36 21 57t57 21t57 -21t21 -57t-21 -57t-57 -21t-57 21t-21 57z" />
<glyph unicode="&#xe3e;" />
<glyph unicode="&#xe3f;" horiz-adv-x="1108" d="M112 0v1182h314v110h82v-110h47q82 -4 148.5 -21.5t114.5 -53.5t75 -92.5t27 -140.5q0 -64 -20.5 -113t-57 -83t-87.5 -53.5t-112 -26.5q41 -4 81 -13t75.5 -24t66 -37.5t52.5 -55t34 -75t12 -96.5q0 -52 -14 -94t-40 -74.5t-60.5 -56t-75 -39t-83.5 -23.5t-87 -10h-96 v-146h-82v146h-314zM254 100h172v442h-172v-442zM254 649h172v428h-172v-428zM508 100q68 -2 123 9t94 37t60.5 68.5t21.5 103.5q0 64 -21.5 108t-60.5 70t-94 36t-123 8v-440zM508 649q70 -2 119 10.5t80.5 40.5t46 71.5t14.5 102.5q0 56 -18 96t-51.5 65t-82 35.5 t-108.5 6.5v-428z" />
<glyph unicode="&#xe40;" horiz-adv-x="372" d="M121 0v850h129v-850h-129z" />
<glyph unicode="&#xe41;" horiz-adv-x="692" d="M121 0v850h129v-850h-129zM440 0v850h130v-850h-130z" />
<glyph unicode="&#xe42;" horiz-adv-x="372" d="M70 1119.5q6 26.5 24 46.5t47 31t64 11h211l22 -84h-172q-18 0 -34 -3t-25 -12.5t-9 -26t13 -44.5q8 -16 15.5 -28.5t13.5 -27t9 -31.5t3 -41v-910h-129v908q0 22 -2 37t-5.5 27.5t-8.5 22.5t-10.5 20.5t-11.5 21.5q-5 11 -11 26q-10 30 -4 56.5z" />
<glyph unicode="&#xe43;" horiz-adv-x="372" d="M-127 1124q21 18 44 35t51 29t61 19t73 7t77 -8t64 -25t42.5 -41.5t15.5 -57.5q0 -16 -3.5 -27.5t-9 -22t-12 -21.5t-11.5 -25.5t-9 -34t-4 -46.5v-905h-129v918q0 18 5 34t11.5 30.5t13 27t9.5 22.5q8 28 2 47t-23 32t-43 18t-57 5q-18 0 -35.5 -4.5t-33.5 -12 t-30 -18.5t-26 -22z" />
<glyph unicode="&#xe44;" horiz-adv-x="372" d="M-64 1124l23 84h211q35 0 63.5 -11t47 -31t24.5 -46.5t-4 -56.5q-8 -22 -17 -37.5t-16 -30.5t-11.5 -35t-4.5 -52v-908h-129v910q0 24 3.5 41t8.5 31.5t13 27.5q8 12 16 28q13 27 12.5 44t-9.5 26.5t-25 12.5t-34 3h-172z" />
<glyph unicode="&#xe45;" horiz-adv-x="583" d="M20 784q19 16 44.5 31.5t55.5 28t64 20.5t72 8q54 0 95 -14t68 -37.5t41 -53.5q13 -31 13 -61v-970h-131v940q0 32 -8 53.5t-24 35t-40 19.5t-55 6q-24 0 -47.5 -6t-44.5 -16t-38 -22t-29 -23z" />
<glyph unicode="&#xe46;" horiz-adv-x="971" d="M231.5 650q3.5 36 19 69t40 59t58.5 42q34 18 75 20l116 -90l122 90q40 -4 76.5 -23t64.5 -48.5t45 -68.5q16 -40 16 -84v-880h-126v878q0 30 -9 53t-21 37t-26 20q-14 7 -26 7l-116 -79l-112 81q-16 2 -31.5 -3.5t-28 -16.5t-21.5 -26.5t-12 -34.5t1 -41.5t18 -45.5 l-84 -55q-24 32 -33 68t-5.5 72z" />
<glyph unicode="&#xe47;" d="M-708 1182q0 32 10 61t29 52t46 37t60 14h447v-70h-380q-18 0 -35 -6t-29.5 -17.5t-20 -29t-7.5 -41.5q0 -26 5 -43t13 -26.5t18 -14.5q10 -4 18 -6l128 72l88 -50q17 -10 35 -14.5t35 0.5q19 4 34 18q16 14 20 43l86 -35q0 -22 -8 -43t-23 -37t-37 -25t-50 -9 q-9 0 -20.5 1t-23.5 3t-25 6.5t-25 11.5l-88 54l-88 -54q-11 -6 -27.5 -13t-33.5 -7q-34 0 -62.5 14t-48 37t-30 53t-10.5 64z" />
<glyph unicode="&#xe48;" d="M-236 1370v226h126v-226h-126z" />
<glyph unicode="&#xe49;" d="M-414 1493l29 82q44 10 79 1t54.5 -32.5t20.5 -58.5t-23 -76q30 0 70 7.5t82 22.5t81 39t68 58l9 -108q-42 -28 -93 -47t-107 -29.5t-117 -12t-124 4.5v18q17 13 26 32.5t7 39.5t-17 36.5t-45 22.5z" />
<glyph unicode="&#xe4a;" d="M-424 1456q0 21 7 38.5t20 30.5t31 21q16 8 38 10q29 2 46.5 -4.5t29.5 -17.5q6 -6 12 -14q6 -6 10 -14q3 8 8.5 14t12.5 12q11 10 31 18t49 6q22 0 41.5 -12t31.5 -32t13 -47t-13 -56q22 8 37 18t24 24.5t12 36.5t3 54l76 -30q-6 -46 -26 -80t-52 -54t-73 -26t-87 2 q14 16 21 32t7 34q0 9 -4 18t-10.5 16.5t-16.5 12.5t-23 5q-23 0 -38.5 -9t-23.5 -23q-4 7 -9 13.5t-13 11.5t-18 7t-21 0q-14 -2 -22.5 -8t-13.5 -14t-6 -16t-1 -14q0 -20 6 -36q4 -16 12 -26h-67q-4 3 -10.5 9.5t-13.5 18.5t-12 29t-5 41z" />
<glyph unicode="&#xe4b;" d="M-342 1448v76h110v104h118v-104h112v-76h-112v-102h-118v102h-110z" />
<glyph unicode="&#xe4c;" d="M-238 1229q0 28 3 54.5t11 49.5t24.5 42t44 32t67.5 21t96 8v-56q-42 0 -67.5 -14t-38.5 -35.5t-16 -48.5q-2 -27 0 -53h-124z" />
<glyph unicode="&#xe4d;" d="M-350 1136q0 33 14.5 60t38.5 46.5t55 29.5t64 10t63.5 -10t54.5 -29.5t38 -46.5t14 -60t-14 -60.5t-37 -47t-54 -30.5t-65 -11q-36 0 -67.5 11t-55 30.5t-36.5 47.5t-13 60zM-262 1136q0 -16 6.5 -29t18 -22.5t26.5 -14.5t33 -5t33 5t25.5 14.5t17 22.5t6.5 29 q0 31 -22.5 50.5t-59.5 19.5q-18 0 -33 -5t-26.5 -14t-18 -22t-6.5 -29z" />
<glyph unicode="&#xe4e;" d="M-336 1038q0 52 13 91t34.5 67t48.5 46q28 18 56 28q4 19 11.5 39.5t19 39.5t27 36t35.5 30t44.5 21t54.5 8v-104q-33 0 -53.5 -12.5t-31.5 -34t-15 -50.5t-4 -63q-66 0 -101 -38t-35 -104h-104z" />
<glyph unicode="&#xe4f;" horiz-adv-x="1024" d="M102 426q0 56 15 108t42 97.5t64.5 83t83 64.5t97.5 42t108 15q57 0 109.5 -15t98.5 -42t83 -64.5t64 -83t42 -97.5t15 -108q0 -57 -15 -109.5t-42 -98.5t-64 -83t-83 -64t-98.5 -42t-109.5 -15q-56 0 -108 15t-97.5 42t-83 64t-64.5 83t-42 98.5t-15 109.5zM180 426 q0 -46 12 -89t33 -80t51 -67t67 -52t80 -34t89 -12t89 12t80 34t67 52t52 67t34 80t12 89t-12 89t-34 80t-52 67t-67 52t-80 34t-89 12t-89 -12t-80 -34t-67 -52t-51 -67t-33 -80t-12 -89zM278 426q0 48 18.5 91t50 74.5t74.5 50t91 18.5t91 -18.5t74.5 -50t50 -74.5 t18.5 -91t-18.5 -91t-50 -74.5t-74.5 -50t-91 -18.5t-91 18.5t-74.5 50t-50 74.5t-18.5 91zM342 426q0 -36 13 -67t36 -54t54 -36t67 -13t67 13t54 36t36 54t13 67t-13 67t-36 54t-54 36t-67 13t-67 -13t-54 -36t-36 -54t-13 -67z" />
<glyph unicode="&#xe50;" horiz-adv-x="1188" d="M78 430q0 102 37 184t104.5 140t164 89t216.5 31q72 0 137.5 -13.5t122 -40t102.5 -65.5t78 -89t50 -111.5t18 -132.5q0 -66 -17 -124.5t-49 -107t-78 -86t-104 -63.5t-127 -39.5t-147 -13.5q-74 0 -140 13t-123 39t-102 64t-77 87t-49 109t-17 130zM232 430 q0 -82 26.5 -147.5t74 -112t113 -71.5t142.5 -25q83 0 150.5 23.5t116.5 68t75 108t26 142.5q0 90 -26 159.5t-73 117.5t-114 72.5t-147 24.5q-90 0 -158.5 -27.5t-114 -76t-68.5 -114.5t-23 -142z" />
<glyph unicode="&#xe51;" horiz-adv-x="1188" d="M100 540q0 74 35.5 135.5t98.5 106t149.5 68.5t190.5 24q122 0 217 -33t161 -93t101 -144.5t35 -187.5q0 -59 -17 -113.5t-49 -102.5t-77.5 -87t-104 -67t-128.5 -43t-151 -15q-43 0 -89 4t-92 13t-88 25q-43 18 -79 42l31 98q38 -34 80 -54t84 -30.5t81 -13t72 -2.5 q58 0 108 13t91.5 36t73.5 55t54.5 71t34 82t11.5 89q0 93 -25.5 162.5t-73 116.5t-114.5 70t-149 23q-70 0 -129 -19t-100 -52t-64 -78t-23 -97q0 -46 12.5 -79t34 -55t49.5 -33t60 -11q33 0 62 9.5t47.5 28t24.5 46.5q4 28 -10 66h70q12 -22 14 -49t-6 -54t-25 -53 t-44 -46t-64 -32t-83 -12q-32 0 -67 5.5t-68 18t-62.5 32.5t-52 50t-35.5 71t-13 95z" />
<glyph unicode="&#xe52;" horiz-adv-x="1214" d="M14 878l52 148q48 -19 80 -61.5t51 -107.5t26 -152t5 -195q-3 -108 12.5 -188t47.5 -132.5t79 -78t106 -25.5h295q110 0 164.5 87t54.5 257q0 79 -4 142.5t-16 109.5t-34.5 71t-58.5 27q-27 0 -51.5 -22t-43.5 -59t-31 -85t-15 -100h-77q-2 54 -15 104t-33 87t-48 58 t-62 17q-18 -2 -34 -17t-27 -42t-18 -64t-5 -83q0 -58 8.5 -108t25.5 -87t41.5 -58.5t57.5 -21.5q12 0 24.5 5t24.5 13.5t22 20.5t15 24l53 -48q-6 -18 -18 -36t-31 -32.5t-45 -23.5t-56 -9q-54 0 -97 30.5t-74 82t-47.5 118t-16.5 138.5q0 64 13.5 117t39 91t62.5 59 q38 21 84 21q33 0 58.5 -7.5t45.5 -20.5t35 -30.5t25 -36.5t17 -39t11 -40h4q4 19 11 39.5t18.5 39.5t27 36.5t36.5 30.5t48 20.5t62 7.5q52 0 94.5 -22t71.5 -73t45 -134t16 -205q0 -88 -12 -155t-35.5 -115.5t-56 -80t-71.5 -50.5t-84.5 -27t-94.5 -8h-305 q-102 0 -174.5 33t-118.5 96t-67 154t-19 209q0 96 -3 165t-12 115t-23 72q-16 26 -36 34z" />
<glyph unicode="&#xe53;" horiz-adv-x="1188" d="M84 459q0 74 11.5 133t32 104.5t47.5 78.5t58 54t65 31t68 10q49 0 87.5 -17t65.5 -44t44 -60t23 -63h4q2 20 10 42t21 42.5t31 38.5t42 31.5t53 21.5t64 8q30 0 64 -7t66.5 -25t62 -49t52 -80t35.5 -116.5t13 -158.5q0 -86 -20 -158.5t-51.5 -131t-71.5 -102.5 q-41 -44 -81 -75l-86 47q34 27 65 63t54 85.5t36 114.5t13 151q0 104 -12.5 173t-36 109t-55.5 56t-72 16q-23 0 -42.5 -11.5t-35.5 -31t-29 -46.5t-22 -57t-15 -62t-9 -62h-97q-2 30 -6 62t-12 62t-20.5 57t-30 46.5t-39.5 31t-51 11.5q-26 0 -53 -15.5t-49 -53t-35.5 -99 t-13.5 -153.5q0 -80 13 -151.5t37.5 -126t58.5 -85.5q35 -32 75 -32q12 0 23.5 3t22 10t20.5 19t18 31l42 -47q-6 -20 -15.5 -37.5t-26 -31t-40.5 -21.5t-58 -8q-41 0 -80.5 15t-74 44.5t-63 71.5t-49.5 95t-33 115.5t-12 133.5z" />
<glyph unicode="&#xe54;" horiz-adv-x="1188" d="M104 420q0 104 32.5 187t96 141t157.5 88t218 30q66 0 120 2t98.5 8t81 17t65.5 30t53 47t45 68l82 -98q-20 -40 -52 -67t-73 -45t-88.5 -27.5t-97.5 -14t-101 -5.5t-98 -1q-96 0 -168.5 -21.5t-121.5 -66t-74 -112.5t-25 -160q0 -73 19.5 -133.5t56.5 -105.5t90.5 -74 t121.5 -37q22 -3 48 -4.5t53 -1t55 1t56 2.5v6q-52 10 -94.5 33t-72.5 56t-47 75q-16 44 -16 92q0 50 19 88t48 64.5t66 40t74 13.5q33 0 58 -5t44 -17t34 -30t26 -44l-53 -49q-7 20 -16.5 32t-21.5 19t-25 9.5t-27 2.5q-20 0 -40 -7.5t-35 -23.5t-24.5 -40.5t-9.5 -56.5 q0 -42 20.5 -84t59.5 -75t94 -52t123 -17h41q17 0 37 2q20 0 36 2l28 -98q-54 0 -97 -0.5t-77.5 -1t-63 -2t-54.5 -2.5t-52 -2.5t-55 -2t-63 -1t-78 -0.5q-50 0 -101 11t-99.5 33t-91 57t-74.5 82.5t-51 108.5t-19 136z" />
<glyph unicode="&#xe55;" horiz-adv-x="1188" d="M104 410q0 69 14.5 125t39 100.5t58.5 78.5t73.5 58t83 40t86.5 24q-12 12 -19.5 22t-11.5 21t-5 22t-1 23q0 27 14 50.5t38 41.5t56.5 28t69.5 10q36 0 67 -10t53 -28t35 -42t13 -50v-13.5t-1 -12.5t-3 -14t-8 -18q68 6 117.5 18.5t87 33t63.5 50.5t47 70l84 -102 q-26 -42 -63.5 -71t-82.5 -48t-94 -30t-98 -17t-95 -7t-85 -1q-385 0 -385 -354q0 -70 20 -129t57 -103t91 -73q52 -29 120 -37q22 -3 48 -4.5t54 -1l56 1t54 2.5l2 8q-52 10 -95 32.5t-73.5 56t-47.5 75.5q-16 44 -16 92q0 50 18.5 88t48 64.5t66.5 40t74 13.5q33 0 58 -5 t44 -17t34 -30t26 -44l-49 -47q-7 18 -17 30t-22 19.5t-26 10.5q-13 3 -29 3q-21 0 -40.5 -8t-34.5 -25t-23.5 -42t-8.5 -57q0 -28 9.5 -56t27 -54t43.5 -48t59 -38t72.5 -25t85.5 -7h41q17 0 37 2q20 0 36 2l28 -96q-54 0 -97 -0.5t-77.5 -1t-63 -2t-54.5 -2.5t-52 -2.5 t-55 -2t-63 -1t-78 -0.5q-50 0 -102 11t-100.5 34t-91 58t-74 81.5t-50 105t-18.5 130.5zM502 903q0 -32 26 -51.5t74 -19.5q44 0 68 19.5t24 51.5q0 39 -23 61.5t-71 22.5t-73 -22.5t-25 -61.5z" />
<glyph unicode="&#xe56;" horiz-adv-x="1188" d="M12 897l74 117q30 -26 55 -56.5t43.5 -64t30 -69.5t15.5 -72l16 -4q6 14 31 36t70 42t109 34t148 14q66 0 128 -12.5t116 -38t100 -62.5t78.5 -85t51 -108t18.5 -130q0 -58 -14.5 -114t-42.5 -106t-69.5 -92.5t-96.5 -73t-123 -47.5t-148 -17q-74 0 -134 12t-108 33 t-83 50t-58 61.5t-34 68t-11 69.5q0 46 16.5 86t47 70.5t75.5 48t101 17.5q32 0 59 -6.5t48 -20t35 -33.5t20 -46l-48 -46q-14 34 -36 51t-54 17q-31 0 -55 -11.5t-41 -31t-26 -45.5t-9 -54q0 -37 17 -74.5t52.5 -68.5t90.5 -50t131 -19q74 0 139.5 25t114.5 74t77.5 119 t28.5 160q0 44 -10.5 87.5t-31 82t-51.5 71.5t-70.5 57t-88 37t-104.5 13q-58 0 -111 -13t-94 -36.5t-69.5 -55t-38.5 -69.5h-109q-2 23 -8 49.5t-16.5 54.5t-25 54.5t-32.5 50t-40 41.5t-46 29z" />
<glyph unicode="&#xe57;" horiz-adv-x="1188" d="M66 461q0 74 11 133.5t31.5 105.5t48 79t58.5 54t65 31t68 10q49 0 87.5 -17t65.5 -44t44 -60t23 -63h4q2 20 10 42t20.5 42.5t30.5 38.5t41.5 31.5t51.5 21.5t62 8q54 0 94 -16.5t67 -44.5t42 -64.5t19 -76.5l12 2q-2 111 18 198.5t68 153.5l129 -24q-36 -40 -64.5 -99 t-47.5 -131.5t-29 -157t-10 -176.5q0 -87 -19 -159t-49.5 -130.5t-70 -102.5t-83.5 -74l-86 46q36 27 66 63.5t52 85.5t34 114.5t12 150.5q0 98 -14 166t-38 110t-55 60t-65 18q-22 0 -42 -11.5t-36 -31t-29.5 -46.5t-23 -57t-15.5 -62q-8 -32 -10 -62h-96q-2 30 -6 62 t-12.5 62t-21 57t-29.5 46.5t-39 30.5q-24 12 -52 12q-26 0 -53 -15.5t-48.5 -53t-35.5 -99t-14 -153.5q0 -54 6 -104t17.5 -94.5t27.5 -81.5t37 -63.5t45 -41t51 -14.5q25 0 47.5 15t36.5 52l43 -47q-6 -19 -15 -36.5t-26 -31.5t-41 -22t-57 -8q-42 0 -81 15.5t-74 45 t-64 71.5t-50 94.5t-32.5 115t-11.5 131.5z" />
<glyph unicode="&#xe58;" horiz-adv-x="1188" d="M76 420q0 88 18 155t48.5 117t72 83t87.5 53.5t96 29t98 8.5h18t30 -0.5t38 -1.5h42q26 -2 54 -2h57q60 -1 111.5 11.5t92.5 35.5t71 56t49 71l81 -94q-14 -38 -50.5 -70t-92.5 -55t-130.5 -35.5t-164.5 -11.5h-92h-36t-33 1t-26 1h-15q-58 0 -108 -22t-86.5 -66 t-57 -108t-20.5 -148q0 -74 13 -138.5t38 -112.5t60.5 -75.5t78.5 -27.5q36 0 65 16t50 45t34 70t17 90h100q4 -43 18 -83t38 -71t57 -49t73 -18q30 0 56.5 10t46 29t30.5 46t11 60q0 34 -10 60.5t-29 44.5t-45 26t-58 6v62q53 14 99.5 4.5t81 -37t54 -69.5t19.5 -93 q0 -53 -17.5 -96t-51 -74t-80.5 -48t-107 -17q-54 0 -94 15t-69 40.5t-45.5 57.5t-22.5 65h-4q-6 -33 -21.5 -65t-43.5 -57.5t-69 -40.5t-99 -15q-33 0 -70 9.5t-73.5 31t-69.5 55.5t-58 82t-40 111t-15 143z" />
<glyph unicode="&#xe59;" horiz-adv-x="1188" d="M53 430q0 93 30 174t85 141.5t133 94.5t174 34q27 0 58 -5t62 -17t61 -31q28 -19 54 -47q0 27 10.5 55.5t28 53.5t39.5 44q24 19 48 27q26 10 52 9.5t51.5 -4t48 -5.5t41.5 4t32 26q13 18 21 58l104 -104q-32 -48 -60 -72t-53.5 -32t-48.5 -5t-44.5 10t-42 12t-40.5 1 q-30 -6 -49.5 -24t-29.5 -41t-11 -47t6 -42l336 -642l-115 -68l-346 647q-14 28 -31.5 53.5t-42 45.5t-58.5 32t-83 12q-40 0 -76 -14t-66 -38.5t-53.5 -58t-40.5 -72t-25.5 -81t-8.5 -84.5t9.5 -83t27.5 -78t43 -68t55.5 -54t66 -36t74.5 -13q28 0 54.5 2t52.5 9t53 21.5 t57 41.5l76 -64q-28 -28 -61 -50t-70 -38t-77 -24t-82 -8q-63 0 -119.5 15t-104 44t-86 69t-64.5 89t-40.5 106t-14.5 119z" />
<glyph unicode="&#xe5a;" horiz-adv-x="1179" d="M76 620q-2 28 4 58.5t20 59t36 53.5t50 43.5t62 29t74 10.5q26 0 50 -3t46 -9.5t40 -15t32 -16.5l-27 -72q-30 12 -60.5 16t-58.5 0t-53 -16t-43 -31.5t-28 -45.5q-11 -27 -11 -59q0 -34 16.5 -61t42.5 -47t59 -30.5t64 -10.5q52 0 95.5 17.5t75.5 46.5t49 67t17 80v180 h132v-864h-132v506q-24 -28 -51 -51.5t-59 -41t-71 -27t-85 -9.5q-50 0 -99 17.5t-88.5 49.5t-66.5 76q-26 44 -32 100zM938 0v864h131v-864h-131z" />
<glyph unicode="&#xe5b;" horiz-adv-x="1982" d="M64 389q0 56 13.5 106t39 93.5t62.5 78.5t83 59.5t99.5 38t113.5 13.5q34 0 66.5 -7t60 -21t49.5 -35t35 -47l-70 -70q0 26 -12 43.5t-31.5 29t-45 16.5t-52.5 5q-35 0 -68.5 -10t-63.5 -29t-55.5 -46t-43.5 -60.5t-28.5 -73t-10.5 -84.5q0 -76 24.5 -133t66.5 -95.5 t100 -57.5t126 -19q58 0 106 23t84 61t59.5 88t33 104t3.5 109t-28 103l102 69q16 -14 38.5 -38.5t46.5 -54.5t48.5 -64t46 -65t38 -57t24.5 -42l9 18t15.5 33t18 41t18 42.5t15 36.5t8.5 23l92 58q6 -6 18 -21.5t27 -36t31 -43.5t30.5 -44t25 -38t14.5 -25q2 2 7.5 14.5 t12 28t12.5 28.5t7 17h440l-25 -126h-350q-2 -6 -10 -21t-19.5 -34t-24.5 -40t-24.5 -39t-21.5 -32t-14 -18q-4 10 -15 31t-24.5 47t-29.5 54t-30.5 53t-27.5 43t-19 23q-4 -11 -16.5 -35t-30 -55.5t-37.5 -66t-38.5 -64.5t-34 -53t-23.5 -31q-7 16 -20.5 41t-30.5 55.5 t-35.5 62t-36 60t-31.5 50t-22 30.5q-6 -50 -19 -97.5t-34 -90.5t-51.5 -80t-74 -63t-100.5 -41t-131 -15q-107 0 -192 28t-144.5 78.5t-91.5 122t-32 160.5z" />
<glyph unicode="&#x2000;" horiz-adv-x="814" />
<glyph unicode="&#x2001;" horiz-adv-x="1628" />
<glyph unicode="&#x2002;" horiz-adv-x="814" />
<glyph unicode="&#x2003;" horiz-adv-x="1628" />
<glyph unicode="&#x2004;" horiz-adv-x="542" />
<glyph unicode="&#x2005;" horiz-adv-x="407" />
<glyph unicode="&#x2006;" horiz-adv-x="271" />
<glyph unicode="&#x2007;" horiz-adv-x="271" />
<glyph unicode="&#x2008;" horiz-adv-x="203" />
<glyph unicode="&#x2009;" horiz-adv-x="325" />
<glyph unicode="&#x200a;" horiz-adv-x="90" />
<glyph unicode="&#x200b;" />
<glyph unicode="&#x2010;" horiz-adv-x="790" d="M28 420v110h734v-110h-734z" />
<glyph unicode="&#x2011;" horiz-adv-x="790" d="M28 420v110h734v-110h-734z" />
<glyph unicode="&#x2012;" horiz-adv-x="790" d="M28 420v110h734v-110h-734z" />
<glyph unicode="&#x2013;" horiz-adv-x="1024" d="M26 377v86h970v-86h-970z" />
<glyph unicode="&#x2014;" horiz-adv-x="2048" d="M26 377v86h1994v-86h-1994z" />
<glyph unicode="&#x2018;" horiz-adv-x="409" d="M80 770v170l146 266h63l-109 -258h80v-178h-180z" />
<glyph unicode="&#x2019;" horiz-adv-x="409" d="M98 770l109 258h-80v178h180v-170l-145 -266h-64z" />
<glyph unicode="&#x201c;" horiz-adv-x="674" d="M80 770v170l146 266h63l-109 -258h80v-178h-180zM366 770v170l146 266h64l-109 -258h80v-178h-181z" />
<glyph unicode="&#x201d;" horiz-adv-x="674" d="M98 770l109 258h-80v178h180v-170l-145 -266h-64zM385 770l109 258h-80v178h180v-170l-146 -266h-63z" />
<glyph unicode="&#x2022;" horiz-adv-x="815" d="M74 414q0 46 12 88.5t33.5 79.5t52 67.5t67.5 52.5t80 34t89 12t89 -12t80 -34t68 -52.5t53 -67.5t34 -79.5t12 -88.5t-13 -89t-36.5 -80t-55.5 -67t-70.5 -52t-81.5 -34t-87 -12q-45 0 -87 12t-78.5 34t-66 52t-51 67t-32.5 80t-11 89z" />
<glyph unicode="&#x202f;" horiz-adv-x="325" />
<glyph unicode="&#x205f;" horiz-adv-x="407" />
<glyph unicode="&#x20ac;" horiz-adv-x="1241" d="M45 412v112h162q-2 17 -2 34v34t0.5 32.5t1.5 33.5h-162v112h178q18 90 57.5 168t100.5 136t144 91t190 33q98 0 177.5 -32t139.5 -86q54 -52 87 -116t45 -143l-146 -27q-6 38 -19 75.5t-33 71t-46 61.5t-59 48t-71 32t-82 12q-74 0 -129 -28t-94 -73t-63 -103t-37 -120 h385v-112h-402q-2 -17 -2 -34v-34v-32q0 -16 2 -34h402v-112h-385q10 -44 24.5 -85t34.5 -77t46 -66t58 -52t70 -34t84 -12q68 0 123 25.5t96 69t67 99.5t34 118l142 -30q-12 -86 -49 -156.5t-96.5 -121t-140 -78.5t-180.5 -28q-68 0 -126 16t-106 44t-88 68t-70 87.5 t-51 101.5q-21 55 -34 111h-178z" />
<glyph unicode="&#x2122;" horiz-adv-x="1407" d="M51 1104v76h498v-76h-203v-635h-92v635h-203zM628 469v711h152l199 -568l182 568h147v-711h-92v619l-210 -619h-62l-223 621v-621h-93z" />
<glyph unicode="&#x25cc;" horiz-adv-x="1372" d="M334 588l92 45q-2 -12 -3 -24.5t-1 -24.5q0 -10 1 -21.5t3 -22.5zM432 336l35 96q14 -20 29.5 -36t33.5 -30zM446 838l92 -33q-20 -12 -35.5 -27.5t-29.5 -33.5zM639 846l47 92l45 -90q-10 2 -21 2h-22q-12 0 -24.5 -1t-24.5 -3zM643 320q11 -2 23 -3t22 -1q11 0 20.5 1 t18.5 3l-41 -86zM840 805l100 33l-35 -96q-14 18 -29.5 33.5t-35.5 29.5zM842 362q18 12 32.5 26.5t26.5 31.5l25 -84zM952 545q2 9 3 19t1 20q0 11 -1 22.5t-3 21.5l86 -44z" />
<glyph unicode="&#x25fc;" horiz-adv-x="850" d="M0 0v850h850v-850h-850z" />
<glyph unicode="&#xf700;" horiz-adv-x="911" d="M26 676q18 38 45 67t59 50t67.5 36t71 24t69.5 13t62 4q20 0 44 -2t50 -7t53.5 -14t54.5 -21q18 12 29 26.5t16 31t7 33.5q4 17 6 31h118q-3 -19 -10.5 -41.5t-21.5 -44.5t-34 -43t-48 -37q33 -26 58.5 -57t43 -74t26.5 -100t9 -131q0 -62 -14.5 -117t-38 -102t-54 -84 t-62.5 -63t-64 -40t-58 -14h-158l-98 358q-6 18 -13 29t-17 17t-22 8t-26 4l35 110q40 0 69 -11t47.5 -28t28.5 -38t14 -39l89 -324h8q10 0 28.5 8t40.5 25t45 43t42 62.5t31 84t12 107.5q0 75 -12 131.5t-32 98t-46.5 69t-56 44t-60.5 23t-59 6.5q-40 0 -75 -6.5t-66 -22.5 t-57 -43q-24 -26 -46 -64z" />
<glyph unicode="&#xf701;" d="M-850 1046l39 86h475v-86h-514z" />
<glyph unicode="&#xf702;" d="M-850 1046l39 86h344v126h131v-212h-514z" />
<glyph unicode="&#xf703;" d="M-850 1046l39 86h193q-7 34 2.5 62t32 48t56 31t73.5 11q34 0 61 -10t46 -27.5t28.5 -41t9.5 -50.5q1 -109 -143 -109h-398zM-536 1157q0 -14 5.5 -24.5t15 -17.5t22.5 -10t28 -3q31 0 50 12.5t19 42.5q0 57 -69 57q-14 0 -27.5 -4t-23 -11t-15 -18t-5.5 -24z" />
<glyph unicode="&#xf704;" d="M-850 1046l39 86h241v128h46q17 0 23 -10q5 -9 7 -21l6 -57q0 -8 2.5 -15.5t7 -13t11.5 -8.5t19 -3q20 0 26 11t8 29l6 57q2 12 8 21.5t23 9.5h41v-214h-514z" />
<glyph unicode="&#xf705;" d="M-461 1022v268h123v-268h-123z" />
<glyph unicode="&#xf706;" d="M-764 1180l29 82q44 10 79 1t55 -33t21.5 -58t-22.5 -74q35 -2 75.5 5t79.5 23t74 39t59 51l17 -106q-36 -27 -84.5 -46t-106 -29.5t-121 -11.5t-126.5 7v18q17 13 26 33.5t6.5 40t-17 36t-44.5 22.5z" />
<glyph unicode="&#xf707;" d="M-809 1132q0 21 7 38.5t19.5 30.5t30.5 21t40 11q29 2 46 -5q16 -8 29 -18q6 -6 12 -13q7 -7 11 -15q3 8 7.5 14t12.5 12q11 10 30.5 18t49.5 7q22 0 42 -12t31 -32.5t13 -47.5t-12 -55q22 8 36.5 18t23 24.5t12.5 36t4 53.5l75 -30q-6 -46 -26 -80t-51.5 -54t-72.5 -26 t-87 2q14 16 20 32t6 34q0 10 -3 19t-10 16t-17 12t-23 6q-23 0 -38 -9.5t-23 -23.5q-4 7 -10 13.5t-13.5 11.5t-17 7.5t-21.5 0.5q-14 -2 -23 -8.5t-13 -14.5t-5.5 -16t-1.5 -14q0 -20 5.5 -35.5t13.5 -26.5h-68q-4 3 -11 10t-13.5 18.5t-11.5 28.5t-5 41z" />
<glyph unicode="&#xf708;" d="M-658 1128v76h113v121h109v-121h112v-76h-112v-120h-109v120h-113z" />
<glyph unicode="&#xf709;" d="M-555 1087q0 24 7.5 46.5t24.5 42.5t45 35t71 25t102 11v-55q-51 -8 -79 -26t-40 -40t-11 -44q1 -24 7 -42h-123q-4 23 -4 47z" />
<glyph unicode="&#xf70a;" d="M-236 1022v268h124v-268h-124z" />
<glyph unicode="&#xf70b;" d="M-536 1190l28 82q29 7 54.5 5t45.5 -11.5t34 -25t19 -36t0.5 -45.5t-20.5 -51q56 3 101.5 14.5t84.5 30t71 42t58 50.5l11 -117q-46 -30 -99.5 -50t-112.5 -31t-121 -13t-126 4v21q17 13 25.5 33t6.5 39.5t-16 36t-44 22.5z" />
<glyph unicode="&#xf70c;" d="M-596 1159q0 24 8 44t23 35t35 24.5t44 11.5q32 2 54 -8q20 -10 34 -21q8 -8 14 -15.5t12 -15.5q4 8 10 16t14 15q7 6 15.5 11.5t20 9.5t25 6t29.5 2q27 -2 50.5 -16.5t37.5 -37.5t15 -53.5t-17 -64.5q28 3 47.5 16t31 33.5t16.5 48.5t5 62l90 -31q-2 -60 -27.5 -100.5 t-66 -63.5t-91.5 -29t-105 4q30 34 30 74q0 12 -3.5 22.5t-11 19t-19.5 13.5t-27 7q-25 0 -42 -10t-27 -28q-6 8 -13 16t-16 13.5t-20 8t-23 0.5q-16 -2 -26 -10t-15 -17t-7 -18.5t-2 -16.5q0 -23 6 -40q6 -18 17 -30h-78q-6 3 -13.5 10.5t-15.5 21.5t-13 34t-5 47z" />
<glyph unicode="&#xf70d;" d="M-342 1126v80h110v107h118v-107h112v-80h-112v-106h-118v106h-110z" />
<glyph unicode="&#xf70e;" d="M-242 1087q0 24 8 46.5t24 42.5t45 35t71 25t102 11v-55q-50 -8 -78 -26t-40 -40t-11 -44q1 -24 7 -42h-124q-4 23 -4 47z" />
<glyph unicode="&#xf70f;" horiz-adv-x="1306" d="M102 704v56q22 18 58 37t81 35t97 26t104 10q60 0 112 -12t90 -39.5t59.5 -71t21.5 -104.5v-383q0 -44 10.5 -80t32.5 -62.5t55.5 -41t79.5 -14.5q40 0 70.5 15t50.5 41t30.5 62.5t10.5 79.5v592h131v-580q0 -38 -5 -75t-17.5 -69t-34 -59.5t-54 -47t-77.5 -30.5 t-105 -11q-64 0 -112 10.5t-81.5 30t-55.5 46.5t-34 59.5t-17 69.5q-5 36 -5 76v342q0 38 -8 70t-28 55t-53 36t-83 13q-48 0 -84 -14t-59 -38t-34 -56t-11 -68v-532h98v-78h-230v496q0 33 2.5 58.5t9 47.5t19.5 43t35 43q-4 2 -10 4t-10 4q-11 4 -23.5 6t-26.5 2z" />
<glyph unicode="&#xf710;" d="M-652 1136l105 72q19 -36 67 -55t114 -19l372 2v-86l-454 -6q-26 0 -56 5.5t-59 16.5t-53 28q-24 18 -36 42z" />
<glyph unicode="&#xf711;" d="M-662 1136q0 33 15 60t39 46.5t55 29.5t63 10q33 0 64 -10t54.5 -29.5t37.5 -46.5t14 -60t-13.5 -60.5t-37 -47t-53.5 -30.5q-32 -11 -66 -11q-36 0 -67 11t-54.5 30.5t-37 47.5t-13.5 60zM-574 1136q0 -16 7 -29t18 -22.5t27 -14.5q14 -5 32 -5t33 5t26 14.5t17 22.5 t6 29q0 31 -22 50.5t-60 19.5q-18 0 -33 -5t-26 -14t-18 -22t-7 -29z" />
<glyph unicode="&#xf712;" d="M-856 1166q0 30 9 56t26 46t41.5 31t54.5 11h401v-63h-340q-18 0 -32.5 -5t-25.5 -15.5t-17.5 -25.5t-6.5 -35q0 -22 5 -37t12 -25t15 -15t16 -7l116 63l78 -45q17 -11 34 -14q16 -2 30 2q17 4 29.5 16t17.5 39l77 -31q0 -20 -7 -39t-20.5 -34t-33 -23t-43.5 -8 q-8 0 -19.5 1t-23.5 3.5t-23.5 6t-19.5 9.5l-78 49l-80 -49q-11 -4 -26 -11t-29 -7q-32 0 -57 12.5t-43 34t-27.5 49.5t-9.5 60z" />
<glyph unicode="&#xf713;" d="M-467 1358v186h131v-186h-131z" />
<glyph unicode="&#xf714;" d="M-570 1508l30 81q29 7 54.5 5t45.5 -11t33.5 -25t18.5 -36.5t0.5 -45t-20.5 -50.5q20 0 48 4t58 11.5t62 18t61 24.5t54 29t43 33v-98q-40 -27 -93 -46.5t-113 -31.5t-124 -15t-128 3v18q17 13 25.5 33t6.5 39.5t-17 36.5t-45 23z" />
<glyph unicode="&#xf715;" d="M-612 1458q0 21 7 38.5t19.5 30.5t30 21t39.5 10q30 2 47 -4.5t29 -17.5q6 -6 12 -14q6 -6 10 -14q4 8 8 14t12 12q11 11 31 18q19 8 49 6q22 0 42 -12t31.5 -32t13 -47t-12.5 -56q22 8 37 18t23.5 24.5t12 36.5t3.5 54l76 -30q-6 -46 -26 -80t-52 -54t-73 -26t-87 2 q14 16 20.5 32t6.5 34q0 9 -3.5 18t-10.5 16.5t-17 12.5t-22 5q-23 0 -38.5 -9t-23.5 -23q-4 6 -9.5 13t-13 12t-17.5 7t-21 0q-14 -2 -22.5 -8t-13.5 -14t-6 -16t-1 -14q0 -20 5 -36t13 -26h-68q-4 3 -10.5 9.5t-13 18.5t-11.5 29t-5 41z" />
<glyph unicode="&#xf716;" d="M-574 1432v76h111v84h121v-84h112v-76h-112v-82h-121v82h-111z" />
<glyph unicode="&#xf717;" d="M-459 1231q0 28 2.5 54.5t11 49.5t25 42t43.5 32t67 21t97 8v-56q-42 0 -67.5 -14t-38.5 -35.5t-16 -48.5t-1 -53h-123z" />
<glyph unicode="&#xf718;" d="M-320 -461l27 84h109q36 0 55 -23.5t19 -62.5v-163h-113v122q0 43 -41 43h-56z" />
<glyph unicode="&#xf719;" d="M-584 -454l35 79h99q18 0 30 -6.5t20 -17.5t11.5 -27t3.5 -35v-57q0 -24 19.5 -39t56.5 -15q75 0 75 66v131h124v-133q0 -40 -12 -67t-37 -42t-63 -21.5t-90 -6.5q-48 0 -82 9t-55 23.5t-31 32.5t-10 35v43q0 48 -40 48h-54z" />
<glyph unicode="&#xf71a;" d="M-254 -456q0 36 21 56.5t57 20.5t57 -20.5t21 -56.5t-21 -57t-57 -21t-57 21t-21 57z" />
<glyph unicode="&#xf71d;" horiz-adv-x="1003" d="M112 209v641h130v-678q0 -21 5 -40.5t17 -34.5t31 -24t47 -9t46.5 13t30 33t16.5 41t5 37v476h121v-478q0 -16 6 -37t19 -40t33 -32q21 -13 49 -13q26 0 44 7.5t29.5 21.5t17 33.5t5.5 43.5v438q0 35 -11 60.5t-26.5 42t-32.5 25.5q-16 10 -28 14v14q13 2 29.5 11t32 25 t26 38.5t10.5 52.5v43h131v-45q0 -27 -11.5 -49t-28.5 -39.5t-39 -30t-44 -18.5q22 -6 44 -19t39 -33t28.5 -46t11.5 -56v-389q0 -52 -11.5 -94.5t-35.5 -73t-61 -47t-87 -16.5q-24 0 -54.5 7.5t-60 24t-52.5 42.5t-31 64q-11 -38 -30.5 -64t-44.5 -42.5t-52 -24t-53 -7.5 q-56 0 -95.5 16t-65 47t-37.5 73t-12 95z" />
<glyph unicode="&#xf881;" horiz-adv-x="1288" d="M102 710v56q14 12 37.5 24.5t53 24.5t63.5 22.5t70 19t73 13t72 4.5q39 0 75.5 -4t69 -14.5t59.5 -27t48 -40.5q19 16 44 31t55 27.5t64 20t70 7.5q54 0 95 -14t68 -37.5t41 -53.5q14 -31 14 -61v-972h-132v942q0 32 -8 53.5t-24 35t-40 19.5q-22 6 -54 6q-24 0 -46.5 -5 t-42.5 -14t-37 -21t-30 -23q8 -17 11 -38t3 -44v-913h-127v884q0 38 -11.5 70t-35 55t-60 36t-86.5 13q-47 0 -86.5 -14t-68.5 -38t-45 -56t-16 -68v-538h98v-78h-230v502q0 33 2.5 58.5t9 48t19.5 43t35 42.5q-4 2 -10 4t-10 4q-11 4 -23.5 6t-26.5 2z" />
<glyph unicode="&#xf882;" horiz-adv-x="1306" d="M30 0v78h95v424q0 33 2.5 58.5t9 48t19.5 43.5q12 20 34 42q-4 2 -10 4t-10 4q-11 4 -23 6t-26 2v56q22 18 62.5 37t91 35t106.5 26q57 10 109 10q39 0 75.5 -4t68.5 -14.5t59 -27t49 -40.5q19 16 43.5 31t54.5 27.5t64 20t71 7.5q54 0 95 -14t68 -37.5t40 -53.5 q14 -31 14 -61v-972h-131v942q0 32 -8 53.5t-24 35t-39.5 19.5t-55.5 6q-24 0 -46 -5t-42 -14t-37.5 -21t-30.5 -23q8 -17 11 -38t3 -44v-913h-126v884q0 38 -12 70t-35 55t-59.5 36t-86.5 13q-47 0 -87 -14t-69 -38t-45 -56t-16 -68v-616h-226z" />
<glyph horiz-adv-x="1179" d="M76 620q-2 28 4 58.5t20 59t36 53.5t50 43.5t62 29t74 10.5q26 0 50 -3t46 -9.5t40 -15t32 -16.5l-27 -72q-30 12 -60.5 16t-58.5 0t-53 -16t-43 -31.5t-28 -45.5q-11 -27 -11 -59q0 -34 16.5 -61t42.5 -47t59 -30.5t64 -10.5q52 0 95.5 17.5t75.5 46.5t49 67t17 80v180 h132v-864h-132v506q-24 -28 -51 -51.5t-59 -41t-71 -27t-85 -9.5q-50 0 -99 17.5t-88.5 49.5t-66.5 76q-26 44 -32 100zM938 0v864h131v-864h-131z" />
<glyph d="M-586 1038q0 52 13 91t34.5 67t48.5 46q28 18 56 28q4 19 11.5 39.5t19 39.5t27 36t35.5 30t44.5 21t54.5 8v-104q-33 0 -53.5 -12.5t-31.5 -34t-15 -50.5t-4 -63q-66 0 -101 -38t-35 -104h-104z" />
<glyph horiz-adv-x="583" d="M-637 1136q0 33 14.5 60t38.5 46.5t55 29.5t64 10t64 -10t54 -29.5t37.5 -46.5t14.5 -60t-13.5 -60.5t-36.5 -47t-54 -30.5t-66 -11q-36 0 -67.5 11t-54.5 30.5t-36.5 47.5t-13.5 60zM-549 1136q0 -16 6.5 -29t17.5 -22.5t27 -14.5t33 -5q18 0 32.5 5t25.5 14.5 t17.5 22.5t6.5 29q0 31 -22.5 50.5t-59.5 19.5q-18 0 -33.5 -5t-26.5 -14t-17.5 -22t-6.5 -29zM20 784q19 16 44.5 31.5t55.5 28t64 20.5t72 8q54 0 95 -14t68 -37.5t41 -53.5q13 -31 13 -61v-706h-131v676q0 32 -8 53.5t-24 35t-40 19.5t-55 6q-24 0 -46.5 -6t-41.5 -15 t-34 -18.5t-23 -15.5z" />
<glyph horiz-adv-x="583" d="M-637 1136q0 33 14.5 60t38.5 46.5t55 29.5t64 10t64 -10t54 -29.5t37.5 -46.5t14.5 -60t-13.5 -60.5t-36.5 -47t-54 -30.5t-66 -11q-36 0 -67.5 11t-54.5 30.5t-36.5 47.5t-13.5 60zM-549 1136q0 -16 6.5 -29t17.5 -22.5t27 -14.5t33 -5q18 0 32.5 5t25.5 14.5 t17.5 22.5t6.5 29q0 31 -22.5 50.5t-59.5 19.5q-18 0 -33.5 -5t-26.5 -14t-17.5 -22t-6.5 -29zM20 784q19 16 44.5 31.5t55.5 28t64 20.5t72 8q54 0 95 -14t68 -37.5t41 -53.5q13 -31 13 -61v-706h-131v676q0 32 -8 53.5t-24 35t-40 19.5t-55 6q-24 0 -46.5 -6t-41.5 -15 t-34 -18.5t-23 -15.5z" />
<glyph d="M-527 1358v186h131v-186h-131z" />
<glyph d="M-634 1432v76h111v84h121v-84h112v-76h-112v-82h-121v82h-111z" />
</font>
</defs>
</svg>
